  0
SECTION
  2
HEADER
  9
$ACADVER
  1
AC1024
  9
$ACADMAINTVER
 70
     6
  9
$DWGCODEPAGE
  3
ANSI_1252
  9
$LASTSAVEDBY
  1
C.Meyer
  9
$INSBASE
 10
0.0
 20
0.0
 30
0.0
  9
$EXTMIN
 10
-1364.212235343916
 20
-215.148945965529
 30
0.0
  9
$EXTMAX
 10
-112.493953544267
 20
279.640867844987
 30
0.0
  9
$LIMMIN
 10
0.0
 20
0.0
  9
$LIMMAX
 10
420.0
 20
297.0
  9
$ORTHOMODE
 70
     0
  9
$REGENMODE
 70
     1
  9
$FILLMODE
 70
     1
  9
$QTEXTMODE
 70
     0
  9
$MIRRTEXT
 70
     1
  9
$LTSCALE
 40
5.0
  9
$ATTMODE
 70
     1
  9
$TEXTSIZE
 40
2.5
  9
$TRACEWID
 40
1.0
  9
$TEXTSTYLE
  7
Standard
  9
$CLAYER
  8
0
  9
$CELTYPE
  6
ByLayer
  9
$CECOLOR
 62
   256
  9
$CELTSCALE
 40
1.0
  9
$DISPSILH
 70
     0
  9
$DIMSCALE
 40
1.0
  9
$DIMASZ
 40
2.5
  9
$DIMEXO
 40
0.625
  9
$DIMDLI
 40
3.75
  9
$DIMRND
 40
0.0
  9
$DIMDLE
 40
0.0
  9
$DIMEXE
 40
1.25
  9
$DIMTP
 40
0.0
  9
$DIMTM
 40
0.0
  9
$DIMTXT
 40
2.5
  9
$DIMCEN
 40
2.5
  9
$DIMTSZ
 40
0.0
  9
$DIMTOL
 70
     0
  9
$DIMLIM
 70
     0
  9
$DIMTIH
 70
     0
  9
$DIMTOH
 70
     0
  9
$DIMSE1
 70
     0
  9
$DIMSE2
 70
     0
  9
$DIMTAD
 70
     1
  9
$DIMZIN
 70
     8
  9
$DIMBLK
  1

  9
$DIMASO
 70
     1
  9
$DIMSHO
 70
     1
  9
$DIMPOST
  1

  9
$DIMAPOST
  1

  9
$DIMALT
 70
     0
  9
$DIMALTD
 70
     3
  9
$DIMALTF
 40
0.03937007874
  9
$DIMLFAC
 40
1.0
  9
$DIMTOFL
 70
     1
  9
$DIMTVP
 40
0.0
  9
$DIMTIX
 70
     0
  9
$DIMSOXD
 70
     0
  9
$DIMSAH
 70
     0
  9
$DIMBLK1
  1

  9
$DIMBLK2
  1

  9
$DIMSTYLE
  2
ISO-25
  9
$DIMCLRD
 70
     0
  9
$DIMCLRE
 70
     0
  9
$DIMCLRT
 70
     0
  9
$DIMTFAC
 40
1.0
  9
$DIMGAP
 40
0.625
  9
$DIMJUST
 70
     0
  9
$DIMSD1
 70
     0
  9
$DIMSD2
 70
     0
  9
$DIMTOLJ
 70
     0
  9
$DIMTZIN
 70
     8
  9
$DIMALTZ
 70
     0
  9
$DIMALTTZ
 70
     0
  9
$DIMUPT
 70
     0
  9
$DIMDEC
 70
     2
  9
$DIMTDEC
 70
     2
  9
$DIMALTU
 70
     2
  9
$DIMALTTD
 70
     3
  9
$DIMTXSTY
  7
Standard
  9
$DIMAUNIT
 70
     0
  9
$DIMADEC
 70
     0
  9
$DIMALTRND
 40
0.0
  9
$DIMAZIN
 70
     0
  9
$DIMDSEP
 70
    44
  9
$DIMATFIT
 70
     3
  9
$DIMFRAC
 70
     0
  9
$DIMLDRBLK
  1

  9
$DIMLUNIT
 70
     2
  9
$DIMLWD
 70
    -2
  9
$DIMLWE
 70
    -2
  9
$DIMTMOVE
 70
     0
  9
$DIMFXL
 40
1.0
  9
$DIMFXLON
 70
     0
  9
$DIMJOGANG
 40
0.785398163397
  9
$DIMTFILL
 70
     0
  9
$DIMTFILLCLR
 70
     0
  9
$DIMARCSYM
 70
     0
  9
$DIMLTYPE
  6

  9
$DIMLTEX1
  6

  9
$DIMLTEX2
  6

  9
$DIMTXTDIRECTION
 70
     0
  9
$LUNITS
 70
     2
  9
$LUPREC
 70
     4
  9
$SKETCHINC
 40
1.0
  9
$FILLETRAD
 40
10.0
  9
$AUNITS
 70
     0
  9
$AUPREC
 70
     0
  9
$MENU
  1
.
  9
$ELEVATION
 40
0.0
  9
$PELEVATION
 40
0.0
  9
$THICKNESS
 40
0.0
  9
$LIMCHECK
 70
     0
  9
$CHAMFERA
 40
0.0
  9
$CHAMFERB
 40
0.0
  9
$CHAMFERC
 40
0.0
  9
$CHAMFERD
 40
0.0
  9
$SKPOLY
 70
     0
  9
$TDCREATE
 40
2458583.462320521
  9
$TDUCREATE
 40
2458583.378987188
  9
$TDUPDATE
 40
2458583.462321065
  9
$TDUUPDATE
 40
2458583.378987731
  9
$TDINDWG
 40
0.0000000116
  9
$TDUSRTIMER
 40
0.0000000116
  9
$USRTIMER
 70
     1
  9
$ANGBASE
 50
0.0
  9
$ANGDIR
 70
     0
  9
$PDMODE
 70
     2
  9
$PDSIZE
 40
1.0
  9
$PLINEWID
 40
0.0
  9
$SPLFRAME
 70
     0
  9
$SPLINETYPE
 70
     6
  9
$SPLINESEGS
 70
     8
  9
$HANDSEED
  5
2D7
  9
$SURFTAB1
 70
     6
  9
$SURFTAB2
 70
     6
  9
$SURFTYPE
 70
     6
  9
$SURFU
 70
     6
  9
$SURFV
 70
     6
  9
$UCSBASE
  2

  9
$UCSNAME
  2

  9
$UCSORG
 10
0.0
 20
0.0
 30
0.0
  9
$UCSXDIR
 10
1.0
 20
0.0
 30
0.0
  9
$UCSYDIR
 10
0.0
 20
1.0
 30
0.0
  9
$UCSORTHOREF
  2

  9
$UCSORTHOVIEW
 70
     0
  9
$UCSORGTOP
 10
0.0
 20
0.0
 30
0.0
  9
$UCSORGBOTTOM
 10
0.0
 20
0.0
 30
0.0
  9
$UCSORGLEFT
 10
0.0
 20
0.0
 30
0.0
  9
$UCSORGRIGHT
 10
0.0
 20
0.0
 30
0.0
  9
$UCSORGFRONT
 10
0.0
 20
0.0
 30
0.0
  9
$UCSORGBACK
 10
0.0
 20
0.0
 30
0.0
  9
$PUCSBASE
  2

  9
$PUCSNAME
  2

  9
$PUCSORG
 10
0.0
 20
0.0
 30
0.0
  9
$PUCSXDIR
 10
1.0
 20
0.0
 30
0.0
  9
$PUCSYDIR
 10
0.0
 20
1.0
 30
0.0
  9
$PUCSORTHOREF
  2

  9
$PUCSORTHOVIEW
 70
     0
  9
$PUCSORGTOP
 10
0.0
 20
0.0
 30
0.0
  9
$PUCSORGBOTTOM
 10
0.0
 20
0.0
 30
0.0
  9
$PUCSORGLEFT
 10
0.0
 20
0.0
 30
0.0
  9
$PUCSORGRIGHT
 10
0.0
 20
0.0
 30
0.0
  9
$PUCSORGFRONT
 10
0.0
 20
0.0
 30
0.0
  9
$PUCSORGBACK
 10
0.0
 20
0.0
 30
0.0
  9
$USERI1
 70
     0
  9
$USERI2
 70
     0
  9
$USERI3
 70
     0
  9
$USERI4
 70
     0
  9
$USERI5
 70
     0
  9
$USERR1
 40
0.0
  9
$USERR2
 40
0.0
  9
$USERR3
 40
0.0
  9
$USERR4
 40
0.0
  9
$USERR5
 40
0.0
  9
$WORLDVIEW
 70
     1
  9
$SHADEDGE
 70
     3
  9
$SHADEDIF
 70
    70
  9
$TILEMODE
 70
     1
  9
$MAXACTVP
 70
    64
  9
$PINSBASE
 10
0.0
 20
0.0
 30
0.0
  9
$PLIMCHECK
 70
     0
  9
$PEXTMIN
 10
1.000000000000E+20
 20
1.000000000000E+20
 30
1.000000000000E+20
  9
$PEXTMAX
 10
-1.000000000000E+20
 20
-1.000000000000E+20
 30
-1.000000000000E+20
  9
$PLIMMIN
 10
0.0
 20
0.0
  9
$PLIMMAX
 10
420.0
 20
297.0
  9
$UNITMODE
 70
     0
  9
$VISRETAIN
 70
     1
  9
$PLINEGEN
 70
     0
  9
$PSLTSCALE
 70
     1
  9
$TREEDEPTH
 70
  3020
  9
$CMLSTYLE
  2
Standard
  9
$CMLJUST
 70
     0
  9
$CMLSCALE
 40
20.0
  9
$PROXYGRAPHICS
 70
     1
  9
$MEASUREMENT
 70
     1
  9
$CELWEIGHT
370
    -1
  9
$ENDCAPS
280
     0
  9
$JOINSTYLE
280
     0
  9
$LWDISPLAY
290
     0
  9
$INSUNITS
 70
     4
  9
$HYPERLINKBASE
  1

  9
$STYLESHEET
  1

  9
$XEDIT
290
     1
  9
$CEPSNTYPE
380
     0
  9
$PSTYLEMODE
290
     1
  9
$FINGERPRINTGUID
  2
{e70d4689-2dfe-4dcf-a91f-cff2d5f4863d}
  9
$VERSIONGUID
  2
{FAEB1C32-E019-11D5-929B-00C0DF256EC4}
  9
$EXTNAMES
290
     1
  9
$PSVPSCALE
 40
0.0
  9
$OLESTARTUP
290
     0
  9
$SORTENTS
280
   127
  9
$INDEXCTL
280
     0
  9
$HIDETEXT
280
     1
  9
$XCLIPFRAME
280
     2
  9
$HALOGAP
280
     0
  9
$OBSCOLOR
 70
   257
  9
$OBSLTYPE
280
     0
  9
$INTERSECTIONDISPLAY
280
     0
  9
$INTERSECTIONCOLOR
 70
   257
  9
$DIMASSOC
280
     2
  9
$PROJECTNAME
  1

  9
$CAMERADISPLAY
290
     0
  9
$LENSLENGTH
 40
50.0
  9
$CAMERAHEIGHT
 40
0.0
  9
$STEPSPERSEC
 40
2.0
  9
$STEPSIZE
 40
6.0
  9
$3DDWFPREC
 40
2.0
  9
$PSOLWIDTH
 40
5.0
  9
$PSOLHEIGHT
 40
80.0
  9
$LOFTANG1
 40
1.570796326795
  9
$LOFTANG2
 40
1.570796326795
  9
$LOFTMAG1
 40
0.0
  9
$LOFTMAG2
 40
0.0
  9
$LOFTPARAM
 70
     7
  9
$LOFTNORMALS
280
     1
  9
$LATITUDE
 40
37.795
  9
$LONGITUDE
 40
-122.394
  9
$NORTHDIRECTION
 40
0.0
  9
$TIMEZONE
 70
 -8000
  9
$LIGHTGLYPHDISPLAY
280
     1
  9
$TILEMODELIGHTSYNCH
280
     1
  9
$CMATERIAL
347
44
  9
$SOLIDHIST
280
     0
  9
$SHOWHIST
280
     1
  9
$DWFFRAME
280
     2
  9
$DGNFRAME
280
     2
  9
$REALWORLDSCALE
290
     1
  9
$INTERFERECOLOR
 62
   256
  9
$CSHADOW
280
     0
  9
$SHADOWPLANELOCATION
 40
0.0
  0
ENDSEC
  0
SECTION
  2
CLASSES
  0
CLASS
  1
ACDBDICTIONARYWDFLT
  2
AcDbDictionaryWithDefault
  3
ObjectDBX Classes
 90
        0
 91
        3
280
     0
281
     0
  0
CLASS
  1
VISUALSTYLE
  2
AcDbVisualStyle
  3
ObjectDBX Classes
 90
     4095
 91
        3
280
     0
281
     0
  0
CLASS
  1
MATERIAL
  2
AcDbMaterial
  3
ObjectDBX Classes
 90
     1153
 91
        3
280
     0
281
     0
  0
CLASS
  1
SCALE
  2
AcDbScale
  3
ObjectDBX Classes
 90
     1153
 91
        3
280
     0
281
     0
  0
CLASS
  1
TABLESTYLE
  2
AcDbTableStyle
  3
ObjectDBX Classes
 90
     4095
 91
        3
280
     0
281
     0
  0
CLASS
  1
MLEADERSTYLE
  2
AcDbMLeaderStyle
  3
ACDB_MLEADERSTYLE_CLASS
 90
     4095
 91
        3
280
     0
281
     0
  0
CLASS
  1
SUN
  2
AcDbSun
  3
SCENEOE
 90
     1153
 91
        3
280
     0
281
     0
  0
CLASS
  1
WIPEOUT
  2
AcDbWipeout
  3
WipeOut|AutoCAD Express Tool|expresstools@autodesk.com
 90
      127
 91
        3
280
     0
281
     1
  0
CLASS
  1
DICTIONARYVAR
  2
AcDbDictionaryVar
  3
ObjectDBX Classes
 90
        0
 91
        3
280
     0
281
     0
  0
CLASS
  1
CELLSTYLEMAP
  2
AcDbCellStyleMap
  3
ObjectDBX Classes
 90
     1152
 91
        3
280
     0
281
     0
  0
CLASS
  1
WIPEOUTVARIABLES
  2
AcDbWipeoutVariables
  3
WipeOut|AutoCAD Express Tool|expresstools@autodesk.com
 90
        0
 91
        3
280
     0
281
     0
  0
ENDSEC
  0
SECTION
  2
TABLES
  0
TABLE
  2
VPORT
  5
8
330
0
100
AcDbSymbolTable
 70
     1
  0
VPORT
  5
29
330
8
100
AcDbSymbolTableRecord
100
AcDbViewportTableRecord
  2
*Active
 70
     0
 10
0.0
 20
0.0
 11
1.0
 21
1.0
 12
-738.353094444091
 22
32.245960939729
 13
0.0
 23
0.0
 14
10.0
 24
10.0
 15
10.0
 25
10.0
 16
0.0
 26
0.0
 36
1.0
 17
0.0
 27
0.0
 37
0.0
 40
494.789813810515
 41
2.529798000811
 42
50.0
 43
0.0
 44
0.0
 50
0.0
 51
0.0
 71
     0
 72
   100
 73
     1
 74
     3
 75
     0
 76
     0
 77
     0
 78
     0
281
     0
 65
     1
110
0.0
120
0.0
130
0.0
111
1.0
121
0.0
131
0.0
112
0.0
122
1.0
132
0.0
 79
     0
146
0.0
348
2F
 60
     3
 61
     5
292
     1
282
     1
141
0.0
142
0.0
 63
   250
361
6D
  0
ENDTAB
  0
TABLE
  2
LTYPE
  5
5
330
0
100
AcDbSymbolTable
 70
     2
  0
LTYPE
  5
14
330
5
100
AcDbSymbolTableRecord
100
AcDbLinetypeTableRecord
  2
ByBlock
 70
     0
  3

 72
    65
 73
     0
 40
0.0
  0
LTYPE
  5
15
330
5
100
AcDbSymbolTableRecord
100
AcDbLinetypeTableRecord
  2
ByLayer
 70
     0
  3

 72
    65
 73
     0
 40
0.0
  0
LTYPE
  5
16
330
5
100
AcDbSymbolTableRecord
100
AcDbLinetypeTableRecord
  2
Continuous
 70
     0
  3
Solid line
 72
    65
 73
     0
 40
0.0
  0
LTYPE
  5
6E
330
5
100
AcDbSymbolTableRecord
100
AcDbLinetypeTableRecord
  2
AUSGEZOGEN
 70
     0
  3

 72
    65
 73
     0
 40
0.0
  0
ENDTAB
  0
TABLE
  2
LAYER
  5
2
330
0
100
AcDbSymbolTable
 70
     3
  0
LAYER
  5
10
330
2
100
AcDbSymbolTableRecord
100
AcDbLayerTableRecord
  2
0
 70
     0
 62
     7
  6
Continuous
370
    -3
390
F
347
46
  0
LAYER
  5
72
330
2
100
AcDbSymbolTableRecord
100
AcDbLayerTableRecord
  2
Layer6
 70
     0
 62
    18
420
        0
  6
Continuous
370
    -3
390
F
347
46
  0
LAYER
  5
73
330
2
100
AcDbSymbolTableRecord
100
AcDbLayerTableRecord
  2
Layer9
 70
     0
 62
    18
420
        0
  6
Continuous
370
    -3
390
F
347
46
  0
ENDTAB
  0
TABLE
  2
STYLE
  5
3
330
0
100
AcDbSymbolTable
 70
     3
  0
STYLE
  5
11
330
3
100
AcDbSymbolTableRecord
100
AcDbTextStyleTableRecord
  2
Standard
 70
     0
 40
0.0
 41
1.0
 50
0.0
 71
     0
 42
2.5
  3
txt
  4

  0
STYLE
  5
6F
330
3
100
AcDbSymbolTableRecord
100
AcDbTextStyleTableRecord
  2
Arial
 70
     0
 40
0.0
 41
1.0
 50
0.0
 71
     0
 42
2.5
  3
arial.ttf
  4

1001
ACAD
1000
Arial
1071
       34
  0
STYLE
  5
70
330
3
100
AcDbSymbolTableRecord
100
AcDbTextStyleTableRecord
  2
Toleranzfont
 70
     0
 40
0.0
 41
1.0
 50
0.0
 71
     0
 42
2.5
  3
IGES1003.SHX
  4

  0
ENDTAB
  0
TABLE
  2
VIEW
  5
6
330
0
100
AcDbSymbolTable
 70
     0
  0
ENDTAB
  0
TABLE
  2
UCS
  5
7
330
0
100
AcDbSymbolTable
 70
     0
  0
ENDTAB
  0
TABLE
  2
APPID
  5
9
330
0
100
AcDbSymbolTable
 70
     1
  0
APPID
  5
12
330
9
100
AcDbSymbolTableRecord
100
AcDbRegAppTableRecord
  2
ACAD
 70
     0
  0
ENDTAB
  0
TABLE
  2
DIMSTYLE
  5
A
330
0
100
AcDbSymbolTable
 70
     1
100
AcDbDimStyleTable
  0
DIMSTYLE
105
27
102
{ACAD_REACTORS
330
280
330
28C
330
299
102
}
330
A
100
AcDbSymbolTableRecord
100
AcDbDimStyleTableRecord
  2
ISO-25
 70
     0
 41
2.5
 42
0.625
 43
3.75
 44
1.25
 73
     0
 74
     0
 77
     1
 78
     8
140
2.5
141
2.5
143
0.03937007874
147
0.625
171
     3
172
     1
178
     0
271
     2
272
     2
274
     3
278
    44
283
     0
284
     8
340
11
  0
ENDTAB
  0
TABLE
  2
BLOCK_RECORD
  5
1
330
0
100
AcDbSymbolTable
 70
     7
  0
BLOCK_RECORD
  5
1F
330
1
100
AcDbSymbolTableRecord
100
AcDbBlockTableRecord
  2
*Model_Space
340
22
 70
     0
280
     1
281
     0
  0
BLOCK_RECORD
  5
1B
330
1
100
AcDbSymbolTableRecord
100
AcDbBlockTableRecord
  2
*Paper_Space
340
1E
 70
     0
280
     1
281
     0
  0
BLOCK_RECORD
  5
23
330
1
100
AcDbSymbolTableRecord
100
AcDbBlockTableRecord
  2
*Paper_Space0
340
26
 70
     0
280
     1
281
     0
  0
BLOCK_RECORD
  5
74
330
1
100
AcDbSymbolTableRecord
100
AcDbBlockTableRecord
  2
Draufsicht_nNn00
340
0
102
{BLKREFS
331
172
102
}
 70
     0
280
     1
281
     0
  0
BLOCK_RECORD
  5
173
330
1
100
AcDbSymbolTableRecord
100
AcDbBlockTableRecord
  2
Draufsicht-SL_nNn01
340
0
102
{BLKREFS
331
1CE
102
}
 70
     0
280
     1
281
     0
  0
BLOCK_RECORD
  5
1CF
330
1
100
AcDbSymbolTableRecord
100
AcDbBlockTableRecord
  2
Draufsicht-D_nNn02
340
0
102
{BLKREFS
331
275
102
}
 70
     0
280
     1
281
     0
  0
BLOCK_RECORD
  5
276
330
1
100
AcDbSymbolTableRecord
100
AcDbBlockTableRecord
  2
*D4
340
0
 70
     0
280
     1
281
     0
  0
BLOCK_RECORD
  5
281
330
1
100
AcDbSymbolTableRecord
100
AcDbBlockTableRecord
  2
*D5
340
0
 70
     0
280
     1
281
     0
  0
BLOCK_RECORD
  5
28D
330
1
100
AcDbSymbolTableRecord
100
AcDbBlockTableRecord
  2
*D6
340
0
 70
     0
280
     1
281
     0
  0
ENDTAB
  0
ENDSEC
  0
SECTION
  2
BLOCKS
  0
BLOCK
  5
20
330
1F
100
AcDbEntity
  8
0
100
AcDbBlockBegin
  2
*Model_Space
 70
     0
 10
0.0
 20
0.0
 30
0.0
  3
*Model_Space
  1

  0
ENDBLK
  5
21
330
1F
100
AcDbEntity
  8
0
100
AcDbBlockEnd
  0
BLOCK
  5
1C
330
1B
100
AcDbEntity
 67
     1
  8
0
100
AcDbBlockBegin
  2
*Paper_Space
 70
     0
 10
0.0
 20
0.0
 30
0.0
  3
*Paper_Space
  1

  0
ENDBLK
  5
1D
330
1B
100
AcDbEntity
 67
     1
  8
0
100
AcDbBlockEnd
  0
BLOCK
  5
24
330
23
100
AcDbEntity
  8
0
100
AcDbBlockBegin
  2
*Paper_Space0
 70
     0
 10
0.0
 20
0.0
 30
0.0
  3
*Paper_Space0
  1

  0
ENDBLK
  5
25
330
23
100
AcDbEntity
  8
0
100
AcDbBlockEnd
  0
BLOCK
  5
75
330
74
100
AcDbEntity
  8
0
100
AcDbBlockBegin
  2
Draufsicht_nNn00
 70
     0
 10
0.0
 20
0.0
 30
0.0
  3
Draufsicht_nNn00
  1

  0
LINE
  5
77
330
74
100
AcDbEntity
  8
Layer9
  6
AUSGEZOGEN
 62
    18
420
        0
370
    18
100
AcDbLine
 10
-1123.75
 20
183.790688942243
 30
0.0
 11
-608.25
 21
183.790688942243
 31
0.0
  0
LINE
  5
78
330
74
100
AcDbEntity
  8
Layer9
  6
AUSGEZOGEN
 62
    18
420
        0
370
    18
100
AcDbLine
 10
-608.25
 20
186.790688942243
 30
0.0
 11
-1123.75
 21
186.790688942243
 31
0.0
  0
LINE
  5
79
330
74
100
AcDbEntity
  8
Layer9
  6
AUSGEZOGEN
 62
    18
420
        0
370
    18
100
AcDbLine
 10
-1122.75
 20
166.790688942243
 30
0.0
 11
-609.25
 21
166.790688942243
 31
0.0
  0
LINE
  5
7A
330
74
100
AcDbEntity
  8
Layer9
  6
AUSGEZOGEN
 62
    18
420
        0
370
    18
100
AcDbLine
 10
-1123.75
 20
183.790688942243
 30
0.0
 11
-1123.75
 21
167.790688942243
 31
0.0
  0
LINE
  5
7B
330
74
100
AcDbEntity
  8
Layer9
  6
AUSGEZOGEN
 62
    18
420
        0
370
    18
100
AcDbLine
 10
-608.25
 20
167.790688942243
 30
0.0
 11
-608.25
 21
183.790688942243
 31
0.0
  0
LINE
  5
7C
330
74
100
AcDbEntity
  8
Layer9
  6
AUSGEZOGEN
 62
    18
420
        0
370
    18
100
AcDbLine
 10
-1123.75
 20
183.790688942243
 30
0.0
 11
-1123.75
 21
186.790688942243
 31
0.0
  0
LINE
  5
7D
330
74
100
AcDbEntity
  8
Layer9
  6
AUSGEZOGEN
 62
    18
420
        0
370
    18
100
AcDbLine
 10
-608.25
 20
183.790688942243
 30
0.0
 11
-608.25
 21
186.790688942243
 31
0.0
  0
ARC
  5
7E
330
74
100
AcDbEntity
  8
Layer9
  6
AUSGEZOGEN
 62
    18
420
        0
370
    18
100
AcDbCircle
 10
-609.25
 20
167.790688942243
 30
0.0
 40
1.0
100
AcDbArc
 50
270.0
 51
0.0
  0
ARC
  5
7F
330
74
100
AcDbEntity
  8
Layer9
  6
AUSGEZOGEN
 62
    18
420
        0
370
    18
100
AcDbCircle
 10
-1122.75
 20
167.790688942243
 30
0.0
 40
1.0
100
AcDbArc
 50
180.0
 51
270.0
  0
LINE
  5
80
330
74
100
AcDbEntity
  8
Layer9
  6
AUSGEZOGEN
 62
    18
420
        0
370
    18
100
AcDbLine
 10
-590.0
 20
148.790688942243
 30
0.0
 11
-590.0
 21
146.790688942243
 31
0.0
  0
LINE
  5
81
330
74
100
AcDbEntity
  8
Layer9
  6
AUSGEZOGEN
 62
    18
420
        0
370
    18
100
AcDbLine
 10
-589.0
 20
145.790688942243
 30
0.0
 11
-587.0
 21
145.790688942243
 31
0.0
  0
LINE
  5
82
330
74
100
AcDbEntity
  8
Layer9
  6
AUSGEZOGEN
 62
    18
420
        0
370
    18
100
AcDbLine
 10
-587.0
 20
129.790688942243
 30
0.0
 11
-587.0
 21
145.790688942243
 31
0.0
  0
LINE
  5
83
330
74
100
AcDbEntity
  8
Layer9
  6
AUSGEZOGEN
 62
    18
420
        0
370
    18
100
AcDbLine
 10
-589.0
 20
129.790688942243
 30
0.0
 11
-587.0
 21
129.790688942243
 31
0.0
  0
LINE
  5
84
330
74
100
AcDbEntity
  8
Layer9
  6
AUSGEZOGEN
 62
    18
420
        0
370
    18
100
AcDbLine
 10
-589.0
 20
145.790688942243
 30
0.0
 11
-589.0
 21
129.790688942243
 31
0.0
  0
LINE
  5
85
330
74
100
AcDbEntity
  8
Layer9
  6
AUSGEZOGEN
 62
    18
420
        0
370
    18
100
AcDbLine
 10
-589.0
 20
126.790688942243
 30
0.0
 11
-587.0
 21
126.790688942243
 31
0.0
  0
LINE
  5
86
330
74
100
AcDbEntity
  8
Layer9
  6
AUSGEZOGEN
 62
    18
420
        0
370
    18
100
AcDbLine
 10
-605.0
 20
146.790688942243
 30
0.0
 11
-590.0
 21
146.790688942243
 31
0.0
  0
LINE
  5
87
330
74
100
AcDbEntity
  8
Layer9
  6
AUSGEZOGEN
 62
    18
420
        0
370
    18
100
AcDbLine
 10
-590.0
 20
148.790688942243
 30
0.0
 11
-605.0
 21
148.790688942243
 31
0.0
  0
LINE
  5
88
330
74
100
AcDbEntity
  8
Layer9
  6
AUSGEZOGEN
 62
    18
420
        0
370
    18
100
AcDbLine
 10
-605.0
 20
148.790688942243
 30
0.0
 11
-605.0
 21
146.790688942243
 31
0.0
  0
LINE
  5
89
330
74
100
AcDbEntity
  8
Layer9
  6
AUSGEZOGEN
 62
    18
420
        0
370
    18
100
AcDbLine
 10
-606.0
 20
149.790688942243
 30
0.0
 11
-608.0
 21
149.790688942243
 31
0.0
  0
LINE
  5
8A
330
74
100
AcDbEntity
  8
Layer9
  6
AUSGEZOGEN
 62
    18
420
        0
370
    18
100
AcDbLine
 10
-608.0
 20
190.000000000003
 30
0.0
 11
-608.0
 21
149.790688942243
 31
0.0
  0
LINE
  5
8B
330
74
100
AcDbEntity
  8
Layer9
  6
AUSGEZOGEN
 62
    18
420
        0
370
    18
100
AcDbLine
 10
-606.0
 20
149.790688942243
 30
0.0
 11
-606.0
 21
190.000000000003
 31
0.0
  0
LINE
  5
8C
330
74
100
AcDbEntity
  8
Layer9
  6
AUSGEZOGEN
 62
    18
420
        0
370
    18
100
AcDbLine
 10
-606.0
 20
190.000000000003
 30
0.0
 11
-608.0
 21
190.000000000003
 31
0.0
  0
LINE
  5
8D
330
74
100
AcDbEntity
  8
Layer9
  6
AUSGEZOGEN
 62
    18
420
        0
370
    18
100
AcDbLine
 10
-606.0
 20
191.790688942243
 30
0.0
 11
-608.0
 21
191.790688942243
 31
0.0
  0
ARC
  5
8E
330
74
100
AcDbEntity
  8
Layer9
  6
AUSGEZOGEN
 62
    18
420
        0
370
    18
100
AcDbCircle
 10
-590.0
 20
145.790688942243
 30
0.0
 40
3.0
100
AcDbArc
 50
0.0
 51
90.0
  0
ARC
  5
8F
330
74
100
AcDbEntity
  8
Layer9
  6
AUSGEZOGEN
 62
    18
420
        0
370
    18
100
AcDbCircle
 10
-590.0
 20
145.790688942243
 30
0.0
 40
1.0
100
AcDbArc
 50
0.0
 51
90.0
  0
LINE
  5
90
330
74
100
AcDbEntity
  8
Layer9
  6
AUSGEZOGEN
 62
    18
420
        0
370
    18
100
AcDbLine
 10
-587.0
 20
129.790688942243
 30
0.0
 11
-587.0
 21
126.790688942243
 31
0.0
  0
LINE
  5
91
330
74
100
AcDbEntity
  8
Layer9
  6
AUSGEZOGEN
 62
    18
420
        0
370
    18
100
AcDbLine
 10
-589.0
 20
129.790688942243
 30
0.0
 11
-589.0
 21
126.790688942243
 31
0.0
  0
ARC
  5
92
330
74
100
AcDbEntity
  8
Layer9
  6
AUSGEZOGEN
 62
    18
420
        0
370
    18
100
AcDbCircle
 10
-605.0
 20
149.790688942243
 30
0.0
 40
1.0
100
AcDbArc
 50
180.0
 51
270.0
  0
ARC
  5
93
330
74
100
AcDbEntity
  8
Layer9
  6
AUSGEZOGEN
 62
    18
420
        0
370
    18
100
AcDbCircle
 10
-605.0
 20
149.790688942243
 30
0.0
 40
3.0
100
AcDbArc
 50
180.0
 51
270.0
  0
LINE
  5
94
330
74
100
AcDbEntity
  8
Layer9
  6
AUSGEZOGEN
 62
    18
420
        0
370
    18
100
AcDbLine
 10
-608.0
 20
190.000000000003
 30
0.0
 11
-608.0
 21
191.790688942243
 31
0.0
  0
LINE
  5
95
330
74
100
AcDbEntity
  8
Layer9
  6
AUSGEZOGEN
 62
    18
420
        0
370
    18
100
AcDbLine
 10
-606.0
 20
190.000000000003
 30
0.0
 11
-606.0
 21
191.790688942243
 31
0.0
  0
LINE
  5
96
330
74
100
AcDbEntity
  8
Layer9
  6
AUSGEZOGEN
 62
    18
420
        0
370
    18
100
AcDbLine
 10
-1127.0
 20
146.790688942243
 30
0.0
 11
-1127.0
 21
148.790688942243
 31
0.0
  0
LINE
  5
97
330
74
100
AcDbEntity
  8
Layer9
  6
AUSGEZOGEN
 62
    18
420
        0
370
    18
100
AcDbLine
 10
-1142.0
 20
146.790688942243
 30
0.0
 11
-1127.0
 21
146.790688942243
 31
0.0
  0
LINE
  5
98
330
74
100
AcDbEntity
  8
Layer9
  6
AUSGEZOGEN
 62
    18
420
        0
370
    18
100
AcDbLine
 10
-1127.0
 20
148.790688942243
 30
0.0
 11
-1142.0
 21
148.790688942243
 31
0.0
  0
LINE
  5
99
330
74
100
AcDbEntity
  8
Layer9
  6
AUSGEZOGEN
 62
    18
420
        0
370
    18
100
AcDbLine
 10
-1142.0
 20
148.790688942243
 30
0.0
 11
-1142.0
 21
146.790688942243
 31
0.0
  0
LINE
  5
9A
330
74
100
AcDbEntity
  8
Layer9
  6
AUSGEZOGEN
 62
    18
420
        0
370
    18
100
AcDbLine
 10
-1145.0
 20
145.790688942243
 30
0.0
 11
-1143.0
 21
145.790688942243
 31
0.0
  0
LINE
  5
9B
330
74
100
AcDbEntity
  8
Layer9
  6
AUSGEZOGEN
 62
    18
420
        0
370
    18
100
AcDbLine
 10
-1145.0
 20
126.790688942243
 30
0.0
 11
-1143.0
 21
126.790688942243
 31
0.0
  0
LINE
  5
9C
330
74
100
AcDbEntity
  8
Layer9
  6
AUSGEZOGEN
 62
    18
420
        0
370
    18
100
AcDbLine
 10
-1143.0
 20
129.790688942243
 30
0.0
 11
-1145.0
 21
129.790688942243
 31
0.0
  0
LINE
  5
9D
330
74
100
AcDbEntity
  8
Layer9
  6
AUSGEZOGEN
 62
    18
420
        0
370
    18
100
AcDbLine
 10
-1143.0
 20
129.790688942243
 30
0.0
 11
-1143.0
 21
145.790688942243
 31
0.0
  0
LINE
  5
9E
330
74
100
AcDbEntity
  8
Layer9
  6
AUSGEZOGEN
 62
    18
420
        0
370
    18
100
AcDbLine
 10
-1145.0
 20
145.790688942243
 30
0.0
 11
-1145.0
 21
129.790688942243
 31
0.0
  0
LINE
  5
9F
330
74
100
AcDbEntity
  8
Layer9
  6
AUSGEZOGEN
 62
    18
420
        0
370
    18
100
AcDbLine
 10
-1124.0
 20
149.790688942243
 30
0.0
 11
-1126.0
 21
149.790688942243
 31
0.0
  0
LINE
  5
A0
330
74
100
AcDbEntity
  8
Layer9
  6
AUSGEZOGEN
 62
    18
420
        0
370
    18
100
AcDbLine
 10
-1126.0
 20
190.000000000003
 30
0.0
 11
-1126.0
 21
149.790688942243
 31
0.0
  0
LINE
  5
A1
330
74
100
AcDbEntity
  8
Layer9
  6
AUSGEZOGEN
 62
    18
420
        0
370
    18
100
AcDbLine
 10
-1124.0
 20
149.790688942243
 30
0.0
 11
-1124.0
 21
190.000000000003
 31
0.0
  0
LINE
  5
A2
330
74
100
AcDbEntity
  8
Layer9
  6
AUSGEZOGEN
 62
    18
420
        0
370
    18
100
AcDbLine
 10
-1124.0
 20
190.000000000003
 30
0.0
 11
-1126.0
 21
190.000000000003
 31
0.0
  0
LINE
  5
A3
330
74
100
AcDbEntity
  8
Layer9
  6
AUSGEZOGEN
 62
    18
420
        0
370
    18
100
AcDbLine
 10
-1124.0
 20
191.790688942243
 30
0.0
 11
-1126.0
 21
191.790688942243
 31
0.0
  0
ARC
  5
A4
330
74
100
AcDbEntity
  8
Layer9
  6
AUSGEZOGEN
 62
    18
420
        0
370
    18
100
AcDbCircle
 10
-1142.0
 20
145.790688942243
 30
0.0
 40
3.0
100
AcDbArc
 50
90.0
 51
180.0
  0
ARC
  5
A5
330
74
100
AcDbEntity
  8
Layer9
  6
AUSGEZOGEN
 62
    18
420
        0
370
    18
100
AcDbCircle
 10
-1142.0
 20
145.790688942243
 30
0.0
 40
1.0
100
AcDbArc
 50
90.0
 51
180.0
  0
LINE
  5
A6
330
74
100
AcDbEntity
  8
Layer9
  6
AUSGEZOGEN
 62
    18
420
        0
370
    18
100
AcDbLine
 10
-1145.0
 20
129.790688942243
 30
0.0
 11
-1145.0
 21
126.790688942243
 31
0.0
  0
LINE
  5
A7
330
74
100
AcDbEntity
  8
Layer9
  6
AUSGEZOGEN
 62
    18
420
        0
370
    18
100
AcDbLine
 10
-1143.0
 20
129.790688942243
 30
0.0
 11
-1143.0
 21
126.790688942243
 31
0.0
  0
ARC
  5
A8
330
74
100
AcDbEntity
  8
Layer9
  6
AUSGEZOGEN
 62
    18
420
        0
370
    18
100
AcDbCircle
 10
-1127.0
 20
149.790688942243
 30
0.0
 40
3.0
100
AcDbArc
 50
270.0
 51
0.0
  0
ARC
  5
A9
330
74
100
AcDbEntity
  8
Layer9
  6
AUSGEZOGEN
 62
    18
420
        0
370
    18
100
AcDbCircle
 10
-1127.0
 20
149.790688942243
 30
0.0
 40
1.0
100
AcDbArc
 50
270.0
 51
0.0
  0
LINE
  5
AA
330
74
100
AcDbEntity
  8
Layer9
  6
AUSGEZOGEN
 62
    18
420
        0
370
    18
100
AcDbLine
 10
-1126.0
 20
190.000000000003
 30
0.0
 11
-1126.0
 21
191.790688942243
 31
0.0
  0
LINE
  5
AB
330
74
100
AcDbEntity
  8
Layer9
  6
AUSGEZOGEN
 62
    18
420
        0
370
    18
100
AcDbLine
 10
-1124.0
 20
190.000000000003
 30
0.0
 11
-1124.0
 21
191.790688942243
 31
0.0
  0
LINE
  5
AC
330
74
100
AcDbEntity
  8
Layer9
  6
AUSGEZOGEN
 62
    18
420
        0
370
    18
100
AcDbLine
 10
-797.0
 20
166.790688942243
 30
0.0
 11
-797.0
 21
86.790688942243
 31
0.0
  0
LINE
  5
AD
330
74
100
AcDbEntity
  8
Layer9
  6
AUSGEZOGEN
 62
    18
420
        0
370
    18
100
AcDbLine
 10
-778.0
 20
86.790688942243
 30
0.0
 11
-778.0
 21
166.790688942243
 31
0.0
  0
LINE
  5
AE
330
74
100
AcDbEntity
  8
Layer9
  6
AUSGEZOGEN
 62
    18
420
        0
370
    18
100
AcDbLine
 10
-808.0
 20
166.790688942243
 30
0.0
 11
-808.0
 21
86.790688942243
 31
0.0
  0
LINE
  5
AF
330
74
100
AcDbEntity
  8
Layer9
  6
AUSGEZOGEN
 62
    18
420
        0
370
    18
100
AcDbLine
 10
-806.1
 20
86.790688942243
 30
0.0
 11
-806.0
 21
86.790688942243
 31
0.0
  0
LINE
  5
B0
330
74
100
AcDbEntity
  8
Layer9
  6
AUSGEZOGEN
 62
    18
420
        0
370
    18
100
AcDbLine
 10
-806.0
 20
86.790688942243
 30
0.0
 11
-806.0
 21
166.790688942243
 31
0.0
  0
LINE
  5
B1
330
74
100
AcDbEntity
  8
Layer9
  6
AUSGEZOGEN
 62
    18
420
        0
370
    18
100
AcDbLine
 10
-926.0
 20
86.790688942243
 30
0.0
 11
-925.9
 21
86.790688942243
 31
0.0
  0
LINE
  5
B2
330
74
100
AcDbEntity
  8
Layer9
  6
AUSGEZOGEN
 62
    18
420
        0
370
    18
100
AcDbLine
 10
-926.0
 20
166.790688942243
 30
0.0
 11
-926.0
 21
86.790688942243
 31
0.0
  0
LINE
  5
B3
330
74
100
AcDbEntity
  8
Layer9
  6
AUSGEZOGEN
 62
    18
420
        0
370
    18
100
AcDbLine
 10
-924.0
 20
86.790688942243
 30
0.0
 11
-924.0
 21
166.790688942243
 31
0.0
  0
LINE
  5
B4
330
74
100
AcDbEntity
  8
Layer9
  6
AUSGEZOGEN
 62
    18
420
        0
370
    18
100
AcDbLine
 10
-954.0
 20
166.790688942243
 30
0.0
 11
-954.0
 21
86.790688942243
 31
0.0
  0
LINE
  5
B5
330
74
100
AcDbEntity
  8
Layer9
  6
AUSGEZOGEN
 62
    18
420
        0
370
    18
100
AcDbLine
 10
-935.0
 20
86.790688942243
 30
0.0
 11
-935.0
 21
166.790688942243
 31
0.0
  0
LINE
  5
B6
330
74
100
AcDbEntity
  8
Layer9
  6
AUSGEZOGEN
 62
    18
420
        0
370
    18
100
AcDbLine
 10
-781.5
 20
77.790688942243
 30
0.0
 11
-781.5
 21
84.290688942243
 31
0.0
  0
LINE
  5
B7
330
74
100
AcDbEntity
  8
Layer9
  6
AUSGEZOGEN
 62
    18
420
        0
370
    18
100
AcDbLine
 10
-784.33104559199
 20
73.790688942243
 30
0.0
 11
-780.5
 21
73.790688942243
 31
0.0
  0
LINE
  5
B8
330
74
100
AcDbEntity
  8
Layer9
  6
AUSGEZOGEN
 62
    18
420
        0
370
    18
100
AcDbLine
 10
-780.5
 20
77.790688942243
 30
0.0
 11
-781.5
 21
77.790688942243
 31
0.0
  0
LINE
  5
B9
330
74
100
AcDbEntity
  8
Layer9
  6
AUSGEZOGEN
 62
    18
420
        0
370
    18
100
AcDbLine
 10
-797.1
 20
84.290688942243
 30
0.0
 11
-797.1
 21
73.790688942243
 31
0.0
  0
LINE
  5
BA
330
74
100
AcDbEntity
  8
Layer9
  6
AUSGEZOGEN
 62
    18
420
        0
370
    18
100
AcDbLine
 10
-797.1
 20
73.790688942243
 30
0.0
 11
-785.66895440801
 21
73.790688942243
 31
0.0
  0
LINE
  5
BB
330
74
100
AcDbEntity
  8
Layer9
  6
AUSGEZOGEN
 62
    18
420
        0
370
    18
100
AcDbLine
 10
-797.1
 20
84.290688942243
 30
0.0
 11
-775.5
 21
84.290688942243
 31
0.0
  0
LINE
  5
BC
330
74
100
AcDbEntity
  8
Layer9
  6
AUSGEZOGEN
 62
    18
420
        0
370
    18
100
AcDbLine
 10
-797.1
 20
86.790688942243
 30
0.0
 11
-797.1
 21
84.290688942243
 31
0.0
  0
LINE
  5
BD
330
74
100
AcDbEntity
  8
Layer9
  6
AUSGEZOGEN
 62
    18
420
        0
370
    18
100
AcDbLine
 10
-777.9
 20
86.790688942243
 30
0.0
 11
-797.1
 21
86.790688942243
 31
0.0
  0
LINE
  5
BE
330
74
100
AcDbEntity
  8
Layer9
  6
AUSGEZOGEN
 62
    18
420
        0
370
    18
100
AcDbLine
 10
-777.9
 20
104.290688942243
 30
0.0
 11
-777.9
 21
86.790688942243
 31
0.0
  0
LINE
  5
BF
330
74
100
AcDbEntity
  8
Layer9
  6
AUSGEZOGEN
 62
    18
420
        0
370
    18
100
AcDbLine
 10
-775.5
 20
104.290688942243
 30
0.0
 11
-777.9
 21
104.290688942243
 31
0.0
  0
LINE
  5
C0
330
74
100
AcDbEntity
  8
Layer9
  6
AUSGEZOGEN
 62
    18
420
        0
370
    18
100
AcDbLine
 10
-775.5
 20
84.290688942243
 30
0.0
 11
-775.5
 21
104.290688942243
 31
0.0
  0
LINE
  5
C1
330
74
100
AcDbEntity
  8
Layer9
  6
AUSGEZOGEN
 62
    18
420
        0
370
    18
100
AcDbLine
 10
-780.5
 20
77.790688942243
 30
0.0
 11
-780.5
 21
73.790688942243
 31
0.0
  0
LINE
  5
C2
330
74
100
AcDbEntity
  8
Layer9
  6
AUSGEZOGEN
 62
    18
420
        0
370
    18
100
AcDbLine
 10
-775.5
 20
77.790688942243
 30
0.0
 11
-780.5
 21
77.790688942243
 31
0.0
  0
LINE
  5
C3
330
74
100
AcDbEntity
  8
Layer9
  6
AUSGEZOGEN
 62
    18
420
        0
370
    18
100
AcDbLine
 10
-780.5
 20
73.790688942243
 30
0.0
 11
-775.5
 21
73.790688942243
 31
0.0
  0
LINE
  5
C4
330
74
100
AcDbEntity
  8
Layer9
  6
AUSGEZOGEN
 62
    18
420
        0
370
    18
100
AcDbLine
 10
-775.5
 20
73.790688942243
 30
0.0
 11
-775.5
 21
77.790688942243
 31
0.0
  0
LINE
  5
C5
330
74
100
AcDbEntity
  8
Layer9
  6
AUSGEZOGEN
 62
    18
420
        0
370
    18
100
AcDbLine
 10
-798.32735045483
 20
73.790688942243
 30
0.0
 11
-797.1
 21
73.790688942243
 31
0.0
  0
LINE
  5
C6
330
74
100
AcDbEntity
  8
Layer9
  6
AUSGEZOGEN
 62
    18
420
        0
370
    18
100
AcDbLine
 10
-806.1
 20
73.790688942243
 30
0.0
 11
-804.97264954517
 21
73.790688942243
 31
0.0
  0
LINE
  5
C7
330
74
100
AcDbEntity
  8
Layer9
  6
AUSGEZOGEN
 62
    18
420
        0
370
    18
100
AcDbLine
 10
-806.0
 20
86.790688942243
 30
0.0
 11
-797.1
 21
86.790688942243
 31
0.0
  0
LINE
  5
C8
330
74
100
AcDbEntity
  8
Layer9
  6
AUSGEZOGEN
 62
    18
420
        0
370
    18
100
AcDbLine
 10
-925.9
 20
86.790688942243
 30
0.0
 11
-925.9
 21
73.790688942243
 31
0.0
  0
LINE
  5
C9
330
74
100
AcDbEntity
  8
Layer9
  6
AUSGEZOGEN
 62
    18
420
        0
370
    18
100
AcDbLine
 10
-923.85
 20
86.790688942243
 30
0.0
 11
-925.9
 21
86.790688942243
 31
0.0
  0
LINE
  5
CA
330
74
100
AcDbEntity
  8
Layer9
  6
AUSGEZOGEN
 62
    18
420
        0
370
    18
100
AcDbLine
 10
-925.9
 20
73.790688942243
 30
0.0
 11
-923.85
 21
73.790688942243
 31
0.0
  0
LINE
  5
CB
330
74
100
AcDbEntity
  8
Layer9
  6
AUSGEZOGEN
 62
    18
420
        0
370
    18
100
AcDbLine
 10
-923.85
 20
73.790688942243
 30
0.0
 11
-923.85
 21
86.790688942243
 31
0.0
  0
LINE
  5
CC
330
74
100
AcDbEntity
  8
Layer9
  6
AUSGEZOGEN
 62
    18
420
        0
370
    18
100
AcDbLine
 10
-918.85
 20
73.790688942243
 30
0.0
 11
-918.85
 21
76.790688942243
 31
0.0
  0
LINE
  5
CD
330
74
100
AcDbEntity
  8
Layer9
  6
AUSGEZOGEN
 62
    18
420
        0
370
    18
100
AcDbLine
 10
-813.15
 20
76.790688942243
 30
0.0
 11
-813.15
 21
73.790688942243
 31
0.0
  0
LINE
  5
CE
330
74
100
AcDbEntity
  8
Layer9
  6
AUSGEZOGEN
 62
    18
420
        0
370
    18
100
AcDbLine
 10
-814.85
 20
73.790688942243
 30
0.0
 11
-813.15
 21
73.790688942243
 31
0.0
  0
LINE
  5
CF
330
74
100
AcDbEntity
  8
Layer9
  6
AUSGEZOGEN
 62
    18
420
        0
370
    18
100
AcDbLine
 10
-813.15
 20
76.790688942243
 30
0.0
 11
-814.85
 21
76.790688942243
 31
0.0
  0
LINE
  5
D0
330
74
100
AcDbEntity
  8
Layer9
  6
AUSGEZOGEN
 62
    18
420
        0
370
    18
100
AcDbLine
 10
-814.85
 20
76.790688942243
 30
0.0
 11
-814.85
 21
73.790688942243
 31
0.0
  0
LINE
  5
D1
330
74
100
AcDbEntity
  8
Layer9
  6
AUSGEZOGEN
 62
    18
420
        0
370
    18
100
AcDbLine
 10
-819.6415742375
 20
76.790688942243
 30
0.0
 11
-819.6415742375
 21
73.790688942243
 31
0.0
  0
LINE
  5
D2
330
74
100
AcDbEntity
  8
Layer9
  6
AUSGEZOGEN
 62
    18
420
        0
370
    18
100
AcDbLine
 10
-828.266407865
 20
76.790688942243
 30
0.0
 11
-828.266407865
 21
73.790688942243
 31
0.0
  0
LINE
  5
D3
330
74
100
AcDbEntity
  8
Layer9
  6
AUSGEZOGEN
 62
    18
420
        0
370
    18
100
AcDbLine
 10
-903.733592135
 20
73.790688942243
 30
0.0
 11
-828.266407865
 21
73.790688942243
 31
0.0
  0
LINE
  5
D4
330
74
100
AcDbEntity
  8
Layer9
  6
AUSGEZOGEN
 62
    18
420
        0
370
    18
100
AcDbLine
 10
-828.266407865
 20
76.790688942243
 30
0.0
 11
-903.733592135
 21
76.790688942243
 31
0.0
  0
LINE
  5
D5
330
74
100
AcDbEntity
  8
Layer9
  6
AUSGEZOGEN
 62
    18
420
        0
370
    18
100
AcDbLine
 10
-903.733592135
 20
76.790688942243
 30
0.0
 11
-903.733592135
 21
73.790688942243
 31
0.0
  0
LINE
  5
D6
330
74
100
AcDbEntity
  8
Layer9
  6
AUSGEZOGEN
 62
    18
420
        0
370
    18
100
AcDbLine
 10
-912.3584257625
 20
76.790688942243
 30
0.0
 11
-912.3584257625
 21
73.790688942243
 31
0.0
  0
LINE
  5
D7
330
74
100
AcDbEntity
  8
Layer9
  6
AUSGEZOGEN
 62
    18
420
        0
370
    18
100
AcDbLine
 10
-917.15
 20
76.790688942243
 30
0.0
 11
-917.15
 21
73.790688942243
 31
0.0
  0
LINE
  5
D8
330
74
100
AcDbEntity
  8
Layer9
  6
AUSGEZOGEN
 62
    18
420
        0
370
    18
100
AcDbLine
 10
-918.85
 20
73.790688942243
 30
0.0
 11
-917.15
 21
73.790688942243
 31
0.0
  0
LINE
  5
D9
330
74
100
AcDbEntity
  8
Layer9
  6
AUSGEZOGEN
 62
    18
420
        0
370
    18
100
AcDbLine
 10
-917.15
 20
76.790688942243
 30
0.0
 11
-918.85
 21
76.790688942243
 31
0.0
  0
LINE
  5
DA
330
74
100
AcDbEntity
  8
Layer9
  6
AUSGEZOGEN
 62
    18
420
        0
370
    18
100
AcDbLine
 10
-808.15
 20
86.790688942243
 30
0.0
 11
-808.15
 21
73.790688942243
 31
0.0
  0
LINE
  5
DB
330
74
100
AcDbEntity
  8
Layer9
  6
AUSGEZOGEN
 62
    18
420
        0
370
    18
100
AcDbLine
 10
-806.1
 20
86.790688942243
 30
0.0
 11
-808.15
 21
86.790688942243
 31
0.0
  0
LINE
  5
DC
330
74
100
AcDbEntity
  8
Layer9
  6
AUSGEZOGEN
 62
    18
420
        0
370
    18
100
AcDbLine
 10
-808.15
 20
73.790688942243
 30
0.0
 11
-806.1
 21
73.790688942243
 31
0.0
  0
LINE
  5
DD
330
74
100
AcDbEntity
  8
Layer9
  6
AUSGEZOGEN
 62
    18
420
        0
370
    18
100
AcDbLine
 10
-806.1
 20
73.790688942243
 30
0.0
 11
-806.1
 21
86.790688942243
 31
0.0
  0
LINE
  5
DE
330
74
100
AcDbEntity
  8
Layer9
  6
AUSGEZOGEN
 62
    18
420
        0
370
    18
100
AcDbLine
 10
-770.749840090659
 20
104.275005486383
 30
0.0
 11
-771.0
 21
104.290688942243
 31
0.0
  0
LINE
  5
DF
330
74
100
AcDbEntity
  8
Layer9
  6
AUSGEZOGEN
 62
    18
420
        0
370
    18
100
AcDbLine
 10
-770.609819355968
 20
104.252259503049
 30
0.0
 11
-770.749840090659
 21
104.275005486383
 31
0.0
  0
LINE
  5
E0
330
74
100
AcDbEntity
  8
Layer9
  6
AUSGEZOGEN
 62
    18
420
        0
370
    18
100
AcDbLine
 10
-770.496648931174
 20
104.226269138197
 30
0.0
 11
-770.609819355968
 21
104.252259503049
 31
0.0
  0
LINE
  5
E1
330
74
100
AcDbEntity
  8
Layer9
  6
AUSGEZOGEN
 62
    18
420
        0
370
    18
100
AcDbLine
 10
-770.23463313527
 20
104.138448007265
 30
0.0
 11
-770.24503188489
 21
104.142745812386
 31
0.0
  0
LINE
  5
E2
330
74
100
AcDbEntity
  8
Layer9
  6
AUSGEZOGEN
 62
    18
420
        0
370
    18
100
AcDbLine
 10
-769.888859533961
 20
103.953628166848
 30
0.0
 11
-770.001093797872
 21
104.023370793981
 31
0.0
  0
LINE
  5
E3
330
74
100
AcDbEntity
  8
Layer9
  6
AUSGEZOGEN
 62
    18
420
        0
370
    18
100
AcDbLine
 10
-770.001093797872
 20
104.023370793981
 30
0.0
 11
-770.23463313527
 21
104.138448007265
 31
0.0
  0
LINE
  5
E4
330
74
100
AcDbEntity
  8
Layer9
  6
AUSGEZOGEN
 62
    18
420
        0
370
    18
100
AcDbLine
 10
-769.770920733034
 20
103.868437749211
 30
0.0
 11
-769.888859533961
 21
103.953628166848
 31
0.0
  0
LINE
  5
E5
330
74
100
AcDbEntity
  8
Layer9
  6
AUSGEZOGEN
 62
    18
420
        0
370
    18
100
AcDbLine
 10
-769.585786437627
 20
103.704902504616
 30
0.0
 11
-769.770920733034
 21
103.868437749211
 31
0.0
  0
LINE
  5
E6
330
74
100
AcDbEntity
  8
Layer9
  6
AUSGEZOGEN
 62
    18
420
        0
370
    18
100
AcDbLine
 10
-769.564528573456
 20
103.683167170895
 30
0.0
 11
-769.585786437627
 21
103.704902504616
 31
0.0
  0
LINE
  5
E7
330
74
100
AcDbEntity
  8
Layer9
  6
AUSGEZOGEN
 62
    18
420
        0
370
    18
100
AcDbLine
 10
-769.337060775395
 20
103.401829408282
 30
0.0
 11
-769.390351845728
 21
103.477857051853
 31
0.0
  0
LINE
  5
E8
330
74
100
AcDbEntity
  8
Layer9
  6
AUSGEZOGEN
 62
    18
420
        0
370
    18
100
AcDbLine
 10
-769.152240934977
 20
103.056055806973
 30
0.0
 11
-769.25
 21
103.258934778793
 31
0.0
  0
LINE
  5
E9
330
74
100
AcDbEntity
  8
Layer9
  6
AUSGEZOGEN
 62
    18
420
        0
370
    18
100
AcDbLine
 10
-769.25
 20
103.258934778793
 30
0.0
 11
-769.337060775395
 21
103.401829408282
 31
0.0
  0
LINE
  5
EA
330
74
100
AcDbEntity
  8
Layer9
  6
AUSGEZOGEN
 62
    18
420
        0
370
    18
100
AcDbLine
 10
-769.112436744609
 20
102.951828078052
 30
0.0
 11
-769.152240934977
 21
103.056055806973
 31
0.0
  0
LINE
  5
EB
330
74
100
AcDbEntity
  8
Layer9
  6
AUSGEZOGEN
 62
    18
420
        0
370
    18
100
AcDbLine
 10
-769.038429439194
 20
102.680869586275
 30
0.0
 11
-769.112436744609
 21
102.951828078052
 31
0.0
  0
LINE
  5
EC
330
74
100
AcDbEntity
  8
Layer9
  6
AUSGEZOGEN
 62
    18
420
        0
370
    18
100
AcDbLine
 10
-769.028309543719
 20
102.62600483004
 30
0.0
 11
-769.038429439194
 21
102.680869586275
 31
0.0
  0
LINE
  5
ED
330
74
100
AcDbEntity
  8
Layer9
  6
AUSGEZOGEN
 62
    18
420
        0
370
    18
100
AcDbLine
 10
-769.0
 20
102.290688942243
 30
0.0
 11
-769.028309543719
 21
102.62600483004
 31
0.0
  0
LINE
  5
EE
330
74
100
AcDbEntity
  8
Layer9
  6
AUSGEZOGEN
 62
    18
420
        0
370
    18
100
AcDbLine
 10
-771.0
 20
104.290688942243
 30
0.0
 11
-772.3
 21
104.290688942243
 31
0.0
  0
LINE
  5
EF
330
74
100
AcDbEntity
  8
Layer9
  6
AUSGEZOGEN
 62
    18
420
        0
370
    18
100
AcDbLine
 10
-772.3
 20
104.290688942243
 30
0.0
 11
-773.0
 21
101.290688942243
 31
0.0
  0
LINE
  5
F0
330
74
100
AcDbEntity
  8
Layer9
  6
AUSGEZOGEN
 62
    18
420
        0
370
    18
100
AcDbLine
 10
-773.0
 20
101.290688942243
 30
0.0
 11
-773.0
 21
98.790688942243
 31
0.0
  0
LINE
  5
F1
330
74
100
AcDbEntity
  8
Layer9
  6
AUSGEZOGEN
 62
    18
420
        0
370
    18
100
AcDbLine
 10
-773.0
 20
98.790688942243
 30
0.0
 11
-775.5
 21
98.790688942243
 31
0.0
  0
LINE
  5
F2
330
74
100
AcDbEntity
  8
Layer9
  6
AUSGEZOGEN
 62
    18
420
        0
370
    18
100
AcDbLine
 10
-775.5
 20
73.790688942243
 30
0.0
 11
-772.5
 21
73.790688942243
 31
0.0
  0
LINE
  5
F3
330
74
100
AcDbEntity
  8
Layer9
  6
AUSGEZOGEN
 62
    18
420
        0
370
    18
100
AcDbLine
 10
-769.0
 20
98.790688942243
 30
0.0
 11
-769.0
 21
102.290688942243
 31
0.0
  0
LINE
  5
F4
330
74
100
AcDbEntity
  8
Layer9
  6
AUSGEZOGEN
 62
    18
420
        0
370
    18
100
AcDbLine
 10
-771.66335089465
 20
73.790688942243
 30
0.0
 11
-771.66335089465
 21
98.790688942243
 31
0.0
  0
LINE
  5
F5
330
74
100
AcDbEntity
  8
Layer9
  6
AUSGEZOGEN
 62
    18
420
        0
370
    18
100
AcDbLine
 10
-772.5
 20
73.790688942243
 30
0.0
 11
-771.66335089465
 21
73.790688942243
 31
0.0
  0
LINE
  5
F6
330
74
100
AcDbEntity
  8
Layer9
  6
AUSGEZOGEN
 62
    18
420
        0
370
    18
100
AcDbLine
 10
-771.66335089465
 20
98.790688942243
 30
0.0
 11
-772.5
 21
98.790688942243
 31
0.0
  0
LINE
  5
F7
330
74
100
AcDbEntity
  8
Layer9
  6
AUSGEZOGEN
 62
    18
420
        0
370
    18
100
AcDbLine
 10
-772.5
 20
98.790688942243
 30
0.0
 11
-772.5
 21
73.790688942243
 31
0.0
  0
LINE
  5
F8
330
74
100
AcDbEntity
  8
Layer9
  6
AUSGEZOGEN
 62
    18
420
        0
370
    18
100
AcDbLine
 10
-765.5
 20
73.790688942243
 30
0.0
 11
-765.5
 21
98.790688942243
 31
0.0
  0
LINE
  5
F9
330
74
100
AcDbEntity
  8
Layer9
  6
AUSGEZOGEN
 62
    18
420
        0
370
    18
100
AcDbLine
 10
-775.5
 20
77.790688942243
 30
0.0
 11
-775.5
 21
84.290688942243
 31
0.0
  0
LINE
  5
FA
330
74
100
AcDbEntity
  8
Layer9
  6
AUSGEZOGEN
 62
    18
420
        0
370
    18
100
AcDbLine
 10
-956.5
 20
84.290688942243
 30
0.0
 11
-956.5
 21
77.790688942243
 31
0.0
  0
LINE
  5
FB
330
74
100
AcDbEntity
  8
Layer9
  6
AUSGEZOGEN
 62
    18
420
        0
370
    18
100
AcDbLine
 10
-950.5
 20
77.790688942243
 30
0.0
 11
-951.5
 21
77.790688942243
 31
0.0
  0
LINE
  5
FC
330
74
100
AcDbEntity
  8
Layer9
  6
AUSGEZOGEN
 62
    18
420
        0
370
    18
100
AcDbLine
 10
-951.5
 20
73.790688942243
 30
0.0
 11
-947.66895440801
 21
73.790688942243
 31
0.0
  0
LINE
  5
FD
330
74
100
AcDbEntity
  8
Layer9
  6
AUSGEZOGEN
 62
    18
420
        0
370
    18
100
AcDbLine
 10
-946.33104559199
 20
73.790688942243
 30
0.0
 11
-934.9
 21
73.790688942243
 31
0.0
  0
LINE
  5
FE
330
74
100
AcDbEntity
  8
Layer9
  6
AUSGEZOGEN
 62
    18
420
        0
370
    18
100
AcDbLine
 10
-934.9
 20
73.790688942243
 30
0.0
 11
-934.9
 21
84.290688942243
 31
0.0
  0
LINE
  5
FF
330
74
100
AcDbEntity
  8
Layer9
  6
AUSGEZOGEN
 62
    18
420
        0
370
    18
100
AcDbLine
 10
-950.5
 20
84.290688942243
 30
0.0
 11
-950.5
 21
77.790688942243
 31
0.0
  0
LINE
  5
100
330
74
100
AcDbEntity
  8
Layer9
  6
AUSGEZOGEN
 62
    18
420
        0
370
    18
100
AcDbLine
 10
-956.5
 20
77.790688942243
 30
0.0
 11
-956.5
 21
73.790688942243
 31
0.0
  0
LINE
  5
101
330
74
100
AcDbEntity
  8
Layer9
  6
AUSGEZOGEN
 62
    18
420
        0
370
    18
100
AcDbLine
 10
-951.5
 20
77.790688942243
 30
0.0
 11
-956.5
 21
77.790688942243
 31
0.0
  0
LINE
  5
102
330
74
100
AcDbEntity
  8
Layer9
  6
AUSGEZOGEN
 62
    18
420
        0
370
    18
100
AcDbLine
 10
-956.5
 20
73.790688942243
 30
0.0
 11
-951.5
 21
73.790688942243
 31
0.0
  0
LINE
  5
103
330
74
100
AcDbEntity
  8
Layer9
  6
AUSGEZOGEN
 62
    18
420
        0
370
    18
100
AcDbLine
 10
-951.5
 20
73.790688942243
 30
0.0
 11
-951.5
 21
77.790688942243
 31
0.0
  0
LINE
  5
104
330
74
100
AcDbEntity
  8
Layer9
  6
AUSGEZOGEN
 62
    18
420
        0
370
    18
100
AcDbLine
 10
-934.9
 20
86.790688942243
 30
0.0
 11
-954.1
 21
86.790688942243
 31
0.0
  0
LINE
  5
105
330
74
100
AcDbEntity
  8
Layer9
  6
AUSGEZOGEN
 62
    18
420
        0
370
    18
100
AcDbLine
 10
-934.9
 20
84.290688942243
 30
0.0
 11
-934.9
 21
86.790688942243
 31
0.0
  0
LINE
  5
106
330
74
100
AcDbEntity
  8
Layer9
  6
AUSGEZOGEN
 62
    18
420
        0
370
    18
100
AcDbLine
 10
-956.5
 20
84.290688942243
 30
0.0
 11
-934.9
 21
84.290688942243
 31
0.0
  0
LINE
  5
107
330
74
100
AcDbEntity
  8
Layer9
  6
AUSGEZOGEN
 62
    18
420
        0
370
    18
100
AcDbLine
 10
-956.5
 20
104.290688942243
 30
0.0
 11
-956.5
 21
84.290688942243
 31
0.0
  0
LINE
  5
108
330
74
100
AcDbEntity
  8
Layer9
  6
AUSGEZOGEN
 62
    18
420
        0
370
    18
100
AcDbLine
 10
-954.1
 20
86.790688942243
 30
0.0
 11
-954.1
 21
104.290688942243
 31
0.0
  0
LINE
  5
109
330
74
100
AcDbEntity
  8
Layer9
  6
AUSGEZOGEN
 62
    18
420
        0
370
    18
100
AcDbLine
 10
-954.1
 20
104.290688942243
 30
0.0
 11
-956.5
 21
104.290688942243
 31
0.0
  0
LINE
  5
10A
330
74
100
AcDbEntity
  8
Layer9
  6
AUSGEZOGEN
 62
    18
420
        0
370
    18
100
AcDbLine
 10
-963.0
 20
102.290688942243
 30
0.0
 11
-963.0
 21
98.790688942243
 31
0.0
  0
LINE
  5
10B
330
74
100
AcDbEntity
  8
Layer9
  6
AUSGEZOGEN
 62
    18
420
        0
370
    18
100
AcDbLine
 10
-959.5
 20
73.790688942243
 30
0.0
 11
-956.5
 21
73.790688942243
 31
0.0
  0
LINE
  5
10C
330
74
100
AcDbEntity
  8
Layer9
  6
AUSGEZOGEN
 62
    18
420
        0
370
    18
100
AcDbLine
 10
-956.5
 20
98.790688942243
 30
0.0
 11
-959.0
 21
98.790688942243
 31
0.0
  0
LINE
  5
10D
330
74
100
AcDbEntity
  8
Layer9
  6
AUSGEZOGEN
 62
    18
420
        0
370
    18
100
AcDbLine
 10
-959.0
 20
101.290688942243
 30
0.0
 11
-959.7
 21
104.290688942243
 31
0.0
  0
LINE
  5
10E
330
74
100
AcDbEntity
  8
Layer9
  6
AUSGEZOGEN
 62
    18
420
        0
370
    18
100
AcDbLine
 10
-959.0
 20
98.790688942243
 30
0.0
 11
-959.0
 21
101.290688942243
 31
0.0
  0
LINE
  5
10F
330
74
100
AcDbEntity
  8
Layer9
  6
AUSGEZOGEN
 62
    18
420
        0
370
    18
100
AcDbLine
 10
-959.7
 20
104.290688942243
 30
0.0
 11
-961.0
 21
104.290688942243
 31
0.0
  0
LINE
  5
110
330
74
100
AcDbEntity
  8
Layer9
  6
AUSGEZOGEN
 62
    18
420
        0
370
    18
100
AcDbLine
 10
-961.0
 20
104.290688942243
 30
0.0
 11
-961.250160999505
 21
104.275005356499
 31
0.0
  0
LINE
  5
111
330
74
100
AcDbEntity
  8
Layer9
  6
AUSGEZOGEN
 62
    18
420
        0
370
    18
100
AcDbLine
 10
-961.250160999505
 20
104.275005356499
 30
0.0
 11
-961.390180644032
 21
104.252259503049
 31
0.0
  0
LINE
  5
112
330
74
100
AcDbEntity
  8
Layer9
  6
AUSGEZOGEN
 62
    18
420
        0
370
    18
100
AcDbLine
 10
-961.75499653499
 20
104.142734025992
 30
0.0
 11
-961.76536686473
 21
104.138448007265
 31
0.0
  0
LINE
  5
113
330
74
100
AcDbEntity
  8
Layer9
  6
AUSGEZOGEN
 62
    18
420
        0
370
    18
100
AcDbLine
 10
-961.99894459444
 20
104.023348659913
 30
0.0
 11
-962.111140466039
 21
103.953628166848
 31
0.0
  0
LINE
  5
114
330
74
100
AcDbEntity
  8
Layer9
  6
AUSGEZOGEN
 62
    18
420
        0
370
    18
100
AcDbLine
 10
-961.76536686473
 20
104.138448007265
 30
0.0
 11
-961.99894459444
 21
104.023348659913
 31
0.0
  0
LINE
  5
115
330
74
100
AcDbEntity
  8
Layer9
  6
AUSGEZOGEN
 62
    18
420
        0
370
    18
100
AcDbLine
 10
-962.111140466039
 20
103.953628166848
 30
0.0
 11
-962.229109428448
 21
103.868414469128
 31
0.0
  0
LINE
  5
116
330
74
100
AcDbEntity
  8
Layer9
  6
AUSGEZOGEN
 62
    18
420
        0
370
    18
100
AcDbLine
 10
-962.229109428448
 20
103.868414469128
 30
0.0
 11
-962.414213562373
 21
103.704902504616
 31
0.0
  0
LINE
  5
117
330
74
100
AcDbEntity
  8
Layer9
  6
AUSGEZOGEN
 62
    18
420
        0
370
    18
100
AcDbLine
 10
-962.609654237662
 20
103.477848785608
 30
0.0
 11
-962.662939224605
 21
103.401829408282
 31
0.0
  0
LINE
  5
118
330
74
100
AcDbEntity
  8
Layer9
  6
AUSGEZOGEN
 62
    18
420
        0
370
    18
100
AcDbLine
 10
-962.75
 20
103.258934778793
 30
0.0
 11
-962.847759065023
 21
103.056055806973
 31
0.0
  0
LINE
  5
119
330
74
100
AcDbEntity
  8
Layer9
  6
AUSGEZOGEN
 62
    18
420
        0
370
    18
100
AcDbLine
 10
-962.662939224605
 20
103.401829408282
 30
0.0
 11
-962.75
 21
103.258934778793
 31
0.0
  0
LINE
  5
11A
330
74
100
AcDbEntity
  8
Layer9
  6
AUSGEZOGEN
 62
    18
420
        0
370
    18
100
AcDbLine
 10
-962.847759065023
 20
103.056055806973
 30
0.0
 11
-962.887563255391
 21
102.951828078051
 31
0.0
  0
LINE
  5
11B
330
74
100
AcDbEntity
  8
Layer9
  6
AUSGEZOGEN
 62
    18
420
        0
370
    18
100
AcDbLine
 10
-962.887563255391
 20
102.951828078051
 30
0.0
 11
-962.961570560806
 21
102.680869586275
 31
0.0
  0
LINE
  5
11C
330
74
100
AcDbEntity
  8
Layer9
  6
AUSGEZOGEN
 62
    18
420
        0
370
    18
100
AcDbLine
 10
-962.961570560806
 20
102.680869586275
 30
0.0
 11
-962.971690456282
 21
102.626004830039
 31
0.0
  0
LINE
  5
11D
330
74
100
AcDbEntity
  8
Layer9
  6
AUSGEZOGEN
 62
    18
420
        0
370
    18
100
AcDbLine
 10
-962.971690456282
 20
102.626004830039
 30
0.0
 11
-963.0
 21
102.290688942243
 31
0.0
  0
LINE
  5
11E
330
74
100
AcDbEntity
  8
Layer9
  6
AUSGEZOGEN
 62
    18
420
        0
370
    18
100
AcDbLine
 10
-962.414213562373
 20
103.704902504616
 30
0.0
 11
-962.43548782261
 21
103.683150213235
 31
0.0
  0
LINE
  5
11F
330
74
100
AcDbEntity
  8
Layer9
  6
AUSGEZOGEN
 62
    18
420
        0
370
    18
100
AcDbLine
 10
-961.390180644032
 20
104.252259503049
 30
0.0
 11
-961.503363084232
 21
104.226266057197
 31
0.0
  0
LINE
  5
120
330
74
100
AcDbEntity
  8
Layer9
  6
AUSGEZOGEN
 62
    18
420
        0
370
    18
100
AcDbLine
 10
-960.33664910535
 20
73.790688942243
 30
0.0
 11
-960.33664910535
 21
98.790688942243
 31
0.0
  0
LINE
  5
121
330
74
100
AcDbEntity
  8
Layer9
  6
AUSGEZOGEN
 62
    18
420
        0
370
    18
100
AcDbLine
 10
-966.5
 20
98.790688942243
 30
0.0
 11
-966.5
 21
73.790688942243
 31
0.0
  0
LINE
  5
122
330
74
100
AcDbEntity
  8
Layer9
  6
AUSGEZOGEN
 62
    18
420
        0
370
    18
100
AcDbLine
 10
-959.5
 20
98.790688942243
 30
0.0
 11
-960.33664910535
 21
98.790688942243
 31
0.0
  0
LINE
  5
123
330
74
100
AcDbEntity
  8
Layer9
  6
AUSGEZOGEN
 62
    18
420
        0
370
    18
100
AcDbLine
 10
-959.5
 20
73.790688942243
 30
0.0
 11
-959.5
 21
98.790688942243
 31
0.0
  0
LINE
  5
124
330
74
100
AcDbEntity
  8
Layer9
  6
AUSGEZOGEN
 62
    18
420
        0
370
    18
100
AcDbLine
 10
-960.33664910535
 20
73.790688942243
 30
0.0
 11
-959.5
 21
73.790688942243
 31
0.0
  0
LINE
  5
125
330
74
100
AcDbEntity
  8
Layer9
  6
AUSGEZOGEN
 62
    18
420
        0
370
    18
100
AcDbLine
 10
-927.02735045483
 20
73.790688942243
 30
0.0
 11
-925.9
 21
73.790688942243
 31
0.0
  0
LINE
  5
126
330
74
100
AcDbEntity
  8
Layer9
  6
AUSGEZOGEN
 62
    18
420
        0
370
    18
100
AcDbLine
 10
-934.9
 20
73.790688942243
 30
0.0
 11
-933.67264954517
 21
73.790688942243
 31
0.0
  0
LINE
  5
127
330
74
100
AcDbEntity
  8
Layer9
  6
AUSGEZOGEN
 62
    18
420
        0
370
    18
100
AcDbLine
 10
-934.9
 20
86.790688942243
 30
0.0
 11
-926.0
 21
86.790688942243
 31
0.0
  0
LINE
  5
128
330
74
100
AcDbEntity
  8
Layer9
  6
AUSGEZOGEN
 62
    18
420
        0
370
    18
100
AcDbLine
 10
-804.24091727139
 20
83.561286510043
 30
0.0
 11
-799.05908272861
 21
83.561286510043
 31
0.0
  0
LINE
  5
129
330
74
100
AcDbEntity
  8
Layer9
  6
AUSGEZOGEN
 62
    18
420
        0
370
    18
100
AcDbLine
 10
-798.32735045483
 20
73.790688942243
 30
0.0
 11
-804.97264954517
 21
73.790688942243
 31
0.0
  0
LINE
  5
12A
330
74
100
AcDbEntity
  8
Layer9
  6
AUSGEZOGEN
 62
    18
420
        0
370
    18
100
AcDbLine
 10
-918.85
 20
73.790688942243
 30
0.0
 11
-923.85
 21
73.790688942243
 31
0.0
  0
LINE
  5
12B
330
74
100
AcDbEntity
  8
Layer9
  6
AUSGEZOGEN
 62
    18
420
        0
370
    18
100
AcDbLine
 10
-918.85
 20
76.790688942243
 30
0.0
 11
-923.85
 21
76.790688942243
 31
0.0
  0
LINE
  5
12C
330
74
100
AcDbEntity
  8
Layer9
  6
AUSGEZOGEN
 62
    18
420
        0
370
    18
100
AcDbLine
 10
-813.15
 20
73.790688942243
 30
0.0
 11
-808.15
 21
73.790688942243
 31
0.0
  0
LINE
  5
12D
330
74
100
AcDbEntity
  8
Layer9
  6
AUSGEZOGEN
 62
    18
420
        0
370
    18
100
AcDbLine
 10
-813.15
 20
76.790688942243
 30
0.0
 11
-808.15
 21
76.790688942243
 31
0.0
  0
LINE
  5
12E
330
74
100
AcDbEntity
  8
Layer9
  6
AUSGEZOGEN
 62
    18
420
        0
370
    18
100
AcDbLine
 10
-814.85
 20
73.790688942243
 30
0.0
 11
-819.6415742375
 21
73.790688942243
 31
0.0
  0
LINE
  5
12F
330
74
100
AcDbEntity
  8
Layer9
  6
AUSGEZOGEN
 62
    18
420
        0
370
    18
100
AcDbLine
 10
-814.85
 20
76.790688942243
 30
0.0
 11
-819.6415742375
 21
76.790688942243
 31
0.0
  0
LINE
  5
130
330
74
100
AcDbEntity
  8
Layer9
  6
AUSGEZOGEN
 62
    18
420
        0
370
    18
100
AcDbLine
 10
-819.6415742375
 20
73.790688942243
 30
0.0
 11
-828.266407865
 21
73.790688942243
 31
0.0
  0
LINE
  5
131
330
74
100
AcDbEntity
  8
Layer9
  6
AUSGEZOGEN
 62
    18
420
        0
370
    18
100
AcDbLine
 10
-819.6415742375
 20
76.790688942243
 30
0.0
 11
-828.266407865
 21
76.790688942243
 31
0.0
  0
LINE
  5
132
330
74
100
AcDbEntity
  8
Layer9
  6
AUSGEZOGEN
 62
    18
420
        0
370
    18
100
AcDbLine
 10
-903.733592135
 20
73.790688942243
 30
0.0
 11
-912.3584257625
 21
73.790688942243
 31
0.0
  0
LINE
  5
133
330
74
100
AcDbEntity
  8
Layer9
  6
AUSGEZOGEN
 62
    18
420
        0
370
    18
100
AcDbLine
 10
-903.733592135
 20
76.790688942243
 30
0.0
 11
-912.3584257625
 21
76.790688942243
 31
0.0
  0
LINE
  5
134
330
74
100
AcDbEntity
  8
Layer9
  6
AUSGEZOGEN
 62
    18
420
        0
370
    18
100
AcDbLine
 10
-912.3584257625
 20
73.790688942243
 30
0.0
 11
-917.15
 21
73.790688942243
 31
0.0
  0
LINE
  5
135
330
74
100
AcDbEntity
  8
Layer9
  6
AUSGEZOGEN
 62
    18
420
        0
370
    18
100
AcDbLine
 10
-912.3584257625
 20
76.790688942243
 30
0.0
 11
-917.15
 21
76.790688942243
 31
0.0
  0
ARC
  5
136
330
74
100
AcDbEntity
  8
Layer9
  6
AUSGEZOGEN
 62
    18
420
        0
370
    18
100
AcDbCircle
 10
-771.0
 20
102.290688942243
 30
0.0
 40
2.0
100
AcDbArc
 50
0.0
 51
90.0
  0
ARC
  5
137
330
74
100
AcDbEntity
  8
Layer9
  6
AUSGEZOGEN
 62
    18
420
        0
370
    18
100
AcDbCircle
 10
-771.0
 20
102.290688942243
 30
0.0
 40
2.0
100
AcDbArc
 50
67.822340939292
 51
75.42300509582
  0
ARC
  5
138
330
74
100
AcDbEntity
  8
Layer9
  6
AUSGEZOGEN
 62
    18
420
        0
370
    18
100
AcDbCircle
 10
-771.0
 20
102.290688942243
 30
0.0
 40
2.0
100
AcDbArc
 50
36.409987161523
 51
44.129001810267
  0
LINE
  5
139
330
74
100
AcDbEntity
  8
Layer9
  6
AUSGEZOGEN
 62
    18
420
        0
370
    18
100
AcDbLine
 10
-771.66335089465
 20
73.790688942243
 30
0.0
 11
-765.5
 21
73.790688942243
 31
0.0
  0
LINE
  5
13A
330
74
100
AcDbEntity
  8
Layer9
  6
AUSGEZOGEN
 62
    18
420
        0
370
    18
100
AcDbLine
 10
-771.66335089465
 20
98.790688942243
 30
0.0
 11
-765.5
 21
98.790688942243
 31
0.0
  0
ARC
  5
13B
330
74
100
AcDbEntity
  8
Layer9
  6
AUSGEZOGEN
 62
    18
420
        0
370
    18
100
AcDbCircle
 10
-961.0
 20
102.290688942243
 30
0.0
 40
2.0
100
AcDbArc
 50
90.0
 51
180.0
  0
ARC
  5
13C
330
74
100
AcDbEntity
  8
Layer9
  6
AUSGEZOGEN
 62
    18
420
        0
370
    18
100
AcDbCircle
 10
-961.0
 20
102.290688942243
 30
0.0
 40
2.0
100
AcDbArc
 50
104.577350261816
 51
112.178540444312
  0
ARC
  5
13D
330
74
100
AcDbEntity
  8
Layer9
  6
AUSGEZOGEN
 62
    18
420
        0
370
    18
100
AcDbCircle
 10
-961.0
 20
102.290688942243
 30
0.0
 40
2.0
100
AcDbArc
 50
135.871673970936
 51
143.590306852223
  0
LINE
  5
13E
330
74
100
AcDbEntity
  8
Layer9
  6
AUSGEZOGEN
 62
    18
420
        0
370
    18
100
AcDbLine
 10
-960.33664910535
 20
73.790688942243
 30
0.0
 11
-966.5
 21
73.790688942243
 31
0.0
  0
LINE
  5
13F
330
74
100
AcDbEntity
  8
Layer9
  6
AUSGEZOGEN
 62
    18
420
        0
370
    18
100
AcDbLine
 10
-960.33664910535
 20
98.790688942243
 30
0.0
 11
-966.5
 21
98.790688942243
 31
0.0
  0
LINE
  5
140
330
74
100
AcDbEntity
  8
Layer9
  6
AUSGEZOGEN
 62
    18
420
        0
370
    18
100
AcDbLine
 10
-932.94091727139
 20
83.561286510043
 30
0.0
 11
-927.75908272861
 21
83.561286510043
 31
0.0
  0
LINE
  5
141
330
74
100
AcDbEntity
  8
Layer9
  6
AUSGEZOGEN
 62
    18
420
        0
370
    18
100
AcDbLine
 10
-927.02735045483
 20
73.790688942243
 30
0.0
 11
-933.67264954517
 21
73.790688942243
 31
0.0
  0
LWPOLYLINE
  5
142
330
74
100
AcDbEntity
  8
Layer9
  6
AUSGEZOGEN
 62
    18
420
        0
370
    18
100
AcDbPolyline
 90
        3
 70
     0
 43
0.0
 10
-785.66895440801
 20
73.790688942243
 10
-785.333736887249
 20
73.828192833158
 10
-785.0
 20
73.840688942243
  0
LWPOLYLINE
  5
143
330
74
100
AcDbEntity
  8
Layer9
  6
AUSGEZOGEN
 62
    18
420
        0
370
    18
100
AcDbPolyline
 90
        3
 70
     0
 43
0.0
 10
-785.0
 20
73.840688942243
 10
-784.666245496818
 20
73.828191489974
 10
-784.33104559199
 20
73.790688942243
  0
LWPOLYLINE
  5
144
330
74
100
AcDbEntity
  8
Layer9
  6
AUSGEZOGEN
 62
    18
420
        0
370
    18
100
AcDbPolyline
 90
       19
 70
     0
 43
0.0
 10
-804.24091727139
 20
83.561286510043
 10
-804.152752903113
 20
83.975903928131
 10
-804.029548362266
 20
84.346599044088
 10
-803.715536289581
 20
84.964128729299
 10
-803.35505542238
 20
85.435720863049
 10
-802.981190132678
 20
85.786155323739
 10
-802.614511246376
 20
86.034915378419
 10
-802.272291713706
 20
86.195546384922
 10
-801.957086487806
 20
86.28390725001
 10
-801.647888371483
 20
86.312813158028
 10
-801.338577605439
 20
86.283084204904
 10
-801.023126294283
 20
86.193837393985
 10
-800.681652453282
 20
86.032737268963
 10
-800.315988878993
 20
85.783907848986
 10
-799.943035564271
 20
85.433626452246
 10
-799.583430823887
 20
84.962501861981
 10
-799.270159129109
 20
84.345862837742
 10
-799.1471656128
 20
83.975597909821
 10
-799.05908272861
 20
83.561286510043
  0
LWPOLYLINE
  5
145
330
74
100
AcDbEntity
  8
Layer9
  6
AUSGEZOGEN
 62
    18
420
        0
370
    18
100
AcDbPolyline
 90
        3
 70
     0
 43
0.0
 10
-799.05908272861
 20
83.561286510043
 10
-798.516400585632
 20
78.792457574674
 10
-798.32735045483
 20
73.790688942243
  0
LWPOLYLINE
  5
146
330
74
100
AcDbEntity
  8
Layer9
  6
AUSGEZOGEN
 62
    18
420
        0
370
    18
100
AcDbPolyline
 90
        3
 70
     0
 43
0.0
 10
-804.97264954517
 20
73.790688942243
 10
-804.783599414368
 20
78.792457574674
 10
-804.24091727139
 20
83.561286510043
  0
LWPOLYLINE
  5
147
330
74
100
AcDbEntity
  8
Layer9
  6
AUSGEZOGEN
 62
    18
420
        0
370
    18
100
AcDbPolyline
 90
        3
 70
     0
 43
0.0
 10
-947.66895440801
 20
73.790688942243
 10
-947.333754503182
 20
73.828191489974
 10
-947.0
 20
73.840688942243
  0
LWPOLYLINE
  5
148
330
74
100
AcDbEntity
  8
Layer9
  6
AUSGEZOGEN
 62
    18
420
        0
370
    18
100
AcDbPolyline
 90
        3
 70
     0
 43
0.0
 10
-947.0
 20
73.840688942243
 10
-946.666263112751
 20
73.828192833158
 10
-946.33104559199
 20
73.790688942243
  0
LWPOLYLINE
  5
149
330
74
100
AcDbEntity
  8
Layer9
  6
AUSGEZOGEN
 62
    18
420
        0
370
    18
100
AcDbPolyline
 90
       19
 70
     0
 43
0.0
 10
-932.94091727139
 20
83.561286510043
 10
-932.852762083245
 20
83.975868160059
 10
-932.729594863658
 20
84.346483018892
 10
-932.415735414234
 20
84.963814802824
 10
-932.055444995363
 20
85.435293915821
 10
-931.681778135507
 20
85.785687312375
 10
-931.315320886752
 20
86.034456243473
 10
-930.973268844398
 20
86.195183218397
 10
-930.658004052272
 20
86.283734054816
 10
-930.348740262715
 20
86.312814043933
 10
-930.039413424498
 20
86.283243184914
 10
-929.723977573163
 20
86.194156171404
 10
-929.382407177405
 20
86.033166680036
 10
-929.016562330392
 20
85.784365157368
 10
-928.643427155619
 20
85.434056420519
 10
-928.28364531089
 20
84.962839426191
 10
-927.970225239241
 20
84.346030071578
 10
-927.84718653774
 20
83.975675497507
 10
-927.75908272861
 20
83.561286510043
  0
LWPOLYLINE
  5
14A
330
74
100
AcDbEntity
  8
Layer9
  6
AUSGEZOGEN
 62
    18
420
        0
370
    18
100
AcDbPolyline
 90
        3
 70
     0
 43
0.0
 10
-927.75908272861
 20
83.561286510043
 10
-927.216603085918
 20
78.795121927924
 10
-927.02735045483
 20
73.790688942243
  0
LWPOLYLINE
  5
14B
330
74
100
AcDbEntity
  8
Layer9
  6
AUSGEZOGEN
 62
    18
420
        0
370
    18
100
AcDbPolyline
 90
        3
 70
     0
 43
0.0
 10
-933.67264954517
 20
73.790688942243
 10
-933.483396914082
 20
78.795121927924
 10
-932.94091727139
 20
83.561286510043
  0
LINE
  5
14C
330
74
100
AcDbEntity
  8
Layer9
  6
AUSGEZOGEN
 62
   253
420
 10066329
370
    18
100
AcDbLine
 10
-923.5
 20
87.290688942243
 30
0.0
 11
-808.5
 21
87.290688942243
 31
0.0
  0
LINE
  5
14D
330
74
100
AcDbEntity
  8
Layer9
  6
AUSGEZOGEN
 62
   253
420
 10066329
370
    18
100
AcDbLine
 10
-808.5
 20
87.290688942243
 30
0.0
 11
-808.5
 21
166.790688942243
 31
0.0
  0
LINE
  5
14E
330
74
100
AcDbEntity
  8
Layer9
  6
AUSGEZOGEN
 62
   253
420
 10066329
370
    18
100
AcDbLine
 10
-916.5
 20
137.290688942243
 30
0.0
 11
-916.5
 21
122.290688942243
 31
0.0
  0
LINE
  5
14F
330
74
100
AcDbEntity
  8
Layer9
  6
AUSGEZOGEN
 62
   253
420
 10066329
370
    18
100
AcDbLine
 10
-915.9
 20
151.190688942243
 30
0.0
 11
-923.5
 21
151.190688942243
 31
0.0
  0
LINE
  5
150
330
74
100
AcDbEntity
  8
Layer9
  6
AUSGEZOGEN
 62
   253
420
 10066329
370
    18
100
AcDbLine
 10
-923.5
 20
151.190688942243
 30
0.0
 11
-923.5
 21
87.290688942243
 31
0.0
  0
LINE
  5
151
330
74
100
AcDbEntity
  8
Layer9
  6
AUSGEZOGEN
 62
   253
420
 10066329
370
    18
100
AcDbLine
 10
-916.5
 20
122.290688942243
 30
0.0
 11
-922.5
 21
122.290688942243
 31
0.0
  0
LINE
  5
152
330
74
100
AcDbEntity
  8
Layer9
  6
AUSGEZOGEN
 62
   253
420
 10066329
370
    18
100
AcDbLine
 10
-915.9
 20
166.790688942243
 30
0.0
 11
-915.9
 21
151.190688942243
 31
0.0
  0
LINE
  5
153
330
74
100
AcDbEntity
  8
Layer9
  6
AUSGEZOGEN
 62
   253
420
 10066329
370
    18
100
AcDbLine
 10
-922.5
 20
122.290688942243
 30
0.0
 11
-922.5
 21
137.290688942243
 31
0.0
  0
LINE
  5
154
330
74
100
AcDbEntity
  8
Layer9
  6
AUSGEZOGEN
 62
   253
420
 10066329
370
    18
100
AcDbLine
 10
-922.5
 20
137.290688942243
 30
0.0
 11
-916.5
 21
137.290688942243
 31
0.0
  0
LINE
  5
155
330
74
100
AcDbEntity
  8
Layer9
  6
AUSGEZOGEN
 62
   253
420
 10066329
370
    18
100
AcDbLine
 10
-923.5
 20
151.190688942243
 30
0.0
 11
-924.0
 21
151.190688942243
 31
0.0
  0
LINE
  5
156
330
74
100
AcDbEntity
  8
Layer9
  6
AUSGEZOGEN
 62
   253
420
 10066329
370
    18
100
AcDbLine
 10
-924.0
 20
87.290688942243
 30
0.0
 11
-923.5
 21
87.290688942243
 31
0.0
  0
LINE
  5
157
330
74
100
AcDbEntity
  8
Layer9
  6
AUSGEZOGEN
 62
   253
420
 10066329
370
    18
100
AcDbLine
 10
-808.5
 20
87.290688942243
 30
0.0
 11
-808.0
 21
87.290688942243
 31
0.0
  0
LINE
  5
158
330
74
100
AcDbEntity
  8
Layer9
  6
AUSGEZOGEN
 62
   253
420
 10066329
370
    18
100
AcDbLine
 10
-785.0
 20
73.840688942243
 30
0.0
 11
-785.0
 21
73.790688942243
 31
0.0
  0
LINE
  5
159
330
74
100
AcDbEntity
  8
Layer9
  6
AUSGEZOGEN
 62
   253
420
 10066329
370
    18
100
AcDbLine
 10
-785.0
 20
73.790688942243
 30
0.0
 11
-784.33104559199
 21
73.790688942243
 31
0.0
  0
LINE
  5
15A
330
74
100
AcDbEntity
  8
Layer9
  6
AUSGEZOGEN
 62
   253
420
 10066329
370
    18
100
AcDbLine
 10
-785.0
 20
73.790688942243
 30
0.0
 11
-785.66895440801
 21
73.790688942243
 31
0.0
  0
LINE
  5
15B
330
74
100
AcDbEntity
  8
Layer9
  6
AUSGEZOGEN
 62
   253
420
 10066329
370
    18
100
AcDbLine
 10
-947.0
 20
73.840688942243
 30
0.0
 11
-947.0
 21
73.790688942243
 31
0.0
  0
LINE
  5
15C
330
74
100
AcDbEntity
  8
Layer9
  6
AUSGEZOGEN
 62
   253
420
 10066329
370
    18
100
AcDbLine
 10
-947.0
 20
73.790688942243
 30
0.0
 11
-946.33104559199
 21
73.790688942243
 31
0.0
  0
LINE
  5
15D
330
74
100
AcDbEntity
  8
Layer9
  6
AUSGEZOGEN
 62
   253
420
 10066329
370
    18
100
AcDbLine
 10
-947.0
 20
73.790688942243
 30
0.0
 11
-947.66895440801
 21
73.790688942243
 31
0.0
  0
LINE
  5
15E
330
74
100
AcDbEntity
  8
Layer9
  6
AUSGEZOGEN
 62
   253
420
 10066329
370
    18
100
AcDbLine
 10
-947.0
 20
186.890688942243
 30
0.0
 11
-947.0
 21
186.790688942243
 31
0.0
  0
LINE
  5
15F
330
74
100
AcDbEntity
  8
Layer9
  6
AUSGEZOGEN
 62
   253
420
 10066329
370
    18
100
AcDbLine
 10
-942.9
 20
186.790688942243
 30
0.0
 11
-942.8
 21
186.890688942243
 31
0.0
  0
LINE
  5
160
330
74
100
AcDbEntity
  8
Layer9
  6
AUSGEZOGEN
 62
   253
420
 10066329
370
    18
100
AcDbLine
 10
-951.2
 20
186.890688942243
 30
0.0
 11
-951.1
 21
186.790688942243
 31
0.0
  0
LINE
  5
161
330
74
100
AcDbEntity
  8
Layer9
  6
AUSGEZOGEN
 62
   253
420
 10066329
370
    18
100
AcDbLine
 10
-947.0
 20
186.890688942243
 30
0.0
 11
-947.0
 21
187.390688942243
 31
0.0
  0
LINE
  5
162
330
74
100
AcDbEntity
  8
Layer9
  6
AUSGEZOGEN
 62
   253
420
 10066329
370
    18
100
AcDbLine
 10
-951.2
 20
187.390688942243
 30
0.0
 11
-951.2
 21
186.890688942243
 31
0.0
  0
LINE
  5
163
330
74
100
AcDbEntity
  8
Layer9
  6
AUSGEZOGEN
 62
   253
420
 10066329
370
    18
100
AcDbLine
 10
-942.8
 20
186.890688942243
 30
0.0
 11
-942.8
 21
187.390688942243
 31
0.0
  0
LINE
  5
164
330
74
100
AcDbEntity
  8
Layer9
  6
AUSGEZOGEN
 62
   253
420
 10066329
370
    18
100
AcDbLine
 10
-947.0
 20
186.890688942243
 30
0.0
 11
-942.8
 21
186.890688942243
 31
0.0
  0
LINE
  5
165
330
74
100
AcDbEntity
  8
Layer9
  6
AUSGEZOGEN
 62
   253
420
 10066329
370
    18
100
AcDbLine
 10
-947.0
 20
186.890688942243
 30
0.0
 11
-951.2
 21
186.890688942243
 31
0.0
  0
LINE
  5
166
330
74
100
AcDbEntity
  8
Layer9
  6
AUSGEZOGEN
 62
   253
420
 10066329
370
    18
100
AcDbLine
 10
-947.0
 20
187.390688942243
 30
0.0
 11
-951.2
 21
187.390688942243
 31
0.0
  0
LINE
  5
167
330
74
100
AcDbEntity
  8
Layer9
  6
AUSGEZOGEN
 62
   253
420
 10066329
370
    18
100
AcDbLine
 10
-947.0
 20
187.390688942243
 30
0.0
 11
-942.8
 21
187.390688942243
 31
0.0
  0
LINE
  5
168
330
74
100
AcDbEntity
  8
Layer9
  6
AUSGEZOGEN
 62
   253
420
 10066329
370
    18
100
AcDbLine
 10
-785.0
 20
186.890688942243
 30
0.0
 11
-785.0
 21
186.790688942243
 31
0.0
  0
LINE
  5
169
330
74
100
AcDbEntity
  8
Layer9
  6
AUSGEZOGEN
 62
   253
420
 10066329
370
    18
100
AcDbLine
 10
-780.9
 20
186.790688942243
 30
0.0
 11
-780.8
 21
186.890688942243
 31
0.0
  0
LINE
  5
16A
330
74
100
AcDbEntity
  8
Layer9
  6
AUSGEZOGEN
 62
   253
420
 10066329
370
    18
100
AcDbLine
 10
-789.2
 20
186.890688942243
 30
0.0
 11
-789.1
 21
186.790688942243
 31
0.0
  0
LINE
  5
16B
330
74
100
AcDbEntity
  8
Layer9
  6
AUSGEZOGEN
 62
   253
420
 10066329
370
    18
100
AcDbLine
 10
-785.0
 20
186.890688942243
 30
0.0
 11
-785.0
 21
187.390688942243
 31
0.0
  0
LINE
  5
16C
330
74
100
AcDbEntity
  8
Layer9
  6
AUSGEZOGEN
 62
   253
420
 10066329
370
    18
100
AcDbLine
 10
-789.2
 20
187.390688942243
 30
0.0
 11
-789.2
 21
186.890688942243
 31
0.0
  0
LINE
  5
16D
330
74
100
AcDbEntity
  8
Layer9
  6
AUSGEZOGEN
 62
   253
420
 10066329
370
    18
100
AcDbLine
 10
-780.8
 20
186.890688942243
 30
0.0
 11
-780.8
 21
187.390688942243
 31
0.0
  0
LINE
  5
16E
330
74
100
AcDbEntity
  8
Layer9
  6
AUSGEZOGEN
 62
   253
420
 10066329
370
    18
100
AcDbLine
 10
-785.0
 20
186.890688942243
 30
0.0
 11
-780.8
 21
186.890688942243
 31
0.0
  0
LINE
  5
16F
330
74
100
AcDbEntity
  8
Layer9
  6
AUSGEZOGEN
 62
   253
420
 10066329
370
    18
100
AcDbLine
 10
-785.0
 20
186.890688942243
 30
0.0
 11
-789.2
 21
186.890688942243
 31
0.0
  0
LINE
  5
170
330
74
100
AcDbEntity
  8
Layer9
  6
AUSGEZOGEN
 62
   253
420
 10066329
370
    18
100
AcDbLine
 10
-785.0
 20
187.390688942243
 30
0.0
 11
-789.2
 21
187.390688942243
 31
0.0
  0
LINE
  5
171
330
74
100
AcDbEntity
  8
Layer9
  6
AUSGEZOGEN
 62
   253
420
 10066329
370
    18
100
AcDbLine
 10
-785.0
 20
187.390688942243
 30
0.0
 11
-780.8
 21
187.390688942243
 31
0.0
  0
ENDBLK
  5
76
330
74
100
AcDbEntity
  8
0
100
AcDbBlockEnd
  0
BLOCK
  5
174
330
173
100
AcDbEntity
  8
0
100
AcDbBlockBegin
  2
Draufsicht-SL_nNn01
 70
     0
 10
0.0
 20
0.0
 30
0.0
  3
Draufsicht-SL_nNn01
  1

  0
LINE
  5
176
330
173
100
AcDbEntity
  8
Layer9
  6
AUSGEZOGEN
 62
    18
420
        0
370
    18
100
AcDbLine
 10
-369.084233657095
 20
188.790688942243
 30
0.0
 11
-369.084233657095
 21
149.790688942243
 31
0.0
  0
LINE
  5
177
330
173
100
AcDbEntity
  8
Layer9
  6
AUSGEZOGEN
 62
    18
420
        0
370
    18
100
AcDbLine
 10
-369.084233657095
 20
149.790688942243
 30
0.0
 11
-316.584233657095
 21
149.790688942243
 31
0.0
  0
LINE
  5
178
330
173
100
AcDbEntity
  8
Layer9
  6
AUSGEZOGEN
 62
    18
420
        0
370
    18
100
AcDbLine
 10
-316.584233657095
 20
149.790688942243
 30
0.0
 11
-334.295477813485
 21
190.000000000003
 31
0.0
  0
LINE
  5
179
330
173
100
AcDbEntity
  8
Layer9
  6
AUSGEZOGEN
 62
    18
420
        0
370
    18
100
AcDbLine
 10
-337.040940755435
 20
191.790688942243
 30
0.0
 11
-366.084233657095
 21
191.790688942243
 31
0.0
  0
LINE
  5
17A
330
173
100
AcDbEntity
  8
Layer9
  6
AUSGEZOGEN
 62
    18
420
        0
370
    18
100
AcDbLine
 10
-369.084233657095
 20
145.790688942243
 30
0.0
 11
-316.584233657095
 21
145.790688942243
 31
0.0
  0
LINE
  5
17B
330
173
100
AcDbEntity
  8
Layer9
  6
AUSGEZOGEN
 62
    18
420
        0
370
    18
100
AcDbLine
 10
-316.584233657095
 20
148.790688942243
 30
0.0
 11
-369.084233657095
 21
148.790688942243
 31
0.0
  0
LINE
  5
17C
330
173
100
AcDbEntity
  8
Layer9
  6
AUSGEZOGEN
 62
    18
420
        0
370
    18
100
AcDbLine
 10
-316.584233657095
 20
129.790688942243
 30
0.0
 11
-316.584233657095
 21
145.790688942243
 31
0.0
  0
LINE
  5
17D
330
173
100
AcDbEntity
  8
Layer9
  6
AUSGEZOGEN
 62
    18
420
        0
370
    18
100
AcDbLine
 10
-369.084233657095
 20
145.790688942243
 30
0.0
 11
-369.084233657095
 21
144.790688942243
 31
0.0
  0
LINE
  5
17E
330
173
100
AcDbEntity
  8
Layer9
  6
AUSGEZOGEN
 62
    18
420
        0
370
    18
100
AcDbLine
 10
-372.584233657095
 20
139.336332884925
 30
0.0
 11
-372.584233657095
 21
129.790688942243
 31
0.0
  0
LINE
  5
17F
330
173
100
AcDbEntity
  8
Layer9
  6
AUSGEZOGEN
 62
    18
420
        0
370
    18
100
AcDbLine
 10
-369.584233657095
 20
126.790688942243
 30
0.0
 11
-319.584233657095
 21
126.790688942243
 31
0.0
  0
ARC
  5
180
330
173
100
AcDbEntity
  8
Layer9
  6
AUSGEZOGEN
 62
    18
420
        0
370
    18
100
AcDbCircle
 10
-366.084233657095
 20
188.790688942243
 30
0.0
 40
3.0
100
AcDbArc
 50
90.0
 51
180.0
  0
ARC
  5
181
330
173
100
AcDbEntity
  8
Layer9
  6
AUSGEZOGEN
 62
    18
420
        0
370
    18
100
AcDbCircle
 10
-337.040940755435
 20
188.790688942243
 30
0.0
 40
3.0
100
AcDbArc
 50
23.7723488113
 51
90.0
  0
LINE
  5
182
330
173
100
AcDbEntity
  8
Layer9
  6
AUSGEZOGEN
 62
    18
420
        0
370
    18
100
AcDbLine
 10
-369.084233657095
 20
145.790688942243
 30
0.0
 11
-369.084233657095
 21
148.790688942243
 31
0.0
  0
LINE
  5
183
330
173
100
AcDbEntity
  8
Layer9
  6
AUSGEZOGEN
 62
    18
420
        0
370
    18
100
AcDbLine
 10
-316.584233657095
 20
145.790688942243
 30
0.0
 11
-316.584233657095
 21
148.790688942243
 31
0.0
  0
ARC
  5
184
330
173
100
AcDbEntity
  8
Layer9
  6
AUSGEZOGEN
 62
    18
420
        0
370
    18
100
AcDbCircle
 10
-319.584233657095
 20
129.790688942243
 30
0.0
 40
3.0
100
AcDbArc
 50
270.0
 51
0.0
  0
ARC
  5
185
330
173
100
AcDbEntity
  8
Layer9
  6
AUSGEZOGEN
 62
    18
420
        0
370
    18
100
AcDbCircle
 10
-323.084233657095
 20
134.290688942243
 30
0.0
 40
3.25
100
AcDbArc
 50
180.0
 51
0.0
  0
ARC
  5
186
330
173
100
AcDbEntity
  8
Layer9
  6
AUSGEZOGEN
 62
    18
420
        0
370
    18
100
AcDbCircle
 10
-334.084233657095
 20
134.290688942243
 30
0.0
 40
3.25
100
AcDbArc
 50
180.0
 51
0.0
  0
ARC
  5
187
330
173
100
AcDbEntity
  8
Layer9
  6
AUSGEZOGEN
 62
    18
420
        0
370
    18
100
AcDbCircle
 10
-323.084233657095
 20
134.290688942243
 30
0.0
 40
3.25
100
AcDbArc
 50
0.0
 51
180.0
  0
ARC
  5
188
330
173
100
AcDbEntity
  8
Layer9
  6
AUSGEZOGEN
 62
    18
420
        0
370
    18
100
AcDbCircle
 10
-372.084233657095
 20
144.790688942243
 30
0.0
 40
3.0
100
AcDbArc
 50
294.624318351745
 51
0.0
  0
ARC
  5
189
330
173
100
AcDbEntity
  8
Layer9
  6
AUSGEZOGEN
 62
    18
420
        0
370
    18
100
AcDbCircle
 10
-343.084233657095
 20
134.290688942243
 30
0.0
 40
3.25
100
AcDbArc
 50
0.0
 51
180.0
  0
ARC
  5
18A
330
173
100
AcDbEntity
  8
Layer9
  6
AUSGEZOGEN
 62
    18
420
        0
370
    18
100
AcDbCircle
 10
-369.584233657095
 20
139.336332884925
 30
0.0
 40
3.0
100
AcDbArc
 50
114.624318352582
 51
180.0
  0
ARC
  5
18B
330
173
100
AcDbEntity
  8
Layer9
  6
AUSGEZOGEN
 62
    18
420
        0
370
    18
100
AcDbCircle
 10
-366.084233657095
 20
134.290688942243
 30
0.0
 40
3.25
100
AcDbArc
 50
0.0
 51
180.0
  0
ARC
  5
18C
330
173
100
AcDbEntity
  8
Layer9
  6
AUSGEZOGEN
 62
    18
420
        0
370
    18
100
AcDbCircle
 10
-366.084233657095
 20
134.290688942243
 30
0.0
 40
3.25
100
AcDbArc
 50
180.0
 51
0.0
  0
ARC
  5
18D
330
173
100
AcDbEntity
  8
Layer9
  6
AUSGEZOGEN
 62
    18
420
        0
370
    18
100
AcDbCircle
 10
-369.584233657095
 20
129.790688942243
 30
0.0
 40
3.0
100
AcDbArc
 50
180.0
 51
270.0
  0
ARC
  5
18E
330
173
100
AcDbEntity
  8
Layer9
  6
AUSGEZOGEN
 62
    18
420
        0
370
    18
100
AcDbCircle
 10
-343.084233657095
 20
134.290688942243
 30
0.0
 40
3.25
100
AcDbArc
 50
180.0
 51
0.0
  0
ARC
  5
18F
330
173
100
AcDbEntity
  8
Layer9
  6
AUSGEZOGEN
 62
    18
420
        0
370
    18
100
AcDbCircle
 10
-334.084233657095
 20
134.290688942243
 30
0.0
 40
3.25
100
AcDbArc
 50
0.0
 51
180.0
  0
LINE
  5
190
330
173
100
AcDbEntity
  8
Layer9
  6
AUSGEZOGEN
 62
    18
420
        0
370
    18
100
AcDbLine
 10
-369.084233657095
 20
149.790688942243
 30
0.0
 11
-369.084233657095
 21
148.790688942243
 31
0.0
  0
LINE
  5
191
330
173
100
AcDbEntity
  8
Layer9
  6
AUSGEZOGEN
 62
    18
420
        0
370
    18
100
AcDbLine
 10
-316.584233657095
 20
149.790688942243
 30
0.0
 11
-316.584233657095
 21
148.790688942243
 31
0.0
  0
LINE
  5
192
330
173
100
AcDbEntity
  8
Layer9
  6
AUSGEZOGEN
 62
    18
420
        0
370
    18
100
AcDbLine
 10
-366.384233657095
 20
126.790688942243
 30
0.0
 11
-366.384233657095
 21
125.540688942243
 31
0.0
  0
LINE
  5
193
330
173
100
AcDbEntity
  8
Layer9
  6
AUSGEZOGEN
 62
    18
420
        0
370
    18
100
AcDbLine
 10
-366.384233657095
 20
87.290688942243
 30
0.0
 11
-366.384233657095
 21
86.790688942243
 31
0.0
  0
LINE
  5
194
330
173
100
AcDbEntity
  8
Layer9
  6
AUSGEZOGEN
 62
    18
420
        0
370
    18
100
AcDbLine
 10
-364.384233657095
 20
86.790688942243
 30
0.0
 11
-364.384233657095
 21
87.290688942243
 31
0.0
  0
LINE
  5
195
330
173
100
AcDbEntity
  8
Layer9
  6
AUSGEZOGEN
 62
    18
420
        0
370
    18
100
AcDbLine
 10
-364.384233657095
 20
125.540688942243
 30
0.0
 11
-364.384233657095
 21
126.790688942243
 31
0.0
  0
LINE
  5
196
330
173
100
AcDbEntity
  8
Layer9
  6
AUSGEZOGEN
 62
    18
420
        0
370
    18
100
AcDbLine
 10
-361.384233657095
 20
126.790688942243
 30
0.0
 11
-361.384233657095
 21
86.790688942243
 31
0.0
  0
LINE
  5
197
330
173
100
AcDbEntity
  8
Layer9
  6
AUSGEZOGEN
 62
    18
420
        0
370
    18
100
AcDbLine
 10
-359.384233657095
 20
126.790688942243
 30
0.0
 11
-359.384233657095
 21
104.290688942243
 31
0.0
  0
LINE
  5
198
330
173
100
AcDbEntity
  8
Layer9
  6
AUSGEZOGEN
 62
    18
420
        0
370
    18
100
AcDbLine
 10
-353.284233657095
 20
104.290688942243
 30
0.0
 11
-353.284233657095
 21
126.790688942243
 31
0.0
  0
LINE
  5
199
330
173
100
AcDbEntity
  8
Layer9
  6
AUSGEZOGEN
 62
    18
420
        0
370
    18
100
AcDbLine
 10
-351.384233657095
 20
126.790688942243
 30
0.0
 11
-351.384233657095
 21
104.290688942243
 31
0.0
  0
LINE
  5
19A
330
173
100
AcDbEntity
  8
Layer9
  6
AUSGEZOGEN
 62
    18
420
        0
370
    18
100
AcDbLine
 10
-348.384233657095
 20
104.290688942243
 30
0.0
 11
-348.384233657095
 21
126.790688942243
 31
0.0
  0
LINE
  5
19B
330
173
100
AcDbEntity
  8
Layer9
  6
AUSGEZOGEN
 62
    18
420
        0
370
    18
100
AcDbLine
 10
-348.284233657095
 20
77.790688942243
 30
0.0
 11
-348.284233657095
 21
84.290688942243
 31
0.0
  0
LINE
  5
19C
330
173
100
AcDbEntity
  8
Layer9
  6
AUSGEZOGEN
 62
    18
420
        0
370
    18
100
AcDbLine
 10
-348.284233657095
 20
84.290688942243
 30
0.0
 11
-348.284233657095
 21
104.290688942243
 31
0.0
  0
LINE
  5
19D
330
173
100
AcDbEntity
  8
Layer9
  6
AUSGEZOGEN
 62
    18
420
        0
370
    18
100
AcDbLine
 10
-349.594976061242
 20
84.290688942243
 30
0.0
 11
-348.284233657095
 21
84.290688942243
 31
0.0
  0
LINE
  5
19E
330
173
100
AcDbEntity
  8
Layer9
  6
AUSGEZOGEN
 62
    18
420
        0
370
    18
100
AcDbLine
 10
-349.594976061242
 20
73.790688942243
 30
0.0
 11
-348.284233657095
 21
73.790688942243
 31
0.0
  0
LINE
  5
19F
330
173
100
AcDbEntity
  8
Layer9
  6
AUSGEZOGEN
 62
    18
420
        0
370
    18
100
AcDbLine
 10
-348.284233657095
 20
73.790688942243
 30
0.0
 11
-348.284233657095
 21
77.790688942243
 31
0.0
  0
LINE
  5
1A0
330
173
100
AcDbEntity
  8
Layer9
  6
AUSGEZOGEN
 62
    18
420
        0
370
    18
100
AcDbLine
 10
-348.284233657095
 20
77.790688942243
 30
0.0
 11
-349.594976061242
 21
77.790688942243
 31
0.0
  0
LINE
  5
1A1
330
173
100
AcDbEntity
  8
Layer9
  6
AUSGEZOGEN
 62
    18
420
        0
370
    18
100
AcDbLine
 10
-348.284233657095
 20
104.290688942243
 30
0.0
 11
-357.584233657095
 21
104.290688942243
 31
0.0
  0
LINE
  5
1A2
330
173
100
AcDbEntity
  8
Layer9
  6
AUSGEZOGEN
 62
    18
420
        0
370
    18
100
AcDbLine
 10
-358.691705867575
 20
104.290688942243
 30
0.0
 11
-359.584233657095
 21
104.290688942243
 31
0.0
  0
LINE
  5
1A3
330
173
100
AcDbEntity
  8
Layer9
  6
AUSGEZOGEN
 62
    18
420
        0
370
    18
100
AcDbLine
 10
-359.584233657095
 20
104.290688942243
 30
0.0
 11
-359.584233657095
 21
103.258934778793
 31
0.0
  0
LINE
  5
1A4
330
173
100
AcDbEntity
  8
Layer9
  6
AUSGEZOGEN
 62
    18
420
        0
370
    18
100
AcDbLine
 10
-357.584233657095
 20
104.290688942243
 30
0.0
 11
-358.625755147265
 21
104.290688942243
 31
0.0
  0
LINE
  5
1A5
330
173
100
AcDbEntity
  8
Layer9
  6
AUSGEZOGEN
 62
    18
420
        0
370
    18
100
AcDbLine
 10
-359.584233657095
 20
102.290688942243
 30
0.0
 11
-357.584233657095
 21
102.290688942243
 31
0.0
  0
LINE
  5
1A6
330
173
100
AcDbEntity
  8
Layer9
  6
AUSGEZOGEN
 62
    18
420
        0
370
    18
100
AcDbLine
 10
-359.584233657095
 20
102.290688942243
 30
0.0
 11
-359.584233657095
 21
98.790688942243
 31
0.0
  0
LINE
  5
1A7
330
173
100
AcDbEntity
  8
Layer9
  6
AUSGEZOGEN
 62
    18
420
        0
370
    18
100
AcDbLine
 10
-357.584233657095
 20
98.790688942243
 30
0.0
 11
-357.584233657095
 21
102.290688942243
 31
0.0
  0
LINE
  5
1A8
330
173
100
AcDbEntity
  8
Layer9
  6
AUSGEZOGEN
 62
    18
420
        0
370
    18
100
AcDbLine
 10
-359.584233657095
 20
98.790688942243
 30
0.0
 11
-359.584233657095
 21
73.790688942243
 31
0.0
  0
LINE
  5
1A9
330
173
100
AcDbEntity
  8
Layer9
  6
AUSGEZOGEN
 62
    18
420
        0
370
    18
100
AcDbLine
 10
-356.084233657095
 20
73.790688942243
 30
0.0
 11
-356.084233657095
 21
98.790688942243
 31
0.0
  0
LINE
  5
1AA
330
173
100
AcDbEntity
  8
Layer9
  6
AUSGEZOGEN
 62
    18
420
        0
370
    18
100
AcDbLine
 10
-352.784233657095
 20
73.790688942243
 30
0.0
 11
-352.784233657095
 21
98.790688942243
 31
0.0
  0
LINE
  5
1AB
330
173
100
AcDbEntity
  8
Layer9
  6
AUSGEZOGEN
 62
    18
420
        0
370
    18
100
AcDbLine
 10
-356.084233657095
 20
73.790688942243
 30
0.0
 11
-352.784233657095
 21
73.790688942243
 31
0.0
  0
LINE
  5
1AC
330
173
100
AcDbEntity
  8
Layer9
  6
AUSGEZOGEN
 62
    18
420
        0
370
    18
100
AcDbLine
 10
-352.784233657095
 20
98.790688942243
 30
0.0
 11
-356.084233657095
 21
98.790688942243
 31
0.0
  0
LINE
  5
1AD
330
173
100
AcDbEntity
  8
Layer9
  6
AUSGEZOGEN
 62
    18
420
        0
370
    18
100
AcDbLine
 10
-349.594976061242
 20
73.790688942243
 30
0.0
 11
-349.594976061242
 21
98.790688942243
 31
0.0
  0
LINE
  5
1AE
330
173
100
AcDbEntity
  8
Layer9
  6
AUSGEZOGEN
 62
    18
420
        0
370
    18
100
AcDbLine
 10
-361.584233657095
 20
86.790688942243
 30
0.0
 11
-361.584233657095
 21
73.790688942243
 31
0.0
  0
LINE
  5
1AF
330
173
100
AcDbEntity
  8
Layer9
  6
AUSGEZOGEN
 62
    18
420
        0
370
    18
100
AcDbLine
 10
-359.584233657095
 20
86.790688942243
 30
0.0
 11
-361.584233657095
 21
86.790688942243
 31
0.0
  0
LINE
  5
1B0
330
173
100
AcDbEntity
  8
Layer9
  6
AUSGEZOGEN
 62
    18
420
        0
370
    18
100
AcDbLine
 10
-361.584233657095
 20
73.790688942243
 30
0.0
 11
-359.584233657095
 21
73.790688942243
 31
0.0
  0
LINE
  5
1B1
330
173
100
AcDbEntity
  8
Layer9
  6
AUSGEZOGEN
 62
    18
420
        0
370
    18
100
AcDbLine
 10
-361.584233657095
 20
86.790688942243
 30
0.0
 11
-364.184233657095
 21
86.790688942243
 31
0.0
  0
LINE
  5
1B2
330
173
100
AcDbEntity
  8
Layer9
  6
AUSGEZOGEN
 62
    18
420
        0
370
    18
100
AcDbLine
 10
-364.184233657095
 20
73.790688942243
 30
0.0
 11
-361.584233657095
 21
73.790688942243
 31
0.0
  0
LINE
  5
1B3
330
173
100
AcDbEntity
  8
Layer9
  6
AUSGEZOGEN
 62
    18
420
        0
370
    18
100
AcDbLine
 10
-366.584233657095
 20
86.790688942243
 30
0.0
 11
-366.584233657095
 21
73.790688942243
 31
0.0
  0
LINE
  5
1B4
330
173
100
AcDbEntity
  8
Layer9
  6
AUSGEZOGEN
 62
    18
420
        0
370
    18
100
AcDbLine
 10
-364.184233657095
 20
86.790688942243
 30
0.0
 11
-366.584233657095
 21
86.790688942243
 31
0.0
  0
LINE
  5
1B5
330
173
100
AcDbEntity
  8
Layer9
  6
AUSGEZOGEN
 62
    18
420
        0
370
    18
100
AcDbLine
 10
-366.584233657095
 20
73.790688942243
 30
0.0
 11
-364.184233657095
 21
73.790688942243
 31
0.0
  0
LINE
  5
1B6
330
173
100
AcDbEntity
  8
Layer9
  6
AUSGEZOGEN
 62
    18
420
        0
370
    18
100
AcDbLine
 10
-364.184233657095
 20
73.790688942243
 30
0.0
 11
-364.184233657095
 21
86.790688942243
 31
0.0
  0
LINE
  5
1B7
330
173
100
AcDbEntity
  8
Layer9
  6
AUSGEZOGEN
 62
    18
420
        0
370
    18
100
AcDbLine
 10
-357.584233657095
 20
102.290688942243
 30
0.0
 11
-357.584233657095
 21
104.290688942243
 31
0.0
  0
LINE
  5
1B8
330
173
100
AcDbEntity
  8
Layer9
  6
AUSGEZOGEN
 62
    18
420
        0
370
    18
100
AcDbLine
 10
-359.584233657095
 20
102.290688942243
 30
0.0
 11
-359.584233657095
 21
103.258934778793
 31
0.0
  0
LINE
  5
1B9
330
173
100
AcDbEntity
  8
Layer9
  6
AUSGEZOGEN
 62
    18
420
        0
370
    18
100
AcDbLine
 10
-356.084233657095
 20
98.790688942243
 30
0.0
 11
-359.584233657095
 21
98.790688942243
 31
0.0
  0
LINE
  5
1BA
330
173
100
AcDbEntity
  8
Layer9
  6
AUSGEZOGEN
 62
    18
420
        0
370
    18
100
AcDbLine
 10
-356.084233657095
 20
73.790688942243
 30
0.0
 11
-359.584233657095
 21
73.790688942243
 31
0.0
  0
LINE
  5
1BB
330
173
100
AcDbEntity
  8
Layer9
  6
AUSGEZOGEN
 62
    18
420
        0
370
    18
100
AcDbLine
 10
-352.784233657095
 20
98.790688942243
 30
0.0
 11
-349.594976061242
 21
98.790688942243
 31
0.0
  0
LINE
  5
1BC
330
173
100
AcDbEntity
  8
Layer9
  6
AUSGEZOGEN
 62
    18
420
        0
370
    18
100
AcDbLine
 10
-352.784233657095
 20
73.790688942243
 30
0.0
 11
-349.594976061242
 21
73.790688942243
 31
0.0
  0
LINE
  5
1BD
330
173
100
AcDbEntity
  8
Layer9
  6
AUSGEZOGEN
 62
    18
420
        0
370
    18
100
AcDbLine
 10
-358.691705867575
 20
104.290688942243
 30
0.0
 11
-358.625755147265
 21
104.290688942243
 31
0.0
  0
LWPOLYLINE
  5
1BE
330
173
100
AcDbEntity
  8
Layer9
  6
AUSGEZOGEN
 62
    18
420
        0
370
    18
100
AcDbPolyline
 90
        9
 70
     0
 43
0.0
 10
-358.625755147265
 20
104.290688942243
 10
-358.678508209194
 20
104.275005356499
 10
-358.755146622028
 20
104.226266057197
 10
-358.856222242726
 20
104.142734025992
 10
-358.980784117244
 20
104.023348659913
 10
-359.125809293073
 20
103.868414469128
 10
-359.282663415619
 20
103.683150213235
 10
-359.438777185403
 20
103.477848785608
 10
-359.584233657095
 20
103.258934778793
  0
LWPOLYLINE
  5
1BF
330
173
100
AcDbEntity
  8
Layer9
  6
AUSGEZOGEN
 62
    18
420
        0
370
    18
100
AcDbPolyline
 90
        2
 70
     0
 43
0.0
 10
-358.691705867575
 20
104.290688942243
 10
-358.693717512478
 20
104.265332781643
  0
LINE
  5
1C0
330
173
100
AcDbEntity
  8
Layer9
  6
AUSGEZOGEN
 62
   253
420
 10066329
370
    18
100
AcDbLine
 10
-369.684233657095
 20
125.540688942243
 30
0.0
 11
-369.684233657095
 21
87.290688942243
 31
0.0
  0
LINE
  5
1C1
330
173
100
AcDbEntity
  8
Layer9
  6
AUSGEZOGEN
 62
   253
420
 10066329
370
    18
100
AcDbLine
 10
-368.684233657095
 20
87.290688942243
 30
0.0
 11
-368.684233657095
 21
125.540688942243
 31
0.0
  0
LINE
  5
1C2
330
173
100
AcDbEntity
  8
Layer9
  6
AUSGEZOGEN
 62
   253
420
 10066329
370
    18
100
AcDbLine
 10
-369.684233657095
 20
166.790688942243
 30
0.0
 11
-369.684233657095
 21
143.011448057207
 31
0.0
  0
LINE
  5
1C3
330
173
100
AcDbEntity
  8
Layer9
  6
AUSGEZOGEN
 62
   253
420
 10066329
370
    18
100
AcDbLine
 10
-368.684233657095
 20
132.360461725926
 30
0.0
 11
-368.684233657095
 21
136.22091615856
 31
0.0
  0
LINE
  5
1C4
330
173
100
AcDbEntity
  8
Layer9
  6
AUSGEZOGEN
 62
   253
420
 10066329
370
    18
100
AcDbLine
 10
-368.684233657095
 20
87.290688942243
 30
0.0
 11
-361.484233657095
 21
87.290688942243
 31
0.0
  0
LINE
  5
1C5
330
173
100
AcDbEntity
  8
Layer9
  6
AUSGEZOGEN
 62
   253
420
 10066329
370
    18
100
AcDbLine
 10
-361.484233657095
 20
87.290688942243
 30
0.0
 11
-361.484233657095
 21
125.540688942243
 31
0.0
  0
LINE
  5
1C6
330
173
100
AcDbEntity
  8
Layer9
  6
AUSGEZOGEN
 62
   253
420
 10066329
370
    18
100
AcDbLine
 10
-361.484233657095
 20
125.540688942243
 30
0.0
 11
-368.684233657095
 21
125.540688942243
 31
0.0
  0
LINE
  5
1C7
330
173
100
AcDbEntity
  8
Layer9
  6
AUSGEZOGEN
 62
   253
420
 10066329
370
    18
100
AcDbLine
 10
-348.284233657095
 20
87.290688942243
 30
0.0
 11
-348.184233657095
 21
87.290688942243
 31
0.0
  0
LINE
  5
1C8
330
173
100
AcDbEntity
  8
Layer9
  6
AUSGEZOGEN
 62
   253
420
 10066329
370
    18
100
AcDbLine
 10
-348.184233657095
 20
87.290688942243
 30
0.0
 11
-348.184233657095
 21
126.790688942243
 31
0.0
  0
LINE
  5
1C9
330
173
100
AcDbEntity
  8
Layer9
  6
AUSGEZOGEN
 62
   253
420
 10066329
370
    18
100
AcDbLine
 10
-368.684233657095
 20
125.540688942243
 30
0.0
 11
-369.684233657095
 21
125.540688942243
 31
0.0
  0
LINE
  5
1CA
330
173
100
AcDbEntity
  8
Layer9
  6
AUSGEZOGEN
 62
   253
420
 10066329
370
    18
100
AcDbLine
 10
-368.684233657095
 20
87.290688942243
 30
0.0
 11
-369.684233657095
 21
87.290688942243
 31
0.0
  0
LINE
  5
1CB
330
173
100
AcDbEntity
  8
Layer9
  6
AUSGEZOGEN
 62
   253
420
 10066329
370
    18
100
AcDbLine
 10
-369.684233657095
 20
125.540688942243
 30
0.0
 11
-369.684233657095
 21
126.800538082579
 31
0.0
  0
LINE
  5
1CC
330
173
100
AcDbEntity
  8
Layer9
  6
AUSGEZOGEN
 62
   253
420
 10066329
370
    18
100
AcDbLine
 10
-368.484233657095
 20
125.540688942243
 30
0.0
 11
-368.484233657095
 21
126.790688942243
 31
0.0
  0
LINE
  5
1CD
330
173
100
AcDbEntity
  8
Layer9
  6
AUSGEZOGEN
 62
   253
420
 10066329
370
    18
100
AcDbLine
 10
-369.084233657095
 20
166.790688942243
 30
0.0
 11
-369.684233657095
 21
166.790688942243
 31
0.0
  0
ENDBLK
  5
175
330
173
100
AcDbEntity
  8
0
100
AcDbBlockEnd
  0
BLOCK
  5
1D0
330
1CF
100
AcDbEntity
  8
0
100
AcDbBlockBegin
  2
Draufsicht-D_nNn02
 70
     0
 10
0.0
 20
0.0
 30
0.0
  3
Draufsicht-D_nNn02
  1

  0
LINE
  5
1D2
330
1CF
100
AcDbEntity
  8
Layer9
  6
AUSGEZOGEN
 62
    18
420
        0
370
    18
100
AcDbLine
 10
-950.65
 20
-156.852754809894
 30
0.0
 11
-940.65
 21
-156.852754809894
 31
0.0
  0
LINE
  5
1D3
330
1CF
100
AcDbEntity
  8
Layer9
  6
AUSGEZOGEN
 62
    18
420
        0
370
    18
100
AcDbLine
 10
-1079.15
 20
-156.852754809894
 30
0.0
 11
-1069.15
 21
-156.852754809894
 31
0.0
  0
LINE
  5
1D4
330
1CF
100
AcDbEntity
  8
Layer9
  6
AUSGEZOGEN
 62
    18
420
        0
370
    18
100
AcDbLine
 10
-1069.15
 20
-156.852754809894
 30
0.0
 11
-1069.15
 21
-166.852754809894
 31
0.0
  0
LINE
  5
1D5
330
1CF
100
AcDbEntity
  8
Layer9
  6
AUSGEZOGEN
 62
    18
420
        0
370
    18
100
AcDbLine
 10
-1139.15
 20
-153.652754809894
 30
0.0
 11
-1139.15
 21
-171.652754809894
 31
0.0
  0
LINE
  5
1D6
330
1CF
100
AcDbEntity
  8
Layer9
  6
AUSGEZOGEN
 62
    18
420
        0
370
    18
100
AcDbLine
 10
-1069.15
 20
-166.852754809894
 30
0.0
 11
-1079.15
 21
-166.852754809894
 31
0.0
  0
LINE
  5
1D7
330
1CF
100
AcDbEntity
  8
Layer9
  6
AUSGEZOGEN
 62
    18
420
        0
370
    18
100
AcDbLine
 10
-812.15
 20
-166.852754809894
 30
0.0
 11
-822.15
 21
-166.852754809894
 31
0.0
  0
LINE
  5
1D8
330
1CF
100
AcDbEntity
  8
Layer9
  6
AUSGEZOGEN
 62
    18
420
        0
370
    18
100
AcDbLine
 10
-812.15
 20
-156.852754809894
 30
0.0
 11
-812.15
 21
-166.852754809894
 31
0.0
  0
LINE
  5
1D9
330
1CF
100
AcDbEntity
  8
Layer9
  6
AUSGEZOGEN
 62
    18
420
        0
370
    18
100
AcDbLine
 10
-693.65
 20
-166.852754809894
 30
0.0
 11
-693.65
 21
-156.852754809894
 31
0.0
  0
LINE
  5
1DA
330
1CF
100
AcDbEntity
  8
Layer9
  6
AUSGEZOGEN
 62
    18
420
        0
370
    18
100
AcDbLine
 10
-1139.15
 20
-171.652754809894
 30
0.0
 11
-623.65
 21
-171.652754809894
 31
0.0
  0
LINE
  5
1DB
330
1CF
100
AcDbEntity
  8
Layer9
  6
AUSGEZOGEN
 62
    18
420
        0
370
    18
100
AcDbLine
 10
-940.65
 20
-166.852754809894
 30
0.0
 11
-950.65
 21
-166.852754809894
 31
0.0
  0
LINE
  5
1DC
330
1CF
100
AcDbEntity
  8
Layer9
  6
AUSGEZOGEN
 62
    18
420
        0
370
    18
100
AcDbLine
 10
-950.65
 20
-166.852754809894
 30
0.0
 11
-950.65
 21
-156.852754809894
 31
0.0
  0
LINE
  5
1DD
330
1CF
100
AcDbEntity
  8
Layer9
  6
AUSGEZOGEN
 62
    18
420
        0
370
    18
100
AcDbLine
 10
-1079.15
 20
-166.852754809894
 30
0.0
 11
-1079.15
 21
-156.852754809894
 31
0.0
  0
LINE
  5
1DE
330
1CF
100
AcDbEntity
  8
Layer9
  6
AUSGEZOGEN
 62
    18
420
        0
370
    18
100
AcDbLine
 10
-623.65
 20
-153.652754809894
 30
0.0
 11
-1139.15
 21
-153.652754809894
 31
0.0
  0
LINE
  5
1DF
330
1CF
100
AcDbEntity
  8
Layer9
  6
AUSGEZOGEN
 62
    18
420
        0
370
    18
100
AcDbLine
 10
-940.65
 20
-156.852754809894
 30
0.0
 11
-940.65
 21
-166.852754809894
 31
0.0
  0
LINE
  5
1E0
330
1CF
100
AcDbEntity
  8
Layer9
  6
AUSGEZOGEN
 62
    18
420
        0
370
    18
100
AcDbLine
 10
-693.65
 20
-156.852754809894
 30
0.0
 11
-683.65
 21
-156.852754809894
 31
0.0
  0
LINE
  5
1E1
330
1CF
100
AcDbEntity
  8
Layer9
  6
AUSGEZOGEN
 62
    18
420
        0
370
    18
100
AcDbLine
 10
-822.15
 20
-166.852754809894
 30
0.0
 11
-822.15
 21
-156.852754809894
 31
0.0
  0
LINE
  5
1E2
330
1CF
100
AcDbEntity
  8
Layer9
  6
AUSGEZOGEN
 62
    18
420
        0
370
    18
100
AcDbLine
 10
-683.65
 20
-156.852754809894
 30
0.0
 11
-683.65
 21
-166.852754809894
 31
0.0
  0
LINE
  5
1E3
330
1CF
100
AcDbEntity
  8
Layer9
  6
AUSGEZOGEN
 62
    18
420
        0
370
    18
100
AcDbLine
 10
-623.65
 20
-171.652754809894
 30
0.0
 11
-623.65
 21
-153.652754809894
 31
0.0
  0
LINE
  5
1E4
330
1CF
100
AcDbEntity
  8
Layer9
  6
AUSGEZOGEN
 62
    18
420
        0
370
    18
100
AcDbLine
 10
-683.65
 20
-166.852754809894
 30
0.0
 11
-693.65
 21
-166.852754809894
 31
0.0
  0
LINE
  5
1E5
330
1CF
100
AcDbEntity
  8
Layer9
  6
AUSGEZOGEN
 62
    18
420
        0
370
    18
100
AcDbLine
 10
-822.15
 20
-156.852754809894
 30
0.0
 11
-812.15
 21
-156.852754809894
 31
0.0
  0
LINE
  5
1E6
330
1CF
100
AcDbEntity
  8
Layer9
  6
AUSGEZOGEN
 62
    18
420
        0
370
    18
100
AcDbLine
 10
-1139.15
 20
-174.652754809894
 30
0.0
 11
-623.65
 21
-174.652754809894
 31
0.0
  0
LINE
  5
1E7
330
1CF
100
AcDbEntity
  8
Layer9
  6
AUSGEZOGEN
 62
    18
420
        0
370
    18
100
AcDbLine
 10
-623.65
 20
-150.652754809894
 30
0.0
 11
-1139.15
 21
-150.652754809894
 31
0.0
  0
ARC
  5
1E8
330
1CF
100
AcDbEntity
  8
Layer9
  6
AUSGEZOGEN
 62
    18
420
        0
370
    18
100
AcDbCircle
 10
-671.9
 20
-165.152754809894
 30
0.0
 40
3.1
100
AcDbArc
 50
0.0
 51
180.0
  0
ARC
  5
1E9
330
1CF
100
AcDbEntity
  8
Layer9
  6
AUSGEZOGEN
 62
    18
420
        0
370
    18
100
AcDbCircle
 10
-1090.9
 20
-165.152754809894
 30
0.0
 40
3.1
100
AcDbArc
 50
180.0
 51
0.0
  0
ARC
  5
1EA
330
1CF
100
AcDbEntity
  8
Layer9
  6
AUSGEZOGEN
 62
    18
420
        0
370
    18
100
AcDbCircle
 10
-1090.9
 20
-165.152754809894
 30
0.0
 40
3.1
100
AcDbArc
 50
0.0
 51
180.0
  0
ARC
  5
1EB
330
1CF
100
AcDbEntity
  8
Layer9
  6
AUSGEZOGEN
 62
    18
420
        0
370
    18
100
AcDbCircle
 10
-671.9
 20
-165.152754809894
 30
0.0
 40
3.1
100
AcDbArc
 50
180.0
 51
0.0
  0
ARC
  5
1EC
330
1CF
100
AcDbEntity
  8
Layer9
  6
AUSGEZOGEN
 62
    18
420
        0
370
    18
100
AcDbCircle
 10
-928.9
 20
-165.152754809894
 30
0.0
 40
3.1
100
AcDbArc
 50
180.0
 51
0.0
  0
ARC
  5
1ED
330
1CF
100
AcDbEntity
  8
Layer9
  6
AUSGEZOGEN
 62
    18
420
        0
370
    18
100
AcDbCircle
 10
-928.9
 20
-165.152754809894
 30
0.0
 40
3.1
100
AcDbArc
 50
0.0
 51
180.0
  0
ARC
  5
1EE
330
1CF
100
AcDbEntity
  8
Layer9
  6
AUSGEZOGEN
 62
    18
420
        0
370
    18
100
AcDbCircle
 10
-833.9
 20
-165.152754809894
 30
0.0
 40
3.1
100
AcDbArc
 50
0.0
 51
180.0
  0
ARC
  5
1EF
330
1CF
100
AcDbEntity
  8
Layer9
  6
AUSGEZOGEN
 62
    18
420
        0
370
    18
100
AcDbCircle
 10
-833.9
 20
-165.152754809894
 30
0.0
 40
3.1
100
AcDbArc
 50
180.0
 51
0.0
  0
LINE
  5
1F0
330
1CF
100
AcDbEntity
  8
Layer9
  6
AUSGEZOGEN
 62
    18
420
        0
370
    18
100
AcDbLine
 10
-1139.15
 20
-171.652754809894
 30
0.0
 11
-1139.15
 21
-174.652754809894
 31
0.0
  0
LINE
  5
1F1
330
1CF
100
AcDbEntity
  8
Layer9
  6
AUSGEZOGEN
 62
    18
420
        0
370
    18
100
AcDbLine
 10
-623.65
 20
-171.652754809894
 30
0.0
 11
-623.65
 21
-174.652754809894
 31
0.0
  0
LINE
  5
1F2
330
1CF
100
AcDbEntity
  8
Layer9
  6
AUSGEZOGEN
 62
    18
420
        0
370
    18
100
AcDbLine
 10
-623.65
 20
-153.652754809894
 30
0.0
 11
-623.65
 21
-150.652754809894
 31
0.0
  0
LINE
  5
1F3
330
1CF
100
AcDbEntity
  8
Layer9
  6
AUSGEZOGEN
 62
    18
420
        0
370
    18
100
AcDbLine
 10
-1139.15
 20
-153.652754809894
 30
0.0
 11
-1139.15
 21
-150.652754809894
 31
0.0
  0
LINE
  5
1F4
330
1CF
100
AcDbEntity
  8
Layer9
  6
AUSGEZOGEN
 62
    18
420
        0
370
    18
100
AcDbLine
 10
-623.4
 20
-153.652754809894
 30
0.0
 11
-621.4
 21
-153.652754809894
 31
0.0
  0
LINE
  5
1F5
330
1CF
100
AcDbEntity
  8
Layer9
  6
AUSGEZOGEN
 62
    18
420
        0
370
    18
100
AcDbLine
 10
-621.4
 20
-150.652754809894
 30
0.0
 11
-623.4
 21
-150.652754809894
 31
0.0
  0
LINE
  5
1F6
330
1CF
100
AcDbEntity
  8
Layer9
  6
AUSGEZOGEN
 62
    18
420
        0
370
    18
100
AcDbLine
 10
-602.4
 20
-203.152754809894
 30
0.0
 11
-602.4
 21
-150.652754809894
 31
0.0
  0
LINE
  5
1F7
330
1CF
100
AcDbEntity
  8
Layer9
  6
AUSGEZOGEN
 62
    18
420
        0
370
    18
100
AcDbLine
 10
-605.4
 20
-150.652754809894
 30
0.0
 11
-605.4
 21
-203.152754809894
 31
0.0
  0
LINE
  5
1F8
330
1CF
100
AcDbEntity
  8
Layer9
  6
AUSGEZOGEN
 62
    18
420
        0
370
    18
100
AcDbLine
 10
-602.4
 20
-147.152754809894
 30
0.0
 11
-604.4
 21
-147.152754809894
 31
0.0
  0
LINE
  5
1F9
330
1CF
100
AcDbEntity
  8
Layer9
  6
AUSGEZOGEN
 62
    18
420
        0
370
    18
100
AcDbLine
 10
-604.4
 20
-148.902754809894
 30
0.0
 11
-602.4
 21
-148.902754809904
 31
0.0
  0
LINE
  5
1FA
330
1CF
100
AcDbEntity
  8
Layer9
  6
AUSGEZOGEN
 62
    18
420
        0
370
    18
100
AcDbLine
 10
-623.4
 20
-203.152754809894
 30
0.0
 11
-621.4
 21
-203.152754809894
 31
0.0
  0
LINE
  5
1FB
330
1CF
100
AcDbEntity
  8
Layer9
  6
AUSGEZOGEN
 62
    18
420
        0
370
    18
100
AcDbLine
 10
-623.4
 20
-185.441510653504
 30
0.0
 11
-623.4
 21
-203.152754809894
 31
0.0
  0
LINE
  5
1FC
330
1CF
100
AcDbEntity
  8
Layer9
  6
AUSGEZOGEN
 62
    18
420
        0
370
    18
100
AcDbLine
 10
-621.4
 20
-203.152754809894
 30
0.0
 11
-621.4
 21
-185.441510653504
 31
0.0
  0
LINE
  5
1FD
330
1CF
100
AcDbEntity
  8
Layer9
  6
AUSGEZOGEN
 62
    18
420
        0
370
    18
100
AcDbLine
 10
-621.4
 20
-185.441510653504
 30
0.0
 11
-623.4
 21
-185.441510653504
 31
0.0
  0
LINE
  5
1FE
330
1CF
100
AcDbEntity
  8
Layer9
  6
AUSGEZOGEN
 62
    18
420
        0
370
    18
100
AcDbLine
 10
-621.4
 20
-182.696047711554
 30
0.0
 11
-623.4
 21
-182.696047711554
 31
0.0
  0
LINE
  5
1FF
330
1CF
100
AcDbEntity
  8
Layer9
  6
AUSGEZOGEN
 62
    18
420
        0
370
    18
100
AcDbLine
 10
-623.4
 20
-153.652754809894
 30
0.0
 11
-623.4
 21
-182.696047711554
 31
0.0
  0
LINE
  5
200
330
1CF
100
AcDbEntity
  8
Layer9
  6
AUSGEZOGEN
 62
    18
420
        0
370
    18
100
AcDbLine
 10
-621.4
 20
-182.696047711554
 30
0.0
 11
-621.4
 21
-153.652754809894
 31
0.0
  0
LINE
  5
201
330
1CF
100
AcDbEntity
  8
Layer9
  6
AUSGEZOGEN
 62
    18
420
        0
370
    18
100
AcDbLine
 10
-620.4
 20
-203.152754809894
 30
0.0
 11
-620.4
 21
-150.652754809894
 31
0.0
  0
LINE
  5
202
330
1CF
100
AcDbEntity
  8
Layer9
  6
AUSGEZOGEN
 62
    18
420
        0
370
    18
100
AcDbLine
 10
-620.4
 20
-203.152754809894
 30
0.0
 11
-605.4
 21
-203.152754809894
 31
0.0
  0
LINE
  5
203
330
1CF
100
AcDbEntity
  8
Layer9
  6
AUSGEZOGEN
 62
    18
420
        0
370
    18
100
AcDbLine
 10
-605.4
 20
-150.652754809894
 30
0.0
 11
-620.4
 21
-150.652754809894
 31
0.0
  0
LINE
  5
204
330
1CF
100
AcDbEntity
  8
Layer9
  6
AUSGEZOGEN
 62
    18
420
        0
370
    18
100
AcDbLine
 10
-623.4
 20
-153.652754809894
 30
0.0
 11
-623.4
 21
-150.652754809894
 31
0.0
  0
LINE
  5
205
330
1CF
100
AcDbEntity
  8
Layer9
  6
AUSGEZOGEN
 62
    18
420
        0
370
    18
100
AcDbLine
 10
-621.4
 20
-153.652754809894
 30
0.0
 11
-621.4
 21
-150.652754809894
 31
0.0
  0
LINE
  5
206
330
1CF
100
AcDbEntity
  8
Layer9
  6
AUSGEZOGEN
 62
    18
420
        0
370
    18
100
AcDbLine
 10
-605.4
 20
-203.152754809894
 30
0.0
 11
-602.4
 21
-203.152754809894
 31
0.0
  0
LINE
  5
207
330
1CF
100
AcDbEntity
  8
Layer9
  6
AUSGEZOGEN
 62
    18
420
        0
370
    18
100
AcDbLine
 10
-605.4
 20
-150.652754809894
 30
0.0
 11
-602.4
 21
-150.652754809894
 31
0.0
  0
LINE
  5
208
330
1CF
100
AcDbEntity
  8
Layer9
  6
AUSGEZOGEN
 62
    18
420
        0
370
    18
100
AcDbLine
 10
-602.4
 20
-148.902754809904
 30
0.0
 11
-602.4
 21
-147.152754809894
 31
0.0
  0
LINE
  5
209
330
1CF
100
AcDbEntity
  8
Layer9
  6
AUSGEZOGEN
 62
    18
420
        0
370
    18
100
AcDbLine
 10
-604.4
 20
-148.902754809894
 30
0.0
 11
-604.4
 21
-147.152754809894
 31
0.0
  0
LINE
  5
20A
330
1CF
100
AcDbEntity
  8
Layer9
  6
AUSGEZOGEN
 62
    18
420
        0
370
    18
100
AcDbLine
 10
-602.4
 20
-148.902754809904
 30
0.0
 11
-602.4
 21
-150.652754809894
 31
0.0
  0
LINE
  5
20B
330
1CF
100
AcDbEntity
  8
Layer9
  6
AUSGEZOGEN
 62
    18
420
        0
370
    18
100
AcDbLine
 10
-604.4
 20
-148.902754809894
 30
0.0
 11
-604.4
 21
-150.652754809894
 31
0.0
  0
LINE
  5
20C
330
1CF
100
AcDbEntity
  8
Layer9
  6
AUSGEZOGEN
 62
    18
420
        0
370
    18
100
AcDbLine
 10
-623.4
 20
-185.441510653504
 30
0.0
 11
-623.4
 21
-182.696047711554
 31
0.0
  0
LINE
  5
20D
330
1CF
100
AcDbEntity
  8
Layer9
  6
AUSGEZOGEN
 62
    18
420
        0
370
    18
100
AcDbLine
 10
-621.4
 20
-182.696047711554
 30
0.0
 11
-621.4
 21
-185.441510653504
 31
0.0
  0
LINE
  5
20E
330
1CF
100
AcDbEntity
  8
Layer9
  6
AUSGEZOGEN
 62
    18
420
        0
370
    18
100
AcDbLine
 10
-620.4
 20
-203.152754809894
 30
0.0
 11
-621.4
 21
-203.152754809894
 31
0.0
  0
LINE
  5
20F
330
1CF
100
AcDbEntity
  8
Layer9
  6
AUSGEZOGEN
 62
    18
420
        0
370
    18
100
AcDbLine
 10
-620.4
 20
-150.652754809894
 30
0.0
 11
-621.4
 21
-150.652754809894
 31
0.0
  0
LINE
  5
210
330
1CF
100
AcDbEntity
  8
Layer9
  6
AUSGEZOGEN
 62
    18
420
        0
370
    18
100
AcDbLine
 10
-1141.4
 20
-153.652754809894
 30
0.0
 11
-1139.4
 21
-153.652754809894
 31
0.0
  0
LINE
  5
211
330
1CF
100
AcDbEntity
  8
Layer9
  6
AUSGEZOGEN
 62
    18
420
        0
370
    18
100
AcDbLine
 10
-1139.4
 20
-150.652754809894
 30
0.0
 11
-1141.4
 21
-150.652754809894
 31
0.0
  0
LINE
  5
212
330
1CF
100
AcDbEntity
  8
Layer9
  6
AUSGEZOGEN
 62
    18
420
        0
370
    18
100
AcDbLine
 10
-1160.4
 20
-150.652754809894
 30
0.0
 11
-1160.4
 21
-203.152754809894
 31
0.0
  0
LINE
  5
213
330
1CF
100
AcDbEntity
  8
Layer9
  6
AUSGEZOGEN
 62
    18
420
        0
370
    18
100
AcDbLine
 10
-1157.4
 20
-203.152754809894
 30
0.0
 11
-1157.4
 21
-150.652754809894
 31
0.0
  0
LINE
  5
214
330
1CF
100
AcDbEntity
  8
Layer9
  6
AUSGEZOGEN
 62
    18
420
        0
370
    18
100
AcDbLine
 10
-1158.4
 20
-148.902754809874
 30
0.0
 11
-1160.4
 21
-148.902754809874
 31
0.0
  0
LINE
  5
215
330
1CF
100
AcDbEntity
  8
Layer9
  6
AUSGEZOGEN
 62
    18
420
        0
370
    18
100
AcDbLine
 10
-1158.4
 20
-147.152754809894
 30
0.0
 11
-1160.4
 21
-147.152754809894
 31
0.0
  0
LINE
  5
216
330
1CF
100
AcDbEntity
  8
Layer9
  6
AUSGEZOGEN
 62
    18
420
        0
370
    18
100
AcDbLine
 10
-1142.4
 20
-150.652754809894
 30
0.0
 11
-1157.4
 21
-150.652754809894
 31
0.0
  0
LINE
  5
217
330
1CF
100
AcDbEntity
  8
Layer9
  6
AUSGEZOGEN
 62
    18
420
        0
370
    18
100
AcDbLine
 10
-1142.4
 20
-203.152754809894
 30
0.0
 11
-1142.4
 21
-150.652754809894
 31
0.0
  0
LINE
  5
218
330
1CF
100
AcDbEntity
  8
Layer9
  6
AUSGEZOGEN
 62
    18
420
        0
370
    18
100
AcDbLine
 10
-1157.4
 20
-203.152754809894
 30
0.0
 11
-1142.4
 21
-203.152754809894
 31
0.0
  0
LINE
  5
219
330
1CF
100
AcDbEntity
  8
Layer9
  6
AUSGEZOGEN
 62
    18
420
        0
370
    18
100
AcDbLine
 10
-1141.4
 20
-203.152754809894
 30
0.0
 11
-1139.4
 21
-203.152754809894
 31
0.0
  0
LINE
  5
21A
330
1CF
100
AcDbEntity
  8
Layer9
  6
AUSGEZOGEN
 62
    18
420
        0
370
    18
100
AcDbLine
 10
-1141.4
 20
-185.441510653504
 30
0.0
 11
-1141.4
 21
-203.152754809894
 31
0.0
  0
LINE
  5
21B
330
1CF
100
AcDbEntity
  8
Layer9
  6
AUSGEZOGEN
 62
    18
420
        0
370
    18
100
AcDbLine
 10
-1139.4
 20
-203.152754809894
 30
0.0
 11
-1139.4
 21
-185.441510653504
 31
0.0
  0
LINE
  5
21C
330
1CF
100
AcDbEntity
  8
Layer9
  6
AUSGEZOGEN
 62
    18
420
        0
370
    18
100
AcDbLine
 10
-1139.4
 20
-185.441510653504
 30
0.0
 11
-1141.4
 21
-185.441510653504
 31
0.0
  0
LINE
  5
21D
330
1CF
100
AcDbEntity
  8
Layer9
  6
AUSGEZOGEN
 62
    18
420
        0
370
    18
100
AcDbLine
 10
-1139.4
 20
-182.696047711554
 30
0.0
 11
-1141.4
 21
-182.696047711554
 31
0.0
  0
LINE
  5
21E
330
1CF
100
AcDbEntity
  8
Layer9
  6
AUSGEZOGEN
 62
    18
420
        0
370
    18
100
AcDbLine
 10
-1141.4
 20
-153.652754809894
 30
0.0
 11
-1141.4
 21
-182.696047711554
 31
0.0
  0
LINE
  5
21F
330
1CF
100
AcDbEntity
  8
Layer9
  6
AUSGEZOGEN
 62
    18
420
        0
370
    18
100
AcDbLine
 10
-1139.4
 20
-182.696047711554
 30
0.0
 11
-1139.4
 21
-153.652754809894
 31
0.0
  0
LINE
  5
220
330
1CF
100
AcDbEntity
  8
Layer9
  6
AUSGEZOGEN
 62
    18
420
        0
370
    18
100
AcDbLine
 10
-1141.4
 20
-153.652754809894
 30
0.0
 11
-1141.4
 21
-150.652754809894
 31
0.0
  0
LINE
  5
221
330
1CF
100
AcDbEntity
  8
Layer9
  6
AUSGEZOGEN
 62
    18
420
        0
370
    18
100
AcDbLine
 10
-1139.4
 20
-153.652754809894
 30
0.0
 11
-1139.4
 21
-150.652754809894
 31
0.0
  0
LINE
  5
222
330
1CF
100
AcDbEntity
  8
Layer9
  6
AUSGEZOGEN
 62
    18
420
        0
370
    18
100
AcDbLine
 10
-1157.4
 20
-150.652754809894
 30
0.0
 11
-1160.4
 21
-150.652754809894
 31
0.0
  0
LINE
  5
223
330
1CF
100
AcDbEntity
  8
Layer9
  6
AUSGEZOGEN
 62
    18
420
        0
370
    18
100
AcDbLine
 10
-1157.4
 20
-203.152754809894
 30
0.0
 11
-1160.4
 21
-203.152754809894
 31
0.0
  0
LINE
  5
224
330
1CF
100
AcDbEntity
  8
Layer9
  6
AUSGEZOGEN
 62
    18
420
        0
370
    18
100
AcDbLine
 10
-1158.4
 20
-148.902754809874
 30
0.0
 11
-1158.4
 21
-150.652754809894
 31
0.0
  0
LINE
  5
225
330
1CF
100
AcDbEntity
  8
Layer9
  6
AUSGEZOGEN
 62
    18
420
        0
370
    18
100
AcDbLine
 10
-1160.4
 20
-148.902754809874
 30
0.0
 11
-1160.4
 21
-150.652754809894
 31
0.0
  0
LINE
  5
226
330
1CF
100
AcDbEntity
  8
Layer9
  6
AUSGEZOGEN
 62
    18
420
        0
370
    18
100
AcDbLine
 10
-1160.4
 20
-148.902754809874
 30
0.0
 11
-1160.4
 21
-147.152754809894
 31
0.0
  0
LINE
  5
227
330
1CF
100
AcDbEntity
  8
Layer9
  6
AUSGEZOGEN
 62
    18
420
        0
370
    18
100
AcDbLine
 10
-1158.4
 20
-148.902754809874
 30
0.0
 11
-1158.4
 21
-147.152754809894
 31
0.0
  0
LINE
  5
228
330
1CF
100
AcDbEntity
  8
Layer9
  6
AUSGEZOGEN
 62
    18
420
        0
370
    18
100
AcDbLine
 10
-1142.4
 20
-150.652754809894
 30
0.0
 11
-1141.4
 21
-150.652754809894
 31
0.0
  0
LINE
  5
229
330
1CF
100
AcDbEntity
  8
Layer9
  6
AUSGEZOGEN
 62
    18
420
        0
370
    18
100
AcDbLine
 10
-1142.4
 20
-203.152754809894
 30
0.0
 11
-1141.4
 21
-203.152754809894
 31
0.0
  0
LINE
  5
22A
330
1CF
100
AcDbEntity
  8
Layer9
  6
AUSGEZOGEN
 62
    18
420
        0
370
    18
100
AcDbLine
 10
-1141.4
 20
-185.441510653504
 30
0.0
 11
-1141.4
 21
-182.696047711554
 31
0.0
  0
LINE
  5
22B
330
1CF
100
AcDbEntity
  8
Layer9
  6
AUSGEZOGEN
 62
    18
420
        0
370
    18
100
AcDbLine
 10
-1139.4
 20
-182.696047711554
 30
0.0
 11
-1139.4
 21
-185.441510653504
 31
0.0
  0
LINE
  5
22C
330
1CF
100
AcDbEntity
  8
Layer9
  6
AUSGEZOGEN
 62
    18
420
        0
370
    18
100
AcDbLine
 10
-812.4
 20
-166.352754809894
 30
0.0
 11
-814.05
 21
-166.352754809894
 31
0.0
  0
LINE
  5
22D
330
1CF
100
AcDbEntity
  8
Layer9
  6
AUSGEZOGEN
 62
    18
420
        0
370
    18
100
AcDbLine
 10
-816.3
 20
-164.852754809894
 30
0.0
 11
-818.55
 21
-166.352754809894
 31
0.0
  0
LINE
  5
22E
330
1CF
100
AcDbEntity
  8
Layer9
  6
AUSGEZOGEN
 62
    18
420
        0
370
    18
100
AcDbLine
 10
-814.05
 20
-166.352754809894
 30
0.0
 11
-814.05
 21
-164.852754809894
 31
0.0
  0
LINE
  5
22F
330
1CF
100
AcDbEntity
  8
Layer9
  6
AUSGEZOGEN
 62
    18
420
        0
370
    18
100
AcDbLine
 10
-814.05
 20
-164.852754809894
 30
0.0
 11
-816.3
 21
-164.852754809894
 31
0.0
  0
LINE
  5
230
330
1CF
100
AcDbEntity
  8
Layer9
  6
AUSGEZOGEN
 62
    18
420
        0
370
    18
100
AcDbLine
 10
-812.4
 20
-156.852754809894
 30
0.0
 11
-812.4
 21
-166.352754809894
 31
0.0
  0
LINE
  5
231
330
1CF
100
AcDbEntity
  8
Layer9
  6
AUSGEZOGEN
 62
    18
420
        0
370
    18
100
AcDbLine
 10
-818.55
 20
-166.352754809894
 30
0.0
 11
-822.15
 21
-166.352754809894
 31
0.0
  0
LINE
  5
232
330
1CF
100
AcDbEntity
  8
Layer9
  6
AUSGEZOGEN
 62
    18
420
        0
370
    18
100
AcDbLine
 10
-940.65
 20
-166.352754809894
 30
0.0
 11
-944.25
 21
-166.352754809894
 31
0.0
  0
LINE
  5
233
330
1CF
100
AcDbEntity
  8
Layer9
  6
AUSGEZOGEN
 62
    18
420
        0
370
    18
100
AcDbLine
 10
-944.25
 20
-166.352754809894
 30
0.0
 11
-946.5
 21
-164.852754809894
 31
0.0
  0
LINE
  5
234
330
1CF
100
AcDbEntity
  8
Layer9
  6
AUSGEZOGEN
 62
    18
420
        0
370
    18
100
AcDbLine
 10
-946.5
 20
-164.852754809894
 30
0.0
 11
-948.75
 21
-164.852754809894
 31
0.0
  0
LINE
  5
235
330
1CF
100
AcDbEntity
  8
Layer9
  6
AUSGEZOGEN
 62
    18
420
        0
370
    18
100
AcDbLine
 10
-948.75
 20
-164.852754809894
 30
0.0
 11
-948.75
 21
-166.352754809894
 31
0.0
  0
LINE
  5
236
330
1CF
100
AcDbEntity
  8
Layer9
  6
AUSGEZOGEN
 62
    18
420
        0
370
    18
100
AcDbLine
 10
-948.75
 20
-166.352754809894
 30
0.0
 11
-950.4
 21
-166.352754809894
 31
0.0
  0
LINE
  5
237
330
1CF
100
AcDbEntity
  8
Layer9
  6
AUSGEZOGEN
 62
    18
420
        0
370
    18
100
AcDbLine
 10
-950.4
 20
-166.352754809894
 30
0.0
 11
-950.4
 21
-156.852754809894
 31
0.0
  0
LINE
  5
238
330
1CF
100
AcDbEntity
  8
Layer9
  6
AUSGEZOGEN
 62
   253
420
 10066329
370
    18
100
AcDbLine
 10
-805.3
 20
-150.052754809894
 30
0.0
 11
-957.5
 21
-150.052754809894
 31
0.0
  0
LINE
  5
239
330
1CF
100
AcDbEntity
  8
Layer9
  6
AUSGEZOGEN
 62
   253
420
 10066329
370
    18
100
AcDbLine
 10
-818.5
 20
-166.319421476561
 30
0.0
 11
-818.5
 21
-156.852754809894
 31
0.0
  0
LINE
  5
23A
330
1CF
100
AcDbEntity
  8
Layer9
  6
AUSGEZOGEN
 62
   253
420
 10066329
370
    18
100
AcDbLine
 10
-931.3
 20
-163.214134721514
 30
0.0
 11
-931.3
 21
-167.091374898275
 31
0.0
  0
LINE
  5
23B
330
1CF
100
AcDbEntity
  8
Layer9
  6
AUSGEZOGEN
 62
   253
420
 10066329
370
    18
100
AcDbLine
 10
-944.3
 20
-156.852754809894
 30
0.0
 11
-944.3
 21
-166.319421476561
 31
0.0
  0
LINE
  5
23C
330
1CF
100
AcDbEntity
  8
Layer9
  6
AUSGEZOGEN
 62
   253
420
 10066329
370
    18
100
AcDbLine
 10
-950.3
 20
-156.852754809894
 30
0.0
 11
-950.3
 21
-164.852754809894
 31
0.0
  0
LINE
  5
23D
330
1CF
100
AcDbEntity
  8
Layer9
  6
AUSGEZOGEN
 62
   253
420
 10066329
370
    18
100
AcDbLine
 10
-950.3
 20
-164.852754809894
 30
0.0
 11
-948.75
 21
-164.852754809894
 31
0.0
  0
LINE
  5
23E
330
1CF
100
AcDbEntity
  8
Layer9
  6
AUSGEZOGEN
 62
   253
420
 10066329
370
    18
100
AcDbLine
 10
-946.5
 20
-164.852754809894
 30
0.0
 11
-944.3
 21
-164.852754809894
 31
0.0
  0
ARC
  5
23F
330
1CF
100
AcDbEntity
  8
Layer9
  6
AUSGEZOGEN
 62
   253
420
 10066329
370
    18
100
AcDbCircle
 10
-957.5
 20
-151.052754809894
 30
0.0
 40
1.0
100
AcDbArc
 50
90.0
 51
156.378396153307
  0
ARC
  5
240
330
1CF
100
AcDbEntity
  8
Layer9
  6
AUSGEZOGEN
 62
   253
420
 10066329
370
    18
100
AcDbCircle
 10
-805.3
 20
-151.052754809894
 30
0.0
 40
1.0
100
AcDbArc
 50
23.621603846693
 51
90.0
  0
LINE
  5
241
330
1CF
100
AcDbEntity
  8
Layer9
  6
AUSGEZOGEN
 62
   253
420
 10066329
370
    18
100
AcDbLine
 10
-960.867135035302
 20
-166.237754809894
 30
0.0
 11
-961.658104904091
 21
-166.237754809894
 31
0.0
  0
LINE
  5
242
330
1CF
100
AcDbEntity
  8
Layer9
  6
AUSGEZOGEN
 62
   253
420
 10066329
370
    18
100
AcDbLine
 10
-962.226794919243
 20
-163.282754809894
 30
0.0
 11
-961.831309984848
 21
-163.967754809894
 31
0.0
  0
LINE
  5
243
330
1CF
100
AcDbEntity
  8
Layer9
  6
AUSGEZOGEN
 62
   253
420
 10066329
370
    18
100
AcDbLine
 10
-961.658104904091
 20
-164.067754809894
 30
0.0
 11
-960.867135035302
 21
-164.067754809894
 31
0.0
  0
LINE
  5
244
330
1CF
100
AcDbEntity
  8
Layer9
  6
AUSGEZOGEN
 62
   253
420
 10066329
370
    18
100
AcDbLine
 10
-963.932864964698
 20
-164.067754809894
 30
0.0
 11
-963.141895095909
 21
-164.067754809894
 31
0.0
  0
LINE
  5
245
330
1CF
100
AcDbEntity
  8
Layer9
  6
AUSGEZOGEN
 62
   253
420
 10066329
370
    18
100
AcDbLine
 10
-962.573205080757
 20
-167.022754809894
 30
0.0
 11
-962.968690015152
 21
-166.337754809894
 31
0.0
  0
LINE
  5
246
330
1CF
100
AcDbEntity
  8
Layer9
  6
AUSGEZOGEN
 62
   253
420
 10066329
370
    18
100
AcDbLine
 10
-963.141895095909
 20
-166.237754809894
 30
0.0
 11
-963.932864964698
 21
-166.237754809894
 31
0.0
  0
LINE
  5
247
330
1CF
100
AcDbEntity
  8
Layer9
  6
AUSGEZOGEN
 62
   253
420
 10066329
370
    18
100
AcDbLine
 10
-963.71058511106
 20
-165.052754809894
 30
0.0
 11
-964.106070045455
 21
-164.367754809894
 31
0.0
  0
LINE
  5
248
330
1CF
100
AcDbEntity
  8
Layer9
  6
AUSGEZOGEN
 62
   253
420
 10066329
370
    18
100
AcDbLine
 10
-964.106070045455
 20
-165.937754809894
 30
0.0
 11
-963.71058511106
 21
-165.252754809894
 31
0.0
  0
LINE
  5
249
330
1CF
100
AcDbEntity
  8
Layer9
  6
AUSGEZOGEN
 62
   253
420
 10066329
370
    18
100
AcDbLine
 10
-962.968690015152
 20
-163.967754809894
 30
0.0
 11
-962.573205080757
 21
-163.282754809894
 31
0.0
  0
LINE
  5
24A
330
1CF
100
AcDbEntity
  8
Layer9
  6
AUSGEZOGEN
 62
   253
420
 10066329
370
    18
100
AcDbLine
 10
-960.693929954545
 20
-164.367754809894
 30
0.0
 11
-961.08941488894
 21
-165.052754809894
 31
0.0
  0
LINE
  5
24B
330
1CF
100
AcDbEntity
  8
Layer9
  6
AUSGEZOGEN
 62
   253
420
 10066329
370
    18
100
AcDbLine
 10
-961.08941488894
 20
-165.252754809894
 30
0.0
 11
-960.693929954545
 21
-165.937754809894
 31
0.0
  0
LINE
  5
24C
330
1CF
100
AcDbEntity
  8
Layer9
  6
AUSGEZOGEN
 62
   253
420
 10066329
370
    18
100
AcDbLine
 10
-961.831309984848
 20
-166.337754809894
 30
0.0
 11
-962.226794919243
 21
-167.022754809894
 31
0.0
  0
ARC
  5
24D
330
1CF
100
AcDbEntity
  8
Layer9
  6
AUSGEZOGEN
 62
   253
420
 10066329
370
    18
100
AcDbCircle
 10
-962.4
 20
-166.922754809894
 30
0.0
 40
0.2
100
AcDbArc
 50
209.999999999998
 51
330.000000000002
  0
ARC
  5
24E
330
1CF
100
AcDbEntity
  8
Layer9
  6
AUSGEZOGEN
 62
   253
420
 10066329
370
    18
100
AcDbCircle
 10
-962.4
 20
-165.152754809894
 30
0.0
 40
4.2
100
AcDbArc
 50
270.0
 51
90.0
  0
ARC
  5
24F
330
1CF
100
AcDbEntity
  8
Layer9
  6
AUSGEZOGEN
 62
   253
420
 10066329
370
    18
100
AcDbCircle
 10
-961.658104904091
 20
-166.437754809894
 30
0.0
 40
0.2
100
AcDbArc
 50
90.0
 51
150.000000000002
  0
ARC
  5
250
330
1CF
100
AcDbEntity
  8
Layer9
  6
AUSGEZOGEN
 62
   253
420
 10066329
370
    18
100
AcDbCircle
 10
-960.867135035302
 20
-166.037754809894
 30
0.0
 40
0.2
100
AcDbArc
 50
270.0
 51
29.999999999986
  0
ARC
  5
251
330
1CF
100
AcDbEntity
  8
Layer9
  6
AUSGEZOGEN
 62
   253
420
 10066329
370
    18
100
AcDbCircle
 10
-960.867135035302
 20
-164.267754809894
 30
0.0
 40
0.2
100
AcDbArc
 50
330.000000000014
 51
90.0
  0
ARC
  5
252
330
1CF
100
AcDbEntity
  8
Layer9
  6
AUSGEZOGEN
 62
   253
420
 10066329
370
    18
100
AcDbCircle
 10
-961.658104904091
 20
-163.867754809894
 30
0.0
 40
0.2
100
AcDbArc
 50
209.999999999998
 51
270.0
  0
ARC
  5
253
330
1CF
100
AcDbEntity
  8
Layer9
  6
AUSGEZOGEN
 62
   253
420
 10066329
370
    18
100
AcDbCircle
 10
-962.4
 20
-163.382754809894
 30
0.0
 40
0.2
100
AcDbArc
 50
29.999999999998
 51
150.000000000002
  0
ARC
  5
254
330
1CF
100
AcDbEntity
  8
Layer9
  6
AUSGEZOGEN
 62
   253
420
 10066329
370
    18
100
AcDbCircle
 10
-962.4
 20
-165.152754809894
 30
0.0
 40
4.2
100
AcDbArc
 50
90.0
 51
270.0
  0
ARC
  5
255
330
1CF
100
AcDbEntity
  8
Layer9
  6
AUSGEZOGEN
 62
   253
420
 10066329
370
    18
100
AcDbCircle
 10
-963.141895095909
 20
-163.867754809894
 30
0.0
 40
0.2
100
AcDbArc
 50
270.0
 51
330.000000000002
  0
ARC
  5
256
330
1CF
100
AcDbEntity
  8
Layer9
  6
AUSGEZOGEN
 62
   253
420
 10066329
370
    18
100
AcDbCircle
 10
-963.932864964698
 20
-164.267754809894
 30
0.0
 40
0.2
100
AcDbArc
 50
90.0
 51
209.999999999986
  0
ARC
  5
257
330
1CF
100
AcDbEntity
  8
Layer9
  6
AUSGEZOGEN
 62
   253
420
 10066329
370
    18
100
AcDbCircle
 10
-963.932864964698
 20
-166.037754809894
 30
0.0
 40
0.2
100
AcDbArc
 50
150.000000000014
 51
270.0
  0
ARC
  5
258
330
1CF
100
AcDbEntity
  8
Layer9
  6
AUSGEZOGEN
 62
   253
420
 10066329
370
    18
100
AcDbCircle
 10
-963.141895095909
 20
-166.437754809894
 30
0.0
 40
0.2
100
AcDbArc
 50
29.999999999998
 51
90.0
  0
ARC
  5
259
330
1CF
100
AcDbEntity
  8
Layer9
  6
AUSGEZOGEN
 62
   253
420
 10066329
370
    18
100
AcDbCircle
 10
-963.883790191817
 20
-165.152754809894
 30
0.0
 40
0.2
100
AcDbArc
 50
330.000000000016
 51
29.999999999984
  0
ARC
  5
25A
330
1CF
100
AcDbEntity
  8
Layer9
  6
AUSGEZOGEN
 62
   253
420
 10066329
370
    18
100
AcDbCircle
 10
-960.916209808183
 20
-165.152754809894
 30
0.0
 40
0.2
100
AcDbArc
 50
150.000000000016
 51
209.999999999984
  0
LINE
  5
25B
330
1CF
100
AcDbEntity
  8
Layer9
  6
AUSGEZOGEN
 62
   253
420
 10066329
370
    18
100
AcDbLine
 10
-798.867135035302
 20
-166.237754809894
 30
0.0
 11
-799.658104904091
 21
-166.237754809894
 31
0.0
  0
LINE
  5
25C
330
1CF
100
AcDbEntity
  8
Layer9
  6
AUSGEZOGEN
 62
   253
420
 10066329
370
    18
100
AcDbLine
 10
-800.226794919243
 20
-163.282754809894
 30
0.0
 11
-799.831309984848
 21
-163.967754809894
 31
0.0
  0
LINE
  5
25D
330
1CF
100
AcDbEntity
  8
Layer9
  6
AUSGEZOGEN
 62
   253
420
 10066329
370
    18
100
AcDbLine
 10
-799.658104904091
 20
-164.067754809894
 30
0.0
 11
-798.867135035302
 21
-164.067754809894
 31
0.0
  0
LINE
  5
25E
330
1CF
100
AcDbEntity
  8
Layer9
  6
AUSGEZOGEN
 62
   253
420
 10066329
370
    18
100
AcDbLine
 10
-801.932864964698
 20
-164.067754809894
 30
0.0
 11
-801.141895095909
 21
-164.067754809894
 31
0.0
  0
LINE
  5
25F
330
1CF
100
AcDbEntity
  8
Layer9
  6
AUSGEZOGEN
 62
   253
420
 10066329
370
    18
100
AcDbLine
 10
-800.573205080757
 20
-167.022754809894
 30
0.0
 11
-800.968690015152
 21
-166.337754809894
 31
0.0
  0
LINE
  5
260
330
1CF
100
AcDbEntity
  8
Layer9
  6
AUSGEZOGEN
 62
   253
420
 10066329
370
    18
100
AcDbLine
 10
-801.141895095909
 20
-166.237754809894
 30
0.0
 11
-801.932864964698
 21
-166.237754809894
 31
0.0
  0
LINE
  5
261
330
1CF
100
AcDbEntity
  8
Layer9
  6
AUSGEZOGEN
 62
   253
420
 10066329
370
    18
100
AcDbLine
 10
-801.71058511106
 20
-165.052754809894
 30
0.0
 11
-802.106070045455
 21
-164.367754809894
 31
0.0
  0
LINE
  5
262
330
1CF
100
AcDbEntity
  8
Layer9
  6
AUSGEZOGEN
 62
   253
420
 10066329
370
    18
100
AcDbLine
 10
-802.106070045455
 20
-165.937754809894
 30
0.0
 11
-801.71058511106
 21
-165.252754809894
 31
0.0
  0
LINE
  5
263
330
1CF
100
AcDbEntity
  8
Layer9
  6
AUSGEZOGEN
 62
   253
420
 10066329
370
    18
100
AcDbLine
 10
-800.968690015152
 20
-163.967754809894
 30
0.0
 11
-800.573205080757
 21
-163.282754809894
 31
0.0
  0
LINE
  5
264
330
1CF
100
AcDbEntity
  8
Layer9
  6
AUSGEZOGEN
 62
   253
420
 10066329
370
    18
100
AcDbLine
 10
-798.693929954545
 20
-164.367754809894
 30
0.0
 11
-799.08941488894
 21
-165.052754809894
 31
0.0
  0
LINE
  5
265
330
1CF
100
AcDbEntity
  8
Layer9
  6
AUSGEZOGEN
 62
   253
420
 10066329
370
    18
100
AcDbLine
 10
-799.08941488894
 20
-165.252754809894
 30
0.0
 11
-798.693929954545
 21
-165.937754809894
 31
0.0
  0
LINE
  5
266
330
1CF
100
AcDbEntity
  8
Layer9
  6
AUSGEZOGEN
 62
   253
420
 10066329
370
    18
100
AcDbLine
 10
-799.831309984848
 20
-166.337754809894
 30
0.0
 11
-800.226794919243
 21
-167.022754809894
 31
0.0
  0
ARC
  5
267
330
1CF
100
AcDbEntity
  8
Layer9
  6
AUSGEZOGEN
 62
   253
420
 10066329
370
    18
100
AcDbCircle
 10
-800.4
 20
-166.922754809894
 30
0.0
 40
0.2
100
AcDbArc
 50
209.999999999998
 51
330.000000000002
  0
ARC
  5
268
330
1CF
100
AcDbEntity
  8
Layer9
  6
AUSGEZOGEN
 62
   253
420
 10066329
370
    18
100
AcDbCircle
 10
-800.4
 20
-165.152754809894
 30
0.0
 40
4.2
100
AcDbArc
 50
270.0
 51
90.0
  0
ARC
  5
269
330
1CF
100
AcDbEntity
  8
Layer9
  6
AUSGEZOGEN
 62
   253
420
 10066329
370
    18
100
AcDbCircle
 10
-799.658104904091
 20
-166.437754809894
 30
0.0
 40
0.2
100
AcDbArc
 50
90.0
 51
150.000000000002
  0
ARC
  5
26A
330
1CF
100
AcDbEntity
  8
Layer9
  6
AUSGEZOGEN
 62
   253
420
 10066329
370
    18
100
AcDbCircle
 10
-798.867135035302
 20
-166.037754809894
 30
0.0
 40
0.2
100
AcDbArc
 50
270.0
 51
29.999999999986
  0
ARC
  5
26B
330
1CF
100
AcDbEntity
  8
Layer9
  6
AUSGEZOGEN
 62
   253
420
 10066329
370
    18
100
AcDbCircle
 10
-798.867135035302
 20
-164.267754809894
 30
0.0
 40
0.2
100
AcDbArc
 50
330.000000000014
 51
90.0
  0
ARC
  5
26C
330
1CF
100
AcDbEntity
  8
Layer9
  6
AUSGEZOGEN
 62
   253
420
 10066329
370
    18
100
AcDbCircle
 10
-799.658104904091
 20
-163.867754809894
 30
0.0
 40
0.2
100
AcDbArc
 50
209.999999999998
 51
270.0
  0
ARC
  5
26D
330
1CF
100
AcDbEntity
  8
Layer9
  6
AUSGEZOGEN
 62
   253
420
 10066329
370
    18
100
AcDbCircle
 10
-800.4
 20
-163.382754809894
 30
0.0
 40
0.2
100
AcDbArc
 50
29.999999999998
 51
150.000000000002
  0
ARC
  5
26E
330
1CF
100
AcDbEntity
  8
Layer9
  6
AUSGEZOGEN
 62
   253
420
 10066329
370
    18
100
AcDbCircle
 10
-800.4
 20
-165.152754809894
 30
0.0
 40
4.2
100
AcDbArc
 50
90.0
 51
270.0
  0
ARC
  5
26F
330
1CF
100
AcDbEntity
  8
Layer9
  6
AUSGEZOGEN
 62
   253
420
 10066329
370
    18
100
AcDbCircle
 10
-801.141895095909
 20
-163.867754809894
 30
0.0
 40
0.2
100
AcDbArc
 50
270.0
 51
330.000000000002
  0
ARC
  5
270
330
1CF
100
AcDbEntity
  8
Layer9
  6
AUSGEZOGEN
 62
   253
420
 10066329
370
    18
100
AcDbCircle
 10
-801.932864964698
 20
-164.267754809894
 30
0.0
 40
0.2
100
AcDbArc
 50
90.0
 51
209.999999999986
  0
ARC
  5
271
330
1CF
100
AcDbEntity
  8
Layer9
  6
AUSGEZOGEN
 62
   253
420
 10066329
370
    18
100
AcDbCircle
 10
-801.932864964698
 20
-166.037754809894
 30
0.0
 40
0.2
100
AcDbArc
 50
150.000000000014
 51
270.0
  0
ARC
  5
272
330
1CF
100
AcDbEntity
  8
Layer9
  6
AUSGEZOGEN
 62
   253
420
 10066329
370
    18
100
AcDbCircle
 10
-801.141895095909
 20
-166.437754809894
 30
0.0
 40
0.2
100
AcDbArc
 50
29.999999999998
 51
90.0
  0
ARC
  5
273
330
1CF
100
AcDbEntity
  8
Layer9
  6
AUSGEZOGEN
 62
   253
420
 10066329
370
    18
100
AcDbCircle
 10
-801.883790191817
 20
-165.152754809894
 30
0.0
 40
0.2
100
AcDbArc
 50
330.000000000016
 51
29.999999999984
  0
ARC
  5
274
330
1CF
100
AcDbEntity
  8
Layer9
  6
AUSGEZOGEN
 62
   253
420
 10066329
370
    18
100
AcDbCircle
 10
-798.916209808183
 20
-165.152754809894
 30
0.0
 40
0.2
100
AcDbArc
 50
150.000000000016
 51
209.999999999984
  0
ENDBLK
  5
1D1
330
1CF
100
AcDbEntity
  8
0
100
AcDbBlockEnd
  0
BLOCK
  5
277
330
276
100
AcDbEntity
  8
0
100
AcDbBlockBegin
  2
*D4
 70
     1
 10
0.0
 20
0.0
 30
0.0
  3
*D4
  1

  0
HATCH
  5
279
330
276
100
AcDbEntity
  8
Layer6
  6
AUSGEZOGEN
 62
    18
420
        0
370
    18
100
AcDbHatch
 10
0.0
 20
0.0
 30
0.0
210
0.0
220
0.0
230
1.0
  2
SOLID
 70
     1
 71
     0
 91
        1
 92
        2
 72
     0
 73
     1
 93
        3
 10
-606.0
 20
250.0
 10
-619.0256414413452
 20
251.9538462162018
 10
-619.0256414413452
 20
248.0461537837982
 97
        0
 75
     0
 76
     1
 98
        0
  0
HATCH
  5
27A
330
276
100
AcDbEntity
  8
Layer6
  6
AUSGEZOGEN
 62
    18
420
        0
370
    18
100
AcDbHatch
 10
0.0
 20
0.0
 30
0.0
210
0.0
220
0.0
230
1.0
  2
SOLID
 70
     1
 71
     0
 91
        1
 92
        2
 72
     0
 73
     1
 93
        3
 10
-1126.0
 20
250.0
 10
-1112.974358558655
 20
248.0461537837982
 10
-1112.974358558655
 20
251.9538462162018
 97
        0
 75
     0
 76
     1
 98
        0
  0
LINE
  5
27B
330
276
100
AcDbEntity
  8
Layer6
  6
AUSGEZOGEN
 62
    18
420
        0
370
    18
100
AcDbLine
 10
-1112.974358558655
 20
250.0
 30
0.0
 11
-619.025641441345
 21
250.0
 31
0.0
  0
LINE
  5
27C
330
276
100
AcDbEntity
  8
Layer6
  6
AUSGEZOGEN
 62
    18
420
        0
370
    18
100
AcDbLine
 10
-1126.0
 20
191.790688942243
 30
0.0
 11
-1126.0
 21
257.443223680769
 31
0.0
  0
LINE
  5
27D
330
276
100
AcDbEntity
  8
Layer6
  6
AUSGEZOGEN
 62
    18
420
        0
370
    18
100
AcDbLine
 10
-606.0
 20
191.790688942243
 30
0.0
 11
-606.0
 21
257.443223680769
 31
0.0
  0
WIPEOUT
  5
27E
330
276
100
AcDbEntity
  8
Layer6
  6
AUSGEZOGEN
 62
    18
420
        0
370
    18
160
               128
310
80000000020000000C00000014000000010000006C000000070000000400000085EB51B9138C8BC00000006551166F4000000000000000007B14AE46EC938AC00000006551166F4000000000000000007B14AE46EC938AC00000808A9DD87040000000000000000085EB51B9138C8BC00000808A9DD8704000000000000000
310
00
100
AcDbWipeout
 90
        0
 10
-881.509630813599
 20
248.697435855865
 30
0.0
 11
31.01926162719724
 21
0.0
 31
0.0
 12
0.0
 22
31.01926162719724
 32
0.0
 13
1.0
 23
1.0
340
0
 70
     7
280
     1
281
    50
282
    50
283
     0
360
0
 71
     2
 91
        5
 14
-0.5
 24
0.5
 14
0.5
 24
0.5
 14
0.5
 24
-0.171873707267
 14
-0.5
 24
-0.171873707267
 14
-0.5
 24
0.5
290
     0
  0
TEXT
  5
27F
330
276
100
AcDbEntity
  8
Layer6
  6
AUSGEZOGEN
 62
    18
420
        0
370
    18
100
AcDbText
 10
-881.509630813599
 20
252.605128288269
 30
0.0
 40
13.025641441345
  1
520
 41
1.02293811461
  7
Arial
 72
     5
 11
-850.490369186401
 21
252.605128288269
 31
0.0
100
AcDbText
  0
ENDBLK
  5
278
330
276
100
AcDbEntity
  8
0
100
AcDbBlockEnd
  0
BLOCK
  5
282
330
281
100
AcDbEntity
  8
0
100
AcDbBlockBegin
  2
*D5
 70
     1
 10
0.0
 20
0.0
 30
0.0
  3
*D5
  1

  0
HATCH
  5
284
330
281
100
AcDbEntity
  8
Layer6
  6
AUSGEZOGEN
 62
    18
420
        0
370
    18
100
AcDbHatch
 10
0.0
 20
0.0
 30
0.0
210
0.0
220
0.0
230
1.0
  2
SOLID
 70
     1
 71
     0
 91
        1
 92
        2
 72
     0
 73
     1
 93
        3
 10
-587.0
 20
16.85680240440414
 10
-600.0256414413452
 20
18.81064862060592
 10
-600.0256414413452
 20
14.90295618820236
 97
        0
 75
     0
 76
     1
 98
        0
  0
HATCH
  5
285
330
281
100
AcDbEntity
  8
Layer6
  6
AUSGEZOGEN
 62
    18
420
        0
370
    18
100
AcDbHatch
 10
0.0
 20
0.0
 30
0.0
210
0.0
220
0.0
230
1.0
  2
SOLID
 70
     1
 71
     0
 91
        1
 92
        2
 72
     0
 73
     1
 93
        3
 10
-1145.0
 20
16.85680240440414
 10
-1131.974358558655
 20
14.90295618820236
 10
-1131.974358558655
 20
18.81064862060592
 97
        0
 75
     0
 76
     1
 98
        0
  0
LINE
  5
286
330
281
100
AcDbEntity
  8
Layer6
  6
AUSGEZOGEN
 62
    18
420
        0
370
    18
100
AcDbLine
 10
-1131.974358558655
 20
16.856802404404
 30
0.0
 11
-600.025641441345
 21
16.856802404404
 31
0.0
  0
LINE
  5
287
330
281
100
AcDbEntity
  8
Layer6
  6
AUSGEZOGEN
 62
    18
420
        0
370
    18
100
AcDbLine
 10
-1145.0
 20
128.290688942243
 30
0.0
 11
-1145.0
 21
127.290688942243
 31
0.0
  0
LINE
  5
288
330
281
100
AcDbEntity
  8
Layer6
  6
AUSGEZOGEN
 62
    18
420
        0
370
    18
100
AcDbLine
 10
-1145.0
 20
126.290688942243
 30
0.0
 11
-1145.0
 21
9.413578723635
 31
0.0
  0
LINE
  5
289
330
281
100
AcDbEntity
  8
Layer6
  6
AUSGEZOGEN
 62
    18
420
        0
370
    18
100
AcDbLine
 10
-587.0
 20
126.790688942243
 30
0.0
 11
-587.0
 21
9.413578723635
 31
0.0
  0
WIPEOUT
  5
28A
330
281
100
AcDbEntity
  8
Layer6
  6
AUSGEZOGEN
 62
    18
420
        0
370
    18
160
               128
310
80000000020000000C00000014000000010000006C000000070000000400000085EB51B9138C8BC09219041EC51B2F4000000000000000007B14AE46EC938AC09219041EC51B2F4000000000000000007B14AE46EC938AC06406810798324240000000000000000085EB51B9138C8BC0640681079832424000000000000000
310
00
100
AcDbWipeout
 90
        0
 10
-881.509630813599
 20
15.55423826027
 30
0.0
 11
31.01926162719724
 21
0.0
 31
0.0
 12
0.0
 22
31.01926162719724
 32
0.0
 13
1.0
 23
1.0
340
0
 70
     7
280
     1
281
    50
282
    50
283
     0
360
0
 71
     2
 91
        5
 14
-0.5
 24
0.5
 14
0.5
 24
0.5
 14
0.5
 24
-0.171873707267
 14
-0.5
 24
-0.171873707267
 14
-0.5
 24
0.5
290
     0
  0
TEXT
  5
28B
330
281
100
AcDbEntity
  8
Layer6
  6
AUSGEZOGEN
 62
    18
420
        0
370
    18
100
AcDbText
 10
-881.509630813599
 20
19.461930692673
 30
0.0
 40
13.025641441345
  1
558
 41
1.02293811461
  7
Arial
 72
     5
 11
-850.490369186401
 21
19.461930692673
 31
0.0
100
AcDbText
  0
ENDBLK
  5
283
330
281
100
AcDbEntity
  8
0
100
AcDbBlockEnd
  0
BLOCK
  5
28E
330
28D
100
AcDbEntity
  8
0
100
AcDbBlockBegin
  2
*D6
 70
     1
 10
0.0
 20
0.0
 30
0.0
  3
*D6
  1

  0
HATCH
  5
290
330
28D
100
AcDbEntity
  8
Layer6
  6
AUSGEZOGEN
 62
    18
420
        0
370
    18
100
AcDbHatch
 10
0.0
 20
0.0
 30
0.0
210
0.0
220
0.0
230
1.0
  2
SOLID
 70
     1
 71
     0
 91
        1
 92
        2
 72
     0
 73
     1
 93
        3
 10
-316.5842336570952
 20
20.0
 10
-329.6098750984404
 20
21.95384621620178
 10
-329.6098750984404
 20
18.04615378379822
 97
        0
 75
     0
 76
     1
 98
        0
  0
HATCH
  5
291
330
28D
100
AcDbEntity
  8
Layer6
  6
AUSGEZOGEN
 62
    18
420
        0
370
    18
100
AcDbHatch
 10
0.0
 20
0.0
 30
0.0
210
0.0
220
0.0
230
1.0
  2
SOLID
 70
     1
 71
     0
 91
        1
 92
        2
 72
     0
 73
     1
 93
        3
 10
-372.5842336570952
 20
20.0
 10
-359.55859221575
 20
18.04615378379822
 10
-359.55859221575
 20
21.95384621620178
 97
        0
 75
     0
 76
     1
 98
        0
  0
LINE
  5
292
330
28D
100
AcDbEntity
  8
Layer6
  6
AUSGEZOGEN
 62
    18
420
        0
370
    18
100
AcDbLine
 10
-359.55859221575
 20
20.0
 30
0.0
 11
-329.60987509844
 21
20.0
 31
0.0
  0
LINE
  5
293
330
28D
100
AcDbEntity
  8
Layer6
  6
AUSGEZOGEN
 62
    18
420
        0
370
    18
100
AcDbLine
 10
-372.584233657095
 20
134.563510913584
 30
0.0
 11
-372.584233657095
 21
130.290688942243
 31
0.0
  0
LINE
  5
294
330
28D
100
AcDbEntity
  8
Layer6
  6
AUSGEZOGEN
 62
    18
420
        0
370
    18
100
AcDbLine
 10
-372.584233657095
 20
129.290688942243
 30
0.0
 11
-372.584233657095
 21
12.556776319231
 31
0.0
  0
LINE
  5
295
330
28D
100
AcDbEntity
  8
Layer6
  6
AUSGEZOGEN
 62
    18
420
        0
370
    18
100
AcDbLine
 10
-316.584233657095
 20
134.290688942243
 30
0.0
 11
-316.584233657095
 21
130.290688942243
 31
0.0
  0
LINE
  5
296
330
28D
100
AcDbEntity
  8
Layer6
  6
AUSGEZOGEN
 62
    18
420
        0
370
    18
100
AcDbLine
 10
-316.584233657095
 20
129.290688942243
 30
0.0
 11
-316.584233657095
 21
12.556776319231
 31
0.0
  0
WIPEOUT
  5
297
330
28D
100
AcDbEntity
  8
Layer6
  6
AUSGEZOGEN
 62
    18
420
        0
370
    18
160
               128
310
80000000020000000C00000014000000010000006C000000070000000400000080B626A7C82E76C0000000288BB232400000000000000000C897A163E9E374C0000000288BB232400000000000000000C897A163E9E374C000000054ECC44340000000000000000080B626A7C82E76C000000054ECC4434000000000000000
310
00
100
AcDbWipeout
 90
        0
 10
-354.923987532828
 20
18.697435855865
 30
0.0
 11
20.84102630615234
 21
0.0
 31
0.0
 12
0.0
 22
20.84102630615234
 32
0.0
 13
1.0
 23
1.0
340
0
 70
     7
280
     1
281
    50
282
    50
283
     0
360
0
 71
     2
 91
        5
 14
-0.5
 24
0.5
 14
0.492249971172
 24
0.5
 14
0.492249971172
 24
-0.5
 14
-0.5
 24
-0.5
 14
-0.5
 24
0.5
290
     0
  0
TEXT
  5
298
330
28D
100
AcDbEntity
  8
Layer6
  6
AUSGEZOGEN
 62
    18
420
        0
370
    18
100
AcDbText
 10
-354.923987532828
 20
22.605128288269
 30
0.0
 40
13.025641441345
  1
56
 41
1.02293811461
  7
Arial
 72
     5
 11
-334.244479781363
 21
22.605128288269
 31
0.0
100
AcDbText
  0
ENDBLK
  5
28F
330
28D
100
AcDbEntity
  8
0
100
AcDbBlockEnd
  0
ENDSEC
  0
SECTION
  2
ENTITIES
  0
INSERT
  5
172
330
1F
100
AcDbEntity
  8
0
100
AcDbBlockReference
  2
Draufsicht_nNn00
 10
0.0
 20
0.0
 30
0.0
  0
INSERT
  5
1CE
330
1F
100
AcDbEntity
  8
0
100
AcDbBlockReference
  2
Draufsicht-SL_nNn01
 10
0.0
 20
0.0
 30
0.0
  0
INSERT
  5
275
330
1F
100
AcDbEntity
  8
0
100
AcDbBlockReference
  2
Draufsicht-D_nNn02
 10
0.0
 20
0.0
 30
0.0
  0
DIMENSION
  5
280
330
1F
100
AcDbEntity
  8
Layer6
  6
AUSGEZOGEN
 62
    18
420
        0
370
    18
100
AcDbDimension
280
     0
  2
*D4
 10
-606.0
 20
250.0
 30
0.0
 11
-866.0
 21
259.117949008942
 31
0.0
 70
    32
 71
     5
 42
-1.0
 73
     0
 74
     0
 75
     0
  3
ISO-25
100
AcDbAlignedDimension
 13
-1126.0
 23
191.790688942243
 33
0.0
 14
-606.0
 24
191.790688942243
 34
0.0
100
AcDbRotatedDimension
1001
ACAD
1000
DSTYLE
1002
{
1070
     3
1000
<>
1070
   340
1005
6F
1070
    44
1040
9.304029600961
1070
   280
1070
     0
1070
    77
1070
     1
1070
    78
1070
     8
1070
   179
1070
     2
1070
   271
1070
     2
1070
   173
1070
     1
1070
    41
1040
13.025641441345
1070
   147
1040
1.860805920192
1070
   140
1040
13.025641441345
1070
   178
1070
    18
1070
   177
1070
    18
1070
   176
1070
    18
1002
}
  0
DIMENSION
  5
28C
330
1F
100
AcDbEntity
  8
Layer6
  6
AUSGEZOGEN
 62
    18
420
        0
370
    18
100
AcDbDimension
280
     0
  2
*D5
 10
-587.0
 20
16.856802404404
 30
0.0
 11
-866.0
 21
25.974751413346
 31
0.0
 70
    32
 71
     5
 42
-1.0
 73
     0
 74
     0
 75
     0
  3
ISO-25
100
AcDbAlignedDimension
 13
-1145.0
 23
128.290688942243
 33
0.0
 14
-587.0
 24
126.790688942243
 34
0.0
100
AcDbRotatedDimension
1001
ACAD
1000
DSTYLE
1002
{
1070
     3
1000
<>
1070
   340
1005
6F
1070
    44
1040
9.304029600961
1070
   280
1070
     0
1070
    77
1070
     1
1070
    78
1070
     8
1070
   179
1070
     2
1070
   271
1070
     2
1070
   173
1070
     1
1070
    41
1040
13.025641441345
1070
   147
1040
1.860805920192
1070
   140
1040
13.025641441345
1070
   178
1070
    18
1070
   177
1070
    18
1070
   176
1070
    18
1002
}
  0
DIMENSION
  5
299
330
1F
100
AcDbEntity
  8
Layer6
  6
AUSGEZOGEN
 62
    18
420
        0
370
    18
100
AcDbDimension
280
     0
  2
*D6
 10
-316.584233657095
 20
20.0
 30
0.0
 11
-344.584233657095
 21
29.117949008942
 31
0.0
 70
    32
 71
     5
 42
-1.0
 73
     0
 74
     0
 75
     0
  3
ISO-25
100
AcDbAlignedDimension
 13
-372.584233657095
 23
134.563510913584
 33
0.0
 14
-316.584233657095
 24
134.290688942243
 34
0.0
100
AcDbRotatedDimension
1001
ACAD
1000
DSTYLE
1002
{
1070
     3
1000
<>
1070
   340
1005
6F
1070
    44
1040
9.304029600961
1070
   280
1070
     0
1070
    77
1070
     1
1070
    78
1070
     8
1070
   179
1070
     2
1070
   271
1070
     2
1070
   173
1070
     1
1070
    41
1040
13.025641441345
1070
   147
1040
1.860805920192
1070
   140
1040
13.025641441345
1070
   178
1070
    18
1070
   177
1070
    18
1070
   176
1070
    18
1002
}
  0
ENDSEC
  0
SECTION
  2
OBJECTS
  0
DICTIONARY
  5
C
330
0
100
AcDbDictionary
281
     1
  3
ACAD_DETAILVIEWSTYLE
350
2D2
  3
ACAD_GROUP
350
D
  3
ACAD_LAYOUT
350
1A
  3
ACAD_MATERIAL
350
43
  3
ACAD_MLEADERSTYLE
350
6B
  3
ACAD_MLINESTYLE
350
17
  3
ACAD_PLOTSETTINGS
350
19
  3
ACAD_PLOTSTYLENAME
350
E
  3
ACAD_SCALELIST
350
47
  3
ACAD_SECTIONVIEWSTYLE
350
2D3
  3
ACAD_TABLESTYLE
350
69
  3
ACAD_VISUALSTYLE
350
2A
  3
ACAD_WIPEOUT_VARS
350
2CF
  3
ACDB_RECOMPOSE_DATA
350
2CE
  3
AcDbVariableDictionary
350
29A
  0
SUN
  5
6D
330
29
100
AcDbSun
 90
        1
290
     0
 63
     7
421
 16777215
 40
1.0
291
     1
 91
  2455826
 92
 54000000
292
     0
 70
     2
 71
   256
280
     1
  0
DICTIONARY
  5
2D2
102
{ACAD_REACTORS
330
C
102
}
330
C
100
AcDbDictionary
281
     1
  0
DICTIONARY
  5
D
102
{ACAD_REACTORS
330
C
102
}
330
C
100
AcDbDictionary
281
     1
  0
DICTIONARY
  5
1A
102
{ACAD_REACTORS
330
C
102
}
330
C
100
AcDbDictionary
281
     1
  3
Layout1
350
1E
  3
Layout2
350
26
  3
Model
350
22
  0
DICTIONARY
  5
43
102
{ACAD_REACTORS
330
C
102
}
330
C
100
AcDbDictionary
281
     1
  3
ByBlock
350
45
  3
ByLayer
350
44
  3
Global
350
46
  0
DICTIONARY
  5
6B
102
{ACAD_REACTORS
330
C
102
}
330
C
100
AcDbDictionary
281
     1
  3
Standard
350
6C
  0
DICTIONARY
  5
17
102
{ACAD_REACTORS
330
C
102
}
330
C
100
AcDbDictionary
281
     1
  3
Standard
350
18
  0
DICTIONARY
  5
19
102
{ACAD_REACTORS
330
C
102
}
330
C
100
AcDbDictionary
281
     1
  0
ACDBDICTIONARYWDFLT
  5
E
102
{ACAD_REACTORS
330
C
102
}
330
C
100
AcDbDictionary
281
     1
  3
Normal
350
F
100
AcDbDictionaryWithDefault
340
F
  0
DICTIONARY
  5
47
102
{ACAD_REACTORS
330
C
102
}
330
C
100
AcDbDictionary
281
     1
  3
A0
350
48
  3
A1
350
49
  3
A2
350
4A
  3
A3
350
4B
  3
A4
350
4C
  3
A5
350
4D
  3
A6
350
4E
  3
A7
350
4F
  3
A8
350
50
  3
A9
350
51
  3
B0
350
52
  3
B1
350
53
  3
B2
350
54
  3
B3
350
55
  3
B4
350
56
  3
B5
350
57
  3
B6
350
58
  3
B7
350
59
  3
B8
350
5A
  3
B9
350
5B
  3
C0
350
5C
  3
C1
350
5D
  3
C2
350
5E
  3
C3
350
5F
  3
C4
350
60
  3
C5
350
61
  3
C6
350
62
  3
C7
350
63
  3
C8
350
64
  3
C9
350
65
  3
D0
350
66
  3
D1
350
67
  3
D2
350
68
  0
DICTIONARY
  5
2D3
102
{ACAD_REACTORS
330
C
102
}
330
C
100
AcDbDictionary
281
     1
  0
DICTIONARY
  5
69
102
{ACAD_REACTORS
330
C
102
}
330
C
100
AcDbDictionary
281
     1
  3
Standard
350
6A
  0
DICTIONARY
  5
2A
102
{ACAD_REACTORS
330
C
102
}
330
C
100
AcDbDictionary
281
     1
  3
2dWireframe
350
2F
  3
Basic
350
32
  3
Brighten
350
36
  3
ColorChange
350
3A
  3
Conceptual
350
34
  3
Dim
350
35
  3
EdgeColorOff
350
3D
  3
Facepattern
350
39
  3
Flat
350
2B
  3
FlatWithEdges
350
2C
  3
Gouraud
350
2D
  3
GouraudWithEdges
350
2E
  3
Hidden
350
31
  3
JitterOff
350
3B
  3
Linepattern
350
38
  3
OverhangOff
350
3C
  3
Realistic
350
33
  3
Shaded
350
42
  3
Shaded with edges
350
41
  3
Shades of Gray
350
3E
  3
Sketchy
350
3F
  3
Thicken
350
37
  3
Wireframe
350
30
  3
X-Ray
350
40
  0
WIPEOUTVARIABLES
  5
2CF
102
{ACAD_REACTORS
330
C
102
}
330
C
100
AcDbWipeoutVariables
 70
     0
  0
XRECORD
  5
2CE
102
{ACAD_REACTORS
330
C
102
}
330
C
100
AcDbXrecord
280
     1
 90
        1
330
6A
  0
DICTIONARY
  5
29A
102
{ACAD_REACTORS
330
C
102
}
330
C
100
AcDbDictionary
281
     1
  3
CANNOSCALE
350
29B
  3
CENTEREXE
350
2D5
  3
CENTERLTYPEFILE
350
2D6
  3
CMLEADERSTYLE
350
2D1
  3
CTABLESTYLE
350
2D0
  3
WIPEOUTFRAME
350
2D4
  0
LAYOUT
  5
1E
102
{ACAD_REACTORS
330
1A
102
}
330
1A
100
AcDbPlotSettings
  1

  2
none_device
  4

  6

 40
0.0
 41
0.0
 42
0.0
 43
0.0
 44
0.0
 45
0.0
 46
0.0
 47
0.0
 48
0.0
 49
0.0
140
0.0
141
0.0
142
1.0
143
1.0
 70
   688
 72
     1
 73
     0
 74
     5
  7

 75
    16
 76
     0
 77
     2
 78
   300
147
1.0
148
0.0
149
0.0
100
AcDbLayout
  1
Layout1
 70
     1
 71
     1
 10
0.0
 20
0.0
 11
420.0
 21
297.0
 12
0.0
 22
0.0
 32
0.0
 14
1.000000000000E+20
 24
1.000000000000E+20
 34
1.000000000000E+20
 15
-1.000000000000E+20
 25
-1.000000000000E+20
 35
-1.000000000000E+20
146
0.0
 13
0.0
 23
0.0
 33
0.0
 16
1.0
 26
0.0
 36
0.0
 17
0.0
 27
1.0
 37
0.0
 76
     0
330
1B
  0
LAYOUT
  5
26
102
{ACAD_REACTORS
330
1A
102
}
330
1A
100
AcDbPlotSettings
  1

  2
none_device
  4

  6

 40
0.0
 41
0.0
 42
0.0
 43
0.0
 44
0.0
 45
0.0
 46
0.0
 47
0.0
 48
0.0
 49
0.0
140
0.0
141
0.0
142
1.0
143
1.0
 70
   688
 72
     1
 73
     0
 74
     5
  7

 75
    16
 76
     0
 77
     2
 78
   300
147
1.0
148
0.0
149
0.0
100
AcDbLayout
  1
Layout2
 70
     1
 71
     2
 10
0.0
 20
0.0
 11
0.0
 21
0.0
 12
0.0
 22
0.0
 32
0.0
 14
0.0
 24
0.0
 34
0.0
 15
0.0
 25
0.0
 35
0.0
146
0.0
 13
0.0
 23
0.0
 33
0.0
 16
1.0
 26
0.0
 36
0.0
 17
0.0
 27
1.0
 37
0.0
 76
     0
330
23
  0
LAYOUT
  5
22
102
{ACAD_REACTORS
330
1A
102
}
330
1A
100
AcDbPlotSettings
  1

  2
none_device
  4
Letter_(8.50_x_11.00_Inches)
  6

 40
6.35
 41
6.35
 42
6.35000508
 43
6.35000508
 44
215.9
 45
279.4
 46
0.0
 47
0.0
 48
0.0
 49
0.0
140
0.0
141
0.0
142
1.0
143
1.0
 70
  1712
 72
     1
 73
     0
 74
     0
  7

 75
     0
 76
     0
 77
     2
 78
   300
147
1.0
148
0.0
149
0.0
100
AcDbLayout
  1
Model
 70
     1
 71
     0
 10
0.0
 20
0.0
 11
420.0
 21
297.0
 12
0.0
 22
0.0
 32
0.0
 14
-1364.212235343916
 24
-215.148945965529
 34
0.0
 15
-112.493953544267
 25
279.640867844987
 35
0.0
146
0.0
 13
0.0
 23
0.0
 33
0.0
 16
1.0
 26
0.0
 36
0.0
 17
0.0
 27
1.0
 37
0.0
 76
     0
330
1F
331
29
  0
MATERIAL
  5
45
102
{ACAD_REACTORS
330
43
102
}
330
43
100
AcDbMaterial
  1
ByBlock
 72
     1
 94
      127
  0
MATERIAL
  5
44
102
{ACAD_REACTORS
330
43
102
}
330
43
100
AcDbMaterial
  1
ByLayer
 72
     1
 94
      127
  0
MATERIAL
  5
46
102
{ACAD_REACTORS
330
43
102
}
330
43
100
AcDbMaterial
  1
Global
 72
     1
 94
      127
  0
MLEADERSTYLE
  5
6C
102
{ACAD_REACTORS
330
6B
102
}
330
6B
100
AcDbMLeaderStyle
179
     2
170
     2
171
     1
172
     0
 90
        2
 40
0.0
 41
0.0
173
     1
 91
-1056964608
340
14
 92
       -2
290
     1
 42
2.0
291
     1
 43
8.0
  3
Standard
341
0
 44
4.0
300

342
11
174
     1
178
     6
175
     1
176
     0
 93
-1056964608
 45
4.0
292
     0
297
     0
 46
4.0
343
0
 94
-1056964608
 47
1.0
 49
1.0
140
1.0
293
     1
141
0.0
294
     1
177
     0
142
1.0
295
     0
296
     0
143
3.75
271
     0
272
     9
273
     9
  0
MLINESTYLE
  5
18
102
{ACAD_REACTORS
330
17
102
}
330
17
100
AcDbMlineStyle
  2
Standard
 70
     0
  3

 62
   256
 51
90.0
 52
90.0
 71
     2
 49
0.5
 62
   256
  6
BYLAYER
 49
-0.5
 62
   256
  6
BYLAYER
  0
ACDBPLACEHOLDER
  5
F
102
{ACAD_REACTORS
330
E
102
}
330
E
  0
SCALE
  5
48
102
{ACAD_REACTORS
330
47
102
}
330
47
100
AcDbScale
 70
     0
300
1:1
140
1.0
141
1.0
290
     1
  0
SCALE
  5
49
102
{ACAD_REACTORS
330
47
102
}
330
47
100
AcDbScale
 70
     0
300
1:2
140
1.0
141
2.0
290
     0
  0
SCALE
  5
4A
102
{ACAD_REACTORS
330
47
102
}
330
47
100
AcDbScale
 70
     0
300
1:4
140
1.0
141
4.0
290
     0
  0
SCALE
  5
4B
102
{ACAD_REACTORS
330
47
102
}
330
47
100
AcDbScale
 70
     0
300
1:5
140
1.0
141
5.0
290
     0
  0
SCALE
  5
4C
102
{ACAD_REACTORS
330
47
102
}
330
47
100
AcDbScale
 70
     0
300
1:8
140
1.0
141
8.0
290
     0
  0
SCALE
  5
4D
102
{ACAD_REACTORS
330
47
102
}
330
47
100
AcDbScale
 70
     0
300
1:10
140
1.0
141
10.0
290
     0
  0
SCALE
  5
4E
102
{ACAD_REACTORS
330
47
102
}
330
47
100
AcDbScale
 70
     0
300
1:16
140
1.0
141
16.0
290
     0
  0
SCALE
  5
4F
102
{ACAD_REACTORS
330
47
102
}
330
47
100
AcDbScale
 70
     0
300
1:20
140
1.0
141
20.0
290
     0
  0
SCALE
  5
50
102
{ACAD_REACTORS
330
47
102
}
330
47
100
AcDbScale
 70
     0
300
1:30
140
1.0
141
30.0
290
     0
  0
SCALE
  5
51
102
{ACAD_REACTORS
330
47
102
}
330
47
100
AcDbScale
 70
     0
300
1:40
140
1.0
141
40.0
290
     0
  0
SCALE
  5
52
102
{ACAD_REACTORS
330
47
102
}
330
47
100
AcDbScale
 70
     0
300
1:50
140
1.0
141
50.0
290
     0
  0
SCALE
  5
53
102
{ACAD_REACTORS
330
47
102
}
330
47
100
AcDbScale
 70
     0
300
1:100
140
1.0
141
100.0
290
     0
  0
SCALE
  5
54
102
{ACAD_REACTORS
330
47
102
}
330
47
100
AcDbScale
 70
     0
300
2:1
140
2.0
141
1.0
290
     0
  0
SCALE
  5
55
102
{ACAD_REACTORS
330
47
102
}
330
47
100
AcDbScale
 70
     0
300
4:1
140
4.0
141
1.0
290
     0
  0
SCALE
  5
56
102
{ACAD_REACTORS
330
47
102
}
330
47
100
AcDbScale
 70
     0
300
8:1
140
8.0
141
1.0
290
     0
  0
SCALE
  5
57
102
{ACAD_REACTORS
330
47
102
}
330
47
100
AcDbScale
 70
     0
300
10:1
140
10.0
141
1.0
290
     0
  0
SCALE
  5
58
102
{ACAD_REACTORS
330
47
102
}
330
47
100
AcDbScale
 70
     0
300
100:1
140
100.0
141
1.0
290
     0
  0
SCALE
  5
59
102
{ACAD_REACTORS
330
47
102
}
330
47
100
AcDbScale
 70
     0
300
1/128" = 1'-0"
140
0.0078125
141
12.0
290
     0
  0
SCALE
  5
5A
102
{ACAD_REACTORS
330
47
102
}
330
47
100
AcDbScale
 70
     0
300
1/64" = 1'-0"
140
0.015625
141
12.0
290
     0
  0
SCALE
  5
5B
102
{ACAD_REACTORS
330
47
102
}
330
47
100
AcDbScale
 70
     0
300
1/32" = 1'-0"
140
0.03125
141
12.0
290
     0
  0
SCALE
  5
5C
102
{ACAD_REACTORS
330
47
102
}
330
47
100
AcDbScale
 70
     0
300
1/16" = 1'-0"
140
0.0625
141
12.0
290
     0
  0
SCALE
  5
5D
102
{ACAD_REACTORS
330
47
102
}
330
47
100
AcDbScale
 70
     0
300
3/32" = 1'-0"
140
0.09375
141
12.0
290
     0
  0
SCALE
  5
5E
102
{ACAD_REACTORS
330
47
102
}
330
47
100
AcDbScale
 70
     0
300
1/8" = 1'-0"
140
0.125
141
12.0
290
     0
  0
SCALE
  5
5F
102
{ACAD_REACTORS
330
47
102
}
330
47
100
AcDbScale
 70
     0
300
3/16" = 1'-0"
140
0.1875
141
12.0
290
     0
  0
SCALE
  5
60
102
{ACAD_REACTORS
330
47
102
}
330
47
100
AcDbScale
 70
     0
300
1/4" = 1'-0"
140
0.25
141
12.0
290
     0
  0
SCALE
  5
61
102
{ACAD_REACTORS
330
47
102
}
330
47
100
AcDbScale
 70
     0
300
3/8" = 1'-0"
140
0.375
141
12.0
290
     0
  0
SCALE
  5
62
102
{ACAD_REACTORS
330
47
102
}
330
47
100
AcDbScale
 70
     0
300
1/2" = 1'-0"
140
0.5
141
12.0
290
     0
  0
SCALE
  5
63
102
{ACAD_REACTORS
330
47
102
}
330
47
100
AcDbScale
 70
     0
300
3/4" = 1'-0"
140
0.75
141
12.0
290
     0
  0
SCALE
  5
64
102
{ACAD_REACTORS
330
47
102
}
330
47
100
AcDbScale
 70
     0
300
1" = 1'-0"
140
1.0
141
12.0
290
     0
  0
SCALE
  5
65
102
{ACAD_REACTORS
330
47
102
}
330
47
100
AcDbScale
 70
     0
300
1-1/2" = 1'-0"
140
1.5
141
12.0
290
     0
  0
SCALE
  5
66
102
{ACAD_REACTORS
330
47
102
}
330
47
100
AcDbScale
 70
     0
300
3" = 1'-0"
140
3.0
141
12.0
290
     0
  0
SCALE
  5
67
102
{ACAD_REACTORS
330
47
102
}
330
47
100
AcDbScale
 70
     0
300
6" = 1'-0"
140
6.0
141
12.0
290
     0
  0
SCALE
  5
68
102
{ACAD_REACTORS
330
47
102
}
330
47
100
AcDbScale
 70
     0
300
1'-0" = 1'-0"
140
12.0
141
12.0
290
     0
  0
TABLESTYLE
  5
6A
102
{ACAD_REACTORS
330
69
102
}
102
{ACAD_XDICTIONARY
360
2CC
102
}
330
69
100
AcDbTableStyle
  3
Standard
 70
     0
 71
     0
 40
0.06
 41
0.06
280
     0
281
     0
  7
Standard
140
4.5
170
     2
 62
     0
 63
   257
283
     0
 90
        4
 91
        0
  1

274
    -2
284
     1
 64
     0
275
    -2
285
     1
 65
     0
276
    -2
286
     1
 66
     0
277
    -2
287
     1
 67
     0
278
    -2
288
     1
 68
     0
279
    -2
289
     1
 69
     0
  7
Standard
140
6.0
170
     5
 62
     0
 63
   257
283
     0
 90
        4
 91
        0
  1

274
    -2
284
     1
 64
     0
275
    -2
285
     1
 65
     0
276
    -2
286
     1
 66
     0
277
    -2
287
     1
 67
     0
278
    -2
288
     1
 68
     0
279
    -2
289
     1
 69
     0
  7
Standard
140
4.5
170
     5
 62
     0
 63
   257
283
     0
 90
        4
 91
        0
  1

274
    -2
284
     1
 64
     0
275
    -2
285
     1
 65
     0
276
    -2
286
     1
 66
     0
277
    -2
287
     1
 67
     0
278
    -2
288
     1
 68
     0
279
    -2
289
     1
 69
     0
  0
VISUALSTYLE
  5
2F
102
{ACAD_REACTORS
330
2A
102
}
102
{ACAD_XDICTIONARY
360
2A4
102
}
330
2A
100
AcDbVisualStyle
  2
2dWireframe
 70
     4
177
     2
291
     0
 71
     0
176
     1
 72
     2
176
     1
 73
     0
176
     1
 90
        0
176
     1
 40
0.6
176
     1
 41
30.0
176
     1
 62
     5
 63
     7
421
 16777215
176
     1
 74
     1
176
     1
 91
        4
176
     1
 64
     7
176
     1
 65
   257
176
     1
 75
     1
176
     1
175
     1
176
     1
 42
1.0
176
     1
 92
        0
176
     1
 66
   257
176
     1
 43
1.0
176
     1
 76
     1
176
     1
 77
     6
176
     1
 78
     2
176
     1
 67
     7
176
     1
 79
     5
176
     1
170
     0
176
     1
171
     0
176
     1
290
     0
176
     1
 93
        1
176
     1
 44
0.0
176
     1
173
     0
176
     1
  0
VISUALSTYLE
  5
32
102
{ACAD_REACTORS
330
2A
102
}
102
{ACAD_XDICTIONARY
360
2AA
102
}
330
2A
100
AcDbVisualStyle
  2
Basic
 70
     7
177
     2
291
     1
 71
     1
176
     1
 72
     0
176
     1
 73
     1
176
     1
 90
        0
176
     1
 40
0.6
176
     1
 41
30.0
176
     1
 62
     5
 63
     7
421
 16777215
176
     1
 74
     0
176
     1
 91
        4
176
     1
 64
     7
176
     1
 65
   257
176
     1
 75
     1
176
     1
175
     1
176
     1
 42
1.0
176
     1
 92
        8
176
     1
 66
     7
176
     1
 43
1.0
176
     1
 76
     1
176
     1
 77
     6
176
     1
 78
     2
176
     1
 67
     7
176
     1
 79
     5
176
     1
170
     0
176
     1
171
     0
176
     1
290
     0
176
     1
 93
        1
176
     1
 44
0.0
176
     1
173
     0
176
     1
  0
VISUALSTYLE
  5
36
102
{ACAD_REACTORS
330
2A
102
}
102
{ACAD_XDICTIONARY
360
2B2
102
}
330
2A
100
AcDbVisualStyle
  2
Brighten
 70
    12
177
     2
291
     1
 71
     2
176
     1
 72
     2
176
     1
 73
     0
176
     1
 90
        0
176
     1
 40
0.6
176
     1
 41
30.0
176
     1
 62
     5
 63
     7
421
 16777215
176
     1
 74
     1
176
     1
 91
        4
176
     1
 64
     7
176
     1
 65
   257
176
     1
 75
     1
176
     1
175
     1
176
     1
 42
1.0
176
     1
 92
        8
176
     1
 66
     7
176
     1
 43
1.0
176
     1
 76
     1
176
     1
 77
     6
176
     1
 78
     2
176
     1
 67
     7
176
     1
 79
     5
176
     1
170
     0
176
     1
171
     0
176
     1
290
     0
176
     1
 93
        1
176
     1
 44
50.0
176
     1
173
     0
176
     1
  0
VISUALSTYLE
  5
3A
102
{ACAD_REACTORS
330
2A
102
}
102
{ACAD_XDICTIONARY
360
2BA
102
}
330
2A
100
AcDbVisualStyle
  2
ColorChange
 70
    16
177
     2
291
     1
 71
     2
176
     1
 72
     2
176
     1
 73
     3
176
     1
 90
        0
176
     1
 40
0.6
176
     1
 41
30.0
176
     1
 62
     5
 63
     8
421
  8421504
176
     1
 74
     1
176
     1
 91
        4
176
     1
 64
     7
176
     1
 65
   257
176
     1
 75
     1
176
     1
175
     1
176
     1
 42
1.0
176
     1
 92
        8
176
     1
 66
     8
424
  8421504
176
     1
 43
1.0
176
     1
 76
     1
176
     1
 77
     6
176
     1
 78
     2
176
     1
 67
     7
176
     1
 79
     5
176
     1
170
     0
176
     1
171
     0
176
     1
290
     0
176
     1
 93
        1
176
     1
 44
0.0
176
     1
173
     0
176
     1
  0
VISUALSTYLE
  5
34
102
{ACAD_REACTORS
330
2A
102
}
102
{ACAD_XDICTIONARY
360
2AE
102
}
330
2A
100
AcDbVisualStyle
  2
Conceptual
 70
     9
177
     2
291
     0
 71
     3
176
     1
 72
     2
176
     1
 73
     0
176
     1
 90
        0
176
     1
 40
0.6
176
     1
 41
30.0
176
     1
 62
     5
 63
     7
421
 16777215
176
     1
 74
     2
176
     1
 91
        2
176
     1
 64
     7
176
     1
 65
   257
176
     1
 75
     1
176
     1
175
     1
176
     1
 42
179.0
176
     1
 92
        8
176
     1
 66
     7
176
     1
 43
1.0
176
     1
 76
     1
176
     1
 77
     6
176
     1
 78
     2
176
     1
 67
     7
176
     1
 79
     3
176
     1
170
     0
176
     1
171
     0
176
     1
290
     0
176
     1
 93
        1
176
     1
 44
0.0
176
     1
173
     0
176
     1
  0
VISUALSTYLE
  5
35
102
{ACAD_REACTORS
330
2A
102
}
102
{ACAD_XDICTIONARY
360
2B0
102
}
330
2A
100
AcDbVisualStyle
  2
Dim
 70
    11
177
     2
291
     1
 71
     2
176
     1
 72
     2
176
     1
 73
     0
176
     1
 90
        0
176
     1
 40
0.6
176
     1
 41
30.0
176
     1
 62
     5
 63
     7
421
 16777215
176
     1
 74
     1
176
     1
 91
        4
176
     1
 64
     7
176
     1
 65
   257
176
     1
 75
     1
176
     1
175
     1
176
     1
 42
1.0
176
     1
 92
        8
176
     1
 66
     7
176
     1
 43
1.0
176
     1
 76
     1
176
     1
 77
     6
176
     1
 78
     2
176
     1
 67
     7
176
     1
 79
     5
176
     1
170
     0
176
     1
171
     0
176
     1
290
     0
176
     1
 93
        1
176
     1
 44
-50.0
176
     1
173
     0
176
     1
  0
VISUALSTYLE
  5
3D
102
{ACAD_REACTORS
330
2A
102
}
102
{ACAD_XDICTIONARY
360
2C0
102
}
330
2A
100
AcDbVisualStyle
  2
EdgeColorOff
 70
    22
177
     2
291
     1
 71
     2
176
     0
 72
     2
176
     0
 73
     0
176
     0
 90
        0
176
     0
 40
0.6
176
     0
 41
30.0
176
     0
 62
     5
 63
     7
421
 16777215
176
     0
 74
     1
176
     0
 91
        4
176
     0
 64
     7
176
     0
 65
   257
176
     0
 75
     1
176
     0
175
     1
176
     0
 42
1.0
176
     0
 92
        8
176
     2
 66
     7
176
     0
 43
1.0
176
     0
 76
     1
176
     0
 77
     6
176
     0
 78
     2
176
     0
 67
     7
176
     0
 79
     5
176
     0
170
     0
176
     0
171
     0
176
     0
290
     0
176
     0
 93
        1
176
     0
 44
0.0
176
     0
173
     0
176
     0
  0
VISUALSTYLE
  5
39
102
{ACAD_REACTORS
330
2A
102
}
102
{ACAD_XDICTIONARY
360
2B8
102
}
330
2A
100
AcDbVisualStyle
  2
Facepattern
 70
    15
177
     2
291
     1
 71
     2
176
     1
 72
     2
176
     1
 73
     0
176
     1
 90
        0
176
     1
 40
0.6
176
     1
 41
30.0
176
     1
 62
     5
 63
     7
421
 16777215
176
     1
 74
     1
176
     1
 91
        4
176
     1
 64
     7
176
     1
 65
   257
176
     1
 75
     1
176
     1
175
     1
176
     1
 42
1.0
176
     1
 92
        8
176
     1
 66
     7
176
     1
 43
1.0
176
     1
 76
     1
176
     1
 77
     6
176
     1
 78
     2
176
     1
 67
     7
176
     1
 79
     5
176
     1
170
     0
176
     1
171
     0
176
     1
290
     0
176
     1
 93
        1
176
     1
 44
0.0
176
     1
173
     0
176
     1
  0
VISUALSTYLE
  5
2B
102
{ACAD_REACTORS
330
2A
102
}
102
{ACAD_XDICTIONARY
360
29C
102
}
330
2A
100
AcDbVisualStyle
  2
Flat
 70
     0
177
     2
291
     1
 71
     2
176
     1
 72
     1
176
     1
 73
     1
176
     1
 90
        2
176
     1
 40
0.6
176
     1
 41
30.0
176
     1
 62
     5
 63
     7
421
 16777215
176
     1
 74
     0
176
     1
 91
        0
176
     1
 64
     7
176
     1
 65
   257
176
     1
 75
     1
176
     1
175
     1
176
     1
 42
1.0
176
     1
 92
        8
176
     1
 66
     7
176
     1
 43
1.0
176
     1
 76
     1
176
     1
 77
     6
176
     1
 78
     2
176
     1
 67
     7
176
     1
 79
     5
176
     1
170
     0
176
     1
171
     0
176
     1
290
     0
176
     1
 93
       13
176
     1
 44
0.0
176
     1
173
     0
176
     1
  0
VISUALSTYLE
  5
2C
102
{ACAD_REACTORS
330
2A
102
}
102
{ACAD_XDICTIONARY
360
29E
102
}
330
2A
100
AcDbVisualStyle
  2
FlatWithEdges
 70
     1
177
     2
291
     1
 71
     2
176
     1
 72
     1
176
     1
 73
     1
176
     1
 90
        2
176
     1
 40
0.6
176
     1
 41
30.0
176
     1
 62
     5
 63
     7
421
 16777215
176
     1
 74
     1
176
     1
 91
        0
176
     1
 64
     7
176
     1
 65
   257
176
     1
 75
     1
176
     1
175
     1
176
     1
 42
1.0
176
     1
 92
        0
176
     1
 66
   257
176
     1
 43
1.0
176
     1
 76
     1
176
     1
 77
     6
176
     1
 78
     2
176
     1
 67
     7
176
     1
 79
     5
176
     1
170
     0
176
     1
171
     0
176
     1
290
     0
176
     1
 93
       13
176
     1
 44
0.0
176
     1
173
     0
176
     1
  0
VISUALSTYLE
  5
2D
102
{ACAD_REACTORS
330
2A
102
}
102
{ACAD_XDICTIONARY
360
2A0
102
}
330
2A
100
AcDbVisualStyle
  2
Gouraud
 70
     2
177
     2
291
     1
 71
     2
176
     1
 72
     2
176
     1
 73
     1
176
     1
 90
        2
176
     1
 40
0.6
176
     1
 41
30.0
176
     1
 62
     5
 63
     7
421
 16777215
176
     1
 74
     0
176
     1
 91
        0
176
     1
 64
     7
176
     1
 65
   257
176
     1
 75
     1
176
     1
175
     1
176
     1
 42
1.0
176
     1
 92
        0
176
     1
 66
     7
176
     1
 43
1.0
176
     1
 76
     1
176
     1
 77
     6
176
     1
 78
     2
176
     1
 67
     7
176
     1
 79
     5
176
     1
170
     0
176
     1
171
     0
176
     1
290
     0
176
     1
 93
       13
176
     1
 44
0.0
176
     1
173
     0
176
     1
  0
VISUALSTYLE
  5
2E
102
{ACAD_REACTORS
330
2A
102
}
102
{ACAD_XDICTIONARY
360
2A2
102
}
330
2A
100
AcDbVisualStyle
  2
GouraudWithEdges
 70
     3
177
     2
291
     1
 71
     2
176
     1
 72
     2
176
     1
 73
     1
176
     1
 90
        2
176
     1
 40
0.6
176
     1
 41
30.0
176
     1
 62
     5
 63
     7
421
 16777215
176
     1
 74
     1
176
     1
 91
        0
176
     1
 64
     7
176
     1
 65
   257
176
     1
 75
     1
176
     1
175
     1
176
     1
 42
1.0
176
     1
 92
        0
176
     1
 66
   257
176
     1
 43
1.0
176
     1
 76
     1
176
     1
 77
     6
176
     1
 78
     2
176
     1
 67
     7
176
     1
 79
     5
176
     1
170
     0
176
     1
171
     0
176
     1
290
     0
176
     1
 93
       13
176
     1
 44
0.0
176
     1
173
     0
176
     1
  0
VISUALSTYLE
  5
31
102
{ACAD_REACTORS
330
2A
102
}
102
{ACAD_XDICTIONARY
360
2A8
102
}
330
2A
100
AcDbVisualStyle
  2
Hidden
 70
     6
177
     2
291
     0
 71
     1
176
     1
 72
     2
176
     1
 73
     2
176
     1
 90
        0
176
     1
 40
0.6
176
     1
 41
30.0
176
     1
 62
     5
 63
     7
421
 16777215
176
     1
 74
     2
176
     1
 91
        2
176
     1
 64
     7
176
     1
 65
   257
176
     1
 75
     2
176
     1
175
     1
176
     1
 42
40.0
176
     1
 92
        0
176
     1
 66
   257
176
     1
 43
1.0
176
     1
 76
     1
176
     1
 77
     6
176
     1
 78
     2
176
     1
 67
     7
176
     1
 79
     3
176
     1
170
     0
176
     1
171
     0
176
     1
290
     0
176
     1
 93
        1
176
     1
 44
0.0
176
     1
173
     0
176
     1
  0
VISUALSTYLE
  5
3B
102
{ACAD_REACTORS
330
2A
102
}
102
{ACAD_XDICTIONARY
360
2BC
102
}
330
2A
100
AcDbVisualStyle
  2
JitterOff
 70
    20
177
     2
291
     1
 71
     2
176
     0
 72
     2
176
     0
 73
     0
176
     0
 90
        0
176
     0
 40
0.6
176
     0
 41
30.0
176
     0
 62
     5
 63
     7
421
 16777215
176
     0
 74
     1
176
     0
 91
        4
176
     0
 64
     7
176
     0
 65
   257
176
     0
 75
     1
176
     0
175
     1
176
     0
 42
1.0
176
     0
 92
       10
176
     2
 66
     7
176
     0
 43
1.0
176
     0
 76
     1
176
     0
 77
     6
176
     0
 78
     2
176
     0
 67
     7
176
     0
 79
     5
176
     0
170
     0
176
     0
171
     0
176
     0
290
     0
176
     0
 93
        1
176
     0
 44
0.0
176
     0
173
     0
176
     0
  0
VISUALSTYLE
  5
38
102
{ACAD_REACTORS
330
2A
102
}
102
{ACAD_XDICTIONARY
360
2B6
102
}
330
2A
100
AcDbVisualStyle
  2
Linepattern
 70
    14
177
     2
291
     1
 71
     2
176
     1
 72
     2
176
     1
 73
     0
176
     1
 90
        0
176
     1
 40
0.6
176
     1
 41
30.0
176
     1
 62
     5
 63
     7
421
 16777215
176
     1
 74
     1
176
     1
 91
        4
176
     1
 64
     7
176
     1
 65
   257
176
     1
 75
     7
176
     1
175
     7
176
     1
 42
1.0
176
     1
 92
        8
176
     1
 66
     7
176
     1
 43
1.0
176
     1
 76
     1
176
     1
 77
     6
176
     1
 78
     2
176
     1
 67
     7
176
     1
 79
     5
176
     1
170
     0
176
     1
171
     0
176
     1
290
     0
176
     1
 93
        1
176
     1
 44
0.0
176
     1
173
     0
176
     1
  0
VISUALSTYLE
  5
3C
102
{ACAD_REACTORS
330
2A
102
}
102
{ACAD_XDICTIONARY
360
2BE
102
}
330
2A
100
AcDbVisualStyle
  2
OverhangOff
 70
    21
177
     2
291
     1
 71
     2
176
     0
 72
     2
176
     0
 73
     0
176
     0
 90
        0
176
     0
 40
0.6
176
     0
 41
30.0
176
     0
 62
     5
 63
     7
421
 16777215
176
     0
 74
     1
176
     0
 91
        4
176
     0
 64
     7
176
     0
 65
   257
176
     0
 75
     1
176
     0
175
     1
176
     0
 42
1.0
176
     0
 92
        9
176
     2
 66
     7
176
     0
 43
1.0
176
     0
 76
     1
176
     0
 77
     6
176
     0
 78
     2
176
     0
 67
     7
176
     0
 79
     5
176
     0
170
     0
176
     0
171
     0
176
     0
290
     0
176
     0
 93
        1
176
     0
 44
0.0
176
     0
173
     0
176
     0
  0
VISUALSTYLE
  5
33
102
{ACAD_REACTORS
330
2A
102
}
102
{ACAD_XDICTIONARY
360
2AC
102
}
330
2A
100
AcDbVisualStyle
  2
Realistic
 70
     8
177
     2
291
     0
 71
     2
176
     1
 72
     3
176
     1
 73
     0
176
     1
 90
        2
176
     1
 40
0.6
176
     1
 41
30.0
176
     1
 62
     5
 63
     7
421
 16777215
176
     1
 74
     0
176
     1
 91
        0
176
     1
 64
     7
176
     1
 65
   257
176
     1
 75
     1
176
     1
175
     1
176
     1
 42
1.0
176
     1
 92
        8
176
     1
 66
   257
176
     1
 43
1.0
176
     1
 76
     1
176
     1
 77
     6
176
     1
 78
     2
176
     1
 67
     7
176
     1
 79
     3
176
     1
170
     0
176
     1
171
     0
176
     1
290
     0
176
     1
 93
       13
176
     1
 44
0.0
176
     1
173
     0
176
     1
  0
VISUALSTYLE
  5
42
102
{ACAD_REACTORS
330
2A
102
}
102
{ACAD_XDICTIONARY
360
2CA
102
}
330
2A
100
AcDbVisualStyle
  2
Shaded
 70
    27
177
     2
291
     0
 71
     2
176
     1
 72
     2
176
     1
 73
     1
176
     1
 90
        2
176
     1
 40
0.6
176
     1
 41
30.0
176
     1
 62
     5
 63
     7
421
 16777215
176
     1
 74
     0
176
     1
 91
        4
176
     1
 64
     7
176
     1
 65
   257
176
     1
 75
     1
176
     1
175
     1
176
     1
 42
1.0
176
     1
 92
        8
176
     1
 66
   257
176
     1
 43
1.0
176
     1
 76
     1
176
     1
 77
     6
176
     1
 78
     2
176
     1
 67
     8
425
  7895160
176
     1
 79
     3
176
     1
170
     0
176
     1
171
     0
176
     1
290
     0
176
     1
 93
        5
176
     1
 44
0.0
176
     1
173
     0
176
     1
  0
VISUALSTYLE
  5
41
102
{ACAD_REACTORS
330
2A
102
}
102
{ACAD_XDICTIONARY
360
2C8
102
}
330
2A
100
AcDbVisualStyle
  2
Shaded with edges
 70
    26
177
     2
291
     0
 71
     2
176
     1
 72
     2
176
     1
 73
     1
176
     1
 90
        2
176
     1
 40
0.6
176
     1
 41
30.0
176
     1
 62
     5
 63
     7
421
 16777215
176
     1
 74
     1
176
     1
 91
       10
176
     1
 64
     7
176
     1
 65
   257
176
     1
 75
     2
176
     1
175
     1
176
     1
 42
1.0
176
     1
 92
        8
176
     1
 66
   257
176
     1
 43
1.0
176
     1
 76
     1
176
     1
 77
     6
176
     1
 78
     2
176
     1
 67
     7
176
     1
 79
     3
176
     1
170
     0
176
     1
171
     0
176
     1
290
     0
176
     1
 93
        5
176
     1
 44
0.0
176
     1
173
     0
176
     1
  0
VISUALSTYLE
  5
3E
102
{ACAD_REACTORS
330
2A
102
}
102
{ACAD_XDICTIONARY
360
2C2
102
}
330
2A
100
AcDbVisualStyle
  2
Shades of Gray
 70
    23
177
     2
291
     0
 71
     2
176
     1
 72
     2
176
     1
 73
     3
176
     1
 90
        0
176
     1
 40
0.6
176
     1
 41
30.0
176
     1
 62
     5
 63
     7
421
 16777215
176
     1
 74
     2
176
     1
 91
        2
176
     1
 64
     7
176
     1
 65
     7
176
     1
 75
     1
176
     1
175
     1
176
     1
 42
40.0
176
     1
 92
        8
176
     1
 66
     7
176
     1
 43
1.0
176
     1
 76
     1
176
     1
 77
     6
176
     1
 78
     2
176
     1
 67
     7
176
     1
 79
     3
176
     1
170
     0
176
     1
171
     0
176
     1
290
     0
176
     1
 93
        1
176
     1
 44
0.0
176
     1
173
     0
176
     1
  0
VISUALSTYLE
  5
3F
102
{ACAD_REACTORS
330
2A
102
}
102
{ACAD_XDICTIONARY
360
2C4
102
}
330
2A
100
AcDbVisualStyle
  2
Sketchy
 70
    24
177
     2
291
     0
 71
     1
176
     1
 72
     2
176
     1
 73
     2
176
     1
 90
        0
176
     1
 40
0.6
176
     1
 41
30.0
176
     1
 62
     5
 63
     7
421
 16777215
176
     1
 74
     2
176
     1
 91
        2
176
     1
 64
     7
176
     1
 65
     7
176
     1
 75
     1
176
     1
175
     1
176
     1
 42
40.0
176
     1
 92
       11
176
     1
 66
     7
176
     1
 43
1.0
176
     1
 76
     1
176
     1
 77
     6
176
     1
 78
     2
176
     1
 67
     7
176
     1
 79
     6
176
     1
170
     0
176
     1
171
     0
176
     1
290
     0
176
     1
 93
        1
176
     1
 44
0.0
176
     1
173
     0
176
     1
  0
VISUALSTYLE
  5
37
102
{ACAD_REACTORS
330
2A
102
}
102
{ACAD_XDICTIONARY
360
2B4
102
}
330
2A
100
AcDbVisualStyle
  2
Thicken
 70
    13
177
     2
291
     1
 71
     2
176
     1
 72
     2
176
     1
 73
     0
176
     1
 90
        0
176
     1
 40
0.6
176
     1
 41
30.0
176
     1
 62
     5
 63
     7
421
 16777215
176
     1
 74
     1
176
     1
 91
        4
176
     1
 64
     7
176
     1
 65
   257
176
     1
 75
     1
176
     1
175
     1
176
     1
 42
1.0
176
     1
 92
       12
176
     1
 66
     7
176
     1
 43
1.0
176
     1
 76
     1
176
     1
 77
     6
176
     1
 78
     2
176
     1
 67
     7
176
     1
 79
     5
176
     1
170
     0
176
     1
171
     0
176
     1
290
     0
176
     1
 93
        1
176
     1
 44
0.0
176
     1
173
     0
176
     1
  0
VISUALSTYLE
  5
30
102
{ACAD_REACTORS
330
2A
102
}
102
{ACAD_XDICTIONARY
360
2A6
102
}
330
2A
100
AcDbVisualStyle
  2
Wireframe
 70
     5
177
     2
291
     0
 71
     0
176
     1
 72
     2
176
     1
 73
     0
176
     1
 90
        0
176
     1
 40
0.6
176
     1
 41
30.0
176
     1
 62
     5
 63
     7
421
 16777215
176
     1
 74
     1
176
     1
 91
        4
176
     1
 64
     7
176
     1
 65
   257
176
     1
 75
     1
176
     1
175
     1
176
     1
 42
1.0
176
     1
 92
        0
176
     1
 66
   257
176
     1
 43
1.0
176
     1
 76
     1
176
     1
 77
     6
176
     1
 78
     2
176
     1
 67
     7
176
     1
 79
     3
176
     1
170
     0
176
     1
171
     0
176
     1
290
     0
176
     1
 93
        1
176
     1
 44
0.0
176
     1
173
     0
176
     1
  0
VISUALSTYLE
  5
40
102
{ACAD_REACTORS
330
2A
102
}
102
{ACAD_XDICTIONARY
360
2C6
102
}
330
2A
100
AcDbVisualStyle
  2
X-Ray
 70
    25
177
     2
291
     0
 71
     2
176
     1
 72
     2
176
     1
 73
     1
176
     1
 90
        1
176
     1
 40
0.5
176
     1
 41
30.0
176
     1
 62
     5
 63
     7
421
 16777215
176
     1
 74
     1
176
     1
 91
        0
176
     1
 64
     7
176
     1
 65
   257
176
     1
 75
     1
176
     1
175
     1
176
     1
 42
1.0
176
     1
 92
        8
176
     1
 66
     7
176
     1
 43
1.0
176
     1
 76
     1
176
     1
 77
     6
176
     1
 78
     2
176
     1
 67
     7
176
     1
 79
     3
176
     1
170
     0
176
     1
171
     0
176
     1
290
     0
176
     1
 93
       13
176
     1
 44
0.0
176
     1
173
     0
176
     1
  0
DICTIONARYVAR
  5
29B
102
{ACAD_REACTORS
330
29A
102
}
330
29A
100
DictionaryVariables
280
     0
  1
1:1
  0
DICTIONARYVAR
  5
2D5
102
{ACAD_REACTORS
330
29A
102
}
330
29A
100
DictionaryVariables
280
     0
  1
3.500000
  0
DICTIONARYVAR
  5
2D6
102
{ACAD_REACTORS
330
29A
102
}
330
29A
100
DictionaryVariables
280
     0
  1
acadiso.lin
  0
DICTIONARYVAR
  5
2D1
102
{ACAD_REACTORS
330
29A
102
}
330
29A
100
DictionaryVariables
280
     0
  1
Standard
  0
DICTIONARYVAR
  5
2D0
102
{ACAD_REACTORS
330
29A
102
}
330
29A
100
DictionaryVariables
280
     0
  1
Standard
  0
DICTIONARYVAR
  5
2D4
102
{ACAD_REACTORS
330
29A
102
}
330
29A
100
DictionaryVariables
280
     0
  1
0
  0
DICTIONARY
  5
2CC
330
6A
100
AcDbDictionary
280
     1
281
     1
  3
ACAD_ROUNDTRIP_2008_TABLESTYLE_CELLSTYLEMAP
360
2CD
  0
DICTIONARY
  5
2A4
330
2F
100
AcDbDictionary
280
     1
281
     1
  3
ACAD_XREC_ROUNDTRIP
360
2A5
  0
DICTIONARY
  5
2AA
330
32
100
AcDbDictionary
280
     1
281
     1
  3
ACAD_XREC_ROUNDTRIP
360
2AB
  0
DICTIONARY
  5
2B2
330
36
100
AcDbDictionary
280
     1
281
     1
  3
ACAD_XREC_ROUNDTRIP
360
2B3
  0
DICTIONARY
  5
2BA
330
3A
100
AcDbDictionary
280
     1
281
     1
  3
ACAD_XREC_ROUNDTRIP
360
2BB
  0
DICTIONARY
  5
2AE
330
34
100
AcDbDictionary
280
     1
281
     1
  3
ACAD_XREC_ROUNDTRIP
360
2AF
  0
DICTIONARY
  5
2B0
330
35
100
AcDbDictionary
280
     1
281
     1
  3
ACAD_XREC_ROUNDTRIP
360
2B1
  0
DICTIONARY
  5
2C0
330
3D
100
AcDbDictionary
280
     1
281
     1
  3
ACAD_XREC_ROUNDTRIP
360
2C1
  0
DICTIONARY
  5
2B8
330
39
100
AcDbDictionary
280
     1
281
     1
  3
ACAD_XREC_ROUNDTRIP
360
2B9
  0
DICTIONARY
  5
29C
330
2B
100
AcDbDictionary
280
     1
281
     1
  3
ACAD_XREC_ROUNDTRIP
360
29D
  0
DICTIONARY
  5
29E
330
2C
100
AcDbDictionary
280
     1
281
     1
  3
ACAD_XREC_ROUNDTRIP
360
29F
  0
DICTIONARY
  5
2A0
330
2D
100
AcDbDictionary
280
     1
281
     1
  3
ACAD_XREC_ROUNDTRIP
360
2A1
  0
DICTIONARY
  5
2A2
330
2E
100
AcDbDictionary
280
     1
281
     1
  3
ACAD_XREC_ROUNDTRIP
360
2A3
  0
DICTIONARY
  5
2A8
330
31
100
AcDbDictionary
280
     1
281
     1
  3
ACAD_XREC_ROUNDTRIP
360
2A9
  0
DICTIONARY
  5
2BC
330
3B
100
AcDbDictionary
280
     1
281
     1
  3
ACAD_XREC_ROUNDTRIP
360
2BD
  0
DICTIONARY
  5
2B6
330
38
100
AcDbDictionary
280
     1
281
     1
  3
ACAD_XREC_ROUNDTRIP
360
2B7
  0
DICTIONARY
  5
2BE
330
3C
100
AcDbDictionary
280
     1
281
     1
  3
ACAD_XREC_ROUNDTRIP
360
2BF
  0
DICTIONARY
  5
2AC
330
33
100
AcDbDictionary
280
     1
281
     1
  3
ACAD_XREC_ROUNDTRIP
360
2AD
  0
DICTIONARY
  5
2CA
330
42
100
AcDbDictionary
280
     1
281
     1
  3
ACAD_XREC_ROUNDTRIP
360
2CB
  0
DICTIONARY
  5
2C8
330
41
100
AcDbDictionary
280
     1
281
     1
  3
ACAD_XREC_ROUNDTRIP
360
2C9
  0
DICTIONARY
  5
2C2
330
3E
100
AcDbDictionary
280
     1
281
     1
  3
ACAD_XREC_ROUNDTRIP
360
2C3
  0
DICTIONARY
  5
2C4
330
3F
100
AcDbDictionary
280
     1
281
     1
  3
ACAD_XREC_ROUNDTRIP
360
2C5
  0
DICTIONARY
  5
2B4
330
37
100
AcDbDictionary
280
     1
281
     1
  3
ACAD_XREC_ROUNDTRIP
360
2B5
  0
DICTIONARY
  5
2A6
330
30
100
AcDbDictionary
280
     1
281
     1
  3
ACAD_XREC_ROUNDTRIP
360
2A7
  0
DICTIONARY
  5
2C6
330
40
100
AcDbDictionary
280
     1
281
     1
  3
ACAD_XREC_ROUNDTRIP
360
2C7
  0
CELLSTYLEMAP
  5
2CD
102
{ACAD_REACTORS
330
2CC
102
}
330
2CC
100
AcDbCellStyleMap
 90
        3
300
CELLSTYLE
  1
TABLEFORMAT_BEGIN
 90
        5
170
     1
 91
        0
 92
    32768
 62
   257
 93
        1
300
CONTENTFORMAT
  1
CONTENTFORMAT_BEGIN
 90
        0
 91
        0
 92
        4
 93
        0
300

 40
0.0
140
1.0
 94
        5
 62
     0
340
11
144
6.0
309
CONTENTFORMAT_END
171
     1
301
MARGIN
  1
CELLMARGIN_BEGIN
 40
1.5
 40
1.5
 40
1.5
 40
1.5
 40
1.5
 40
1.5
309
CELLMARGIN_END
 94
        6
 95
        1
302
GRIDFORMAT
  1
GRIDFORMAT_BEGIN
 90
        0
 91
        1
 62
     0
 92
       -2
340
14
 93
        0
 40
0.045
309
GRIDFORMAT_END
 95
        2
302
GRIDFORMAT
  1
GRIDFORMAT_BEGIN
 90
        0
 91
        1
 62
     0
 92
       -2
340
14
 93
        0
 40
0.045
309
GRIDFORMAT_END
 95
        4
302
GRIDFORMAT
  1
GRIDFORMAT_BEGIN
 90
        0
 91
        1
 62
     0
 92
       -2
340
14
 93
        0
 40
0.045
309
GRIDFORMAT_END
 95
        8
302
GRIDFORMAT
  1
GRIDFORMAT_BEGIN
 90
        0
 91
        1
 62
     0
 92
       -2
340
14
 93
        0
 40
0.045
309
GRIDFORMAT_END
 95
       16
302
GRIDFORMAT
  1
GRIDFORMAT_BEGIN
 90
        0
 91
        1
 62
     0
 92
       -2
340
14
 93
        0
 40
0.045
309
GRIDFORMAT_END
 95
       32
302
GRIDFORMAT
  1
GRIDFORMAT_BEGIN
 90
        0
 91
        1
 62
     0
 92
       -2
340
14
 93
        0
 40
0.045
309
GRIDFORMAT_END
309
TABLEFORMAT_END
  1
CELLSTYLE_BEGIN
 90
        1
 91
        1
300
_TITLE
309
CELLSTYLE_END
300
CELLSTYLE
  1
TABLEFORMAT_BEGIN
 90
        5
170
     1
 91
        0
 92
        0
 62
   257
 93
        1
300
CONTENTFORMAT
  1
CONTENTFORMAT_BEGIN
 90
        0
 91
        0
 92
        4
 93
        0
300

 40
0.0
140
1.0
 94
        5
 62
     0
340
11
144
4.5
309
CONTENTFORMAT_END
171
     1
301
MARGIN
  1
CELLMARGIN_BEGIN
 40
1.5
 40
1.5
 40
1.5
 40
1.5
 40
1.5
 40
1.5
309
CELLMARGIN_END
 94
        6
 95
        1
302
GRIDFORMAT
  1
GRIDFORMAT_BEGIN
 90
        0
 91
        1
 62
     0
 92
       -2
340
14
 93
        0
 40
0.045
309
GRIDFORMAT_END
 95
        2
302
GRIDFORMAT
  1
GRIDFORMAT_BEGIN
 90
        0
 91
        1
 62
     0
 92
       -2
340
14
 93
        0
 40
0.045
309
GRIDFORMAT_END
 95
        4
302
GRIDFORMAT
  1
GRIDFORMAT_BEGIN
 90
        0
 91
        1
 62
     0
 92
       -2
340
14
 93
        0
 40
0.045
309
GRIDFORMAT_END
 95
        8
302
GRIDFORMAT
  1
GRIDFORMAT_BEGIN
 90
        0
 91
        1
 62
     0
 92
       -2
340
14
 93
        0
 40
0.045
309
GRIDFORMAT_END
 95
       16
302
GRIDFORMAT
  1
GRIDFORMAT_BEGIN
 90
        0
 91
        1
 62
     0
 92
       -2
340
14
 93
        0
 40
0.045
309
GRIDFORMAT_END
 95
       32
302
GRIDFORMAT
  1
GRIDFORMAT_BEGIN
 90
        0
 91
        1
 62
     0
 92
       -2
340
14
 93
        0
 40
0.045
309
GRIDFORMAT_END
309
TABLEFORMAT_END
  1
CELLSTYLE_BEGIN
 90
        2
 91
        1
300
_HEADER
309
CELLSTYLE_END
300
CELLSTYLE
  1
TABLEFORMAT_BEGIN
 90
        5
170
     1
 91
        0
 92
        0
 62
   257
 93
        1
300
CONTENTFORMAT
  1
CONTENTFORMAT_BEGIN
 90
        0
 91
        0
 92
        4
 93
        0
300

 40
0.0
140
1.0
 94
        2
 62
     0
340
11
144
4.5
309
CONTENTFORMAT_END
171
     1
301
MARGIN
  1
CELLMARGIN_BEGIN
 40
1.5
 40
1.5
 40
1.5
 40
1.5
 40
1.5
 40
1.5
309
CELLMARGIN_END
 94
        6
 95
        1
302
GRIDFORMAT
  1
GRIDFORMAT_BEGIN
 90
        0
 91
        1
 62
     0
 92
       -2
340
14
 93
        0
 40
0.045
309
GRIDFORMAT_END
 95
        2
302
GRIDFORMAT
  1
GRIDFORMAT_BEGIN
 90
        0
 91
        1
 62
     0
 92
       -2
340
14
 93
        0
 40
0.045
309
GRIDFORMAT_END
 95
        4
302
GRIDFORMAT
  1
GRIDFORMAT_BEGIN
 90
        0
 91
        1
 62
     0
 92
       -2
340
14
 93
        0
 40
0.045
309
GRIDFORMAT_END
 95
        8
302
GRIDFORMAT
  1
GRIDFORMAT_BEGIN
 90
        0
 91
        1
 62
     0
 92
       -2
340
14
 93
        0
 40
0.045
309
GRIDFORMAT_END
 95
       16
302
GRIDFORMAT
  1
GRIDFORMAT_BEGIN
 90
        0
 91
        1
 62
     0
 92
       -2
340
14
 93
        0
 40
0.045
309
GRIDFORMAT_END
 95
       32
302
GRIDFORMAT
  1
GRIDFORMAT_BEGIN
 90
        0
 91
        1
 62
     0
 92
       -2
340
14
 93
        0
 40
0.045
309
GRIDFORMAT_END
309
TABLEFORMAT_END
  1
CELLSTYLE_BEGIN
 90
        3
 91
        2
300
_DATA
309
CELLSTYLE_END
  0
XRECORD
  5
2A5
102
{ACAD_REACTORS
330
2A4
102
}
330
2A4
100
AcDbXrecord
280
     1
102
RTVSPost2010Prop28
280
     1
102
RTVSPost2010PropOp28
 70
     1
102
RTVSPost2010Prop29
280
     1
102
RTVSPost2010PropOp29
 70
     1
102
RTVSPost2010Prop30
280
     0
102
RTVSPost2010PropOp30
 70
     1
102
RTVSPost2010Prop31
280
     0
102
RTVSPost2010PropOp31
 70
     1
102
RTVSPost2010Prop32
280
     0
102
RTVSPost2010PropOp32
 70
     1
102
RTVSPost2010Prop33
280
     0
102
RTVSPost2010PropOp33
 70
     1
102
RTVSPost2010Prop34
280
     0
102
RTVSPost2010PropOp34
 70
     1
102
RTVSPost2010Prop35
280
     0
102
RTVSPost2010PropOp35
 70
     1
102
RTVSPost2010Prop36
280
     0
102
RTVSPost2010PropOp36
 70
     1
102
RTVSPost2010Prop37
 90
       50
102
RTVSPost2010PropOp37
 70
     1
102
RTVSPost2010Prop38
140
0.0
102
RTVSPost2010PropOp38
 70
     1
102
RTVSPost2010Prop39
140
1.0
102
RTVSPost2010PropOp39
 70
     1
102
RTVSPost2010Prop40
 90
        0
102
RTVSPost2010PropOp40
 70
     1
102
RTVSPost2010Prop41ColorIndex
 90
       18
102
RTVSPost2010Prop41ColorRGB
 90
        0
102
RTVSPost2010PropOp41
 70
     1
102
RTVSPost2010Prop42
 90
       50
102
RTVSPost2010PropOp42
 70
     1
102
RTVSPost2010Prop43
 90
        3
102
RTVSPost2010PropOp43
 70
     1
102
RTVSPost2010Prop44ColorIndex
 90
        5
102
RTVSPost2010Prop44ColorRGB
 90
      255
102
RTVSPost2010PropOp44
 70
     1
102
RTVSPost2010Prop45
280
     0
102
RTVSPost2010PropOp45
 70
     1
102
RTVSPost2010Prop46
 90
       50
102
RTVSPost2010PropOp46
 70
     1
102
RTVSPost2010Prop47
 90
       50
102
RTVSPost2010PropOp47
 70
     1
102
RTVSPost2010Prop48
 90
       50
102
RTVSPost2010PropOp48
 70
     1
102
RTVSPost2010Prop49
280
     0
102
RTVSPost2010PropOp49
 70
     1
102
RTVSPost2010Prop50
 90
       50
102
RTVSPost2010PropOp50
 70
     1
102
RTVSPost2010Prop51ColorIndex
 90
      256
102
RTVSPost2010Prop51ColorRGB
 90
-16777216
102
RTVSPost2010PropOp51
 70
     0
102
RTVSPost2010Prop52
140
1.0
102
RTVSPost2010PropOp52
 70
     0
102
RTVSPost2010Prop53
 90
        2
102
RTVSPost2010PropOp53
 70
     1
102
RTVSPost2010Prop54
  1
strokes_ogs.tif
102
RTVSPost2010PropOp54
 70
     1
102
RTVSPost2010Prop55
280
     0
102
RTVSPost2010PropOp55
 70
     1
102
RTVSPost2010Prop56
140
1.0
102
RTVSPost2010PropOp56
 70
     1
102
RTVSPost2010Prop57
140
1.0
102
RTVSPost2010PropOp57
 70
     1
  0
XRECORD
  5
2AB
102
{ACAD_REACTORS
330
2AA
102
}
330
2AA
100
AcDbXrecord
280
     1
102
RTVSPost2010Prop28
280
     0
102
RTVSPost2010PropOp28
 70
     1
102
RTVSPost2010Prop29
280
     1
102
RTVSPost2010PropOp29
 70
     1
102
RTVSPost2010Prop30
280
     1
102
RTVSPost2010PropOp30
 70
     1
102
RTVSPost2010Prop31
280
     0
102
RTVSPost2010PropOp31
 70
     1
102
RTVSPost2010Prop32
280
     0
102
RTVSPost2010PropOp32
 70
     1
102
RTVSPost2010Prop33
280
     0
102
RTVSPost2010PropOp33
 70
     1
102
RTVSPost2010Prop34
280
     0
102
RTVSPost2010PropOp34
 70
     1
102
RTVSPost2010Prop35
280
     0
102
RTVSPost2010PropOp35
 70
     1
102
RTVSPost2010Prop36
280
     0
102
RTVSPost2010PropOp36
 70
     1
102
RTVSPost2010Prop37
 90
       50
102
RTVSPost2010PropOp37
 70
     1
102
RTVSPost2010Prop38
140
0.0
102
RTVSPost2010PropOp38
 70
     1
102
RTVSPost2010Prop39
140
1.0
102
RTVSPost2010PropOp39
 70
     1
102
RTVSPost2010Prop40
 90
        0
102
RTVSPost2010PropOp40
 70
     1
102
RTVSPost2010Prop41ColorIndex
 90
       18
102
RTVSPost2010Prop41ColorRGB
 90
        0
102
RTVSPost2010PropOp41
 70
     1
102
RTVSPost2010Prop42
 90
       50
102
RTVSPost2010PropOp42
 70
     1
102
RTVSPost2010Prop43
 90
        3
102
RTVSPost2010PropOp43
 70
     1
102
RTVSPost2010Prop44ColorIndex
 90
        5
102
RTVSPost2010Prop44ColorRGB
 90
      255
102
RTVSPost2010PropOp44
 70
     1
102
RTVSPost2010Prop45
280
     0
102
RTVSPost2010PropOp45
 70
     1
102
RTVSPost2010Prop46
 90
       50
102
RTVSPost2010PropOp46
 70
     1
102
RTVSPost2010Prop47
 90
       50
102
RTVSPost2010PropOp47
 70
     1
102
RTVSPost2010Prop48
 90
       50
102
RTVSPost2010PropOp48
 70
     1
102
RTVSPost2010Prop49
280
     0
102
RTVSPost2010PropOp49
 70
     1
102
RTVSPost2010Prop50
 90
       50
102
RTVSPost2010PropOp50
 70
     1
102
RTVSPost2010Prop51ColorIndex
 90
      256
102
RTVSPost2010Prop51ColorRGB
 90
-16777216
102
RTVSPost2010PropOp51
 70
     0
102
RTVSPost2010Prop52
140
1.0
102
RTVSPost2010PropOp52
 70
     0
102
RTVSPost2010Prop53
 90
        2
102
RTVSPost2010PropOp53
 70
     1
102
RTVSPost2010Prop54
  1
strokes_ogs.tif
102
RTVSPost2010PropOp54
 70
     1
102
RTVSPost2010Prop55
280
     0
102
RTVSPost2010PropOp55
 70
     1
102
RTVSPost2010Prop56
140
1.0
102
RTVSPost2010PropOp56
 70
     1
102
RTVSPost2010Prop57
140
1.0
102
RTVSPost2010PropOp57
 70
     1
  0
XRECORD
  5
2B3
102
{ACAD_REACTORS
330
2B2
102
}
330
2B2
100
AcDbXrecord
280
     1
102
RTVSPost2010Prop28
280
     0
102
RTVSPost2010PropOp28
 70
     1
102
RTVSPost2010Prop29
280
     1
102
RTVSPost2010PropOp29
 70
     1
102
RTVSPost2010Prop30
280
     1
102
RTVSPost2010PropOp30
 70
     1
102
RTVSPost2010Prop31
280
     0
102
RTVSPost2010PropOp31
 70
     1
102
RTVSPost2010Prop32
280
     0
102
RTVSPost2010PropOp32
 70
     1
102
RTVSPost2010Prop33
280
     0
102
RTVSPost2010PropOp33
 70
     1
102
RTVSPost2010Prop34
280
     0
102
RTVSPost2010PropOp34
 70
     1
102
RTVSPost2010Prop35
280
     0
102
RTVSPost2010PropOp35
 70
     1
102
RTVSPost2010Prop36
280
     0
102
RTVSPost2010PropOp36
 70
     1
102
RTVSPost2010Prop37
 90
       50
102
RTVSPost2010PropOp37
 70
     1
102
RTVSPost2010Prop38
140
0.0
102
RTVSPost2010PropOp38
 70
     1
102
RTVSPost2010Prop39
140
1.0
102
RTVSPost2010PropOp39
 70
     1
102
RTVSPost2010Prop40
 90
        0
102
RTVSPost2010PropOp40
 70
     1
102
RTVSPost2010Prop41ColorIndex
 90
       18
102
RTVSPost2010Prop41ColorRGB
 90
        0
102
RTVSPost2010PropOp41
 70
     1
102
RTVSPost2010Prop42
 90
       50
102
RTVSPost2010PropOp42
 70
     1
102
RTVSPost2010Prop43
 90
        3
102
RTVSPost2010PropOp43
 70
     1
102
RTVSPost2010Prop44ColorIndex
 90
        5
102
RTVSPost2010Prop44ColorRGB
 90
      255
102
RTVSPost2010PropOp44
 70
     1
102
RTVSPost2010Prop45
280
     0
102
RTVSPost2010PropOp45
 70
     1
102
RTVSPost2010Prop46
 90
       50
102
RTVSPost2010PropOp46
 70
     1
102
RTVSPost2010Prop47
 90
       50
102
RTVSPost2010PropOp47
 70
     1
102
RTVSPost2010Prop48
 90
       50
102
RTVSPost2010PropOp48
 70
     1
102
RTVSPost2010Prop49
280
     0
102
RTVSPost2010PropOp49
 70
     1
102
RTVSPost2010Prop50
 90
       50
102
RTVSPost2010PropOp50
 70
     1
102
RTVSPost2010Prop51ColorIndex
 90
      256
102
RTVSPost2010Prop51ColorRGB
 90
-16777216
102
RTVSPost2010PropOp51
 70
     0
102
RTVSPost2010Prop52
140
1.0
102
RTVSPost2010PropOp52
 70
     0
102
RTVSPost2010Prop53
 90
        2
102
RTVSPost2010PropOp53
 70
     1
102
RTVSPost2010Prop54
  1
strokes_ogs.tif
102
RTVSPost2010PropOp54
 70
     1
102
RTVSPost2010Prop55
280
     0
102
RTVSPost2010PropOp55
 70
     1
102
RTVSPost2010Prop56
140
1.0
102
RTVSPost2010PropOp56
 70
     1
102
RTVSPost2010Prop57
140
1.0
102
RTVSPost2010PropOp57
 70
     1
  0
XRECORD
  5
2BB
102
{ACAD_REACTORS
330
2BA
102
}
330
2BA
100
AcDbXrecord
280
     1
102
RTVSPost2010Prop28
280
     0
102
RTVSPost2010PropOp28
 70
     1
102
RTVSPost2010Prop29
280
     1
102
RTVSPost2010PropOp29
 70
     1
102
RTVSPost2010Prop30
280
     1
102
RTVSPost2010PropOp30
 70
     1
102
RTVSPost2010Prop31
280
     0
102
RTVSPost2010PropOp31
 70
     1
102
RTVSPost2010Prop32
280
     0
102
RTVSPost2010PropOp32
 70
     1
102
RTVSPost2010Prop33
280
     0
102
RTVSPost2010PropOp33
 70
     1
102
RTVSPost2010Prop34
280
     0
102
RTVSPost2010PropOp34
 70
     1
102
RTVSPost2010Prop35
280
     0
102
RTVSPost2010PropOp35
 70
     1
102
RTVSPost2010Prop36
280
     0
102
RTVSPost2010PropOp36
 70
     1
102
RTVSPost2010Prop37
 90
       50
102
RTVSPost2010PropOp37
 70
     1
102
RTVSPost2010Prop38
140
0.0
102
RTVSPost2010PropOp38
 70
     1
102
RTVSPost2010Prop39
140
1.0
102
RTVSPost2010PropOp39
 70
     1
102
RTVSPost2010Prop40
 90
        0
102
RTVSPost2010PropOp40
 70
     1
102
RTVSPost2010Prop41ColorIndex
 90
       18
102
RTVSPost2010Prop41ColorRGB
 90
        0
102
RTVSPost2010PropOp41
 70
     1
102
RTVSPost2010Prop42
 90
       50
102
RTVSPost2010PropOp42
 70
     1
102
RTVSPost2010Prop43
 90
        3
102
RTVSPost2010PropOp43
 70
     1
102
RTVSPost2010Prop44ColorIndex
 90
        5
102
RTVSPost2010Prop44ColorRGB
 90
      255
102
RTVSPost2010PropOp44
 70
     1
102
RTVSPost2010Prop45
280
     0
102
RTVSPost2010PropOp45
 70
     1
102
RTVSPost2010Prop46
 90
       50
102
RTVSPost2010PropOp46
 70
     1
102
RTVSPost2010Prop47
 90
       50
102
RTVSPost2010PropOp47
 70
     1
102
RTVSPost2010Prop48
 90
       50
102
RTVSPost2010PropOp48
 70
     1
102
RTVSPost2010Prop49
280
     0
102
RTVSPost2010PropOp49
 70
     1
102
RTVSPost2010Prop50
 90
       50
102
RTVSPost2010PropOp50
 70
     1
102
RTVSPost2010Prop51ColorIndex
 90
      256
102
RTVSPost2010Prop51ColorRGB
 90
-16777216
102
RTVSPost2010PropOp51
 70
     0
102
RTVSPost2010Prop52
140
1.0
102
RTVSPost2010PropOp52
 70
     0
102
RTVSPost2010Prop53
 90
        2
102
RTVSPost2010PropOp53
 70
     1
102
RTVSPost2010Prop54
  1
strokes_ogs.tif
102
RTVSPost2010PropOp54
 70
     1
102
RTVSPost2010Prop55
280
     0
102
RTVSPost2010PropOp55
 70
     1
102
RTVSPost2010Prop56
140
1.0
102
RTVSPost2010PropOp56
 70
     1
102
RTVSPost2010Prop57
140
1.0
102
RTVSPost2010PropOp57
 70
     1
  0
XRECORD
  5
2AF
102
{ACAD_REACTORS
330
2AE
102
}
330
2AE
100
AcDbXrecord
280
     1
102
RTVSPost2010Prop28
280
     0
102
RTVSPost2010PropOp28
 70
     1
102
RTVSPost2010Prop29
280
     1
102
RTVSPost2010PropOp29
 70
     1
102
RTVSPost2010Prop30
280
     1
102
RTVSPost2010PropOp30
 70
     1
102
RTVSPost2010Prop31
280
     0
102
RTVSPost2010PropOp31
 70
     1
102
RTVSPost2010Prop32
280
     0
102
RTVSPost2010PropOp32
 70
     1
102
RTVSPost2010Prop33
280
     0
102
RTVSPost2010PropOp33
 70
     1
102
RTVSPost2010Prop34
280
     0
102
RTVSPost2010PropOp34
 70
     1
102
RTVSPost2010Prop35
280
     0
102
RTVSPost2010PropOp35
 70
     1
102
RTVSPost2010Prop36
280
     0
102
RTVSPost2010PropOp36
 70
     1
102
RTVSPost2010Prop37
 90
       50
102
RTVSPost2010PropOp37
 70
     1
102
RTVSPost2010Prop38
140
0.0
102
RTVSPost2010PropOp38
 70
     1
102
RTVSPost2010Prop39
140
1.0
102
RTVSPost2010PropOp39
 70
     1
102
RTVSPost2010Prop40
 90
        0
102
RTVSPost2010PropOp40
 70
     1
102
RTVSPost2010Prop41ColorIndex
 90
       18
102
RTVSPost2010Prop41ColorRGB
 90
        0
102
RTVSPost2010PropOp41
 70
     1
102
RTVSPost2010Prop42
 90
       50
102
RTVSPost2010PropOp42
 70
     1
102
RTVSPost2010Prop43
 90
        3
102
RTVSPost2010PropOp43
 70
     1
102
RTVSPost2010Prop44ColorIndex
 90
        5
102
RTVSPost2010Prop44ColorRGB
 90
      255
102
RTVSPost2010PropOp44
 70
     1
102
RTVSPost2010Prop45
280
     0
102
RTVSPost2010PropOp45
 70
     1
102
RTVSPost2010Prop46
 90
       50
102
RTVSPost2010PropOp46
 70
     1
102
RTVSPost2010Prop47
 90
       50
102
RTVSPost2010PropOp47
 70
     1
102
RTVSPost2010Prop48
 90
       50
102
RTVSPost2010PropOp48
 70
     1
102
RTVSPost2010Prop49
280
     0
102
RTVSPost2010PropOp49
 70
     1
102
RTVSPost2010Prop50
 90
       50
102
RTVSPost2010PropOp50
 70
     1
102
RTVSPost2010Prop51ColorIndex
 90
      256
102
RTVSPost2010Prop51ColorRGB
 90
-16777216
102
RTVSPost2010PropOp51
 70
     0
102
RTVSPost2010Prop52
140
1.0
102
RTVSPost2010PropOp52
 70
     0
102
RTVSPost2010Prop53
 90
        2
102
RTVSPost2010PropOp53
 70
     1
102
RTVSPost2010Prop54
  1
strokes_ogs.tif
102
RTVSPost2010PropOp54
 70
     1
102
RTVSPost2010Prop55
280
     0
102
RTVSPost2010PropOp55
 70
     1
102
RTVSPost2010Prop56
140
1.0
102
RTVSPost2010PropOp56
 70
     1
102
RTVSPost2010Prop57
140
1.0
102
RTVSPost2010PropOp57
 70
     1
  0
XRECORD
  5
2B1
102
{ACAD_REACTORS
330
2B0
102
}
330
2B0
100
AcDbXrecord
280
     1
102
RTVSPost2010Prop28
280
     0
102
RTVSPost2010PropOp28
 70
     1
102
RTVSPost2010Prop29
280
     1
102
RTVSPost2010PropOp29
 70
     1
102
RTVSPost2010Prop30
280
     1
102
RTVSPost2010PropOp30
 70
     1
102
RTVSPost2010Prop31
280
     0
102
RTVSPost2010PropOp31
 70
     1
102
RTVSPost2010Prop32
280
     0
102
RTVSPost2010PropOp32
 70
     1
102
RTVSPost2010Prop33
280
     0
102
RTVSPost2010PropOp33
 70
     1
102
RTVSPost2010Prop34
280
     0
102
RTVSPost2010PropOp34
 70
     1
102
RTVSPost2010Prop35
280
     0
102
RTVSPost2010PropOp35
 70
     1
102
RTVSPost2010Prop36
280
     0
102
RTVSPost2010PropOp36
 70
     1
102
RTVSPost2010Prop37
 90
       50
102
RTVSPost2010PropOp37
 70
     1
102
RTVSPost2010Prop38
140
0.0
102
RTVSPost2010PropOp38
 70
     1
102
RTVSPost2010Prop39
140
1.0
102
RTVSPost2010PropOp39
 70
     1
102
RTVSPost2010Prop40
 90
        0
102
RTVSPost2010PropOp40
 70
     1
102
RTVSPost2010Prop41ColorIndex
 90
       18
102
RTVSPost2010Prop41ColorRGB
 90
        0
102
RTVSPost2010PropOp41
 70
     1
102
RTVSPost2010Prop42
 90
       50
102
RTVSPost2010PropOp42
 70
     1
102
RTVSPost2010Prop43
 90
        3
102
RTVSPost2010PropOp43
 70
     1
102
RTVSPost2010Prop44ColorIndex
 90
        5
102
RTVSPost2010Prop44ColorRGB
 90
      255
102
RTVSPost2010PropOp44
 70
     1
102
RTVSPost2010Prop45
280
     0
102
RTVSPost2010PropOp45
 70
     1
102
RTVSPost2010Prop46
 90
       50
102
RTVSPost2010PropOp46
 70
     1
102
RTVSPost2010Prop47
 90
       50
102
RTVSPost2010PropOp47
 70
     1
102
RTVSPost2010Prop48
 90
       50
102
RTVSPost2010PropOp48
 70
     1
102
RTVSPost2010Prop49
280
     0
102
RTVSPost2010PropOp49
 70
     1
102
RTVSPost2010Prop50
 90
       50
102
RTVSPost2010PropOp50
 70
     1
102
RTVSPost2010Prop51ColorIndex
 90
      256
102
RTVSPost2010Prop51ColorRGB
 90
-16777216
102
RTVSPost2010PropOp51
 70
     0
102
RTVSPost2010Prop52
140
1.0
102
RTVSPost2010PropOp52
 70
     0
102
RTVSPost2010Prop53
 90
        2
102
RTVSPost2010PropOp53
 70
     1
102
RTVSPost2010Prop54
  1
strokes_ogs.tif
102
RTVSPost2010PropOp54
 70
     1
102
RTVSPost2010Prop55
280
     0
102
RTVSPost2010PropOp55
 70
     1
102
RTVSPost2010Prop56
140
1.0
102
RTVSPost2010PropOp56
 70
     1
102
RTVSPost2010Prop57
140
1.0
102
RTVSPost2010PropOp57
 70
     1
  0
XRECORD
  5
2C1
102
{ACAD_REACTORS
330
2C0
102
}
330
2C0
100
AcDbXrecord
280
     1
102
RTVSPost2010Prop28
280
     0
102
RTVSPost2010PropOp28
 70
     0
102
RTVSPost2010Prop29
280
     1
102
RTVSPost2010PropOp29
 70
     0
102
RTVSPost2010Prop30
280
     1
102
RTVSPost2010PropOp30
 70
     0
102
RTVSPost2010Prop31
280
     0
102
RTVSPost2010PropOp31
 70
     0
102
RTVSPost2010Prop32
280
     0
102
RTVSPost2010PropOp32
 70
     0
102
RTVSPost2010Prop33
280
     0
102
RTVSPost2010PropOp33
 70
     0
102
RTVSPost2010Prop34
280
     0
102
RTVSPost2010PropOp34
 70
     0
102
RTVSPost2010Prop35
280
     0
102
RTVSPost2010PropOp35
 70
     0
102
RTVSPost2010Prop36
280
     0
102
RTVSPost2010PropOp36
 70
     0
102
RTVSPost2010Prop37
 90
       50
102
RTVSPost2010PropOp37
 70
     0
102
RTVSPost2010Prop38
140
0.0
102
RTVSPost2010PropOp38
 70
     0
102
RTVSPost2010Prop39
140
1.0
102
RTVSPost2010PropOp39
 70
     0
102
RTVSPost2010Prop40
 90
        0
102
RTVSPost2010PropOp40
 70
     0
102
RTVSPost2010Prop41ColorIndex
 90
       18
102
RTVSPost2010Prop41ColorRGB
 90
        0
102
RTVSPost2010PropOp41
 70
     0
102
RTVSPost2010Prop42
 90
       50
102
RTVSPost2010PropOp42
 70
     0
102
RTVSPost2010Prop43
 90
        3
102
RTVSPost2010PropOp43
 70
     0
102
RTVSPost2010Prop44ColorIndex
 90
        5
102
RTVSPost2010Prop44ColorRGB
 90
      255
102
RTVSPost2010PropOp44
 70
     0
102
RTVSPost2010Prop45
280
     0
102
RTVSPost2010PropOp45
 70
     0
102
RTVSPost2010Prop46
 90
       50
102
RTVSPost2010PropOp46
 70
     0
102
RTVSPost2010Prop47
 90
       50
102
RTVSPost2010PropOp47
 70
     0
102
RTVSPost2010Prop48
 90
       50
102
RTVSPost2010PropOp48
 70
     0
102
RTVSPost2010Prop49
280
     0
102
RTVSPost2010PropOp49
 70
     0
102
RTVSPost2010Prop50
 90
       50
102
RTVSPost2010PropOp50
 70
     0
102
RTVSPost2010Prop51ColorIndex
 90
      256
102
RTVSPost2010Prop51ColorRGB
 90
-16777216
102
RTVSPost2010PropOp51
 70
     0
102
RTVSPost2010Prop52
140
1.0
102
RTVSPost2010PropOp52
 70
     0
102
RTVSPost2010Prop53
 90
        2
102
RTVSPost2010PropOp53
 70
     0
102
RTVSPost2010Prop54
  1
strokes_ogs.tif
102
RTVSPost2010PropOp54
 70
     0
102
RTVSPost2010Prop55
280
     0
102
RTVSPost2010PropOp55
 70
     0
102
RTVSPost2010Prop56
140
1.0
102
RTVSPost2010PropOp56
 70
     0
102
RTVSPost2010Prop57
140
1.0
102
RTVSPost2010PropOp57
 70
     0
  0
XRECORD
  5
2B9
102
{ACAD_REACTORS
330
2B8
102
}
330
2B8
100
AcDbXrecord
280
     1
102
RTVSPost2010Prop28
280
     0
102
RTVSPost2010PropOp28
 70
     1
102
RTVSPost2010Prop29
280
     1
102
RTVSPost2010PropOp29
 70
     1
102
RTVSPost2010Prop30
280
     1
102
RTVSPost2010PropOp30
 70
     1
102
RTVSPost2010Prop31
280
     0
102
RTVSPost2010PropOp31
 70
     1
102
RTVSPost2010Prop32
280
     0
102
RTVSPost2010PropOp32
 70
     1
102
RTVSPost2010Prop33
280
     0
102
RTVSPost2010PropOp33
 70
     1
102
RTVSPost2010Prop34
280
     0
102
RTVSPost2010PropOp34
 70
     1
102
RTVSPost2010Prop35
280
     0
102
RTVSPost2010PropOp35
 70
     1
102
RTVSPost2010Prop36
280
     0
102
RTVSPost2010PropOp36
 70
     1
102
RTVSPost2010Prop37
 90
       50
102
RTVSPost2010PropOp37
 70
     1
102
RTVSPost2010Prop38
140
0.0
102
RTVSPost2010PropOp38
 70
     1
102
RTVSPost2010Prop39
140
1.0
102
RTVSPost2010PropOp39
 70
     1
102
RTVSPost2010Prop40
 90
        0
102
RTVSPost2010PropOp40
 70
     1
102
RTVSPost2010Prop41ColorIndex
 90
       18
102
RTVSPost2010Prop41ColorRGB
 90
        0
102
RTVSPost2010PropOp41
 70
     1
102
RTVSPost2010Prop42
 90
       50
102
RTVSPost2010PropOp42
 70
     1
102
RTVSPost2010Prop43
 90
        3
102
RTVSPost2010PropOp43
 70
     1
102
RTVSPost2010Prop44ColorIndex
 90
        5
102
RTVSPost2010Prop44ColorRGB
 90
      255
102
RTVSPost2010PropOp44
 70
     1
102
RTVSPost2010Prop45
280
     0
102
RTVSPost2010PropOp45
 70
     1
102
RTVSPost2010Prop46
 90
       50
102
RTVSPost2010PropOp46
 70
     1
102
RTVSPost2010Prop47
 90
       50
102
RTVSPost2010PropOp47
 70
     1
102
RTVSPost2010Prop48
 90
       50
102
RTVSPost2010PropOp48
 70
     1
102
RTVSPost2010Prop49
280
     0
102
RTVSPost2010PropOp49
 70
     1
102
RTVSPost2010Prop50
 90
       50
102
RTVSPost2010PropOp50
 70
     1
102
RTVSPost2010Prop51ColorIndex
 90
      256
102
RTVSPost2010Prop51ColorRGB
 90
-16777216
102
RTVSPost2010PropOp51
 70
     0
102
RTVSPost2010Prop52
140
1.0
102
RTVSPost2010PropOp52
 70
     0
102
RTVSPost2010Prop53
 90
        2
102
RTVSPost2010PropOp53
 70
     1
102
RTVSPost2010Prop54
  1
strokes_ogs.tif
102
RTVSPost2010PropOp54
 70
     1
102
RTVSPost2010Prop55
280
     0
102
RTVSPost2010PropOp55
 70
     1
102
RTVSPost2010Prop56
140
1.0
102
RTVSPost2010PropOp56
 70
     1
102
RTVSPost2010Prop57
140
1.0
102
RTVSPost2010PropOp57
 70
     1
  0
XRECORD
  5
29D
102
{ACAD_REACTORS
330
29C
102
}
330
29C
100
AcDbXrecord
280
     1
102
RTVSPost2010Prop28
280
     0
102
RTVSPost2010PropOp28
 70
     1
102
RTVSPost2010Prop29
280
     1
102
RTVSPost2010PropOp29
 70
     1
102
RTVSPost2010Prop30
280
     1
102
RTVSPost2010PropOp30
 70
     1
102
RTVSPost2010Prop31
280
     0
102
RTVSPost2010PropOp31
 70
     1
102
RTVSPost2010Prop32
280
     0
102
RTVSPost2010PropOp32
 70
     1
102
RTVSPost2010Prop33
280
     0
102
RTVSPost2010PropOp33
 70
     1
102
RTVSPost2010Prop34
280
     0
102
RTVSPost2010PropOp34
 70
     1
102
RTVSPost2010Prop35
280
     0
102
RTVSPost2010PropOp35
 70
     1
102
RTVSPost2010Prop36
280
     0
102
RTVSPost2010PropOp36
 70
     1
102
RTVSPost2010Prop37
 90
       50
102
RTVSPost2010PropOp37
 70
     1
102
RTVSPost2010Prop38
140
0.0
102
RTVSPost2010PropOp38
 70
     1
102
RTVSPost2010Prop39
140
1.0
102
RTVSPost2010PropOp39
 70
     1
102
RTVSPost2010Prop40
 90
        0
102
RTVSPost2010PropOp40
 70
     1
102
RTVSPost2010Prop41ColorIndex
 90
       18
102
RTVSPost2010Prop41ColorRGB
 90
        0
102
RTVSPost2010PropOp41
 70
     1
102
RTVSPost2010Prop42
 90
       50
102
RTVSPost2010PropOp42
 70
     1
102
RTVSPost2010Prop43
 90
        3
102
RTVSPost2010PropOp43
 70
     1
102
RTVSPost2010Prop44ColorIndex
 90
        5
102
RTVSPost2010Prop44ColorRGB
 90
      255
102
RTVSPost2010PropOp44
 70
     1
102
RTVSPost2010Prop45
280
     0
102
RTVSPost2010PropOp45
 70
     1
102
RTVSPost2010Prop46
 90
       50
102
RTVSPost2010PropOp46
 70
     1
102
RTVSPost2010Prop47
 90
       50
102
RTVSPost2010PropOp47
 70
     1
102
RTVSPost2010Prop48
 90
       50
102
RTVSPost2010PropOp48
 70
     1
102
RTVSPost2010Prop49
280
     0
102
RTVSPost2010PropOp49
 70
     1
102
RTVSPost2010Prop50
 90
       50
102
RTVSPost2010PropOp50
 70
     1
102
RTVSPost2010Prop51ColorIndex
 90
      256
102
RTVSPost2010Prop51ColorRGB
 90
-16777216
102
RTVSPost2010PropOp51
 70
     0
102
RTVSPost2010Prop52
140
1.0
102
RTVSPost2010PropOp52
 70
     0
102
RTVSPost2010Prop53
 90
        2
102
RTVSPost2010PropOp53
 70
     1
102
RTVSPost2010Prop54
  1
strokes_ogs.tif
102
RTVSPost2010PropOp54
 70
     1
102
RTVSPost2010Prop55
280
     0
102
RTVSPost2010PropOp55
 70
     1
102
RTVSPost2010Prop56
140
1.0
102
RTVSPost2010PropOp56
 70
     1
102
RTVSPost2010Prop57
140
1.0
102
RTVSPost2010PropOp57
 70
     1
  0
XRECORD
  5
29F
102
{ACAD_REACTORS
330
29E
102
}
330
29E
100
AcDbXrecord
280
     1
102
RTVSPost2010Prop28
280
     0
102
RTVSPost2010PropOp28
 70
     1
102
RTVSPost2010Prop29
280
     1
102
RTVSPost2010PropOp29
 70
     1
102
RTVSPost2010Prop30
280
     1
102
RTVSPost2010PropOp30
 70
     1
102
RTVSPost2010Prop31
280
     0
102
RTVSPost2010PropOp31
 70
     1
102
RTVSPost2010Prop32
280
     0
102
RTVSPost2010PropOp32
 70
     1
102
RTVSPost2010Prop33
280
     0
102
RTVSPost2010PropOp33
 70
     1
102
RTVSPost2010Prop34
280
     0
102
RTVSPost2010PropOp34
 70
     1
102
RTVSPost2010Prop35
280
     0
102
RTVSPost2010PropOp35
 70
     1
102
RTVSPost2010Prop36
280
     0
102
RTVSPost2010PropOp36
 70
     1
102
RTVSPost2010Prop37
 90
       50
102
RTVSPost2010PropOp37
 70
     1
102
RTVSPost2010Prop38
140
0.0
102
RTVSPost2010PropOp38
 70
     1
102
RTVSPost2010Prop39
140
1.0
102
RTVSPost2010PropOp39
 70
     1
102
RTVSPost2010Prop40
 90
        0
102
RTVSPost2010PropOp40
 70
     1
102
RTVSPost2010Prop41ColorIndex
 90
       18
102
RTVSPost2010Prop41ColorRGB
 90
        0
102
RTVSPost2010PropOp41
 70
     1
102
RTVSPost2010Prop42
 90
       50
102
RTVSPost2010PropOp42
 70
     1
102
RTVSPost2010Prop43
 90
        3
102
RTVSPost2010PropOp43
 70
     1
102
RTVSPost2010Prop44ColorIndex
 90
        5
102
RTVSPost2010Prop44ColorRGB
 90
      255
102
RTVSPost2010PropOp44
 70
     1
102
RTVSPost2010Prop45
280
     0
102
RTVSPost2010PropOp45
 70
     1
102
RTVSPost2010Prop46
 90
       50
102
RTVSPost2010PropOp46
 70
     1
102
RTVSPost2010Prop47
 90
       50
102
RTVSPost2010PropOp47
 70
     1
102
RTVSPost2010Prop48
 90
       50
102
RTVSPost2010PropOp48
 70
     1
102
RTVSPost2010Prop49
280
     0
102
RTVSPost2010PropOp49
 70
     1
102
RTVSPost2010Prop50
 90
       50
102
RTVSPost2010PropOp50
 70
     1
102
RTVSPost2010Prop51ColorIndex
 90
      256
102
RTVSPost2010Prop51ColorRGB
 90
-16777216
102
RTVSPost2010PropOp51
 70
     0
102
RTVSPost2010Prop52
140
1.0
102
RTVSPost2010PropOp52
 70
     0
102
RTVSPost2010Prop53
 90
        2
102
RTVSPost2010PropOp53
 70
     1
102
RTVSPost2010Prop54
  1
strokes_ogs.tif
102
RTVSPost2010PropOp54
 70
     1
102
RTVSPost2010Prop55
280
     0
102
RTVSPost2010PropOp55
 70
     1
102
RTVSPost2010Prop56
140
1.0
102
RTVSPost2010PropOp56
 70
     1
102
RTVSPost2010Prop57
140
1.0
102
RTVSPost2010PropOp57
 70
     1
  0
XRECORD
  5
2A1
102
{ACAD_REACTORS
330
2A0
102
}
330
2A0
100
AcDbXrecord
280
     1
102
RTVSPost2010Prop28
280
     0
102
RTVSPost2010PropOp28
 70
     1
102
RTVSPost2010Prop29
280
     1
102
RTVSPost2010PropOp29
 70
     1
102
RTVSPost2010Prop30
280
     1
102
RTVSPost2010PropOp30
 70
     1
102
RTVSPost2010Prop31
280
     0
102
RTVSPost2010PropOp31
 70
     1
102
RTVSPost2010Prop32
280
     0
102
RTVSPost2010PropOp32
 70
     1
102
RTVSPost2010Prop33
280
     0
102
RTVSPost2010PropOp33
 70
     1
102
RTVSPost2010Prop34
280
     0
102
RTVSPost2010PropOp34
 70
     1
102
RTVSPost2010Prop35
280
     0
102
RTVSPost2010PropOp35
 70
     1
102
RTVSPost2010Prop36
280
     0
102
RTVSPost2010PropOp36
 70
     1
102
RTVSPost2010Prop37
 90
       50
102
RTVSPost2010PropOp37
 70
     1
102
RTVSPost2010Prop38
140
0.0
102
RTVSPost2010PropOp38
 70
     1
102
RTVSPost2010Prop39
140
1.0
102
RTVSPost2010PropOp39
 70
     1
102
RTVSPost2010Prop40
 90
        0
102
RTVSPost2010PropOp40
 70
     1
102
RTVSPost2010Prop41ColorIndex
 90
       18
102
RTVSPost2010Prop41ColorRGB
 90
        0
102
RTVSPost2010PropOp41
 70
     1
102
RTVSPost2010Prop42
 90
       50
102
RTVSPost2010PropOp42
 70
     1
102
RTVSPost2010Prop43
 90
        3
102
RTVSPost2010PropOp43
 70
     1
102
RTVSPost2010Prop44ColorIndex
 90
        5
102
RTVSPost2010Prop44ColorRGB
 90
      255
102
RTVSPost2010PropOp44
 70
     1
102
RTVSPost2010Prop45
280
     0
102
RTVSPost2010PropOp45
 70
     1
102
RTVSPost2010Prop46
 90
       50
102
RTVSPost2010PropOp46
 70
     1
102
RTVSPost2010Prop47
 90
       50
102
RTVSPost2010PropOp47
 70
     1
102
RTVSPost2010Prop48
 90
       50
102
RTVSPost2010PropOp48
 70
     1
102
RTVSPost2010Prop49
280
     0
102
RTVSPost2010PropOp49
 70
     1
102
RTVSPost2010Prop50
 90
       50
102
RTVSPost2010PropOp50
 70
     1
102
RTVSPost2010Prop51ColorIndex
 90
      256
102
RTVSPost2010Prop51ColorRGB
 90
-16777216
102
RTVSPost2010PropOp51
 70
     0
102
RTVSPost2010Prop52
140
1.0
102
RTVSPost2010PropOp52
 70
     0
102
RTVSPost2010Prop53
 90
        2
102
RTVSPost2010PropOp53
 70
     1
102
RTVSPost2010Prop54
  1
strokes_ogs.tif
102
RTVSPost2010PropOp54
 70
     1
102
RTVSPost2010Prop55
280
     0
102
RTVSPost2010PropOp55
 70
     1
102
RTVSPost2010Prop56
140
1.0
102
RTVSPost2010PropOp56
 70
     1
102
RTVSPost2010Prop57
140
1.0
102
RTVSPost2010PropOp57
 70
     1
  0
XRECORD
  5
2A3
102
{ACAD_REACTORS
330
2A2
102
}
330
2A2
100
AcDbXrecord
280
     1
102
RTVSPost2010Prop28
280
     0
102
RTVSPost2010PropOp28
 70
     1
102
RTVSPost2010Prop29
280
     1
102
RTVSPost2010PropOp29
 70
     1
102
RTVSPost2010Prop30
280
     1
102
RTVSPost2010PropOp30
 70
     1
102
RTVSPost2010Prop31
280
     0
102
RTVSPost2010PropOp31
 70
     1
102
RTVSPost2010Prop32
280
     0
102
RTVSPost2010PropOp32
 70
     1
102
RTVSPost2010Prop33
280
     0
102
RTVSPost2010PropOp33
 70
     1
102
RTVSPost2010Prop34
280
     0
102
RTVSPost2010PropOp34
 70
     1
102
RTVSPost2010Prop35
280
     0
102
RTVSPost2010PropOp35
 70
     1
102
RTVSPost2010Prop36
280
     0
102
RTVSPost2010PropOp36
 70
     1
102
RTVSPost2010Prop37
 90
       50
102
RTVSPost2010PropOp37
 70
     1
102
RTVSPost2010Prop38
140
0.0
102
RTVSPost2010PropOp38
 70
     1
102
RTVSPost2010Prop39
140
1.0
102
RTVSPost2010PropOp39
 70
     1
102
RTVSPost2010Prop40
 90
        0
102
RTVSPost2010PropOp40
 70
     1
102
RTVSPost2010Prop41ColorIndex
 90
       18
102
RTVSPost2010Prop41ColorRGB
 90
        0
102
RTVSPost2010PropOp41
 70
     1
102
RTVSPost2010Prop42
 90
       50
102
RTVSPost2010PropOp42
 70
     1
102
RTVSPost2010Prop43
 90
        3
102
RTVSPost2010PropOp43
 70
     1
102
RTVSPost2010Prop44ColorIndex
 90
        5
102
RTVSPost2010Prop44ColorRGB
 90
      255
102
RTVSPost2010PropOp44
 70
     1
102
RTVSPost2010Prop45
280
     0
102
RTVSPost2010PropOp45
 70
     1
102
RTVSPost2010Prop46
 90
       50
102
RTVSPost2010PropOp46
 70
     1
102
RTVSPost2010Prop47
 90
       50
102
RTVSPost2010PropOp47
 70
     1
102
RTVSPost2010Prop48
 90
       50
102
RTVSPost2010PropOp48
 70
     1
102
RTVSPost2010Prop49
280
     0
102
RTVSPost2010PropOp49
 70
     1
102
RTVSPost2010Prop50
 90
       50
102
RTVSPost2010PropOp50
 70
     1
102
RTVSPost2010Prop51ColorIndex
 90
      256
102
RTVSPost2010Prop51ColorRGB
 90
-16777216
102
RTVSPost2010PropOp51
 70
     0
102
RTVSPost2010Prop52
140
1.0
102
RTVSPost2010PropOp52
 70
     0
102
RTVSPost2010Prop53
 90
        2
102
RTVSPost2010PropOp53
 70
     1
102
RTVSPost2010Prop54
  1
strokes_ogs.tif
102
RTVSPost2010PropOp54
 70
     1
102
RTVSPost2010Prop55
280
     0
102
RTVSPost2010PropOp55
 70
     1
102
RTVSPost2010Prop56
140
1.0
102
RTVSPost2010PropOp56
 70
     1
102
RTVSPost2010Prop57
140
1.0
102
RTVSPost2010PropOp57
 70
     1
  0
XRECORD
  5
2A9
102
{ACAD_REACTORS
330
2A8
102
}
330
2A8
100
AcDbXrecord
280
     1
102
RTVSPost2010Prop28
280
     0
102
RTVSPost2010PropOp28
 70
     1
102
RTVSPost2010Prop29
280
     1
102
RTVSPost2010PropOp29
 70
     1
102
RTVSPost2010Prop30
280
     1
102
RTVSPost2010PropOp30
 70
     1
102
RTVSPost2010Prop31
280
     0
102
RTVSPost2010PropOp31
 70
     1
102
RTVSPost2010Prop32
280
     0
102
RTVSPost2010PropOp32
 70
     1
102
RTVSPost2010Prop33
280
     0
102
RTVSPost2010PropOp33
 70
     1
102
RTVSPost2010Prop34
280
     0
102
RTVSPost2010PropOp34
 70
     1
102
RTVSPost2010Prop35
280
     0
102
RTVSPost2010PropOp35
 70
     1
102
RTVSPost2010Prop36
280
     0
102
RTVSPost2010PropOp36
 70
     1
102
RTVSPost2010Prop37
 90
       50
102
RTVSPost2010PropOp37
 70
     1
102
RTVSPost2010Prop38
140
0.0
102
RTVSPost2010PropOp38
 70
     1
102
RTVSPost2010Prop39
140
1.0
102
RTVSPost2010PropOp39
 70
     1
102
RTVSPost2010Prop40
 90
        0
102
RTVSPost2010PropOp40
 70
     1
102
RTVSPost2010Prop41ColorIndex
 90
       18
102
RTVSPost2010Prop41ColorRGB
 90
        0
102
RTVSPost2010PropOp41
 70
     1
102
RTVSPost2010Prop42
 90
       50
102
RTVSPost2010PropOp42
 70
     1
102
RTVSPost2010Prop43
 90
        3
102
RTVSPost2010PropOp43
 70
     1
102
RTVSPost2010Prop44ColorIndex
 90
        5
102
RTVSPost2010Prop44ColorRGB
 90
      255
102
RTVSPost2010PropOp44
 70
     1
102
RTVSPost2010Prop45
280
     0
102
RTVSPost2010PropOp45
 70
     1
102
RTVSPost2010Prop46
 90
       50
102
RTVSPost2010PropOp46
 70
     1
102
RTVSPost2010Prop47
 90
       50
102
RTVSPost2010PropOp47
 70
     1
102
RTVSPost2010Prop48
 90
       50
102
RTVSPost2010PropOp48
 70
     1
102
RTVSPost2010Prop49
280
     0
102
RTVSPost2010PropOp49
 70
     1
102
RTVSPost2010Prop50
 90
       50
102
RTVSPost2010PropOp50
 70
     1
102
RTVSPost2010Prop51ColorIndex
 90
      256
102
RTVSPost2010Prop51ColorRGB
 90
-16777216
102
RTVSPost2010PropOp51
 70
     0
102
RTVSPost2010Prop52
140
1.0
102
RTVSPost2010PropOp52
 70
     0
102
RTVSPost2010Prop53
 90
        2
102
RTVSPost2010PropOp53
 70
     1
102
RTVSPost2010Prop54
  1
strokes_ogs.tif
102
RTVSPost2010PropOp54
 70
     1
102
RTVSPost2010Prop55
280
     0
102
RTVSPost2010PropOp55
 70
     1
102
RTVSPost2010Prop56
140
1.0
102
RTVSPost2010PropOp56
 70
     1
102
RTVSPost2010Prop57
140
1.0
102
RTVSPost2010PropOp57
 70
     1
  0
XRECORD
  5
2BD
102
{ACAD_REACTORS
330
2BC
102
}
330
2BC
100
AcDbXrecord
280
     1
102
RTVSPost2010Prop28
280
     0
102
RTVSPost2010PropOp28
 70
     0
102
RTVSPost2010Prop29
280
     1
102
RTVSPost2010PropOp29
 70
     0
102
RTVSPost2010Prop30
280
     1
102
RTVSPost2010PropOp30
 70
     0
102
RTVSPost2010Prop31
280
     0
102
RTVSPost2010PropOp31
 70
     0
102
RTVSPost2010Prop32
280
     0
102
RTVSPost2010PropOp32
 70
     0
102
RTVSPost2010Prop33
280
     0
102
RTVSPost2010PropOp33
 70
     0
102
RTVSPost2010Prop34
280
     0
102
RTVSPost2010PropOp34
 70
     0
102
RTVSPost2010Prop35
280
     0
102
RTVSPost2010PropOp35
 70
     0
102
RTVSPost2010Prop36
280
     0
102
RTVSPost2010PropOp36
 70
     0
102
RTVSPost2010Prop37
 90
       50
102
RTVSPost2010PropOp37
 70
     0
102
RTVSPost2010Prop38
140
0.0
102
RTVSPost2010PropOp38
 70
     0
102
RTVSPost2010Prop39
140
1.0
102
RTVSPost2010PropOp39
 70
     0
102
RTVSPost2010Prop40
 90
        0
102
RTVSPost2010PropOp40
 70
     0
102
RTVSPost2010Prop41ColorIndex
 90
       18
102
RTVSPost2010Prop41ColorRGB
 90
        0
102
RTVSPost2010PropOp41
 70
     0
102
RTVSPost2010Prop42
 90
       50
102
RTVSPost2010PropOp42
 70
     0
102
RTVSPost2010Prop43
 90
        3
102
RTVSPost2010PropOp43
 70
     0
102
RTVSPost2010Prop44ColorIndex
 90
        5
102
RTVSPost2010Prop44ColorRGB
 90
      255
102
RTVSPost2010PropOp44
 70
     0
102
RTVSPost2010Prop45
280
     0
102
RTVSPost2010PropOp45
 70
     0
102
RTVSPost2010Prop46
 90
       50
102
RTVSPost2010PropOp46
 70
     0
102
RTVSPost2010Prop47
 90
       50
102
RTVSPost2010PropOp47
 70
     0
102
RTVSPost2010Prop48
 90
       50
102
RTVSPost2010PropOp48
 70
     0
102
RTVSPost2010Prop49
280
     0
102
RTVSPost2010PropOp49
 70
     0
102
RTVSPost2010Prop50
 90
       50
102
RTVSPost2010PropOp50
 70
     0
102
RTVSPost2010Prop51ColorIndex
 90
      256
102
RTVSPost2010Prop51ColorRGB
 90
-16777216
102
RTVSPost2010PropOp51
 70
     0
102
RTVSPost2010Prop52
140
1.0
102
RTVSPost2010PropOp52
 70
     0
102
RTVSPost2010Prop53
 90
        2
102
RTVSPost2010PropOp53
 70
     0
102
RTVSPost2010Prop54
  1
strokes_ogs.tif
102
RTVSPost2010PropOp54
 70
     0
102
RTVSPost2010Prop55
280
     0
102
RTVSPost2010PropOp55
 70
     0
102
RTVSPost2010Prop56
140
1.0
102
RTVSPost2010PropOp56
 70
     0
102
RTVSPost2010Prop57
140
1.0
102
RTVSPost2010PropOp57
 70
     0
  0
XRECORD
  5
2B7
102
{ACAD_REACTORS
330
2B6
102
}
330
2B6
100
AcDbXrecord
280
     1
102
RTVSPost2010Prop28
280
     0
102
RTVSPost2010PropOp28
 70
     1
102
RTVSPost2010Prop29
280
     1
102
RTVSPost2010PropOp29
 70
     1
102
RTVSPost2010Prop30
280
     1
102
RTVSPost2010PropOp30
 70
     1
102
RTVSPost2010Prop31
280
     0
102
RTVSPost2010PropOp31
 70
     1
102
RTVSPost2010Prop32
280
     0
102
RTVSPost2010PropOp32
 70
     1
102
RTVSPost2010Prop33
280
     0
102
RTVSPost2010PropOp33
 70
     1
102
RTVSPost2010Prop34
280
     0
102
RTVSPost2010PropOp34
 70
     1
102
RTVSPost2010Prop35
280
     0
102
RTVSPost2010PropOp35
 70
     1
102
RTVSPost2010Prop36
280
     0
102
RTVSPost2010PropOp36
 70
     1
102
RTVSPost2010Prop37
 90
       50
102
RTVSPost2010PropOp37
 70
     1
102
RTVSPost2010Prop38
140
0.0
102
RTVSPost2010PropOp38
 70
     1
102
RTVSPost2010Prop39
140
1.0
102
RTVSPost2010PropOp39
 70
     1
102
RTVSPost2010Prop40
 90
        0
102
RTVSPost2010PropOp40
 70
     1
102
RTVSPost2010Prop41ColorIndex
 90
       18
102
RTVSPost2010Prop41ColorRGB
 90
        0
102
RTVSPost2010PropOp41
 70
     1
102
RTVSPost2010Prop42
 90
       50
102
RTVSPost2010PropOp42
 70
     1
102
RTVSPost2010Prop43
 90
        3
102
RTVSPost2010PropOp43
 70
     1
102
RTVSPost2010Prop44ColorIndex
 90
        5
102
RTVSPost2010Prop44ColorRGB
 90
      255
102
RTVSPost2010PropOp44
 70
     1
102
RTVSPost2010Prop45
280
     0
102
RTVSPost2010PropOp45
 70
     1
102
RTVSPost2010Prop46
 90
       50
102
RTVSPost2010PropOp46
 70
     1
102
RTVSPost2010Prop47
 90
       50
102
RTVSPost2010PropOp47
 70
     1
102
RTVSPost2010Prop48
 90
       50
102
RTVSPost2010PropOp48
 70
     1
102
RTVSPost2010Prop49
280
     0
102
RTVSPost2010PropOp49
 70
     1
102
RTVSPost2010Prop50
 90
       50
102
RTVSPost2010PropOp50
 70
     1
102
RTVSPost2010Prop51ColorIndex
 90
      256
102
RTVSPost2010Prop51ColorRGB
 90
-16777216
102
RTVSPost2010PropOp51
 70
     0
102
RTVSPost2010Prop52
140
1.0
102
RTVSPost2010PropOp52
 70
     0
102
RTVSPost2010Prop53
 90
        2
102
RTVSPost2010PropOp53
 70
     1
102
RTVSPost2010Prop54
  1
strokes_ogs.tif
102
RTVSPost2010PropOp54
 70
     1
102
RTVSPost2010Prop55
280
     0
102
RTVSPost2010PropOp55
 70
     1
102
RTVSPost2010Prop56
140
1.0
102
RTVSPost2010PropOp56
 70
     1
102
RTVSPost2010Prop57
140
1.0
102
RTVSPost2010PropOp57
 70
     1
  0
XRECORD
  5
2BF
102
{ACAD_REACTORS
330
2BE
102
}
330
2BE
100
AcDbXrecord
280
     1
102
RTVSPost2010Prop28
280
     0
102
RTVSPost2010PropOp28
 70
     0
102
RTVSPost2010Prop29
280
     1
102
RTVSPost2010PropOp29
 70
     0
102
RTVSPost2010Prop30
280
     1
102
RTVSPost2010PropOp30
 70
     0
102
RTVSPost2010Prop31
280
     0
102
RTVSPost2010PropOp31
 70
     0
102
RTVSPost2010Prop32
280
     0
102
RTVSPost2010PropOp32
 70
     0
102
RTVSPost2010Prop33
280
     0
102
RTVSPost2010PropOp33
 70
     0
102
RTVSPost2010Prop34
280
     0
102
RTVSPost2010PropOp34
 70
     0
102
RTVSPost2010Prop35
280
     0
102
RTVSPost2010PropOp35
 70
     0
102
RTVSPost2010Prop36
280
     0
102
RTVSPost2010PropOp36
 70
     0
102
RTVSPost2010Prop37
 90
       50
102
RTVSPost2010PropOp37
 70
     0
102
RTVSPost2010Prop38
140
0.0
102
RTVSPost2010PropOp38
 70
     0
102
RTVSPost2010Prop39
140
1.0
102
RTVSPost2010PropOp39
 70
     0
102
RTVSPost2010Prop40
 90
        0
102
RTVSPost2010PropOp40
 70
     0
102
RTVSPost2010Prop41ColorIndex
 90
       18
102
RTVSPost2010Prop41ColorRGB
 90
        0
102
RTVSPost2010PropOp41
 70
     0
102
RTVSPost2010Prop42
 90
       50
102
RTVSPost2010PropOp42
 70
     0
102
RTVSPost2010Prop43
 90
        3
102
RTVSPost2010PropOp43
 70
     0
102
RTVSPost2010Prop44ColorIndex
 90
        5
102
RTVSPost2010Prop44ColorRGB
 90
      255
102
RTVSPost2010PropOp44
 70
     0
102
RTVSPost2010Prop45
280
     0
102
RTVSPost2010PropOp45
 70
     0
102
RTVSPost2010Prop46
 90
       50
102
RTVSPost2010PropOp46
 70
     0
102
RTVSPost2010Prop47
 90
       50
102
RTVSPost2010PropOp47
 70
     0
102
RTVSPost2010Prop48
 90
       50
102
RTVSPost2010PropOp48
 70
     0
102
RTVSPost2010Prop49
280
     0
102
RTVSPost2010PropOp49
 70
     0
102
RTVSPost2010Prop50
 90
       50
102
RTVSPost2010PropOp50
 70
     0
102
RTVSPost2010Prop51ColorIndex
 90
      256
102
RTVSPost2010Prop51ColorRGB
 90
-16777216
102
RTVSPost2010PropOp51
 70
     0
102
RTVSPost2010Prop52
140
1.0
102
RTVSPost2010PropOp52
 70
     0
102
RTVSPost2010Prop53
 90
        2
102
RTVSPost2010PropOp53
 70
     0
102
RTVSPost2010Prop54
  1
strokes_ogs.tif
102
RTVSPost2010PropOp54
 70
     0
102
RTVSPost2010Prop55
280
     0
102
RTVSPost2010PropOp55
 70
     0
102
RTVSPost2010Prop56
140
1.0
102
RTVSPost2010PropOp56
 70
     0
102
RTVSPost2010Prop57
140
1.0
102
RTVSPost2010PropOp57
 70
     0
  0
XRECORD
  5
2AD
102
{ACAD_REACTORS
330
2AC
102
}
330
2AC
100
AcDbXrecord
280
     1
102
RTVSPost2010Prop28
280
     0
102
RTVSPost2010PropOp28
 70
     1
102
RTVSPost2010Prop29
280
     1
102
RTVSPost2010PropOp29
 70
     1
102
RTVSPost2010Prop30
280
     1
102
RTVSPost2010PropOp30
 70
     1
102
RTVSPost2010Prop31
280
     0
102
RTVSPost2010PropOp31
 70
     1
102
RTVSPost2010Prop32
280
     0
102
RTVSPost2010PropOp32
 70
     1
102
RTVSPost2010Prop33
280
     0
102
RTVSPost2010PropOp33
 70
     1
102
RTVSPost2010Prop34
280
     0
102
RTVSPost2010PropOp34
 70
     1
102
RTVSPost2010Prop35
280
     0
102
RTVSPost2010PropOp35
 70
     1
102
RTVSPost2010Prop36
280
     0
102
RTVSPost2010PropOp36
 70
     1
102
RTVSPost2010Prop37
 90
       50
102
RTVSPost2010PropOp37
 70
     1
102
RTVSPost2010Prop38
140
0.0
102
RTVSPost2010PropOp38
 70
     1
102
RTVSPost2010Prop39
140
1.0
102
RTVSPost2010PropOp39
 70
     1
102
RTVSPost2010Prop40
 90
        0
102
RTVSPost2010PropOp40
 70
     1
102
RTVSPost2010Prop41ColorIndex
 90
       18
102
RTVSPost2010Prop41ColorRGB
 90
        0
102
RTVSPost2010PropOp41
 70
     1
102
RTVSPost2010Prop42
 90
       50
102
RTVSPost2010PropOp42
 70
     1
102
RTVSPost2010Prop43
 90
        3
102
RTVSPost2010PropOp43
 70
     1
102
RTVSPost2010Prop44ColorIndex
 90
        5
102
RTVSPost2010Prop44ColorRGB
 90
      255
102
RTVSPost2010PropOp44
 70
     1
102
RTVSPost2010Prop45
280
     0
102
RTVSPost2010PropOp45
 70
     1
102
RTVSPost2010Prop46
 90
       50
102
RTVSPost2010PropOp46
 70
     1
102
RTVSPost2010Prop47
 90
       50
102
RTVSPost2010PropOp47
 70
     1
102
RTVSPost2010Prop48
 90
       50
102
RTVSPost2010PropOp48
 70
     1
102
RTVSPost2010Prop49
280
     0
102
RTVSPost2010PropOp49
 70
     1
102
RTVSPost2010Prop50
 90
       50
102
RTVSPost2010PropOp50
 70
     1
102
RTVSPost2010Prop51ColorIndex
 90
      256
102
RTVSPost2010Prop51ColorRGB
 90
-16777216
102
RTVSPost2010PropOp51
 70
     0
102
RTVSPost2010Prop52
140
1.0
102
RTVSPost2010PropOp52
 70
     0
102
RTVSPost2010Prop53
 90
        2
102
RTVSPost2010PropOp53
 70
     1
102
RTVSPost2010Prop54
  1
strokes_ogs.tif
102
RTVSPost2010PropOp54
 70
     1
102
RTVSPost2010Prop55
280
     0
102
RTVSPost2010PropOp55
 70
     1
102
RTVSPost2010Prop56
140
1.0
102
RTVSPost2010PropOp56
 70
     1
102
RTVSPost2010Prop57
140
1.0
102
RTVSPost2010PropOp57
 70
     1
  0
XRECORD
  5
2CB
102
{ACAD_REACTORS
330
2CA
102
}
330
2CA
100
AcDbXrecord
280
     1
102
RTVSPost2010Prop28
280
     0
102
RTVSPost2010PropOp28
 70
     1
102
RTVSPost2010Prop29
280
     1
102
RTVSPost2010PropOp29
 70
     1
102
RTVSPost2010Prop30
280
     1
102
RTVSPost2010PropOp30
 70
     1
102
RTVSPost2010Prop31
280
     0
102
RTVSPost2010PropOp31
 70
     1
102
RTVSPost2010Prop32
280
     0
102
RTVSPost2010PropOp32
 70
     1
102
RTVSPost2010Prop33
280
     0
102
RTVSPost2010PropOp33
 70
     1
102
RTVSPost2010Prop34
280
     0
102
RTVSPost2010PropOp34
 70
     1
102
RTVSPost2010Prop35
280
     0
102
RTVSPost2010PropOp35
 70
     1
102
RTVSPost2010Prop36
280
     0
102
RTVSPost2010PropOp36
 70
     1
102
RTVSPost2010Prop37
 90
       50
102
RTVSPost2010PropOp37
 70
     1
102
RTVSPost2010Prop38
140
0.0
102
RTVSPost2010PropOp38
 70
     1
102
RTVSPost2010Prop39
140
1.0
102
RTVSPost2010PropOp39
 70
     1
102
RTVSPost2010Prop40
 90
        0
102
RTVSPost2010PropOp40
 70
     1
102
RTVSPost2010Prop41ColorIndex
 90
       18
102
RTVSPost2010Prop41ColorRGB
 90
        0
102
RTVSPost2010PropOp41
 70
     1
102
RTVSPost2010Prop42
 90
       50
102
RTVSPost2010PropOp42
 70
     1
102
RTVSPost2010Prop43
 90
        3
102
RTVSPost2010PropOp43
 70
     1
102
RTVSPost2010Prop44ColorIndex
 90
        5
102
RTVSPost2010Prop44ColorRGB
 90
      255
102
RTVSPost2010PropOp44
 70
     1
102
RTVSPost2010Prop45
280
     0
102
RTVSPost2010PropOp45
 70
     1
102
RTVSPost2010Prop46
 90
       50
102
RTVSPost2010PropOp46
 70
     1
102
RTVSPost2010Prop47
 90
       50
102
RTVSPost2010PropOp47
 70
     1
102
RTVSPost2010Prop48
 90
       50
102
RTVSPost2010PropOp48
 70
     1
102
RTVSPost2010Prop49
280
     0
102
RTVSPost2010PropOp49
 70
     1
102
RTVSPost2010Prop50
 90
       50
102
RTVSPost2010PropOp50
 70
     1
102
RTVSPost2010Prop51ColorIndex
 90
      256
102
RTVSPost2010Prop51ColorRGB
 90
-16777216
102
RTVSPost2010PropOp51
 70
     0
102
RTVSPost2010Prop52
140
1.0
102
RTVSPost2010PropOp52
 70
     0
102
RTVSPost2010Prop53
 90
        2
102
RTVSPost2010PropOp53
 70
     1
102
RTVSPost2010Prop54
  1
strokes_ogs.tif
102
RTVSPost2010PropOp54
 70
     1
102
RTVSPost2010Prop55
280
     0
102
RTVSPost2010PropOp55
 70
     1
102
RTVSPost2010Prop56
140
1.0
102
RTVSPost2010PropOp56
 70
     1
102
RTVSPost2010Prop57
140
1.0
102
RTVSPost2010PropOp57
 70
     1
  0
XRECORD
  5
2C9
102
{ACAD_REACTORS
330
2C8
102
}
330
2C8
100
AcDbXrecord
280
     1
102
RTVSPost2010Prop28
280
     0
102
RTVSPost2010PropOp28
 70
     1
102
RTVSPost2010Prop29
280
     1
102
RTVSPost2010PropOp29
 70
     1
102
RTVSPost2010Prop30
280
     1
102
RTVSPost2010PropOp30
 70
     1
102
RTVSPost2010Prop31
280
     0
102
RTVSPost2010PropOp31
 70
     1
102
RTVSPost2010Prop32
280
     0
102
RTVSPost2010PropOp32
 70
     1
102
RTVSPost2010Prop33
280
     0
102
RTVSPost2010PropOp33
 70
     1
102
RTVSPost2010Prop34
280
     0
102
RTVSPost2010PropOp34
 70
     1
102
RTVSPost2010Prop35
280
     0
102
RTVSPost2010PropOp35
 70
     1
102
RTVSPost2010Prop36
280
     0
102
RTVSPost2010PropOp36
 70
     1
102
RTVSPost2010Prop37
 90
       50
102
RTVSPost2010PropOp37
 70
     1
102
RTVSPost2010Prop38
140
0.0
102
RTVSPost2010PropOp38
 70
     1
102
RTVSPost2010Prop39
140
1.0
102
RTVSPost2010PropOp39
 70
     1
102
RTVSPost2010Prop40
 90
        0
102
RTVSPost2010PropOp40
 70
     1
102
RTVSPost2010Prop41ColorIndex
 90
       18
102
RTVSPost2010Prop41ColorRGB
 90
        0
102
RTVSPost2010PropOp41
 70
     1
102
RTVSPost2010Prop42
 90
       50
102
RTVSPost2010PropOp42
 70
     1
102
RTVSPost2010Prop43
 90
        3
102
RTVSPost2010PropOp43
 70
     1
102
RTVSPost2010Prop44ColorIndex
 90
        5
102
RTVSPost2010Prop44ColorRGB
 90
      255
102
RTVSPost2010PropOp44
 70
     1
102
RTVSPost2010Prop45
280
     0
102
RTVSPost2010PropOp45
 70
     1
102
RTVSPost2010Prop46
 90
       50
102
RTVSPost2010PropOp46
 70
     1
102
RTVSPost2010Prop47
 90
       50
102
RTVSPost2010PropOp47
 70
     1
102
RTVSPost2010Prop48
 90
       50
102
RTVSPost2010PropOp48
 70
     1
102
RTVSPost2010Prop49
280
     0
102
RTVSPost2010PropOp49
 70
     1
102
RTVSPost2010Prop50
 90
       50
102
RTVSPost2010PropOp50
 70
     1
102
RTVSPost2010Prop51ColorIndex
 90
      256
102
RTVSPost2010Prop51ColorRGB
 90
-16777216
102
RTVSPost2010PropOp51
 70
     0
102
RTVSPost2010Prop52
140
1.0
102
RTVSPost2010PropOp52
 70
     0
102
RTVSPost2010Prop53
 90
        2
102
RTVSPost2010PropOp53
 70
     1
102
RTVSPost2010Prop54
  1
strokes_ogs.tif
102
RTVSPost2010PropOp54
 70
     1
102
RTVSPost2010Prop55
280
     0
102
RTVSPost2010PropOp55
 70
     1
102
RTVSPost2010Prop56
140
1.0
102
RTVSPost2010PropOp56
 70
     1
102
RTVSPost2010Prop57
140
1.0
102
RTVSPost2010PropOp57
 70
     1
  0
XRECORD
  5
2C3
102
{ACAD_REACTORS
330
2C2
102
}
330
2C2
100
AcDbXrecord
280
     1
102
RTVSPost2010Prop28
280
     0
102
RTVSPost2010PropOp28
 70
     1
102
RTVSPost2010Prop29
280
     1
102
RTVSPost2010PropOp29
 70
     1
102
RTVSPost2010Prop30
280
     1
102
RTVSPost2010PropOp30
 70
     1
102
RTVSPost2010Prop31
280
     0
102
RTVSPost2010PropOp31
 70
     1
102
RTVSPost2010Prop32
280
     0
102
RTVSPost2010PropOp32
 70
     1
102
RTVSPost2010Prop33
280
     0
102
RTVSPost2010PropOp33
 70
     1
102
RTVSPost2010Prop34
280
     0
102
RTVSPost2010PropOp34
 70
     1
102
RTVSPost2010Prop35
280
     0
102
RTVSPost2010PropOp35
 70
     1
102
RTVSPost2010Prop36
280
     0
102
RTVSPost2010PropOp36
 70
     1
102
RTVSPost2010Prop37
 90
       50
102
RTVSPost2010PropOp37
 70
     1
102
RTVSPost2010Prop38
140
0.0
102
RTVSPost2010PropOp38
 70
     1
102
RTVSPost2010Prop39
140
1.0
102
RTVSPost2010PropOp39
 70
     1
102
RTVSPost2010Prop40
 90
        0
102
RTVSPost2010PropOp40
 70
     1
102
RTVSPost2010Prop41ColorIndex
 90
       18
102
RTVSPost2010Prop41ColorRGB
 90
        0
102
RTVSPost2010PropOp41
 70
     1
102
RTVSPost2010Prop42
 90
       50
102
RTVSPost2010PropOp42
 70
     1
102
RTVSPost2010Prop43
 90
        3
102
RTVSPost2010PropOp43
 70
     1
102
RTVSPost2010Prop44ColorIndex
 90
        5
102
RTVSPost2010Prop44ColorRGB
 90
      255
102
RTVSPost2010PropOp44
 70
     1
102
RTVSPost2010Prop45
280
     0
102
RTVSPost2010PropOp45
 70
     1
102
RTVSPost2010Prop46
 90
       50
102
RTVSPost2010PropOp46
 70
     1
102
RTVSPost2010Prop47
 90
       50
102
RTVSPost2010PropOp47
 70
     1
102
RTVSPost2010Prop48
 90
       50
102
RTVSPost2010PropOp48
 70
     1
102
RTVSPost2010Prop49
280
     0
102
RTVSPost2010PropOp49
 70
     1
102
RTVSPost2010Prop50
 90
       50
102
RTVSPost2010PropOp50
 70
     1
102
RTVSPost2010Prop51ColorIndex
 90
      256
102
RTVSPost2010Prop51ColorRGB
 90
-16777216
102
RTVSPost2010PropOp51
 70
     0
102
RTVSPost2010Prop52
140
1.0
102
RTVSPost2010PropOp52
 70
     0
102
RTVSPost2010Prop53
 90
        2
102
RTVSPost2010PropOp53
 70
     1
102
RTVSPost2010Prop54
  1
strokes_ogs.tif
102
RTVSPost2010PropOp54
 70
     1
102
RTVSPost2010Prop55
280
     0
102
RTVSPost2010PropOp55
 70
     1
102
RTVSPost2010Prop56
140
1.0
102
RTVSPost2010PropOp56
 70
     1
102
RTVSPost2010Prop57
140
1.0
102
RTVSPost2010PropOp57
 70
     1
  0
XRECORD
  5
2C5
102
{ACAD_REACTORS
330
2C4
102
}
330
2C4
100
AcDbXrecord
280
     1
102
RTVSPost2010Prop28
280
     0
102
RTVSPost2010PropOp28
 70
     1
102
RTVSPost2010Prop29
280
     1
102
RTVSPost2010PropOp29
 70
     1
102
RTVSPost2010Prop30
280
     1
102
RTVSPost2010PropOp30
 70
     1
102
RTVSPost2010Prop31
280
     0
102
RTVSPost2010PropOp31
 70
     1
102
RTVSPost2010Prop32
280
     0
102
RTVSPost2010PropOp32
 70
     1
102
RTVSPost2010Prop33
280
     0
102
RTVSPost2010PropOp33
 70
     1
102
RTVSPost2010Prop34
280
     0
102
RTVSPost2010PropOp34
 70
     1
102
RTVSPost2010Prop35
280
     0
102
RTVSPost2010PropOp35
 70
     1
102
RTVSPost2010Prop36
280
     0
102
RTVSPost2010PropOp36
 70
     1
102
RTVSPost2010Prop37
 90
       50
102
RTVSPost2010PropOp37
 70
     1
102
RTVSPost2010Prop38
140
0.0
102
RTVSPost2010PropOp38
 70
     1
102
RTVSPost2010Prop39
140
1.0
102
RTVSPost2010PropOp39
 70
     1
102
RTVSPost2010Prop40
 90
        0
102
RTVSPost2010PropOp40
 70
     1
102
RTVSPost2010Prop41ColorIndex
 90
       18
102
RTVSPost2010Prop41ColorRGB
 90
        0
102
RTVSPost2010PropOp41
 70
     1
102
RTVSPost2010Prop42
 90
       50
102
RTVSPost2010PropOp42
 70
     1
102
RTVSPost2010Prop43
 90
        3
102
RTVSPost2010PropOp43
 70
     1
102
RTVSPost2010Prop44ColorIndex
 90
        5
102
RTVSPost2010Prop44ColorRGB
 90
      255
102
RTVSPost2010PropOp44
 70
     1
102
RTVSPost2010Prop45
280
     0
102
RTVSPost2010PropOp45
 70
     1
102
RTVSPost2010Prop46
 90
       50
102
RTVSPost2010PropOp46
 70
     1
102
RTVSPost2010Prop47
 90
       50
102
RTVSPost2010PropOp47
 70
     1
102
RTVSPost2010Prop48
 90
       50
102
RTVSPost2010PropOp48
 70
     1
102
RTVSPost2010Prop49
280
     0
102
RTVSPost2010PropOp49
 70
     1
102
RTVSPost2010Prop50
 90
       50
102
RTVSPost2010PropOp50
 70
     1
102
RTVSPost2010Prop51ColorIndex
 90
      256
102
RTVSPost2010Prop51ColorRGB
 90
-16777216
102
RTVSPost2010PropOp51
 70
     0
102
RTVSPost2010Prop52
140
1.0
102
RTVSPost2010PropOp52
 70
     0
102
RTVSPost2010Prop53
 90
        2
102
RTVSPost2010PropOp53
 70
     1
102
RTVSPost2010Prop54
  1
strokes_ogs.tif
102
RTVSPost2010PropOp54
 70
     1
102
RTVSPost2010Prop55
280
     0
102
RTVSPost2010PropOp55
 70
     1
102
RTVSPost2010Prop56
140
1.0
102
RTVSPost2010PropOp56
 70
     1
102
RTVSPost2010Prop57
140
1.0
102
RTVSPost2010PropOp57
 70
     1
  0
XRECORD
  5
2B5
102
{ACAD_REACTORS
330
2B4
102
}
330
2B4
100
AcDbXrecord
280
     1
102
RTVSPost2010Prop28
280
     0
102
RTVSPost2010PropOp28
 70
     1
102
RTVSPost2010Prop29
280
     1
102
RTVSPost2010PropOp29
 70
     1
102
RTVSPost2010Prop30
280
     1
102
RTVSPost2010PropOp30
 70
     1
102
RTVSPost2010Prop31
280
     0
102
RTVSPost2010PropOp31
 70
     1
102
RTVSPost2010Prop32
280
     0
102
RTVSPost2010PropOp32
 70
     1
102
RTVSPost2010Prop33
280
     0
102
RTVSPost2010PropOp33
 70
     1
102
RTVSPost2010Prop34
280
     0
102
RTVSPost2010PropOp34
 70
     1
102
RTVSPost2010Prop35
280
     0
102
RTVSPost2010PropOp35
 70
     1
102
RTVSPost2010Prop36
280
     0
102
RTVSPost2010PropOp36
 70
     1
102
RTVSPost2010Prop37
 90
       50
102
RTVSPost2010PropOp37
 70
     1
102
RTVSPost2010Prop38
140
0.0
102
RTVSPost2010PropOp38
 70
     1
102
RTVSPost2010Prop39
140
1.0
102
RTVSPost2010PropOp39
 70
     1
102
RTVSPost2010Prop40
 90
        0
102
RTVSPost2010PropOp40
 70
     1
102
RTVSPost2010Prop41ColorIndex
 90
       18
102
RTVSPost2010Prop41ColorRGB
 90
        0
102
RTVSPost2010PropOp41
 70
     1
102
RTVSPost2010Prop42
 90
       50
102
RTVSPost2010PropOp42
 70
     1
102
RTVSPost2010Prop43
 90
        3
102
RTVSPost2010PropOp43
 70
     1
102
RTVSPost2010Prop44ColorIndex
 90
        5
102
RTVSPost2010Prop44ColorRGB
 90
      255
102
RTVSPost2010PropOp44
 70
     1
102
RTVSPost2010Prop45
280
     0
102
RTVSPost2010PropOp45
 70
     1
102
RTVSPost2010Prop46
 90
       50
102
RTVSPost2010PropOp46
 70
     1
102
RTVSPost2010Prop47
 90
       50
102
RTVSPost2010PropOp47
 70
     1
102
RTVSPost2010Prop48
 90
       50
102
RTVSPost2010PropOp48
 70
     1
102
RTVSPost2010Prop49
280
     0
102
RTVSPost2010PropOp49
 70
     1
102
RTVSPost2010Prop50
 90
       50
102
RTVSPost2010PropOp50
 70
     1
102
RTVSPost2010Prop51ColorIndex
 90
      256
102
RTVSPost2010Prop51ColorRGB
 90
-16777216
102
RTVSPost2010PropOp51
 70
     0
102
RTVSPost2010Prop52
140
1.0
102
RTVSPost2010PropOp52
 70
     0
102
RTVSPost2010Prop53
 90
        2
102
RTVSPost2010PropOp53
 70
     1
102
RTVSPost2010Prop54
  1
strokes_ogs.tif
102
RTVSPost2010PropOp54
 70
     1
102
RTVSPost2010Prop55
280
     0
102
RTVSPost2010PropOp55
 70
     1
102
RTVSPost2010Prop56
140
1.0
102
RTVSPost2010PropOp56
 70
     1
102
RTVSPost2010Prop57
140
1.0
102
RTVSPost2010PropOp57
 70
     1
  0
XRECORD
  5
2A7
102
{ACAD_REACTORS
330
2A6
102
}
330
2A6
100
AcDbXrecord
280
     1
102
RTVSPost2010Prop28
280
     0
102
RTVSPost2010PropOp28
 70
     1
102
RTVSPost2010Prop29
280
     1
102
RTVSPost2010PropOp29
 70
     1
102
RTVSPost2010Prop30
280
     1
102
RTVSPost2010PropOp30
 70
     1
102
RTVSPost2010Prop31
280
     0
102
RTVSPost2010PropOp31
 70
     1
102
RTVSPost2010Prop32
280
     0
102
RTVSPost2010PropOp32
 70
     1
102
RTVSPost2010Prop33
280
     0
102
RTVSPost2010PropOp33
 70
     1
102
RTVSPost2010Prop34
280
     0
102
RTVSPost2010PropOp34
 70
     1
102
RTVSPost2010Prop35
280
     0
102
RTVSPost2010PropOp35
 70
     1
102
RTVSPost2010Prop36
280
     0
102
RTVSPost2010PropOp36
 70
     1
102
RTVSPost2010Prop37
 90
       50
102
RTVSPost2010PropOp37
 70
     1
102
RTVSPost2010Prop38
140
0.0
102
RTVSPost2010PropOp38
 70
     1
102
RTVSPost2010Prop39
140
1.0
102
RTVSPost2010PropOp39
 70
     1
102
RTVSPost2010Prop40
 90
        0
102
RTVSPost2010PropOp40
 70
     1
102
RTVSPost2010Prop41ColorIndex
 90
       18
102
RTVSPost2010Prop41ColorRGB
 90
        0
102
RTVSPost2010PropOp41
 70
     1
102
RTVSPost2010Prop42
 90
       50
102
RTVSPost2010PropOp42
 70
     1
102
RTVSPost2010Prop43
 90
        3
102
RTVSPost2010PropOp43
 70
     1
102
RTVSPost2010Prop44ColorIndex
 90
        5
102
RTVSPost2010Prop44ColorRGB
 90
      255
102
RTVSPost2010PropOp44
 70
     1
102
RTVSPost2010Prop45
280
     0
102
RTVSPost2010PropOp45
 70
     1
102
RTVSPost2010Prop46
 90
       50
102
RTVSPost2010PropOp46
 70
     1
102
RTVSPost2010Prop47
 90
       50
102
RTVSPost2010PropOp47
 70
     1
102
RTVSPost2010Prop48
 90
       50
102
RTVSPost2010PropOp48
 70
     1
102
RTVSPost2010Prop49
280
     0
102
RTVSPost2010PropOp49
 70
     1
102
RTVSPost2010Prop50
 90
       50
102
RTVSPost2010PropOp50
 70
     1
102
RTVSPost2010Prop51ColorIndex
 90
      256
102
RTVSPost2010Prop51ColorRGB
 90
-16777216
102
RTVSPost2010PropOp51
 70
     0
102
RTVSPost2010Prop52
140
1.0
102
RTVSPost2010PropOp52
 70
     0
102
RTVSPost2010Prop53
 90
        2
102
RTVSPost2010PropOp53
 70
     1
102
RTVSPost2010Prop54
  1
strokes_ogs.tif
102
RTVSPost2010PropOp54
 70
     1
102
RTVSPost2010Prop55
280
     0
102
RTVSPost2010PropOp55
 70
     1
102
RTVSPost2010Prop56
140
1.0
102
RTVSPost2010PropOp56
 70
     1
102
RTVSPost2010Prop57
140
1.0
102
RTVSPost2010PropOp57
 70
     1
  0
XRECORD
  5
2C7
102
{ACAD_REACTORS
330
2C6
102
}
330
2C6
100
AcDbXrecord
280
     1
102
RTVSPost2010Prop28
280
     0
102
RTVSPost2010PropOp28
 70
     1
102
RTVSPost2010Prop29
280
     1
102
RTVSPost2010PropOp29
 70
     1
102
RTVSPost2010Prop30
280
     1
102
RTVSPost2010PropOp30
 70
     1
102
RTVSPost2010Prop31
280
     0
102
RTVSPost2010PropOp31
 70
     1
102
RTVSPost2010Prop32
280
     0
102
RTVSPost2010PropOp32
 70
     1
102
RTVSPost2010Prop33
280
     0
102
RTVSPost2010PropOp33
 70
     1
102
RTVSPost2010Prop34
280
     0
102
RTVSPost2010PropOp34
 70
     1
102
RTVSPost2010Prop35
280
     0
102
RTVSPost2010PropOp35
 70
     1
102
RTVSPost2010Prop36
280
     0
102
RTVSPost2010PropOp36
 70
     1
102
RTVSPost2010Prop37
 90
       50
102
RTVSPost2010PropOp37
 70
     1
102
RTVSPost2010Prop38
140
0.0
102
RTVSPost2010PropOp38
 70
     1
102
RTVSPost2010Prop39
140
1.0
102
RTVSPost2010PropOp39
 70
     1
102
RTVSPost2010Prop40
 90
        0
102
RTVSPost2010PropOp40
 70
     1
102
RTVSPost2010Prop41ColorIndex
 90
       18
102
RTVSPost2010Prop41ColorRGB
 90
        0
102
RTVSPost2010PropOp41
 70
     1
102
RTVSPost2010Prop42
 90
       50
102
RTVSPost2010PropOp42
 70
     1
102
RTVSPost2010Prop43
 90
        3
102
RTVSPost2010PropOp43
 70
     1
102
RTVSPost2010Prop44ColorIndex
 90
        5
102
RTVSPost2010Prop44ColorRGB
 90
      255
102
RTVSPost2010PropOp44
 70
     1
102
RTVSPost2010Prop45
280
     0
102
RTVSPost2010PropOp45
 70
     1
102
RTVSPost2010Prop46
 90
       50
102
RTVSPost2010PropOp46
 70
     1
102
RTVSPost2010Prop47
 90
       50
102
RTVSPost2010PropOp47
 70
     1
102
RTVSPost2010Prop48
 90
       50
102
RTVSPost2010PropOp48
 70
     1
102
RTVSPost2010Prop49
280
     0
102
RTVSPost2010PropOp49
 70
     1
102
RTVSPost2010Prop50
 90
       50
102
RTVSPost2010PropOp50
 70
     1
102
RTVSPost2010Prop51ColorIndex
 90
      256
102
RTVSPost2010Prop51ColorRGB
 90
-16777216
102
RTVSPost2010PropOp51
 70
     0
102
RTVSPost2010Prop52
140
1.0
102
RTVSPost2010PropOp52
 70
     0
102
RTVSPost2010Prop53
 90
        2
102
RTVSPost2010PropOp53
 70
     1
102
RTVSPost2010Prop54
  1
strokes_ogs.tif
102
RTVSPost2010PropOp54
 70
     1
102
RTVSPost2010Prop55
280
     0
102
RTVSPost2010PropOp55
 70
     1
102
RTVSPost2010Prop56
140
1.0
102
RTVSPost2010PropOp56
 70
     1
102
RTVSPost2010Prop57
140
1.0
102
RTVSPost2010PropOp57
 70
     1
  0
ENDSEC
  0
EOF
