  0
SECTION
  2
HEADER
  9
$ACADVER
  1
AC1024
  9
$ACADMAINTVER
 70
     6
  9
$DWGCODEPAGE
  3
ANSI_1252
  9
$LASTSAVEDBY
  1
c.meyer
  9
$INSBASE
 10
0.0
 20
0.0
 30
0.0
  9
$EXTMIN
 10
-756.767588369205
 20
41.435
 30
0.0
  9
$EXTMAX
 10
5031.767588369205
 20
2319.865
 30
0.0
  9
$LIMMIN
 10
0.0
 20
0.0
  9
$LIMMAX
 10
420.0
 20
297.0
  9
$ORTHOMODE
 70
     0
  9
$REGENMODE
 70
     1
  9
$FILLMODE
 70
     1
  9
$QTEXTMODE
 70
     0
  9
$MIRRTEXT
 70
     1
  9
$LTSCALE
 40
5.0
  9
$ATTMODE
 70
     1
  9
$TEXTSIZE
 40
2.5
  9
$TRACEWID
 40
1.0
  9
$TEXTSTYLE
  7
Standard
  9
$CLAYER
  8
0
  9
$CELTYPE
  6
ByLayer
  9
$CECOLOR
 62
   256
  9
$CELTSCALE
 40
1.0
  9
$DISPSILH
 70
     0
  9
$DIMSCALE
 40
1.0
  9
$DIMASZ
 40
2.5
  9
$DIMEXO
 40
0.625
  9
$DIMDLI
 40
3.75
  9
$DIMRND
 40
0.0
  9
$DIMDLE
 40
0.0
  9
$DIMEXE
 40
1.25
  9
$DIMTP
 40
0.0
  9
$DIMTM
 40
0.0
  9
$DIMTXT
 40
2.5
  9
$DIMCEN
 40
2.5
  9
$DIMTSZ
 40
0.0
  9
$DIMTOL
 70
     0
  9
$DIMLIM
 70
     0
  9
$DIMTIH
 70
     0
  9
$DIMTOH
 70
     0
  9
$DIMSE1
 70
     0
  9
$DIMSE2
 70
     0
  9
$DIMTAD
 70
     1
  9
$DIMZIN
 70
     8
  9
$DIMBLK
  1

  9
$DIMASO
 70
     1
  9
$DIMSHO
 70
     1
  9
$DIMPOST
  1

  9
$DIMAPOST
  1

  9
$DIMALT
 70
     0
  9
$DIMALTD
 70
     3
  9
$DIMALTF
 40
0.03937007874
  9
$DIMLFAC
 40
1.0
  9
$DIMTOFL
 70
     1
  9
$DIMTVP
 40
0.0
  9
$DIMTIX
 70
     0
  9
$DIMSOXD
 70
     0
  9
$DIMSAH
 70
     0
  9
$DIMBLK1
  1

  9
$DIMBLK2
  1

  9
$DIMSTYLE
  2
ISO-25
  9
$DIMCLRD
 70
     0
  9
$DIMCLRE
 70
     0
  9
$DIMCLRT
 70
     0
  9
$DIMTFAC
 40
1.0
  9
$DIMGAP
 40
0.625
  9
$DIMJUST
 70
     0
  9
$DIMSD1
 70
     0
  9
$DIMSD2
 70
     0
  9
$DIMTOLJ
 70
     0
  9
$DIMTZIN
 70
     8
  9
$DIMALTZ
 70
     0
  9
$DIMALTTZ
 70
     0
  9
$DIMUPT
 70
     0
  9
$DIMDEC
 70
     2
  9
$DIMTDEC
 70
     2
  9
$DIMALTU
 70
     2
  9
$DIMALTTD
 70
     3
  9
$DIMTXSTY
  7
Standard
  9
$DIMAUNIT
 70
     0
  9
$DIMADEC
 70
     0
  9
$DIMALTRND
 40
0.0
  9
$DIMAZIN
 70
     0
  9
$DIMDSEP
 70
    44
  9
$DIMATFIT
 70
     3
  9
$DIMFRAC
 70
     0
  9
$DIMLDRBLK
  1

  9
$DIMLUNIT
 70
     2
  9
$DIMLWD
 70
    -2
  9
$DIMLWE
 70
    -2
  9
$DIMTMOVE
 70
     0
  9
$DIMFXL
 40
1.0
  9
$DIMFXLON
 70
     0
  9
$DIMJOGANG
 40
0.785398163397
  9
$DIMTFILL
 70
     0
  9
$DIMTFILLCLR
 70
     0
  9
$DIMARCSYM
 70
     0
  9
$DIMLTYPE
  6

  9
$DIMLTEX1
  6

  9
$DIMLTEX2
  6

  9
$DIMTXTDIRECTION
 70
     0
  9
$LUNITS
 70
     2
  9
$LUPREC
 70
     4
  9
$SKETCHINC
 40
1.0
  9
$FILLETRAD
 40
0.0
  9
$AUNITS
 70
     0
  9
$AUPREC
 70
     0
  9
$MENU
  1
.
  9
$ELEVATION
 40
0.0
  9
$PELEVATION
 40
0.0
  9
$THICKNESS
 40
0.0
  9
$LIMCHECK
 70
     0
  9
$CHAMFERA
 40
0.0
  9
$CHAMFERB
 40
0.0
  9
$CHAMFERC
 40
0.0
  9
$CHAMFERD
 40
0.0
  9
$SKPOLY
 70
     0
  9
$TDCREATE
 40
2460290.475893657
  9
$TDUCREATE
 40
2460290.434226991
  9
$TDUPDATE
 40
2460290.475894583
  9
$TDUUPDATE
 40
2460290.434227917
  9
$TDINDWG
 40
0.0000000116
  9
$TDUSRTIMER
 40
0.0000000116
  9
$USRTIMER
 70
     1
  9
$ANGBASE
 50
0.0
  9
$ANGDIR
 70
     0
  9
$PDMODE
 70
     2
  9
$PDSIZE
 40
1.0
  9
$PLINEWID
 40
0.0
  9
$SPLFRAME
 70
     0
  9
$SPLINETYPE
 70
     6
  9
$SPLINESEGS
 70
     8
  9
$HANDSEED
  5
44D
  9
$SURFTAB1
 70
     6
  9
$SURFTAB2
 70
     6
  9
$SURFTYPE
 70
     6
  9
$SURFU
 70
     6
  9
$SURFV
 70
     6
  9
$UCSBASE
  2

  9
$UCSNAME
  2

  9
$UCSORG
 10
0.0
 20
0.0
 30
0.0
  9
$UCSXDIR
 10
1.0
 20
0.0
 30
0.0
  9
$UCSYDIR
 10
0.0
 20
1.0
 30
0.0
  9
$UCSORTHOREF
  2

  9
$UCSORTHOVIEW
 70
     0
  9
$UCSORGTOP
 10
0.0
 20
0.0
 30
0.0
  9
$UCSORGBOTTOM
 10
0.0
 20
0.0
 30
0.0
  9
$UCSORGLEFT
 10
0.0
 20
0.0
 30
0.0
  9
$UCSORGRIGHT
 10
0.0
 20
0.0
 30
0.0
  9
$UCSORGFRONT
 10
0.0
 20
0.0
 30
0.0
  9
$UCSORGBACK
 10
0.0
 20
0.0
 30
0.0
  9
$PUCSBASE
  2

  9
$PUCSNAME
  2

  9
$PUCSORG
 10
0.0
 20
0.0
 30
0.0
  9
$PUCSXDIR
 10
1.0
 20
0.0
 30
0.0
  9
$PUCSYDIR
 10
0.0
 20
1.0
 30
0.0
  9
$PUCSORTHOREF
  2

  9
$PUCSORTHOVIEW
 70
     0
  9
$PUCSORGTOP
 10
0.0
 20
0.0
 30
0.0
  9
$PUCSORGBOTTOM
 10
0.0
 20
0.0
 30
0.0
  9
$PUCSORGLEFT
 10
0.0
 20
0.0
 30
0.0
  9
$PUCSORGRIGHT
 10
0.0
 20
0.0
 30
0.0
  9
$PUCSORGFRONT
 10
0.0
 20
0.0
 30
0.0
  9
$PUCSORGBACK
 10
0.0
 20
0.0
 30
0.0
  9
$USERI1
 70
     0
  9
$USERI2
 70
     0
  9
$USERI3
 70
     0
  9
$USERI4
 70
     0
  9
$USERI5
 70
     0
  9
$USERR1
 40
0.0
  9
$USERR2
 40
0.0
  9
$USERR3
 40
0.0
  9
$USERR4
 40
0.0
  9
$USERR5
 40
0.0
  9
$WORLDVIEW
 70
     1
  9
$SHADEDGE
 70
     3
  9
$SHADEDIF
 70
    70
  9
$TILEMODE
 70
     1
  9
$MAXACTVP
 70
    64
  9
$PINSBASE
 10
0.0
 20
0.0
 30
0.0
  9
$PLIMCHECK
 70
     0
  9
$PEXTMIN
 10
1.000000000000E+20
 20
1.000000000000E+20
 30
1.000000000000E+20
  9
$PEXTMAX
 10
-1.000000000000E+20
 20
-1.000000000000E+20
 30
-1.000000000000E+20
  9
$PLIMMIN
 10
0.0
 20
0.0
  9
$PLIMMAX
 10
420.0
 20
297.0
  9
$UNITMODE
 70
     0
  9
$VISRETAIN
 70
     1
  9
$PLINEGEN
 70
     0
  9
$PSLTSCALE
 70
     1
  9
$TREEDEPTH
 70
  3020
  9
$CMLSTYLE
  2
Standard
  9
$CMLJUST
 70
     0
  9
$CMLSCALE
 40
20.0
  9
$PROXYGRAPHICS
 70
     1
  9
$MEASUREMENT
 70
     1
  9
$CELWEIGHT
370
    -1
  9
$ENDCAPS
280
     0
  9
$JOINSTYLE
280
     0
  9
$LWDISPLAY
290
     0
  9
$INSUNITS
 70
     4
  9
$HYPERLINKBASE
  1

  9
$STYLESHEET
  1

  9
$XEDIT
290
     1
  9
$CEPSNTYPE
380
     0
  9
$PSTYLEMODE
290
     1
  9
$FINGERPRINTGUID
  2
{86edb5cb-1aa8-4b95-8632-cf4f21879713}
  9
$VERSIONGUID
  2
{FAEB1C32-E019-11D5-929B-00C0DF256EC4}
  9
$EXTNAMES
290
     1
  9
$PSVPSCALE
 40
0.0
  9
$OLESTARTUP
290
     0
  9
$SORTENTS
280
   127
  9
$INDEXCTL
280
     0
  9
$HIDETEXT
280
     1
  9
$XCLIPFRAME
280
     2
  9
$HALOGAP
280
     0
  9
$OBSCOLOR
 70
   257
  9
$OBSLTYPE
280
     0
  9
$INTERSECTIONDISPLAY
280
     0
  9
$INTERSECTIONCOLOR
 70
   257
  9
$DIMASSOC
280
     2
  9
$PROJECTNAME
  1

  9
$CAMERADISPLAY
290
     0
  9
$LENSLENGTH
 40
50.0
  9
$CAMERAHEIGHT
 40
0.0
  9
$STEPSPERSEC
 40
2.0
  9
$STEPSIZE
 40
6.0
  9
$3DDWFPREC
 40
2.0
  9
$PSOLWIDTH
 40
5.0
  9
$PSOLHEIGHT
 40
80.0
  9
$LOFTANG1
 40
1.570796326795
  9
$LOFTANG2
 40
1.570796326795
  9
$LOFTMAG1
 40
0.0
  9
$LOFTMAG2
 40
0.0
  9
$LOFTPARAM
 70
     7
  9
$LOFTNORMALS
280
     1
  9
$LATITUDE
 40
37.795
  9
$LONGITUDE
 40
-122.394
  9
$NORTHDIRECTION
 40
0.0
  9
$TIMEZONE
 70
 -8000
  9
$LIGHTGLYPHDISPLAY
280
     1
  9
$TILEMODELIGHTSYNCH
280
     1
  9
$CMATERIAL
347
44
  9
$SOLIDHIST
280
     0
  9
$SHOWHIST
280
     1
  9
$DWFFRAME
280
     2
  9
$DGNFRAME
280
     2
  9
$REALWORLDSCALE
290
     1
  9
$INTERFERECOLOR
 62
   256
  9
$CSHADOW
280
     0
  9
$SHADOWPLANELOCATION
 40
0.0
  0
ENDSEC
  0
SECTION
  2
CLASSES
  0
CLASS
  1
ACDBDICTIONARYWDFLT
  2
AcDbDictionaryWithDefault
  3
ObjectDBX Classes
 90
        0
 91
        3
280
     0
281
     0
  0
CLASS
  1
VISUALSTYLE
  2
AcDbVisualStyle
  3
ObjectDBX Classes
 90
     4095
 91
        3
280
     0
281
     0
  0
CLASS
  1
MATERIAL
  2
AcDbMaterial
  3
ObjectDBX Classes
 90
     1153
 91
        3
280
     0
281
     0
  0
CLASS
  1
SCALE
  2
AcDbScale
  3
ObjectDBX Classes
 90
     1153
 91
        3
280
     0
281
     0
  0
CLASS
  1
TABLESTYLE
  2
AcDbTableStyle
  3
ObjectDBX Classes
 90
     4095
 91
        3
280
     0
281
     0
  0
CLASS
  1
MLEADERSTYLE
  2
AcDbMLeaderStyle
  3
ACDB_MLEADERSTYLE_CLASS
 90
     4095
 91
        3
280
     0
281
     0
  0
CLASS
  1
SUN
  2
AcDbSun
  3
SCENEOE
 90
     1153
 91
        3
280
     0
281
     0
  0
CLASS
  1
IMAGEDEF
  2
AcDbRasterImageDef
  3
ISM
 90
        0
 91
        3
280
     0
281
     0
  0
CLASS
  1
IMAGE
  2
AcDbRasterImage
  3
ISM
 90
      127
 91
        4
280
     0
281
     1
  0
CLASS
  1
IMAGEDEF_REACTOR
  2
AcDbRasterImageDefReactor
  3
ISM
 90
        1
 91
        3
280
     0
281
     0
  0
CLASS
  1
WIPEOUT
  2
AcDbWipeout
  3
WipeOut|AutoCAD Express Tool|expresstools@autodesk.com
 90
      127
 91
        3
280
     0
281
     1
  0
CLASS
  1
DICTIONARYVAR
  2
AcDbDictionaryVar
  3
ObjectDBX Classes
 90
        0
 91
        3
280
     0
281
     0
  0
CLASS
  1
CELLSTYLEMAP
  2
AcDbCellStyleMap
  3
ObjectDBX Classes
 90
     1152
 91
        3
280
     0
281
     0
  0
CLASS
  1
WIPEOUTVARIABLES
  2
AcDbWipeoutVariables
  3
WipeOut|AutoCAD Express Tool|expresstools@autodesk.com
 90
        0
 91
        3
280
     0
281
     0
  0
ENDSEC
  0
SECTION
  2
TABLES
  0
TABLE
  2
VPORT
  5
8
330
0
100
AcDbSymbolTable
 70
     1
  0
VPORT
  5
29
330
8
100
AcDbSymbolTableRecord
100
AcDbViewportTableRecord
  2
*Active
 70
     0
 10
0.0
 20
0.0
 11
1.0
 21
1.0
 12
2137.5
 22
1180.65
 13
0.0
 23
0.0
 14
10.0
 24
10.0
 15
10.0
 25
10.0
 16
0.0
 26
0.0
 36
1.0
 17
0.0
 27
0.0
 37
0.0
 40
2278.43
 41
2.540580652791
 42
50.0
 43
0.0
 44
0.0
 50
0.0
 51
0.0
 71
     0
 72
   100
 73
     1
 74
     3
 75
     0
 76
     0
 77
     0
 78
     0
281
     0
 65
     1
110
0.0
120
0.0
130
0.0
111
1.0
121
0.0
131
0.0
112
0.0
122
1.0
132
0.0
 79
     0
146
0.0
348
2F
 60
     3
 61
     5
292
     1
282
     1
141
0.0
142
0.0
 63
   250
361
5D
  0
ENDTAB
  0
TABLE
  2
LTYPE
  5
5
330
0
100
AcDbSymbolTable
 70
     3
  0
LTYPE
  5
14
330
5
100
AcDbSymbolTableRecord
100
AcDbLinetypeTableRecord
  2
ByBlock
 70
     0
  3

 72
    65
 73
     0
 40
0.0
  0
LTYPE
  5
15
330
5
100
AcDbSymbolTableRecord
100
AcDbLinetypeTableRecord
  2
ByLayer
 70
     0
  3

 72
    65
 73
     0
 40
0.0
  0
LTYPE
  5
16
330
5
100
AcDbSymbolTableRecord
100
AcDbLinetypeTableRecord
  2
Continuous
 70
     0
  3
Solid line
 72
    65
 73
     0
 40
0.0
  0
LTYPE
  5
5E
330
5
100
AcDbSymbolTableRecord
100
AcDbLinetypeTableRecord
  2
AUSGEZOGEN
 70
     0
  3

 72
    65
 73
     0
 40
0.0
  0
LTYPE
  5
60
330
5
100
AcDbSymbolTableRecord
100
AcDbLinetypeTableRecord
  2
DASHDOT
 70
     0
  3

 72
    65
 73
     4
 40
1.0
 49
0.5
 74
     0
 49
-0.25
 74
     0
 49
0.0
 74
     0
 49
-0.25
 74
     0
  0
ENDTAB
  0
TABLE
  2
LAYER
  5
2
330
0
100
AcDbSymbolTable
 70
     4
  0
LAYER
  5
10
330
2
100
AcDbSymbolTableRecord
100
AcDbLayerTableRecord
  2
0
 70
     0
 62
     7
  6
Continuous
370
    -3
390
F
347
46
  0
LAYER
  5
62
330
2
100
AcDbSymbolTableRecord
100
AcDbLayerTableRecord
  2
SLD-0
 70
     0
 62
     7
  6
Continuous
370
    -3
390
F
347
46
  0
LAYER
  5
63
330
2
100
AcDbSymbolTableRecord
100
AcDbLayerTableRecord
  2
ASSI
 70
     0
 62
    18
420
        0
  6
Continuous
370
    -3
390
F
347
46
  0
LAYER
  5
64
330
2
100
AcDbSymbolTableRecord
100
AcDbLayerTableRecord
  2
Layer100
 70
     0
 62
    18
420
        0
  6
Continuous
370
    -3
390
F
347
46
  0
ENDTAB
  0
TABLE
  2
STYLE
  5
3
330
0
100
AcDbSymbolTable
 70
     3
  0
STYLE
  5
11
330
3
100
AcDbSymbolTableRecord
100
AcDbTextStyleTableRecord
  2
Standard
 70
     0
 40
0.0
 41
1.0
 50
0.0
 71
     0
 42
2.5
  3
txt
  4

  0
STYLE
  5
5F
330
3
100
AcDbSymbolTableRecord
100
AcDbTextStyleTableRecord
  2
Arial
 70
     0
 40
0.0
 41
1.0
 50
0.0
 71
     0
 42
2.5
  3
arial.ttf
  4

1001
ACAD
1000
Arial
1071
        0
  0
STYLE
  5
61
330
3
100
AcDbSymbolTableRecord
100
AcDbTextStyleTableRecord
  2
Toleranzfont
 70
     0
 40
0.0
 41
1.0
 50
0.0
 71
     0
 42
2.5
  3
IGES1003.SHX
  4

  0
ENDTAB
  0
TABLE
  2
VIEW
  5
6
330
0
100
AcDbSymbolTable
 70
     0
  0
ENDTAB
  0
TABLE
  2
UCS
  5
7
330
0
100
AcDbSymbolTable
 70
     0
  0
ENDTAB
  0
TABLE
  2
APPID
  5
9
330
0
100
AcDbSymbolTable
 70
     1
  0
APPID
  5
12
330
9
100
AcDbSymbolTableRecord
100
AcDbRegAppTableRecord
  2
ACAD
 70
     0
  0
ENDTAB
  0
TABLE
  2
DIMSTYLE
  5
A
330
0
100
AcDbSymbolTable
 70
     1
100
AcDbDimStyleTable
  0
DIMSTYLE
105
27
102
{ACAD_REACTORS
330
82
330
8C
330
96
330
A8
330
B2
330
BC
330
C6
330
D0
330
F0
330
199
330
374
330
37F
330
38A
102
}
330
A
100
AcDbSymbolTableRecord
100
AcDbDimStyleTableRecord
  2
ISO-25
 70
     0
 41
2.5
 42
0.625
 43
3.75
 44
1.25
 73
     0
 74
     0
 77
     1
 78
     8
140
2.5
141
2.5
143
0.03937007874
147
0.625
171
     3
172
     1
178
     0
271
     2
272
     2
274
     3
278
    44
283
     0
284
     8
340
11
  0
ENDTAB
  0
TABLE
  2
BLOCK_RECORD
  5
1
330
0
100
AcDbSymbolTable
 70
    28
  0
BLOCK_RECORD
  5
1F
330
1
100
AcDbSymbolTableRecord
100
AcDbBlockTableRecord
  2
*Model_Space
340
22
 70
     0
280
     1
281
     0
  0
BLOCK_RECORD
  5
1B
330
1
100
AcDbSymbolTableRecord
100
AcDbBlockTableRecord
  2
*Paper_Space
340
1E
 70
     0
280
     1
281
     0
  0
BLOCK_RECORD
  5
23
330
1
100
AcDbSymbolTableRecord
100
AcDbBlockTableRecord
  2
*Paper_Space0
340
26
 70
     0
280
     1
281
     0
  0
BLOCK_RECORD
  5
79
330
1
100
AcDbSymbolTableRecord
100
AcDbBlockTableRecord
  2
*D1
340
0
 70
     0
280
     1
281
     0
  0
BLOCK_RECORD
  5
83
330
1
100
AcDbSymbolTableRecord
100
AcDbBlockTableRecord
  2
*D2
340
0
 70
     0
280
     1
281
     0
  0
BLOCK_RECORD
  5
8D
330
1
100
AcDbSymbolTableRecord
100
AcDbBlockTableRecord
  2
*D3
340
0
 70
     0
280
     1
281
     0
  0
BLOCK_RECORD
  5
97
330
1
100
AcDbSymbolTableRecord
100
AcDbBlockTableRecord
  2
_D_3_nNn03
340
0
102
{BLKREFS
331
9E
102
}
 70
     0
280
     1
281
     0
  0
BLOCK_RECORD
  5
9F
330
1
100
AcDbSymbolTableRecord
100
AcDbBlockTableRecord
  2
*D5
340
0
 70
     0
280
     1
281
     0
  0
BLOCK_RECORD
  5
A9
330
1
100
AcDbSymbolTableRecord
100
AcDbBlockTableRecord
  2
*D6
340
0
 70
     0
280
     1
281
     0
  0
BLOCK_RECORD
  5
B3
330
1
100
AcDbSymbolTableRecord
100
AcDbBlockTableRecord
  2
*D7
340
0
 70
     0
280
     1
281
     0
  0
BLOCK_RECORD
  5
BD
330
1
100
AcDbSymbolTableRecord
100
AcDbBlockTableRecord
  2
*D8
340
0
 70
     0
280
     1
281
     0
  0
BLOCK_RECORD
  5
C7
330
1
100
AcDbSymbolTableRecord
100
AcDbBlockTableRecord
  2
*D9
340
0
 70
     0
280
     1
281
     0
  0
BLOCK_RECORD
  5
D1
330
1
100
AcDbSymbolTableRecord
100
AcDbBlockTableRecord
  2
_D_9_nNn09
340
0
102
{BLKREFS
331
D9
102
}
 70
     0
280
     1
281
     0
  0
BLOCK_RECORD
  5
DA
330
1
100
AcDbSymbolTableRecord
100
AcDbBlockTableRecord
  2
_D_10_nNn010
340
0
102
{BLKREFS
331
E5
102
}
 70
     0
280
     1
281
     0
  0
BLOCK_RECORD
  5
E6
330
1
100
AcDbSymbolTableRecord
100
AcDbBlockTableRecord
  2
*D12
340
0
 70
     0
280
     1
281
     0
  0
BLOCK_RECORD
  5
190
330
1
100
AcDbSymbolTableRecord
100
AcDbBlockTableRecord
  2
*D13
340
0
 70
     0
280
     1
281
     0
  0
BLOCK_RECORD
  5
357
330
1
100
AcDbSymbolTableRecord
100
AcDbBlockTableRecord
  2
*X14
340
0
102
{BLKREFS
331
35F
102
}
 70
     0
280
     1
281
     0
  0
BLOCK_RECORD
  5
360
330
1
100
AcDbSymbolTableRecord
100
AcDbBlockTableRecord
  2
*X15
340
0
102
{BLKREFS
331
369
102
}
 70
     0
280
     1
281
     0
  0
BLOCK_RECORD
  5
36A
330
1
100
AcDbSymbolTableRecord
100
AcDbBlockTableRecord
  2
*D16
340
0
 70
     0
280
     1
281
     0
  0
BLOCK_RECORD
  5
375
330
1
100
AcDbSymbolTableRecord
100
AcDbBlockTableRecord
  2
*D17
340
0
 70
     0
280
     1
281
     0
  0
BLOCK_RECORD
  5
380
330
1
100
AcDbSymbolTableRecord
100
AcDbBlockTableRecord
  2
*D18
340
0
 70
     0
280
     1
281
     0
  0
BLOCK_RECORD
  5
38B
330
1
100
AcDbSymbolTableRecord
100
AcDbBlockTableRecord
  2
_D_16_nNn018
340
0
102
{BLKREFS
331
393
102
}
 70
     0
280
     1
281
     0
  0
BLOCK_RECORD
  5
394
330
1
100
AcDbSymbolTableRecord
100
AcDbBlockTableRecord
  2
A3-NABER_nNn019
340
0
102
{BLKREFS
331
403
102
}
 70
     0
280
     1
281
     0
  0
BLOCK_RECORD
  5
397
330
1
100
AcDbSymbolTableRecord
100
AcDbBlockTableRecord
  2
A3-NABER_001_nNn020
340
0
102
{BLKREFS
331
3B2
102
}
 70
     0
280
     1
281
     0
  0
BLOCK_RECORD
  5
39A
330
1
100
AcDbSymbolTableRecord
100
AcDbBlockTableRecord
  2
A3-NABER_002_nNn021
340
0
102
{BLKREFS
331
3B1
102
}
 70
     0
280
     1
281
     0
  0
BLOCK_RECORD
  5
39D
330
1
100
AcDbSymbolTableRecord
100
AcDbBlockTableRecord
  2
A3-NABER_nNn022
340
0
102
{BLKREFS
331
3B0
102
}
 70
     0
280
     1
281
     0
  0
BLOCK_RECORD
  5
3A0
330
1
100
AcDbSymbolTableRecord
100
AcDbBlockTableRecord
  2
A3-Textliste_nNn023
340
0
102
{BLKREFS
331
3AB
102
}
 70
     0
280
     1
281
     0
  0
BLOCK_RECORD
  5
3A3
330
1
100
AcDbSymbolTableRecord
100
AcDbBlockTableRecord
  2
Zeichnungsrahmen_nNn024
340
0
102
{BLKREFS
331
3AA
102
}
 70
     0
280
     1
281
     0
  0
BLOCK_RECORD
  5
3B9
330
1
100
AcDbSymbolTableRecord
100
AcDbBlockTableRecord
  2
Schriftfeld_nNn025
340
0
102
{BLKREFS
331
3E9
102
}
 70
     0
280
     1
281
     0
  0
BLOCK_RECORD
  5
3EA
330
1
100
AcDbSymbolTableRecord
100
AcDbBlockTableRecord
  2
Beschriftung_nNn026
340
0
102
{BLKREFS
331
3F5
102
}
 70
     0
280
     1
281
     0
  0
ENDTAB
  0
ENDSEC
  0
SECTION
  2
BLOCKS
  0
BLOCK
  5
20
330
1F
100
AcDbEntity
  8
0
100
AcDbBlockBegin
  2
*Model_Space
 70
     0
 10
0.0
 20
0.0
 30
0.0
  3
*Model_Space
  1

  0
ENDBLK
  5
21
330
1F
100
AcDbEntity
  8
0
100
AcDbBlockEnd
  0
BLOCK
  5
1C
330
1B
100
AcDbEntity
 67
     1
  8
0
100
AcDbBlockBegin
  2
*Paper_Space
 70
     0
 10
0.0
 20
0.0
 30
0.0
  3
*Paper_Space
  1

  0
ENDBLK
  5
1D
330
1B
100
AcDbEntity
 67
     1
  8
0
100
AcDbBlockEnd
  0
BLOCK
  5
24
330
23
100
AcDbEntity
  8
0
100
AcDbBlockBegin
  2
*Paper_Space0
 70
     0
 10
0.0
 20
0.0
 30
0.0
  3
*Paper_Space0
  1

  0
ENDBLK
  5
25
330
23
100
AcDbEntity
  8
0
100
AcDbBlockEnd
  0
BLOCK
  5
7A
330
79
100
AcDbEntity
  8
0
100
AcDbBlockBegin
  2
*D1
 70
     1
 10
0.0
 20
0.0
 30
0.0
  3
*D1
  1

  0
HATCH
  5
7C
330
79
100
AcDbEntity
  8
SLD-0
  6
AUSGEZOGEN
 62
     7
370
    18
100
AcDbHatch
 10
0.0
 20
0.0
 30
0.0
210
0.0
220
0.0
230
1.0
  2
SOLID
 70
     1
 71
     0
 91
        1
 92
        2
 72
     0
 73
     1
 93
        3
 10
1803.0011947009
 20
1277.1023218963
 10
1800.26615191862
 20
1263.427107984898
 10
1805.73623748318
 20
1263.427107984898
 97
        0
 75
     0
 76
     1
 98
        0
  0
HATCH
  5
7D
330
79
100
AcDbEntity
  8
SLD-0
  6
AUSGEZOGEN
 62
     7
370
    18
100
AcDbHatch
 10
0.0
 20
0.0
 30
0.0
210
0.0
220
0.0
230
1.0
  2
SOLID
 70
     1
 71
     0
 91
        1
 92
        2
 72
     0
 73
     1
 93
        3
 10
1803.0011947009
 20
1157.1023218963
 10
1805.73623748318
 20
1170.777535807702
 10
1800.26615191862
 20
1170.777535807702
 97
        0
 75
     0
 76
     1
 98
        0
  0
LINE
  5
7E
330
79
100
AcDbEntity
  8
SLD-0
  6
AUSGEZOGEN
 62
     7
370
    18
100
AcDbLine
 10
1803.0011947009
 20
1170.777535807702
 30
0.0
 11
1803.0011947009
 21
1263.427107984898
 31
0.0
  0
LINE
  5
7F
330
79
100
AcDbEntity
  8
SLD-0
  6
AUSGEZOGEN
 62
     7
370
    18
100
AcDbLine
 10
1932.3493884535
 20
1157.1023218963
 30
0.0
 11
1790.595822081271
 21
1157.1023218963
 31
0.0
  0
LINE
  5
80
330
79
100
AcDbEntity
  8
SLD-0
  6
AUSGEZOGEN
 62
     7
370
    18
100
AcDbLine
 10
1850.15620696
 20
1277.1023218963
 30
0.0
 11
1790.595822081271
 21
1277.1023218963
 31
0.0
  0
TEXT
  5
81
330
79
100
AcDbEntity
  8
SLD-0
  6
AUSGEZOGEN
 62
     7
370
    18
100
AcDbText
 10
1797.266593196212
 20
1196.379711689696
 30
0.0
 40
21.709402084351
  1
120
 50
90.0
 41
0.820056197844
  7
Arial
 72
     5
 11
1797.266593196212
 21
1237.824932102904
 31
0.0
100
AcDbText
  0
ENDBLK
  5
7B
330
79
100
AcDbEntity
  8
0
100
AcDbBlockEnd
  0
BLOCK
  5
84
330
83
100
AcDbEntity
  8
0
100
AcDbBlockBegin
  2
*D2
 70
     1
 10
0.0
 20
0.0
 30
0.0
  3
*D2
  1

  0
HATCH
  5
86
330
83
100
AcDbEntity
  8
SLD-0
  6
AUSGEZOGEN
 62
     7
370
    18
100
AcDbHatch
 10
0.0
 20
0.0
 30
0.0
210
0.0
220
0.0
230
1.0
  2
SOLID
 70
     1
 71
     0
 91
        1
 92
        2
 72
     0
 73
     1
 93
        3
 10
1862.15620696
 20
765.6878489986
 10
1848.480993048598
 20
768.4228917808804
 10
1848.480993048598
 20
762.9528062163196
 97
        0
 75
     0
 76
     1
 98
        0
  0
HATCH
  5
87
330
83
100
AcDbEntity
  8
SLD-0
  6
AUSGEZOGEN
 62
     7
370
    18
100
AcDbHatch
 10
0.0
 20
0.0
 30
0.0
210
0.0
220
0.0
230
1.0
  2
SOLID
 70
     1
 71
     0
 91
        1
 92
        2
 72
     0
 73
     1
 93
        3
 10
1462.15620696
 20
765.6878489986
 10
1475.831420871402
 20
762.9528062163196
 10
1475.831420871402
 20
768.4228917808804
 97
        0
 75
     0
 76
     1
 98
        0
  0
LINE
  5
88
330
83
100
AcDbEntity
  8
SLD-0
  6
AUSGEZOGEN
 62
     7
370
    18
100
AcDbLine
 10
1475.831420871402
 20
765.6878489986
 30
0.0
 11
1848.480993048598
 21
765.6878489986
 31
0.0
  0
LINE
  5
89
330
83
100
AcDbEntity
  8
SLD-0
  6
AUSGEZOGEN
 62
     7
370
    18
100
AcDbLine
 10
1462.15620696
 20
889.1023218963
 30
0.0
 11
1462.15620696
 21
753.282476378971
 31
0.0
  0
LINE
  5
8A
330
83
100
AcDbEntity
  8
SLD-0
  6
AUSGEZOGEN
 62
     7
370
    18
100
AcDbLine
 10
1862.15620696
 20
889.1023218963
 30
0.0
 11
1862.15620696
 21
753.282476378971
 31
0.0
  0
TEXT
  5
8B
330
83
100
AcDbEntity
  8
SLD-0
  6
AUSGEZOGEN
 62
     7
370
    18
100
AcDbText
 10
1641.433596753396
 20
770.440392053714
 30
0.0
 40
21.709402084351
  1
400
 41
0.820056197844
  7
Arial
 72
     5
 11
1682.878817166604
 21
770.440392053714
 31
0.0
100
AcDbText
  0
ENDBLK
  5
85
330
83
100
AcDbEntity
  8
0
100
AcDbBlockEnd
  0
BLOCK
  5
8E
330
8D
100
AcDbEntity
  8
0
100
AcDbBlockBegin
  2
*D3
 70
     1
 10
0.0
 20
0.0
 30
0.0
  3
*D3
  1

  0
HATCH
  5
90
330
8D
100
AcDbEntity
  8
SLD-0
  6
AUSGEZOGEN
 62
     7
370
    18
100
AcDbHatch
 10
0.0
 20
0.0
 30
0.0
210
0.0
220
0.0
230
1.0
  2
SOLID
 70
     1
 71
     0
 91
        1
 92
        2
 72
     0
 73
     1
 93
        3
 10
1887.15620696
 20
692.1023218963
 10
1873.480993048598
 20
694.8373646785805
 10
1873.480993048598
 20
689.3672791140197
 97
        0
 75
     0
 76
     1
 98
        0
  0
HATCH
  5
91
330
8D
100
AcDbEntity
  8
SLD-0
  6
AUSGEZOGEN
 62
     7
370
    18
100
AcDbHatch
 10
0.0
 20
0.0
 30
0.0
210
0.0
220
0.0
230
1.0
  2
SOLID
 70
     1
 71
     0
 91
        1
 92
        2
 72
     0
 73
     1
 93
        3
 10
1437.15620696
 20
692.1023218963
 10
1450.831420871402
 20
689.3672791140197
 10
1450.831420871402
 20
694.8373646785805
 97
        0
 75
     0
 76
     1
 98
        0
  0
LINE
  5
92
330
8D
100
AcDbEntity
  8
SLD-0
  6
AUSGEZOGEN
 62
     7
370
    18
100
AcDbLine
 10
1450.831420871402
 20
692.1023218963
 30
0.0
 11
1873.480993048598
 21
692.1023218963
 31
0.0
  0
LINE
  5
93
330
8D
100
AcDbEntity
  8
SLD-0
  6
AUSGEZOGEN
 62
     7
370
    18
100
AcDbLine
 10
1437.15620696
 20
862.1023218963
 30
0.0
 11
1437.15620696
 21
679.696949276671
 31
0.0
  0
LINE
  5
94
330
8D
100
AcDbEntity
  8
SLD-0
  6
AUSGEZOGEN
 62
     7
370
    18
100
AcDbLine
 10
1887.15620696
 20
862.1023218963
 30
0.0
 11
1887.15620696
 21
679.696949276671
 31
0.0
  0
TEXT
  5
95
330
8D
100
AcDbEntity
  8
SLD-0
  6
AUSGEZOGEN
 62
     7
370
    18
100
AcDbText
 10
1641.433596753396
 20
695.939042342703
 30
0.0
 40
21.709402084351
  1
450
 41
0.820056197844
  7
Arial
 72
     5
 11
1682.878817166604
 21
695.939042342703
 31
0.0
100
AcDbText
  0
ENDBLK
  5
8F
330
8D
100
AcDbEntity
  8
0
100
AcDbBlockEnd
  0
BLOCK
  5
98
330
97
100
AcDbEntity
  8
0
100
AcDbBlockBegin
  2
_D_3_nNn03
 70
     0
 10
0.0
 20
0.0
 30
0.0
  3
_D_3_nNn03
  1

  0
HATCH
  5
9A
330
97
100
AcDbEntity
  8
SLD-0
  6
AUSGEZOGEN
 62
     7
370
    18
100
AcDbHatch
 10
0.0
 20
0.0
 30
0.0
210
0.0
220
0.0
230
1.0
  2
SOLID
 70
     1
 71
     0
 91
        1
 92
        2
 72
     0
 73
     1
 93
        3
 10
1464.808406202
 20
881.5777872934
 10
1481.9556855076
 20
892.1712198069
 10
1478.8204627564
 20
896.0661367894
 97
        0
 75
     0
 76
     1
 98
        0
  0
LINE
  5
9B
330
97
100
AcDbEntity
  8
SLD-0
  6
AUSGEZOGEN
 62
     7
370
    18
100
AcDbLine
 10
1464.808406202
 20
881.5777872934
 30
0.0
 11
1534.1439413021
 21
937.3895922914
 31
0.0
  0
LINE
  5
9C
330
97
100
AcDbEntity
  8
SLD-0
  6
AUSGEZOGEN
 62
     7
370
    18
100
AcDbLine
 10
1534.1439413021
 20
937.3895922914
 30
0.0
 11
1622.6323696489
 21
937.3895922914
 31
0.0
  0
TEXT
  5
9D
330
97
100
AcDbEntity
  8
SLD-0
  6
AUSGEZOGEN
 62
     7
370
    18
100
AcDbText
 10
1550.0189413021
 20
946.5674883726
 30
0.0
 40
31.75
  1
R12
 41
0.68359375
  7
Arial
 72
     5
 11
1605.5814413021
 21
946.5674883726
 31
0.0
100
AcDbText
  0
ENDBLK
  5
99
330
97
100
AcDbEntity
  8
0
100
AcDbBlockEnd
  0
BLOCK
  5
A0
330
9F
100
AcDbEntity
  8
0
100
AcDbBlockBegin
  2
*D5
 70
     1
 10
0.0
 20
0.0
 30
0.0
  3
*D5
  1

  0
HATCH
  5
A2
330
9F
100
AcDbEntity
  8
SLD-0
  6
AUSGEZOGEN
 62
     7
370
    18
100
AcDbHatch
 10
0.0
 20
0.0
 30
0.0
210
0.0
220
0.0
230
1.0
  2
SOLID
 70
     1
 71
     0
 91
        1
 92
        2
 72
     0
 73
     1
 93
        3
 10
1300.1844000709
 20
1277.1023218963
 10
1297.44935728862
 20
1263.427107984898
 10
1302.91944285318
 20
1263.427107984898
 97
        0
 75
     0
 76
     1
 98
        0
  0
HATCH
  5
A3
330
9F
100
AcDbEntity
  8
SLD-0
  6
AUSGEZOGEN
 62
     7
370
    18
100
AcDbHatch
 10
0.0
 20
0.0
 30
0.0
210
0.0
220
0.0
230
1.0
  2
SOLID
 70
     1
 71
     0
 91
        1
 92
        2
 72
     0
 73
     1
 93
        3
 10
1300.1844000709
 20
877.1023218963
 10
1302.91944285318
 20
890.777535807702
 10
1297.44935728862
 20
890.777535807702
 97
        0
 75
     0
 76
     1
 98
        0
  0
LINE
  5
A4
330
9F
100
AcDbEntity
  8
SLD-0
  6
AUSGEZOGEN
 62
     7
370
    18
100
AcDbLine
 10
1300.1844000709
 20
890.777535807702
 30
0.0
 11
1300.1844000709
 21
1263.427107984898
 31
0.0
  0
LINE
  5
A5
330
9F
100
AcDbEntity
  8
SLD-0
  6
AUSGEZOGEN
 62
     7
370
    18
100
AcDbLine
 10
1474.15620696
 20
877.1023218963
 30
0.0
 11
1287.779027451271
 21
877.1023218963
 31
0.0
  0
LINE
  5
A6
330
9F
100
AcDbEntity
  8
SLD-0
  6
AUSGEZOGEN
 62
     7
370
    18
100
AcDbLine
 10
1474.15620696
 20
1277.1023218963
 30
0.0
 11
1287.779027451271
 21
1277.1023218963
 31
0.0
  0
TEXT
  5
A7
330
9F
100
AcDbEntity
  8
SLD-0
  6
AUSGEZOGEN
 62
     7
370
    18
100
AcDbText
 10
1296.887088675797
 20
1053.722446919396
 30
0.0
 40
21.709402084351
  1
400
 50
90.0
 41
0.820056197844
  7
Arial
 72
     5
 11
1296.887088675797
 21
1095.167667332604
 31
0.0
100
AcDbText
  0
ENDBLK
  5
A1
330
9F
100
AcDbEntity
  8
0
100
AcDbBlockEnd
  0
BLOCK
  5
AA
330
A9
100
AcDbEntity
  8
0
100
AcDbBlockBegin
  2
*D6
 70
     1
 10
0.0
 20
0.0
 30
0.0
  3
*D6
  1

  0
HATCH
  5
AC
330
A9
100
AcDbEntity
  8
SLD-0
  6
AUSGEZOGEN
 62
     7
370
    18
100
AcDbHatch
 10
0.0
 20
0.0
 30
0.0
210
0.0
220
0.0
230
1.0
  2
SOLID
 70
     1
 71
     0
 91
        1
 92
        2
 72
     0
 73
     1
 93
        3
 10
1300.1844000709
 20
1362.1023218963
 10
1297.44935728862
 20
1348.427107984898
 10
1302.91944285318
 20
1348.427107984898
 97
        0
 75
     0
 76
     1
 98
        0
  0
HATCH
  5
AD
330
A9
100
AcDbEntity
  8
SLD-0
  6
AUSGEZOGEN
 62
     7
370
    18
100
AcDbHatch
 10
0.0
 20
0.0
 30
0.0
210
0.0
220
0.0
230
1.0
  2
SOLID
 70
     1
 71
     0
 91
        1
 92
        2
 72
     0
 73
     1
 93
        3
 10
1300.1844000709
 20
1277.1023218963
 10
1302.91944285318
 20
1290.777535807702
 10
1297.44935728862
 20
1290.777535807702
 97
        0
 75
     0
 76
     1
 98
        0
  0
LINE
  5
AE
330
A9
100
AcDbEntity
  8
SLD-0
  6
AUSGEZOGEN
 62
     7
370
    18
100
AcDbLine
 10
1300.1844000709
 20
1290.777535807702
 30
0.0
 11
1300.1844000709
 21
1348.427107984898
 31
0.0
  0
LINE
  5
AF
330
A9
100
AcDbEntity
  8
SLD-0
  6
AUSGEZOGEN
 62
     7
370
    18
100
AcDbLine
 10
1474.15620696
 20
1277.1023218963
 30
0.0
 11
1287.779027451271
 21
1277.1023218963
 31
0.0
  0
LINE
  5
B0
330
A9
100
AcDbEntity
  8
SLD-0
  6
AUSGEZOGEN
 62
     7
370
    18
100
AcDbLine
 10
1447.15620696
 20
1362.1023218963
 30
0.0
 11
1287.779027451271
 21
1362.1023218963
 31
0.0
  0
TEXT
  5
B1
330
A9
100
AcDbEntity
  8
SLD-0
  6
AUSGEZOGEN
 62
     7
370
    18
100
AcDbText
 10
1292.241110890925
 20
1308.287248425231
 30
0.0
 40
21.709402084351
  1
85
 50
90.0
 41
0.820056197844
  7
Arial
 72
     5
 11
1292.241110890925
 21
1335.917395367369
 31
0.0
100
AcDbText
  0
ENDBLK
  5
AB
330
A9
100
AcDbEntity
  8
0
100
AcDbBlockEnd
  0
BLOCK
  5
B4
330
B3
100
AcDbEntity
  8
0
100
AcDbBlockBegin
  2
*D7
 70
     1
 10
0.0
 20
0.0
 30
0.0
  3
*D7
  1

  0
HATCH
  5
B6
330
B3
100
AcDbEntity
  8
SLD-0
  6
AUSGEZOGEN
 62
     7
370
    18
100
AcDbHatch
 10
0.0
 20
0.0
 30
0.0
210
0.0
220
0.0
230
1.0
  2
SOLID
 70
     1
 71
     0
 91
        1
 92
        2
 72
     0
 73
     1
 93
        3
 10
1217.15620696
 20
852.1023218963
 10
1219.89124974228
 20
865.777535807702
 10
1214.42116417772
 20
865.777535807702
 97
        0
 75
     0
 76
     1
 98
        0
  0
HATCH
  5
B7
330
B3
100
AcDbEntity
  8
SLD-0
  6
AUSGEZOGEN
 62
     7
370
    18
100
AcDbHatch
 10
0.0
 20
0.0
 30
0.0
210
0.0
220
0.0
230
1.0
  2
SOLID
 70
     1
 71
     0
 91
        1
 92
        2
 72
     0
 73
     1
 93
        3
 10
1217.15620696
 20
1362.1023218963
 10
1214.42116417772
 20
1348.427107984898
 10
1219.89124974228
 20
1348.427107984898
 97
        0
 75
     0
 76
     1
 98
        0
  0
LINE
  5
B8
330
B3
100
AcDbEntity
  8
SLD-0
  6
AUSGEZOGEN
 62
     7
370
    18
100
AcDbLine
 10
1217.15620696
 20
1348.427107984898
 30
0.0
 11
1217.15620696
 21
865.777535807702
 31
0.0
  0
LINE
  5
B9
330
B3
100
AcDbEntity
  8
SLD-0
  6
AUSGEZOGEN
 62
     7
370
    18
100
AcDbLine
 10
1447.15620696
 20
1362.1023218963
 30
0.0
 11
1204.750834340371
 21
1362.1023218963
 31
0.0
  0
LINE
  5
BA
330
B3
100
AcDbEntity
  8
SLD-0
  6
AUSGEZOGEN
 62
     7
370
    18
100
AcDbLine
 10
1447.15620696
 20
852.1023218963
 30
0.0
 11
1204.750834340371
 21
852.1023218963
 31
0.0
  0
TEXT
  5
BB
330
B3
100
AcDbEntity
  8
SLD-0
  6
AUSGEZOGEN
 62
     7
370
    18
100
AcDbText
 10
1210.651471939299
 20
1080.048340839796
 30
0.0
 40
21.709402084351
  1
510
 50
90.0
 41
0.820056197844
  7
Arial
 72
     5
 11
1210.651471939299
 21
1121.493561253004
 31
0.0
100
AcDbText
  0
ENDBLK
  5
B5
330
B3
100
AcDbEntity
  8
0
100
AcDbBlockEnd
  0
BLOCK
  5
BE
330
BD
100
AcDbEntity
  8
0
100
AcDbBlockBegin
  2
*D8
 70
     1
 10
0.0
 20
0.0
 30
0.0
  3
*D8
  1

  0
HATCH
  5
C0
330
BD
100
AcDbEntity
  8
SLD-0
  6
AUSGEZOGEN
 62
     7
370
    18
100
AcDbHatch
 10
0.0
 20
0.0
 30
0.0
210
0.0
220
0.0
230
1.0
  2
SOLID
 70
     1
 71
     0
 91
        1
 92
        2
 72
     0
 73
     1
 93
        3
 10
1300.1844000709
 20
852.1023218963
 10
1302.91944285318
 20
865.777535807702
 10
1297.44935728862
 20
865.777535807702
 97
        0
 75
     0
 76
     1
 98
        0
  0
HATCH
  5
C1
330
BD
100
AcDbEntity
  8
SLD-0
  6
AUSGEZOGEN
 62
     7
370
    18
100
AcDbHatch
 10
0.0
 20
0.0
 30
0.0
210
0.0
220
0.0
230
1.0
  2
SOLID
 70
     1
 71
     0
 91
        1
 92
        2
 72
     0
 73
     1
 93
        3
 10
1300.1844000709
 20
877.1023218963
 10
1297.44935728862
 20
863.4271079848982
 10
1302.91944285318
 20
863.4271079848982
 97
        0
 75
     0
 76
     1
 98
        0
  0
LINE
  5
C2
330
BD
100
AcDbEntity
  8
SLD-0
  6
AUSGEZOGEN
 62
     7
370
    18
100
AcDbLine
 10
1300.1844000709
 20
863.427107984898
 30
0.0
 11
1300.1844000709
 21
865.777535807702
 31
0.0
  0
LINE
  5
C3
330
BD
100
AcDbEntity
  8
SLD-0
  6
AUSGEZOGEN
 62
     7
370
    18
100
AcDbLine
 10
1474.15620696
 20
877.1023218963
 30
0.0
 11
1287.779027451271
 21
877.1023218963
 31
0.0
  0
LINE
  5
C4
330
BD
100
AcDbEntity
  8
SLD-0
  6
AUSGEZOGEN
 62
     7
370
    18
100
AcDbLine
 10
1447.15620696
 20
852.1023218963
 30
0.0
 11
1287.779027451271
 21
852.1023218963
 31
0.0
  0
TEXT
  5
C5
330
BD
100
AcDbEntity
  8
SLD-0
  6
AUSGEZOGEN
 62
     7
370
    18
100
AcDbText
 10
1304.526280487769
 20
850.787248425231
 30
0.0
 40
21.709402084351
  1
25
 50
90.0
 41
0.820056197844
  7
Arial
 72
     5
 11
1304.526280487769
 21
878.417395367369
 31
0.0
100
AcDbText
  0
ENDBLK
  5
BF
330
BD
100
AcDbEntity
  8
0
100
AcDbBlockEnd
  0
BLOCK
  5
C8
330
C7
100
AcDbEntity
  8
0
100
AcDbBlockBegin
  2
*D9
 70
     1
 10
0.0
 20
0.0
 30
0.0
  3
*D9
  1

  0
HATCH
  5
CA
330
C7
100
AcDbEntity
  8
SLD-0
  6
AUSGEZOGEN
 62
     7
370
    18
100
AcDbHatch
 10
0.0
 20
0.0
 30
0.0
210
0.0
220
0.0
230
1.0
  2
SOLID
 70
     1
 71
     0
 91
        1
 92
        2
 72
     0
 73
     1
 93
        3
 10
1437.15620696
 20
1448.2744156297
 10
1450.831420871402
 20
1445.53937284742
 10
1450.831420871402
 20
1451.00945841198
 97
        0
 75
     0
 76
     1
 98
        0
  0
HATCH
  5
CB
330
C7
100
AcDbEntity
  8
SLD-0
  6
AUSGEZOGEN
 62
     7
370
    18
100
AcDbHatch
 10
0.0
 20
0.0
 30
0.0
210
0.0
220
0.0
230
1.0
  2
SOLID
 70
     1
 71
     0
 91
        1
 92
        2
 72
     0
 73
     1
 93
        3
 10
1662.15620696
 20
1448.2744156297
 10
1648.480993048598
 20
1451.00945841198
 10
1648.480993048598
 20
1445.53937284742
 97
        0
 75
     0
 76
     1
 98
        0
  0
LINE
  5
CC
330
C7
100
AcDbEntity
  8
SLD-0
  6
AUSGEZOGEN
 62
     7
370
    18
100
AcDbLine
 10
1648.480993048598
 20
1448.2744156297
 30
0.0
 11
1450.831420871402
 21
1448.2744156297
 31
0.0
  0
LINE
  5
CD
330
C7
100
AcDbEntity
  8
SLD-0
  6
AUSGEZOGEN
 62
     7
370
    18
100
AcDbLine
 10
1662.15620696
 20
1322.1023218963
 30
0.0
 11
1662.15620696
 21
1460.679788249329
 31
0.0
  0
LINE
  5
CE
330
C7
100
AcDbEntity
  8
SLD-0
  6
AUSGEZOGEN
 62
     7
370
    18
100
AcDbLine
 10
1437.15620696
 20
1352.1023218963
 30
0.0
 11
1437.15620696
 21
1460.679788249329
 31
0.0
  0
TEXT
  5
CF
330
C7
100
AcDbEntity
  8
SLD-0
  6
AUSGEZOGEN
 62
     7
370
    18
100
AcDbText
 10
1529.277389793396
 20
1454.145298957825
 30
0.0
 40
21.709402084351
  1
225
 41
0.820056197844
  7
Arial
 72
     5
 11
1570.722610206604
 21
1454.145298957825
 31
0.0
100
AcDbText
  0
ENDBLK
  5
C9
330
C7
100
AcDbEntity
  8
0
100
AcDbBlockEnd
  0
BLOCK
  5
D2
330
D1
100
AcDbEntity
  8
0
100
AcDbBlockBegin
  2
_D_9_nNn09
 70
     0
 10
0.0
 20
0.0
 30
0.0
  3
_D_9_nNn09
  1

  0
HATCH
  5
D4
330
D1
100
AcDbEntity
  8
SLD-0
  6
AUSGEZOGEN
 62
     7
370
    18
100
AcDbHatch
 10
0.0
 20
0.0
 30
0.0
210
0.0
220
0.0
230
1.0
  2
SOLID
 70
     1
 71
     0
 91
        1
 92
        2
 72
     0
 73
     1
 93
        3
 10
1439.6919271609
 20
1358.7569839524
 10
1426.4270330768
 20
1373.9323780143
 10
1423.0997020487
 20
1370.2002381148
 97
        0
 75
     0
 76
     1
 98
        0
  0
LINE
  5
D5
330
D1
100
AcDbEntity
  8
SLD-0
  6
AUSGEZOGEN
 62
     7
370
    18
100
AcDbLine
 10
1439.6919271609
 20
1358.7569839524
 30
0.0
 11
1339.2836492797
 21
1448.2744156297
 31
0.0
  0
LINE
  5
D6
330
D1
100
AcDbEntity
  8
SLD-0
  6
AUSGEZOGEN
 62
     7
370
    18
100
AcDbLine
 10
1447.15620696
 20
1352.1023218963
 30
0.0
 11
1439.6919271609
 21
1358.7569839524
 31
0.0
  0
LINE
  5
D7
330
D1
100
AcDbEntity
  8
SLD-0
  6
AUSGEZOGEN
 62
     7
370
    18
100
AcDbLine
 10
1339.2836492797
 20
1448.2744156297
 30
0.0
 11
1250.7952209329
 21
1448.2744156297
 31
0.0
  0
TEXT
  5
D8
330
D1
100
AcDbEntity
  8
SLD-0
  6
AUSGEZOGEN
 62
     7
370
    18
100
AcDbText
 10
1250.7952209329
 20
1454.44013222362
 30
0.0
 40
21.709401709402
  1
R10
 41
0.634765625
  7
Arial
 72
     5
 11
1286.072998710678
 21
1454.44013222362
 31
0.0
100
AcDbText
  0
ENDBLK
  5
D3
330
D1
100
AcDbEntity
  8
0
100
AcDbBlockEnd
  0
BLOCK
  5
DB
330
DA
100
AcDbEntity
  8
0
100
AcDbBlockBegin
  2
_D_10_nNn010
 70
     0
 10
0.0
 20
0.0
 30
0.0
  3
_D_10_nNn010
  1

  0
HATCH
  5
DD
330
DA
100
AcDbEntity
  8
SLD-0
  6
AUSGEZOGEN
 62
     7
370
    18
100
AcDbHatch
 10
0.0
 20
0.0
 30
0.0
210
0.0
220
0.0
230
1.0
  2
SOLID
 70
     1
 71
     0
 91
        1
 92
        2
 72
     0
 73
     1
 93
        3
 10
1655.7764564546
 20
1305.8066542668
 10
1646.1573605013
 20
1288.0944270483
 10
1650.8132655383
 20
1286.2716411896
 97
        0
 75
     0
 76
     1
 98
        0
  0
HATCH
  5
DE
330
DA
100
AcDbEntity
  8
SLD-0
  6
AUSGEZOGEN
 62
     7
370
    18
100
AcDbHatch
 10
0.0
 20
0.0
 30
0.0
210
0.0
220
0.0
230
1.0
  2
SOLID
 70
     1
 71
     0
 91
        1
 92
        2
 72
     0
 73
     1
 93
        3
 10
1668.5359574655
 20
1338.3979895257
 10
1678.1550534187
 20
1356.1102167442
 10
1673.4991483818
 20
1357.9330026029
 97
        0
 75
     0
 76
     1
 98
        0
  0
LINE
  5
DF
330
DA
100
AcDbEntity
  8
SLD-0
  6
AUSGEZOGEN
 62
     7
370
    18
100
AcDbLine
 10
1655.7764564546
 20
1305.8066542668
 30
0.0
 11
1646.6625271611
 21
1282.527129082
 31
0.0
  0
LINE
  5
E0
330
DA
100
AcDbEntity
  8
SLD-0
  6
AUSGEZOGEN
 62
     7
370
    18
100
AcDbLine
 10
1668.5359574655
 20
1338.3979895257
 30
0.0
 11
1711.3108593322
 21
1447.6570558648
 31
0.0
  0
LINE
  5
E1
330
DA
100
AcDbEntity
  8
SLD-0
  6
AUSGEZOGEN
 62
     7
370
    18
100
AcDbLine
 10
1655.7764564546
 20
1305.8066542668
 30
0.0
 11
1668.5359574655
 21
1338.3979895257
 31
0.0
  0
LINE
  5
E2
330
DA
100
AcDbEntity
  8
SLD-0
  6
AUSGEZOGEN
 62
     7
370
    18
100
AcDbLine
 10
1711.3108593322
 20
1447.6570558648
 30
0.0
 11
1822.0301670827
 21
1447.6570558648
 31
0.0
  0
TEXT
  5
E3
330
DA
100
AcDbEntity
  8
SLD-0
  6
AUSGEZOGEN
 62
     7
370
    18
100
AcDbText
 10
1727.1858593322
 20
1456.8349566026
 30
0.0
 40
31.75
  1
%%c
 41
0.460405156538
  7
Arial
 72
     5
 11
1743.0608593322
 21
1456.8349566026
 31
0.0
100
AcDbText
  0
TEXT
  5
E4
330
DA
100
AcDbEntity
  8
SLD-0
  6
AUSGEZOGEN
 62
     7
370
    18
100
AcDbText
 10
1775.1107225067
 20
1453.82277711542
 30
0.0
 40
21.709401709402
  1
35
 41
0.805412371134
  7
Arial
 72
     5
 11
1802.247474643452
 21
1453.82277711542
 31
0.0
100
AcDbText
  0
ENDBLK
  5
DC
330
DA
100
AcDbEntity
  8
0
100
AcDbBlockEnd
  0
BLOCK
  5
E7
330
E6
100
AcDbEntity
  8
0
100
AcDbBlockBegin
  2
*D12
 70
     1
 10
0.0
 20
0.0
 30
0.0
  3
*D12
  1

  0
HATCH
  5
E9
330
E6
100
AcDbEntity
  8
SLD-0
  6
AUSGEZOGEN
 62
     7
370
    18
100
AcDbHatch
 10
0.0
 20
0.0
 30
0.0
210
0.0
220
0.0
230
1.0
  2
SOLID
 70
     1
 71
     0
 91
        1
 92
        2
 72
     0
 73
     1
 93
        3
 10
1774.6080132074
 20
1362.1023218963
 10
1771.87297042512
 20
1348.427107984898
 10
1777.34305598968
 20
1348.427107984898
 97
        0
 75
     0
 76
     1
 98
        0
  0
HATCH
  5
EA
330
E6
100
AcDbEntity
  8
SLD-0
  6
AUSGEZOGEN
 62
     7
370
    18
100
AcDbHatch
 10
0.0
 20
0.0
 30
0.0
210
0.0
220
0.0
230
1.0
  2
SOLID
 70
     1
 71
     0
 91
        1
 92
        2
 72
     0
 73
     1
 93
        3
 10
1774.6080132074
 20
1322.1023218963
 10
1777.34305598968
 20
1335.777535807702
 10
1771.87297042512
 20
1335.777535807702
 97
        0
 75
     0
 76
     1
 98
        0
  0
LINE
  5
EB
330
E6
100
AcDbEntity
  8
SLD-0
  6
AUSGEZOGEN
 62
     7
370
    18
100
AcDbLine
 10
1774.6080132074
 20
1335.777535807702
 30
0.0
 11
1774.6080132074
 21
1348.427107984898
 31
0.0
  0
LINE
  5
EC
330
E6
100
AcDbEntity
  8
SLD-0
  6
AUSGEZOGEN
 62
     7
370
    18
100
AcDbLine
 10
1774.6080132074
 20
1335.777535807702
 30
0.0
 11
1774.6080132074
 21
1327.121438738231
 31
0.0
  0
LINE
  5
ED
330
E6
100
AcDbEntity
  8
SLD-0
  6
AUSGEZOGEN
 62
     7
370
    18
100
AcDbLine
 10
1662.15620696
 20
1322.1023218963
 30
0.0
 11
1787.013385827029
 21
1322.1023218963
 31
0.0
  0
LINE
  5
EE
330
E6
100
AcDbEntity
  8
SLD-0
  6
AUSGEZOGEN
 62
     7
370
    18
100
AcDbLine
 10
1877.15620696
 20
1362.1023218963
 30
0.0
 11
1762.202640587771
 21
1362.1023218963
 31
0.0
  0
TEXT
  5
EF
330
E6
100
AcDbEntity
  8
SLD-0
  6
AUSGEZOGEN
 62
     7
370
    18
100
AcDbText
 10
1769.586024861041
 20
1327.121438738231
 30
0.0
 40
21.709402084351
  1
40
 50
90.0
 41
0.820056197844
  7
Arial
 72
     5
 11
1769.586024861041
 21
1354.751585680369
 31
0.0
100
AcDbText
  0
ENDBLK
  5
E8
330
E6
100
AcDbEntity
  8
0
100
AcDbBlockEnd
  0
BLOCK
  5
191
330
190
100
AcDbEntity
  8
0
100
AcDbBlockBegin
  2
*D13
 70
     1
 10
0.0
 20
0.0
 30
0.0
  3
*D13
  1

  0
HATCH
  5
193
330
190
100
AcDbEntity
  8
SLD-0
  6
AUSGEZOGEN
 62
     7
370
    18
100
AcDbHatch
 10
0.0
 20
0.0
 30
0.0
210
0.0
220
0.0
230
1.0
  2
SOLID
 70
     1
 71
     0
 91
        1
 92
        2
 72
     0
 73
     1
 93
        3
 10
2365.358142653274
 20
1435.1370819849
 10
2351.682928741872
 20
1437.87212476718
 10
2351.682928741872
 20
1432.40203920262
 97
        0
 75
     0
 76
     1
 98
        0
  0
HATCH
  5
194
330
190
100
AcDbEntity
  8
SLD-0
  6
AUSGEZOGEN
 62
     7
370
    18
100
AcDbHatch
 10
0.0
 20
0.0
 30
0.0
210
0.0
220
0.0
230
1.0
  2
SOLID
 70
     1
 71
     0
 91
        1
 92
        2
 72
     0
 73
     1
 93
        3
 10
2184.558142653274
 20
1435.1370819849
 10
2198.233356564676
 20
1432.40203920262
 10
2198.233356564676
 20
1437.87212476718
 97
        0
 75
     0
 76
     1
 98
        0
  0
LINE
  5
195
330
190
100
AcDbEntity
  8
SLD-0
  6
AUSGEZOGEN
 62
     7
370
    18
100
AcDbLine
 10
2198.233356564676
 20
1435.1370819849
 30
0.0
 11
2351.682928741872
 21
1435.1370819849
 31
0.0
  0
LINE
  5
196
330
190
100
AcDbEntity
  8
SLD-0
  6
AUSGEZOGEN
 62
     7
370
    18
100
AcDbLine
 10
2184.558142653274
 20
1265.1023218963
 30
0.0
 11
2184.558142653274
 21
1447.542454604529
 31
0.0
  0
LINE
  5
197
330
190
100
AcDbEntity
  8
SLD-0
  6
AUSGEZOGEN
 62
     7
370
    18
100
AcDbLine
 10
2365.358142653274
 20
1362.1023218963
 30
0.0
 11
2365.358142653274
 21
1447.542454604529
 31
0.0
  0
TEXT
  5
198
330
190
100
AcDbEntity
  8
SLD-0
  6
AUSGEZOGEN
 62
     7
370
    18
100
AcDbText
 10
2255.75743244667
 20
1437.419714587525
 30
0.0
 40
21.709402084351
  1
181
 41
0.820056197844
  7
Arial
 72
     5
 11
2297.202652859878
 21
1437.419714587525
 31
0.0
100
AcDbText
  0
ENDBLK
  5
192
330
190
100
AcDbEntity
  8
0
100
AcDbBlockEnd
  0
BLOCK
  5
358
330
357
100
AcDbEntity
  8
0
100
AcDbBlockBegin
  2
*X14
 70
     1
 10
0.0
 20
0.0
 30
0.0
  3
*X14
  1

  0
LINE
  5
35A
330
357
100
AcDbEntity
  8
0
  6
AUSGEZOGEN
 62
     7
370
    18
100
AcDbLine
 10
1580.472156552484
 20
1715.175998368521
 30
0.0
 11
1581.272156552484
 21
1715.975998368521
 31
0.0
  0
LINE
  5
35B
330
357
100
AcDbEntity
  8
0
  6
AUSGEZOGEN
 62
     7
370
    18
100
AcDbLine
 10
1461.356206960028
 20
1730.763890592103
 30
0.0
 11
1462.156206960027
 21
1731.563890592102
 31
0.0
  0
LINE
  5
35C
330
357
100
AcDbEntity
  8
0
  6
AUSGEZOGEN
 62
     7
370
    18
100
AcDbLine
 10
1461.356206960028
 20
1865.46773240814
 30
0.0
 11
1462.156206960027
 21
1866.267732408139
 31
0.0
  0
LINE
  5
35D
330
357
100
AcDbEntity
  8
0
  6
AUSGEZOGEN
 62
     7
370
    18
100
AcDbLine
 10
1490.669614736447
 20
1715.175998368521
 30
0.0
 11
1491.469614736447
 21
1715.975998368521
 31
0.0
  0
LINE
  5
35E
330
357
100
AcDbEntity
  8
0
  6
AUSGEZOGEN
 62
     7
370
    18
100
AcDbLine
 10
1461.356206960028
 20
1820.56643240814
 30
0.0
 11
1462.156206960027
 21
1821.366432408139
 31
0.0
  0
ENDBLK
  5
359
330
357
100
AcDbEntity
  8
0
100
AcDbBlockEnd
  0
BLOCK
  5
361
330
360
100
AcDbEntity
  8
0
100
AcDbBlockBegin
  2
*X15
 70
     1
 10
0.0
 20
0.0
 30
0.0
  3
*X15
  1

  0
LINE
  5
363
330
360
100
AcDbEntity
  8
0
  6
AUSGEZOGEN
 62
     7
370
    18
100
AcDbLine
 10
1849.879840184559
 20
1715.175998368521
 30
0.0
 11
1850.69179857546
 21
1715.987956759423
 31
0.0
  0
LINE
  5
364
330
360
100
AcDbEntity
  8
0
  6
AUSGEZOGEN
 62
     7
370
    18
100
AcDbLine
 10
1862.144248569126
 20
1727.440406753088
 30
0.0
 11
1862.956206960027
 21
1728.25236514399
 31
0.0
  0
LINE
  5
365
330
360
100
AcDbEntity
  8
0
  6
AUSGEZOGEN
 62
     7
370
    18
100
AcDbLine
 10
1711.175998368521
 20
1711.175998368521
 30
0.0
 11
1711.975998368521
 21
1711.975998368521
 31
0.0
  0
LINE
  5
366
330
360
100
AcDbEntity
  8
0
  6
AUSGEZOGEN
 62
     7
370
    18
100
AcDbLine
 10
1862.156206960027
 20
1862.156206960027
 30
0.0
 11
1862.956206960027
 21
1862.956206960027
 31
0.0
  0
LINE
  5
367
330
360
100
AcDbEntity
  8
0
  6
AUSGEZOGEN
 62
     7
370
    18
100
AcDbLine
 10
1760.077298368521
 20
1715.175998368521
 30
0.0
 11
1760.877298368521
 21
1715.975998368521
 31
0.0
  0
LINE
  5
368
330
360
100
AcDbEntity
  8
0
  6
AUSGEZOGEN
 62
     7
370
    18
100
AcDbLine
 10
1862.156206960027
 20
1817.254906960027
 30
0.0
 11
1862.956206960027
 21
1818.054906960027
 31
0.0
  0
ENDBLK
  5
362
330
360
100
AcDbEntity
  8
0
100
AcDbBlockEnd
  0
BLOCK
  5
36B
330
36A
100
AcDbEntity
  8
0
100
AcDbBlockBegin
  2
*D16
 70
     1
 10
0.0
 20
0.0
 30
0.0
  3
*D16
  1

  0
HATCH
  5
36D
330
36A
100
AcDbEntity
  8
SLD-0
  6
AUSGEZOGEN
 62
     7
370
    18
100
AcDbHatch
 10
0.0
 20
0.0
 30
0.0
210
0.0
220
0.0
230
1.0
  2
SOLID
 70
     1
 71
     0
 91
        1
 92
        2
 72
     0
 73
     1
 93
        3
 10
1727.9885129398
 20
1895.9759983685
 10
1725.25347015752
 20
1882.300784457098
 10
1730.72355572208
 20
1882.300784457098
 97
        0
 75
     0
 76
     1
 98
        0
  0
HATCH
  5
36E
330
36A
100
AcDbEntity
  8
SLD-0
  6
AUSGEZOGEN
 62
     7
370
    18
100
AcDbHatch
 10
0.0
 20
0.0
 30
0.0
210
0.0
220
0.0
230
1.0
  2
SOLID
 70
     1
 71
     0
 91
        1
 92
        2
 72
     0
 73
     1
 93
        3
 10
1727.9885129398
 20
1864.9759983685
 10
1730.72355572208
 20
1878.651212279902
 10
1725.25347015752
 20
1878.651212279902
 97
        0
 75
     0
 76
     1
 98
        0
  0
LINE
  5
36F
330
36A
100
AcDbEntity
  8
SLD-0
  6
AUSGEZOGEN
 62
     7
370
    18
100
AcDbLine
 10
1727.9885129398
 20
1878.651212279902
 30
0.0
 11
1727.9885129398
 21
1882.300784457098
 31
0.0
  0
LINE
  5
370
330
36A
100
AcDbEntity
  8
SLD-0
  6
AUSGEZOGEN
 62
     7
370
    18
100
AcDbLine
 10
1727.9885129398
 20
1882.300784457098
 30
0.0
 11
1727.9885129398
 21
1894.433988868087
 31
0.0
  0
LINE
  5
371
330
36A
100
AcDbEntity
  8
SLD-0
  6
AUSGEZOGEN
 62
     7
370
    18
100
AcDbLine
 10
1686.15620696
 20
1864.9759983685
 30
0.0
 11
1740.393885559429
 21
1864.9759983685
 31
0.0
  0
LINE
  5
372
330
36A
100
AcDbEntity
  8
SLD-0
  6
AUSGEZOGEN
 62
     7
370
    18
100
AcDbLine
 10
1887.15620696
 20
1895.9759983685
 30
0.0
 11
1715.583140320171
 21
1895.9759983685
 31
0.0
  0
TEXT
  5
373
330
36A
100
AcDbEntity
  8
SLD-0
  6
AUSGEZOGEN
 62
     7
370
    18
100
AcDbText
 10
1722.567029643358
 20
1866.803841925949
 30
0.0
 40
21.709402084351
  1
31
 50
90.0
 41
0.820056197844
  7
Arial
 72
     5
 11
1722.567029643358
 21
1894.433988868087
 31
0.0
100
AcDbText
  0
ENDBLK
  5
36C
330
36A
100
AcDbEntity
  8
0
100
AcDbBlockEnd
  0
BLOCK
  5
376
330
375
100
AcDbEntity
  8
0
100
AcDbBlockBegin
  2
*D17
 70
     1
 10
0.0
 20
0.0
 30
0.0
  3
*D17
  1

  0
HATCH
  5
378
330
375
100
AcDbEntity
  8
SLD-0
  6
AUSGEZOGEN
 62
     7
370
    18
100
AcDbHatch
 10
0.0
 20
0.0
 30
0.0
210
0.0
220
0.0
230
1.0
  2
SOLID
 70
     1
 71
     0
 91
        1
 92
        2
 72
     0
 73
     1
 93
        3
 10
1686.15620696
 20
1780.8854400857
 10
1672.480993048598
 20
1783.62048286798
 10
1672.480993048598
 20
1778.15039730342
 97
        0
 75
     0
 76
     1
 98
        0
  0
HATCH
  5
379
330
375
100
AcDbEntity
  8
SLD-0
  6
AUSGEZOGEN
 62
     7
370
    18
100
AcDbHatch
 10
0.0
 20
0.0
 30
0.0
210
0.0
220
0.0
230
1.0
  2
SOLID
 70
     1
 71
     0
 91
        1
 92
        2
 72
     0
 73
     1
 93
        3
 10
1638.15620696
 20
1780.8854400857
 10
1651.831420871402
 20
1778.15039730342
 10
1651.831420871402
 20
1783.62048286798
 97
        0
 75
     0
 76
     1
 98
        0
  0
LINE
  5
37A
330
375
100
AcDbEntity
  8
SLD-0
  6
AUSGEZOGEN
 62
     7
370
    18
100
AcDbLine
 10
1651.831420871402
 20
1780.8854400857
 30
0.0
 11
1672.480993048598
 21
1780.8854400857
 31
0.0
  0
LINE
  5
37B
330
375
100
AcDbEntity
  8
SLD-0
  6
AUSGEZOGEN
 62
     7
370
    18
100
AcDbLine
 10
1651.831420871402
 20
1780.8854400857
 30
0.0
 11
1648.320295847581
 21
1780.8854400857
 31
0.0
  0
LINE
  5
37C
330
375
100
AcDbEntity
  8
SLD-0
  6
AUSGEZOGEN
 62
     7
370
    18
100
AcDbLine
 10
1638.15620696
 20
1853.9759983685
 30
0.0
 11
1638.15620696
 21
1768.480067466071
 31
0.0
  0
LINE
  5
37D
330
375
100
AcDbEntity
  8
SLD-0
  6
AUSGEZOGEN
 62
     7
370
    18
100
AcDbLine
 10
1686.15620696
 20
1853.9759983685
 30
0.0
 11
1686.15620696
 21
1768.480067466071
 31
0.0
  0
TEXT
  5
37E
330
375
100
AcDbEntity
  8
SLD-0
  6
AUSGEZOGEN
 62
     7
370
    18
100
AcDbText
 10
1648.320295847581
 20
1785.91959264303
 30
0.0
 40
21.709402084351
  1
48
 41
0.820056197844
  7
Arial
 72
     5
 11
1675.95044278972
 21
1785.91959264303
 31
0.0
100
AcDbText
  0
ENDBLK
  5
377
330
375
100
AcDbEntity
  8
0
100
AcDbBlockEnd
  0
BLOCK
  5
381
330
380
100
AcDbEntity
  8
0
100
AcDbBlockBegin
  2
*D18
 70
     1
 10
0.0
 20
0.0
 30
0.0
  3
*D18
  1

  0
HATCH
  5
383
330
380
100
AcDbEntity
  8
SLD-0
  6
AUSGEZOGEN
 62
     7
370
    18
100
AcDbHatch
 10
0.0
 20
0.0
 30
0.0
210
0.0
220
0.0
230
1.0
  2
SOLID
 70
     1
 71
     0
 91
        1
 92
        2
 72
     0
 73
     1
 93
        3
 10
1585.4331322522
 20
1852.9759983685
 10
1588.16817503448
 20
1866.651212279902
 10
1582.69808946992
 20
1866.651212279902
 97
        0
 75
     0
 76
     1
 98
        0
  0
HATCH
  5
384
330
380
100
AcDbEntity
  8
SLD-0
  6
AUSGEZOGEN
 62
     7
370
    18
100
AcDbHatch
 10
0.0
 20
0.0
 30
0.0
210
0.0
220
0.0
230
1.0
  2
SOLID
 70
     1
 71
     0
 91
        1
 92
        2
 72
     0
 73
     1
 93
        3
 10
1585.4331322522
 20
1876.9759983685
 10
1582.69808946992
 20
1863.300784457098
 10
1588.16817503448
 20
1863.300784457098
 97
        0
 75
     0
 76
     1
 98
        0
  0
LINE
  5
385
330
380
100
AcDbEntity
  8
SLD-0
  6
AUSGEZOGEN
 62
     7
370
    18
100
AcDbLine
 10
1585.4331322522
 20
1863.300784457098
 30
0.0
 11
1585.4331322522
 21
1866.651212279902
 31
0.0
  0
LINE
  5
386
330
380
100
AcDbEntity
  8
SLD-0
  6
AUSGEZOGEN
 62
     7
370
    18
100
AcDbLine
 10
1585.4331322522
 20
1866.651212279902
 30
0.0
 11
1585.4331322522
 21
1879.900921104706
 31
0.0
  0
LINE
  5
387
330
380
100
AcDbEntity
  8
SLD-0
  6
AUSGEZOGEN
 62
     7
370
    18
100
AcDbLine
 10
1639.15620696
 20
1876.9759983685
 30
0.0
 11
1573.027759632571
 21
1876.9759983685
 31
0.0
  0
LINE
  5
388
330
380
100
AcDbEntity
  8
SLD-0
  6
AUSGEZOGEN
 62
     7
370
    18
100
AcDbLine
 10
1639.15620696
 20
1852.9759983685
 30
0.0
 11
1573.027759632571
 21
1852.9759983685
 31
0.0
  0
TEXT
  5
389
330
380
100
AcDbEntity
  8
SLD-0
  6
AUSGEZOGEN
 62
     7
370
    18
100
AcDbText
 10
1577.936501811609
 20
1852.270774162568
 30
0.0
 40
21.709402084351
  1
24
 50
90.0
 41
0.820056197844
  7
Arial
 72
     5
 11
1577.936501811609
 21
1879.900921104706
 31
0.0
100
AcDbText
  0
ENDBLK
  5
382
330
380
100
AcDbEntity
  8
0
100
AcDbBlockEnd
  0
BLOCK
  5
38C
330
38B
100
AcDbEntity
  8
0
100
AcDbBlockBegin
  2
_D_16_nNn018
 70
     0
 10
0.0
 20
0.0
 30
0.0
  3
_D_16_nNn018
  1

  0
HATCH
  5
38E
330
38B
100
AcDbEntity
  8
SLD-0
  6
AUSGEZOGEN
 62
     7
370
    18
100
AcDbHatch
 10
0.0
 20
0.0
 30
0.0
210
0.0
220
0.0
230
1.0
  2
SOLID
 70
     1
 71
     0
 91
        1
 92
        2
 72
     0
 73
     1
 93
        3
 10
1638.5349028017
 20
1876.7595678568
 10
1628.0677433565
 20
1893.9842180172
 10
1624.1498959154
 20
1890.8776972257
 97
        0
 75
     0
 76
     1
 98
        0
  0
LINE
  5
38F
330
38B
100
AcDbEntity
  8
SLD-0
  6
AUSGEZOGEN
 62
     7
370
    18
100
AcDbLine
 10
1638.5349028017
 20
1876.7595678568
 30
0.0
 11
1596.118251774
 21
1930.2541294091
 31
0.0
  0
LINE
  5
390
330
38B
100
AcDbEntity
  8
SLD-0
  6
AUSGEZOGEN
 62
     7
370
    18
100
AcDbLine
 10
1639.15620696
 20
1875.9759983685
 30
0.0
 11
1638.5349028017
 21
1876.7595678568
 31
0.0
  0
LINE
  5
391
330
38B
100
AcDbEntity
  8
SLD-0
  6
AUSGEZOGEN
 62
     7
370
    18
100
AcDbLine
 10
1596.118251774
 20
1930.2541294091
 30
0.0
 11
1531.0895457152
 21
1930.2541294091
 31
0.0
  0
TEXT
  5
392
330
38B
100
AcDbEntity
  8
SLD-0
  6
AUSGEZOGEN
 62
     7
370
    18
100
AcDbText
 10
1531.0895457152
 20
1936.41984600302
 30
0.0
 40
21.709401709402
  1
R1
 41
0.560538116592
  7
Arial
 72
     5
 11
1552.798947424602
 21
1936.41984600302
 31
0.0
100
AcDbText
  0
ENDBLK
  5
38D
330
38B
100
AcDbEntity
  8
0
100
AcDbBlockEnd
  0
BLOCK
  5
395
330
394
100
AcDbEntity
  8
0
100
AcDbBlockBegin
  2
A3-NABER_nNn019
 70
     0
 10
0.0
 20
0.0
 30
0.0
  3
A3-NABER_nNn019
  1

  0
INSERT
  5
3B2
330
394
100
AcDbEntity
  8
0
100
AcDbBlockReference
  2
A3-NABER_001_nNn020
 10
0.0
 20
0.0
 30
0.0
  0
TEXT
  5
3B3
330
394
100
AcDbEntity
  8
Layer100
  6
AUSGEZOGEN
 62
    18
420
        0
370
    50
100
AcDbText
 10
2672.735091334688
 20
538.342456443567
 30
0.0
 40
9.866410310477
  1
Weitergabe und Vervielfältigung,
 50
0.000002504478
 41
1.085122205146
  7
Arial
 72
     5
 11
2888.691080210397
 21
538.342465883303
 31
0.0
100
AcDbText
  0
TEXT
  5
3B4
330
394
100
AcDbEntity
  8
Layer100
  6
AUSGEZOGEN
 62
    18
420
        0
370
    50
100
AcDbText
 10
2672.801690294322
 20
522.556199949716
 30
0.0
 40
9.866410310477
  1
sowie Verwertung und Mitteilung
 50
0.000002504478
 41
1.084506693109
  7
Arial
 72
     5
 11
2888.62448263084
 21
522.55620938363
 31
0.0
100
AcDbText
  0
TEXT
  5
3B5
330
394
100
AcDbEntity
  8
Layer100
  6
AUSGEZOGEN
 62
    18
420
        0
370
    50
100
AcDbText
 10
2662.974746315127
 20
506.769943023404
 30
0.0
 40
9.866410310477
  1
dieser Zeichnung ist nicht gestattet,
 50
0.000002504478
 41
1.087014938969
  7
Arial
 72
     5
 11
2898.451427990114
 21
506.769953316417
 31
0.0
100
AcDbText
  0
TEXT
  5
3B6
330
394
100
AcDbEntity
  8
Layer100
  6
AUSGEZOGEN
 62
    18
420
        0
370
    50
100
AcDbText
 10
2670.966539356652
 20
490.983686875974
 30
0.0
 40
9.866410310477
  1
soweit nicht ausdrücklich erlaubt.
 50
0.000002504478
 41
1.086254882812
  7
Arial
 72
     5
 11
2890.459636328667
 21
490.983696470322
 31
0.0
100
AcDbText
  0
TEXT
  5
3B7
330
394
100
AcDbEntity
  8
Layer100
  6
AUSGEZOGEN
 62
    18
420
        0
370
    50
100
AcDbText
 10
2699.337402894466
 20
475.197431619341
 30
0.0
 40
9.866410310477
  1
Alle Rechte vorbehalten!
 50
0.000002504478
 41
1.084802051822
  7
Arial
 72
     5
 11
2862.088774170931
 21
475.19743873343
 31
0.0
100
AcDbText
  0
LINE
  5
3B8
330
394
100
AcDbEntity
  8
Layer100
  6
AUSGEZOGEN
 62
    18
420
        0
370
    50
100
AcDbLine
 10
3520.0
 20
566.304923376728
 30
0.0
 11
2239.84
 21
566.304923376728
 31
0.0
  0
INSERT
  5
3E9
330
394
100
AcDbEntity
  8
0
100
AcDbBlockReference
  2
Schriftfeld_nNn025
 10
0.0
 20
0.0
 30
0.0
  0
INSERT
  5
3F5
330
394
100
AcDbEntity
  8
0
100
AcDbBlockReference
  2
Beschriftung_nNn026
 10
0.0
 20
0.0
 30
0.0
  0
TEXT
  5
3F6
330
394
100
AcDbEntity
  8
Layer100
  6
AUSGEZOGEN
 62
    18
420
        0
370
    18
100
AcDbText
 10
2252.228779069399
 20
425.306655739864
 30
0.0
 40
14.799614687777
  1
-
 41
0.967741971819
  7
Arial
 72
     5
 11
2258.888605928951
 21
425.306655739864
 31
0.0
100
AcDbText
  0
TEXT
  5
3F7
330
394
100
AcDbEntity
  8
Layer100
  6
AUSGEZOGEN
 62
    18
420
        0
370
    18
100
AcDbText
 10
2307.474051718168
 20
425.557864236222
 30
0.0
 40
14.799614687777
  1
-
 41
0.967741971819
  7
Arial
 72
     5
 11
2314.133878577719
 21
425.557864236222
 31
0.0
100
AcDbText
  0
TEXT
  5
3F8
330
394
100
AcDbEntity
  8
Layer100
  6
AUSGEZOGEN
 62
    18
420
        0
370
    18
100
AcDbText
 10
2483.888518162686
 20
425.570116447538
 30
0.0
 40
14.799614687777
  1
-
 41
0.967741971819
  7
Arial
 72
     5
 11
2490.548345022237
 21
425.570116447538
 31
0.0
100
AcDbText
  0
TEXT
  5
3F9
330
394
100
AcDbEntity
  8
Layer100
  6
AUSGEZOGEN
 62
    18
420
        0
370
    18
100
AcDbText
 10
2580.857493231503
 20
425.570116447538
 30
0.0
 40
14.799614687777
  1
-
 41
0.967741971819
  7
Arial
 72
     5
 11
2587.517320091054
 21
425.570116447538
 31
0.0
100
AcDbText
  0
TEXT
  5
3FA
330
394
100
AcDbEntity
  8
Layer100
  6
AUSGEZOGEN
 62
    18
420
        0
370
    18
100
AcDbText
 10
2629.143748121539
 20
302.99458090271
 30
0.0
 40
9.027487181822
  1
Naber GmbH
 41
0.96475869975
  7
Arial
 72
     5
 11
2700.751997474483
 21
302.99458090271
 31
0.0
100
AcDbText
  0
TEXT
  5
3FB
330
394
100
AcDbEntity
  8
Layer100
  6
AUSGEZOGEN
 62
    18
420
        0
370
    18
100
AcDbText
 10
2629.143748121539
 20
291.258847996805
 30
0.0
 40
9.027487181822
  1
Enschedestr. 24
 41
0.976824042946
  7
Arial
 72
     5
 11
2718.08478430871
 21
291.258847996805
 31
0.0
100
AcDbText
  0
TEXT
  5
3FC
330
394
100
AcDbEntity
  8
Layer100
  6
AUSGEZOGEN
 62
    18
420
        0
370
    18
100
AcDbText
 10
2629.143748121539
 20
279.523115090901
 30
0.0
 40
9.027487181822
  1
48529 Nordhorn
 41
0.972993785506
  7
Arial
 72
     5
 11
2717.736034635689
 21
279.523115090901
 31
0.0
100
AcDbText
  0
TEXT
  5
3FD
330
394
100
AcDbEntity
  8
Layer100
  6
AUSGEZOGEN
 62
    18
420
        0
370
    18
100
AcDbText
 10
2629.143748121539
 20
256.051649279091
 30
0.0
 40
9.027487181822
  1
0049-(0)5921-704-0
 41
0.975798499711
  7
Arial
 72
     5
 11
2738.489969988775
 21
256.051649279091
 31
0.0
100
AcDbText
  0
IMAGE
  5
400
330
394
100
AcDbEntity
  8
0
  6
AUSGEZOGEN
 62
    18
420
        0
370
    18
160
               140
310
8C00000001000000840000000600000005000000CF640CA86D8FA5407043E964200F704000000000000000000CEA3803E8E0A6407043E964200F704000000000000000000CEA3803E8E0A64025E7150D160574400000000000000000CF640CA86D8FA54025E7150D160574400000000000000000CF640CA86D8FA5407043E9
310
64200F70400000000000000000
100
AcDbRasterImage
 90
        0
 10
2759.714172732645
 20
256.945408736406
 30
0.0
 11
0.04462813458125245
 21
0.0
 31
0.0
 12
0.0
 22
0.06720304860732257
 32
0.0
 13
3781.0
 23
943.0
340
3FF
 70
     7
280
     0
281
    50
282
    50
283
     0
360
401
 71
     1
 91
        2
 14
-0.5
 24
-0.5
 14
3780.5
 24
942.5
290
     0
  0
TEXT
  5
402
330
394
100
AcDbEntity
  8
Layer100
  6
AUSGEZOGEN
 62
    18
420
        0
370
    18
100
AcDbText
 10
2940.516851105174
 20
457.074554729024
 30
0.0
 40
24.666025776191
  1
Edelstahl
 41
0.915248215901
  7
Arial
 72
     5
 11
3070.12300376938
 21
457.074554729024
 31
0.0
100
AcDbText
  0
ENDBLK
  5
396
330
394
100
AcDbEntity
  8
0
100
AcDbBlockEnd
  0
BLOCK
  5
398
330
397
100
AcDbEntity
  8
0
100
AcDbBlockBegin
  2
A3-NABER_001_nNn020
 70
     0
 10
0.0
 20
0.0
 30
0.0
  3
A3-NABER_001_nNn020
  1

  0
INSERT
  5
3B1
330
397
100
AcDbEntity
  8
0
100
AcDbBlockReference
  2
A3-NABER_002_nNn021
 10
0.0
 20
0.0
 30
0.0
  0
ENDBLK
  5
399
330
397
100
AcDbEntity
  8
0
100
AcDbBlockEnd
  0
BLOCK
  5
39B
330
39A
100
AcDbEntity
  8
0
100
AcDbBlockBegin
  2
A3-NABER_002_nNn021
 70
     0
 10
0.0
 20
0.0
 30
0.0
  3
A3-NABER_002_nNn021
  1

  0
INSERT
  5
3B0
330
39A
100
AcDbEntity
  8
0
100
AcDbBlockReference
  2
A3-NABER_nNn022
 10
0.0
 20
0.0
 30
0.0
  0
ENDBLK
  5
39C
330
39A
100
AcDbEntity
  8
0
100
AcDbBlockEnd
  0
BLOCK
  5
39E
330
39D
100
AcDbEntity
  8
0
100
AcDbBlockBegin
  2
A3-NABER_nNn022
 70
     0
 10
0.0
 20
0.0
 30
0.0
  3
A3-NABER_nNn022
  1

  0
INSERT
  5
3AB
330
39D
100
AcDbEntity
  8
0
100
AcDbBlockReference
  2
A3-Textliste_nNn023
 10
0.0
 20
0.0
 30
0.0
  0
LINE
  5
3AC
330
39D
100
AcDbEntity
  8
SLD-0
  6
AUSGEZOGEN
 62
    18
420
        0
370
    18
100
AcDbLine
 10
3555.0
 20
145.0
 30
0.0
 11
3555.0
 21
2216.3
 31
0.0
  0
LINE
  5
3AD
330
39D
100
AcDbEntity
  8
SLD-0
  6
AUSGEZOGEN
 62
    18
420
        0
370
    18
100
AcDbLine
 10
720.0
 20
145.0
 30
0.0
 11
3555.0
 21
145.0
 31
0.0
  0
LINE
  5
3AE
330
39D
100
AcDbEntity
  8
SLD-0
  6
AUSGEZOGEN
 62
    18
420
        0
370
    18
100
AcDbLine
 10
720.0
 20
2216.3
 30
0.0
 11
3555.0
 21
2216.3
 31
0.0
  0
LINE
  5
3AF
330
39D
100
AcDbEntity
  8
SLD-0
  6
AUSGEZOGEN
 62
    18
420
        0
370
    18
100
AcDbLine
 10
720.0
 20
145.0
 30
0.0
 11
720.0
 21
2216.3
 31
0.0
  0
ENDBLK
  5
39F
330
39D
100
AcDbEntity
  8
0
100
AcDbBlockEnd
  0
BLOCK
  5
3A1
330
3A0
100
AcDbEntity
  8
0
100
AcDbBlockBegin
  2
A3-Textliste_nNn023
 70
     0
 10
0.0
 20
0.0
 30
0.0
  3
A3-Textliste_nNn023
  1

  0
INSERT
  5
3AA
330
3A0
100
AcDbEntity
  8
0
100
AcDbBlockReference
  2
Zeichnungsrahmen_nNn024
 10
0.0
 20
0.0
 30
0.0
  0
ENDBLK
  5
3A2
330
3A0
100
AcDbEntity
  8
0
100
AcDbBlockEnd
  0
BLOCK
  5
3A4
330
3A3
100
AcDbEntity
  8
0
100
AcDbBlockBegin
  2
Zeichnungsrahmen_nNn024
 70
     0
 10
0.0
 20
0.0
 30
0.0
  3
Zeichnungsrahmen_nNn024
  1

  0
LINE
  5
3A6
330
3A3
100
AcDbEntity
  8
Layer100
  6
AUSGEZOGEN
 62
    18
420
        0
370
    50
100
AcDbLine
 10
3520.0
 20
180.0
 30
0.0
 11
3520.0
 21
2181.3
 31
0.0
  0
LINE
  5
3A7
330
3A3
100
AcDbEntity
  8
Layer100
  6
AUSGEZOGEN
 62
    18
420
        0
370
    50
100
AcDbLine
 10
755.0
 20
180.0
 30
0.0
 11
3520.0
 21
180.0
 31
0.0
  0
LINE
  5
3A8
330
3A3
100
AcDbEntity
  8
Layer100
  6
AUSGEZOGEN
 62
    18
420
        0
370
    50
100
AcDbLine
 10
755.0
 20
180.0
 30
0.0
 11
755.0
 21
2181.3
 31
0.0
  0
LINE
  5
3A9
330
3A3
100
AcDbEntity
  8
Layer100
  6
AUSGEZOGEN
 62
    18
420
        0
370
    50
100
AcDbLine
 10
755.0
 20
2181.3
 30
0.0
 11
3520.0
 21
2181.3
 31
0.0
  0
ENDBLK
  5
3A5
330
3A3
100
AcDbEntity
  8
0
100
AcDbBlockEnd
  0
BLOCK
  5
3BA
330
3B9
100
AcDbEntity
  8
0
100
AcDbBlockBegin
  2
Schriftfeld_nNn025
 70
     0
 10
0.0
 20
0.0
 30
0.0
  3
Schriftfeld_nNn025
  1

  0
LINE
  5
3BC
330
3B9
100
AcDbEntity
  8
Layer100
  6
AUSGEZOGEN
 62
    18
420
        0
370
    50
100
AcDbLine
 10
2623.07338333454
 20
566.304834653412
 30
0.0
 11
2623.07338333454
 21
179.999911276684
 31
0.0
  0
LINE
  5
3BD
330
3B9
100
AcDbEntity
  8
Layer100
  6
AUSGEZOGEN
 62
    18
420
        0
370
    50
100
AcDbLine
 10
2932.117322035923
 20
566.304875716689
 30
0.0
 11
2932.117322035923
 21
179.999952339961
 31
0.0
  0
LINE
  5
3BE
330
3B9
100
AcDbEntity
  8
Layer100
  6
AUSGEZOGEN
 62
    18
420
        0
370
    18
100
AcDbLine
 10
2295.85038941543
 20
447.441771174501
 30
0.0
 11
2295.85038941543
 21
179.999901144459
 31
0.0
  0
LINE
  5
3BF
330
3B9
100
AcDbEntity
  8
Layer100
  6
AUSGEZOGEN
 62
    18
420
        0
370
    18
100
AcDbLine
 10
2568.536217681355
 20
447.441565790932
 30
0.0
 11
2568.536217681355
 21
179.99969576089
 31
0.0
  0
LINE
  5
3C0
330
3B9
100
AcDbEntity
  8
Layer100
  6
AUSGEZOGEN
 62
    18
420
        0
370
    18
100
AcDbLine
 10
2477.640941592713
 20
179.99969576089
 30
0.0
 11
2477.640941592713
 21
566.304619137617
 31
0.0
  0
TEXT
  5
3C1
330
3B9
100
AcDbEntity
  8
Layer100
  6
AUSGEZOGEN
 62
    18
420
        0
370
    18
100
AcDbText
 10
2938.270233032692
 20
503.461327847898
 30
0.0
 40
11.536708118943
  1
Rohstoff/Raw material
 41
1.084377276038
  7
Arial
 72
     5
 11
3110.034511861575
 21
503.461327847898
 31
0.0
100
AcDbText
  0
TEXT
  5
3C2
330
3B9
100
AcDbEntity
  8
Layer100
  6
AUSGEZOGEN
 62
    18
420
        0
370
    18
100
AcDbText
 10
2938.270233032692
 20
429.171919506219
 30
0.0
 40
11.536708118943
  1
Benennung/Designation
 41
1.081895683695
  7
Arial
 72
     5
 11
3124.207357785696
 21
429.171919506219
 31
0.0
100
AcDbText
  0
TEXT
  5
3C3
330
3B9
100
AcDbEntity
  8
Layer100
  6
AUSGEZOGEN
 62
    18
420
        0
370
    18
100
AcDbText
 10
2937.361280271806
 20
282.078890989696
 30
0.0
 40
11.536708118943
  1
Sachnummer/Part-No.
 41
1.080626575441
  7
Arial
 72
     5
 11
3110.463817242486
 21
282.078890989696
 31
0.0
100
AcDbText
  0
LINE
  5
3C4
330
3B9
100
AcDbEntity
  8
Layer100
  6
AUSGEZOGEN
 62
    18
420
        0
370
    18
100
AcDbLine
 10
2695.789604205454
 20
447.441870030043
 30
0.0
 11
2695.789604205454
 21
358.294580020028
 31
0.0
  0
TEXT
  5
3C5
330
3B9
100
AcDbEntity
  8
Layer100
  6
AUSGEZOGEN
 62
    18
420
        0
370
    18
100
AcDbText
 10
2628.314939745603
 20
373.45807919021
 30
0.0
 40
11.536708118943
  1
Gepr.
 41
1.076768834145
  7
Arial
 72
     5
 11
2671.68142556471
 21
373.45807919021
 31
0.0
100
AcDbText
  0
TEXT
  5
3C6
330
3B9
100
AcDbEntity
  8
Layer100
  6
AUSGEZOGEN
 62
    18
420
        0
370
    18
100
AcDbText
 10
2628.314939745603
 20
358.460358635584
 30
0.0
 40
11.536708118943
  1
Check.
 41
1.077923572744
  7
Arial
 72
     5
 11
2682.335575512553
 21
358.460358635584
 31
0.0
100
AcDbText
  0
TEXT
  5
3C7
330
3B9
100
AcDbEntity
  8
Layer100
  6
AUSGEZOGEN
 62
    18
420
        0
370
    18
100
AcDbText
 10
2701.03109057817
 20
432.895563924768
 30
0.0
 40
11.536708118943
  1
Datum
 41
1.075650693262
  7
Arial
 72
     5
 11
2752.046413880136
 21
432.895563924768
 31
0.0
100
AcDbText
  0
TEXT
  5
3C8
330
3B9
100
AcDbEntity
  8
Layer100
  6
AUSGEZOGEN
 62
    18
420
        0
370
    18
100
AcDbText
 10
2701.03109057817
 20
417.897843370142
 30
0.0
 40
11.536708118943
  1
Date
 41
1.076492537313
  7
Arial
 72
     5
 11
2737.642833793635
 21
417.897843370142
 31
0.0
100
AcDbText
  0
TEXT
  5
3C9
330
3B9
100
AcDbEntity
  8
Layer100
  6
AUSGEZOGEN
 62
    18
420
        0
370
    18
100
AcDbText
 10
2810.107893747707
 20
432.891634001564
 30
0.0
 40
11.536708118943
  1
Name
 41
1.072387859253
  7
Arial
 72
     5
 11
2856.168200912587
 21
432.891634001564
 31
0.0
100
AcDbText
  0
TEXT
  5
3CA
330
3B9
100
AcDbEntity
  8
Layer100
  6
AUSGEZOGEN
 62
    18
420
        0
370
    18
100
AcDbText
 10
2810.107893747707
 20
417.893913446938
 30
0.0
 40
11.536708118943
  1
Name
 41
1.072387859253
  7
Arial
 72
     5
 11
2856.168200912587
 21
417.893913446938
 31
0.0
100
AcDbText
  0
TEXT
  5
3CB
330
3B9
100
AcDbEntity
  8
Layer100
  6
AUSGEZOGEN
 62
    18
420
        0
370
    18
100
AcDbText
 10
2628.299699646919
 20
403.184055053754
 30
0.0
 40
11.536708118943
  1
Bearb.
 41
1.078672178988
  7
Arial
 72
     5
 11
2679.47076850849
 21
403.184055053754
 31
0.0
100
AcDbText
  0
TEXT
  5
3CC
330
3B9
100
AcDbEntity
  8
Layer100
  6
AUSGEZOGEN
 62
    18
420
        0
370
    18
100
AcDbText
 10
2628.299699646919
 20
388.186334499128
 30
0.0
 40
11.536708118943
  1
Drawn
 41
1.075502107612
  7
Arial
 72
     5
 11
2678.340171112834
 21
388.186334499128
 31
0.0
100
AcDbText
  0
TEXT
  5
3CD
330
3B9
100
AcDbEntity
  8
Layer100
  6
AUSGEZOGEN
 62
    18
420
        0
370
    18
100
AcDbText
 10
2247.466134759014
 20
195.165527308193
 30
0.0
 40
11.536708118943
  1
Ausg.
 41
1.076912300364
  7
Arial
 72
     5
 11
2291.807472414172
 21
195.165527308193
 31
0.0
100
AcDbText
  0
TEXT
  5
3CE
330
3B9
100
AcDbEntity
  8
Layer100
  6
AUSGEZOGEN
 62
    18
420
        0
370
    18
100
AcDbText
 10
2247.466134759014
 20
180.167806753567
 30
0.0
 40
11.536708118943
  1
Issue
 41
1.078087529976
  7
Arial
 72
     5
 11
2288.957905508792
 21
180.167806753567
 31
0.0
100
AcDbText
  0
TEXT
  5
3CF
330
3B9
100
AcDbEntity
  8
Layer100
  6
AUSGEZOGEN
 62
    18
420
        0
370
    18
100
AcDbText
 10
2302.003300412199
 20
195.165527308193
 30
0.0
 40
11.536708118943
  1
Änderung
 41
1.077825512227
  7
Arial
 72
     5
 11
2377.257247472065
 21
195.165527308193
 31
0.0
100
AcDbText
  0
TEXT
  5
3D0
330
3B9
100
AcDbEntity
  8
Layer100
  6
AUSGEZOGEN
 62
    18
420
        0
370
    18
100
AcDbText
 10
2302.003300412199
 20
180.167806753567
 30
0.0
 40
11.536708118943
  1
Modification
 41
1.083926413321
  7
Arial
 72
     5
 11
2395.127608348307
 21
180.167806753567
 31
0.0
100
AcDbText
  0
TEXT
  5
3D1
330
3B9
100
AcDbEntity
  8
Layer100
  6
AUSGEZOGEN
 62
    18
420
        0
370
    18
100
AcDbText
 10
2482.884899828596
 20
195.165527308193
 30
0.0
 40
11.536708118943
  1
Datum
 41
1.075650693262
  7
Arial
 72
     5
 11
2533.900223130562
 21
195.165527308193
 31
0.0
100
AcDbText
  0
TEXT
  5
3D2
330
3B9
100
AcDbEntity
  8
Layer100
  6
AUSGEZOGEN
 62
    18
420
        0
370
    18
100
AcDbText
 10
2482.884899828596
 20
180.167806753567
 30
0.0
 40
11.536708118943
  1
Date
 41
1.076492537313
  7
Arial
 72
     5
 11
2519.496643044062
 21
180.167806753567
 31
0.0
100
AcDbText
  0
TEXT
  5
3D3
330
3B9
100
AcDbEntity
  8
Layer100
  6
AUSGEZOGEN
 62
    18
420
        0
370
    18
100
AcDbText
 10
2573.780175917238
 20
195.165527308193
 30
0.0
 40
11.536708118943
  1
Name
 41
1.072387859253
  7
Arial
 72
     5
 11
2619.840483082118
 21
195.165527308193
 31
0.0
100
AcDbText
  0
TEXT
  5
3D4
330
3B9
100
AcDbEntity
  8
Layer100
  6
AUSGEZOGEN
 62
    18
420
        0
370
    18
100
AcDbText
 10
2573.780175917238
 20
180.167806753567
 30
0.0
 40
11.536708118943
  1
Name
 41
1.072387859253
  7
Arial
 72
     5
 11
2619.840483082118
 21
180.167806753567
 31
0.0
100
AcDbText
  0
LINE
  5
3D5
330
3B9
100
AcDbEntity
  8
Layer100
  6
AUSGEZOGEN
 62
    18
420
        0
370
    18
100
AcDbLine
 10
2804.863935511824
 20
447.441870030043
 30
0.0
 11
2804.863935511824
 21
358.294580020028
 31
0.0
  0
TEXT
  5
3D6
330
3B9
100
AcDbEntity
  8
Layer100
  6
AUSGEZOGEN
 62
    18
420
        0
370
    18
100
AcDbText
 10
3300.942384626373
 20
548.615304261015
 30
0.0
 40
11.536708118943
  1
Menge
 41
1.074408249356
  7
Arial
 72
     5
 11
3353.832422997667
 21
548.615304261015
 31
0.0
100
AcDbText
  0
TEXT
  5
3D7
330
3B9
100
AcDbEntity
  8
Layer100
  6
AUSGEZOGEN
 62
    18
420
        0
370
    18
100
AcDbText
 10
3300.942384626373
 20
533.617583706389
 30
0.0
 40
11.536708118943
  1
Quantity
 41
1.081088880339
  7
Arial
 72
     5
 11
3365.772915900773
 21
533.617583706389
 31
0.0
100
AcDbText
  0
TEXT
  5
3D8
330
3B9
100
AcDbEntity
  8
Layer100
  6
AUSGEZOGEN
 62
    18
420
        0
370
    18
100
AcDbText
 10
2939.179185793578
 20
548.783111014582
 30
0.0
 40
11.536708118943
  1
Maßstab
 41
1.076703499079
  7
Arial
 72
     5
 11
3006.628549810978
 21
548.783111014582
 31
0.0
100
AcDbText
  0
TEXT
  5
3D9
330
3B9
100
AcDbEntity
  8
Layer100
  6
AUSGEZOGEN
 62
    18
420
        0
370
    18
100
AcDbText
 10
2939.179185793578
 20
533.785390459956
 30
0.0
 40
11.536708118943
  1
Scale
 41
1.076768834145
  7
Arial
 72
     5
 11
2982.545671612685
 21
533.785390459956
 31
0.0
100
AcDbText
  0
TEXT
  5
3DA
330
3B9
100
AcDbEntity
  8
Layer100
  6
AUSGEZOGEN
 62
    18
420
        0
370
    18
100
AcDbText
 10
2487.429663633029
 20
549.838894516055
 30
0.0
 40
11.536708118943
  1
 Maße in mm
 41
1.079690569745
  7
Arial
 72
     5
 11
2588.871938122894
 21
549.838894516055
 31
0.0
100
AcDbText
  0
TEXT
  5
3DB
330
3B9
100
AcDbEntity
  8
Layer100
  6
AUSGEZOGEN
 62
    18
420
        0
370
    18
100
AcDbText
 10
2487.429663633029
 20
534.841173961429
 30
0.0
 40
11.536708118943
  1
Dimensions in
 41
1.081916714204
  7
Arial
 72
     5
 11
2596.832266724965
 21
534.841173961429
 31
0.0
100
AcDbText
  0
TEXT
  5
3DC
330
3B9
100
AcDbEntity
  8
Layer100
  6
AUSGEZOGEN
 62
    18
420
        0
370
    18
100
AcDbText
 10
2487.429663633029
 20
519.843453406803
 30
0.0
 40
11.536708118943
  1
 millimeters
 41
1.084880260734
  7
Arial
 72
     5
 11
2575.754700991656
 21
519.843453406803
 31
0.0
100
AcDbText
  0
CIRCLE
  5
3DD
330
3B9
100
AcDbEntity
  8
Layer100
  6
AUSGEZOGEN
 62
    18
420
        0
370
    18
100
AcDbCircle
 10
2572.981730456388
 20
477.292199137852
 30
0.0
 40
19.61847309515178
  0
CIRCLE
  5
3DE
330
3B9
100
AcDbEntity
  8
Layer100
  6
AUSGEZOGEN
 62
    18
420
        0
370
    18
100
AcDbCircle
 10
2572.981730456388
 20
477.292199137852
 30
0.0
 40
13.16047183665303
  0
LINE
  5
3DF
330
3B9
100
AcDbEntity
  8
Layer100
  6
AUSGEZOGEN
 62
    18
420
        0
370
    18
100
AcDbLine
 10
2498.40572338202
 20
464.131727301199
 30
0.0
 11
2498.40572338202
 21
490.452670974505
 31
0.0
  0
LINE
  5
3E0
330
3B9
100
AcDbEntity
  8
Layer100
  6
AUSGEZOGEN
 62
    18
420
        0
370
    18
100
AcDbLine
 10
2540.080550864755
 20
457.673726042701
 30
0.0
 11
2540.080550864755
 21
496.910672233003
 31
0.0
  0
LINE
  5
3E1
330
3B9
100
AcDbEntity
  8
Layer100
  6
AUSGEZOGEN
 62
    18
420
        0
370
    18
100
AcDbLine
 10
2498.40572338202
 20
490.452670974505
 30
0.0
 11
2540.080550864755
 21
496.910672233003
 31
0.0
  0
LINE
  5
3E2
330
3B9
100
AcDbEntity
  8
Layer100
  6
AUSGEZOGEN
 62
    18
420
        0
370
    18
100
AcDbLine
 10
2540.080550864755
 20
457.673726042701
 30
0.0
 11
2498.40572338202
 21
464.131727301199
 31
0.0
  0
LINE
  5
3E3
330
3B9
100
AcDbEntity
  8
Layer100
  6
DASHDOT
 62
    18
420
        0
370
    18
100
AcDbLine
 10
2572.981730456388
 20
453.164667468298
 30
0.0
 11
2572.981730456388
 21
498.937688539806
 31
0.0
  0
LINE
  5
3E4
330
3B9
100
AcDbEntity
  8
Layer100
  6
DASHDOT
 62
    18
420
        0
370
    18
100
AcDbLine
 10
2551.139146122212
 20
477.292199137852
 30
0.0
 11
2594.926406124043
 21
477.292199137852
 31
0.0
  0
LINE
  5
3E5
330
3B9
100
AcDbEntity
  8
Layer100
  6
DASHDOT
 62
    18
420
        0
370
    18
100
AcDbLine
 10
2496.400386129314
 20
477.292199137852
 30
0.0
 11
2541.955998886561
 21
477.292199137852
 31
0.0
  0
LINE
  5
3E6
330
3B9
100
AcDbEntity
  8
Layer100
  6
AUSGEZOGEN
 62
    18
420
        0
370
    50
100
AcDbLine
 10
2932.117322035923
 20
298.863053346685
 30
0.0
 11
3520.0
 21
298.863053346685
 31
0.0
  0
LINE
  5
3E7
330
3B9
100
AcDbEntity
  8
Layer100
  6
AUSGEZOGEN
 62
    18
420
        0
370
    50
100
AcDbLine
 10
3295.69842639049
 20
566.304875716689
 30
0.0
 11
3295.69842639049
 21
521.73193728388
 31
0.0
  0
LINE
  5
3E8
330
3B9
100
AcDbEntity
  8
Layer100
  6
AUSGEZOGEN
 62
    18
420
        0
370
    50
100
AcDbLine
 10
3519.999869059656
 20
521.731278371913
 30
0.0
 11
2932.117322035923
 21
521.733005346295
 31
0.0
  0
ENDBLK
  5
3BB
330
3B9
100
AcDbEntity
  8
0
100
AcDbBlockEnd
  0
BLOCK
  5
3EB
330
3EA
100
AcDbEntity
  8
0
100
AcDbBlockBegin
  2
Beschriftung_nNn026
 70
     0
 10
0.0
 20
0.0
 30
0.0
  3
Beschriftung_nNn026
  1

  0
TEXT
  5
3ED
330
3EA
100
AcDbEntity
  8
Layer100
  6
AUSGEZOGEN
 62
    18
420
        0
370
    18
100
AcDbText
 10
2273.173796093603
 20
496.061520504009
 30
0.0
 40
14.799614687777
  1
Kundenzeichnung
 41
1.032581817144
  7
Arial
 72
     5
 11
2443.917493047992
 21
496.061520504009
 31
0.0
100
AcDbText
  0
TEXT
  5
3EE
330
3EA
100
AcDbEntity
  8
Layer100
  6
AUSGEZOGEN
 62
    18
420
        0
370
    18
100
AcDbText
 10
3024.620745316902
 20
536.589160040057
 30
0.0
 40
14.799614687777
  1
1:10
 41
1.02622317732
  7
Arial
 72
     5
 11
3065.870559180242
 21
536.589160040057
 31
0.0
100
AcDbText
  0
TEXT
  5
3EF
330
3EA
100
AcDbEntity
  8
Layer100
  6
AUSGEZOGEN
 62
    18
420
        0
370
    18
100
AcDbText
 10
3399.109282802106
 20
538.07494820689
 30
0.0
 40
14.799614687777
  1
1
 41
0.974226840702
  7
Arial
 72
     5
 11
3410.297791926152
 21
538.07494820689
 31
0.0
100
AcDbText
  0
TEXT
  5
3F0
330
3EA
100
AcDbEntity
  8
Layer100
  6
AUSGEZOGEN
 62
    18
420
        0
370
    18
100
AcDbText
 10
2939.668621895595
 20
374.259519538161
 30
0.0
 40
24.666025776191
  1
Einbauspüle
 41
0.911214686759
  7
Arial
 72
     5
 11
3112.307123166027
 21
374.259519538161
 31
0.0
100
AcDbText
  0
TEXT
  5
3F1
330
3EA
100
AcDbEntity
  8
Layer100
  6
AUSGEZOGEN
 62
    18
420
        0
370
    18
100
AcDbText
 10
2939.668621895595
 20
325.315909336585
 30
0.0
 40
24.666025776191
  1
Corno Basso PR3
 41
0.90932951502
  7
Arial
 72
     5
 11
3190.229071956219
 21
325.315909336585
 31
0.0
100
AcDbText
  0
TEXT
  5
3F2
330
3EA
100
AcDbEntity
  8
Layer100
  6
AUSGEZOGEN
 62
    18
420
        0
370
    18
100
AcDbText
 10
2939.668621895595
 20
227.428688933432
 30
0.0
 40
24.666025776191
  1
1013145
 41
0.902739323416
  7
Arial
 72
     5
 11
3060.622919292014
 21
227.428688933432
 31
0.0
100
AcDbText
  0
TEXT
  5
3F3
330
3EA
100
AcDbEntity
  8
Layer100
  6
AUSGEZOGEN
 62
    18
420
        0
370
    18
100
AcDbText
 10
2700.124609680451
 20
393.953496024034
 30
0.0
 40
14.799614687777
  1
11.12.23
 41
1.034889233423
  7
Arial
 72
     5
 11
2783.320914716859
 21
393.953496024034
 31
0.0
100
AcDbText
  0
TEXT
  5
3F4
330
3EA
100
AcDbEntity
  8
Layer100
  6
AUSGEZOGEN
 62
    18
420
        0
370
    18
100
AcDbText
 10
2811.016846508594
 20
393.953496024034
 30
0.0
 40
14.799614687777
  1
CM
 41
0.997270426658
  7
Arial
 72
     5
 11
2843.059108903941
 21
393.953496024034
 31
0.0
100
AcDbText
  0
ENDBLK
  5
3EC
330
3EA
100
AcDbEntity
  8
0
100
AcDbBlockEnd
  0
ENDSEC
  0
SECTION
  2
ENTITIES
  0
ARC
  5
65
330
1F
100
AcDbEntity
  8
0
  6
AUSGEZOGEN
 62
     7
370
    35
100
AcDbCircle
 10
1877.15620696
 20
1352.1023218963
 30
0.0
 40
10.0
100
AcDbArc
 50
0.0
 51
90.0
  0
LINE
  5
66
330
1F
100
AcDbEntity
  8
0
  6
AUSGEZOGEN
 62
     7
370
    35
100
AcDbLine
 10
1887.15620696
 20
862.1023218963
 30
0.0
 11
1887.15620696
 21
1352.1023218963
 31
0.0
  0
ARC
  5
67
330
1F
100
AcDbEntity
  8
0
  6
AUSGEZOGEN
 62
     7
370
    35
100
AcDbCircle
 10
1877.15620696
 20
862.1023218963
 30
0.0
 40
10.0
100
AcDbArc
 50
270.0
 51
0.0
  0
LINE
  5
68
330
1F
100
AcDbEntity
  8
0
  6
AUSGEZOGEN
 62
     7
370
    35
100
AcDbLine
 10
1447.15620696
 20
852.1023218963
 30
0.0
 11
1877.15620696
 21
852.1023218963
 31
0.0
  0
LINE
  5
69
330
1F
100
AcDbEntity
  8
0
  6
AUSGEZOGEN
 62
     7
370
    35
100
AcDbLine
 10
1437.15620696
 20
1352.1023218963
 30
0.0
 11
1437.15620696
 21
862.1023218963
 31
0.0
  0
ARC
  5
6A
330
1F
100
AcDbEntity
  8
0
  6
AUSGEZOGEN
 62
     7
370
    35
100
AcDbCircle
 10
1447.15620696
 20
1352.1023218963
 30
0.0
 40
10.0
100
AcDbArc
 50
90.0
 51
180.0
  0
LINE
  5
6B
330
1F
100
AcDbEntity
  8
0
  6
AUSGEZOGEN
 62
     7
370
    35
100
AcDbLine
 10
1877.15620696
 20
1362.1023218963
 30
0.0
 11
1447.15620696
 21
1362.1023218963
 31
0.0
  0
ARC
  5
6C
330
1F
100
AcDbEntity
  8
0
  6
AUSGEZOGEN
 62
     7
370
    35
100
AcDbCircle
 10
1474.15620696
 20
1265.1023218963
 30
0.0
 40
12.00000000000023
100
AcDbArc
 50
90.0
 51
180.0
  0
LINE
  5
6D
330
1F
100
AcDbEntity
  8
0
  6
AUSGEZOGEN
 62
     7
370
    35
100
AcDbLine
 10
1462.15620696
 20
1265.1023218963
 30
0.0
 11
1462.15620696
 21
889.1023218963
 31
0.0
  0
ARC
  5
6E
330
1F
100
AcDbEntity
  8
0
  6
AUSGEZOGEN
 62
     7
370
    35
100
AcDbCircle
 10
1474.15620696
 20
889.1023218963
 30
0.0
 40
12.0
100
AcDbArc
 50
180.0
 51
270.0
  0
LINE
  5
6F
330
1F
100
AcDbEntity
  8
0
  6
AUSGEZOGEN
 62
     7
370
    35
100
AcDbLine
 10
1474.15620696
 20
877.1023218963
 30
0.0
 11
1850.15620696
 21
877.1023218963
 31
0.0
  0
ARC
  5
70
330
1F
100
AcDbEntity
  8
0
  6
AUSGEZOGEN
 62
     7
370
    35
100
AcDbCircle
 10
1850.15620696
 20
889.1023218963
 30
0.0
 40
12.0
100
AcDbArc
 50
270.0
 51
0.0
  0
LINE
  5
71
330
1F
100
AcDbEntity
  8
0
  6
AUSGEZOGEN
 62
     7
370
    35
100
AcDbLine
 10
1862.15620696
 20
889.1023218963
 30
0.0
 11
1862.15620696
 21
1265.1023218963
 31
0.0
  0
LINE
  5
72
330
1F
100
AcDbEntity
  8
0
  6
AUSGEZOGEN
 62
     7
370
    35
100
AcDbLine
 10
1850.15620696
 20
1277.1023218963
 30
0.0
 11
1474.15620696
 21
1277.1023218963
 31
0.0
  0
CIRCLE
  5
73
330
1F
100
AcDbEntity
  8
0
  6
AUSGEZOGEN
 62
     7
370
    35
100
AcDbCircle
 10
1662.15620696
 20
1322.1023218963
 30
0.0
 40
17.5
  0
ARC
  5
74
330
1F
100
AcDbEntity
  8
0
  6
AUSGEZOGEN
 62
     7
370
    35
100
AcDbCircle
 10
1850.15620696
 20
1265.1023218963
 30
0.0
 40
12.00000000000023
100
AcDbArc
 50
0.0
 51
90.0
  0
ARC
  5
75
330
1F
100
AcDbEntity
  8
0
  6
AUSGEZOGEN
 62
     7
370
    35
100
AcDbCircle
 10
1447.15620696
 20
862.1023218963
 30
0.0
 40
10.0
100
AcDbArc
 50
180.0
 51
270.0
  0
CIRCLE
  5
76
330
1F
100
AcDbEntity
  8
0
  6
AUSGEZOGEN
 62
     7
370
    35
100
AcDbCircle
 10
1662.15620696
 20
1157.1023218963
 30
0.0
 40
59.99999999999977
  0
CIRCLE
  5
77
330
1F
100
AcDbEntity
  8
0
  6
AUSGEZOGEN
 62
     7
370
    35
100
AcDbCircle
 10
1662.15620696
 20
1157.1023218963
 30
0.0
 40
55.99999999999977
  0
CIRCLE
  5
78
330
1F
100
AcDbEntity
  8
0
  6
AUSGEZOGEN
 62
     7
370
    35
100
AcDbCircle
 10
1662.15620696
 20
1157.1023218963
 30
0.0
 40
45.0
  0
DIMENSION
  5
82
330
1F
100
AcDbEntity
  8
SLD-0
  6
AUSGEZOGEN
 62
     7
370
    18
100
AcDbDimension
280
     0
  2
*D1
 10
1803.0011947009
 20
1277.1023218963
 30
0.0
 11
1786.411892154037
 21
1217.1023218963
 31
0.0
 70
   160
 71
     5
 42
-1.0
 73
     0
 74
     0
 75
     0
 53
90.0
  3
ISO-25
100
AcDbAlignedDimension
 13
1932.3493884535
 23
1157.1023218963
 33
0.0
 14
1850.15620696
 24
1277.1023218963
 34
0.0
 50
90.0
100
AcDbRotatedDimension
1001
ACAD
1000
DSTYLE
1002
{
1070
     3
1000
<>
1070
   340
1005
5F
1070
    44
1040
9.768009936716
1070
   280
1070
     3
1070
    77
1070
     1
1070
   179
1070
     0
1070
   271
1070
     0
1070
   173
1070
     1
1070
    41
1040
13.675213911402
1070
   147
1040
3.101343154907
1070
   140
1040
21.709402084351
1070
   178
1070
     7
1070
   177
1070
     7
1070
   176
1070
     7
1002
}
  0
DIMENSION
  5
8C
330
1F
100
AcDbEntity
  8
SLD-0
  6
AUSGEZOGEN
 62
     7
370
    18
100
AcDbDimension
280
     0
  2
*D2
 10
1862.15620696
 20
765.6878489986
 30
0.0
 11
1662.15620696
 21
781.29509309589
 31
0.0
 70
   160
 71
     5
 42
-1.0
 73
     0
 74
     0
 75
     0
  3
ISO-25
100
AcDbAlignedDimension
 13
1462.15620696
 23
889.1023218963
 33
0.0
 14
1862.15620696
 24
889.1023218963
 34
0.0
100
AcDbRotatedDimension
1001
ACAD
1000
DSTYLE
1002
{
1070
     3
1000
<>
1070
   340
1005
5F
1070
    44
1040
9.768009936716
1070
   280
1070
     3
1070
    77
1070
     1
1070
   179
1070
     0
1070
   271
1070
     0
1070
   173
1070
     1
1070
    41
1040
13.675213911402
1070
   147
1040
3.101343154907
1070
   140
1040
21.709402084351
1070
   178
1070
     7
1070
   177
1070
     7
1070
   176
1070
     7
1002
}
  0
DIMENSION
  5
96
330
1F
100
AcDbEntity
  8
SLD-0
  6
AUSGEZOGEN
 62
     7
370
    18
100
AcDbDimension
280
     0
  2
*D3
 10
1887.15620696
 20
692.1023218963
 30
0.0
 11
1662.15620696
 21
706.793743384878
 31
0.0
 70
   160
 71
     5
 42
-1.0
 73
     0
 74
     0
 75
     0
  3
ISO-25
100
AcDbAlignedDimension
 13
1437.15620696
 23
862.1023218963
 33
0.0
 14
1887.15620696
 24
862.1023218963
 34
0.0
100
AcDbRotatedDimension
1001
ACAD
1000
DSTYLE
1002
{
1070
     3
1000
<>
1070
   340
1005
5F
1070
    44
1040
9.768009936716
1070
   280
1070
     3
1070
    77
1070
     1
1070
   179
1070
     0
1070
   271
1070
     0
1070
   173
1070
     1
1070
    41
1040
13.675213911402
1070
   147
1040
3.101343154907
1070
   140
1040
21.709402084351
1070
   178
1070
     7
1070
   177
1070
     7
1070
   176
1070
     7
1002
}
  0
INSERT
  5
9E
330
1F
100
AcDbEntity
  8
0
100
AcDbBlockReference
  2
_D_3_nNn03
 10
0.0
 20
0.0
 30
0.0
  0
DIMENSION
  5
A8
330
1F
100
AcDbEntity
  8
SLD-0
  6
AUSGEZOGEN
 62
     7
370
    18
100
AcDbDimension
280
     0
  2
*D5
 10
1300.1844000709
 20
1277.1023218963
 30
0.0
 11
1286.032387633621
 21
1074.445057126
 31
0.0
 70
   160
 71
     5
 42
-1.0
 73
     0
 74
     0
 75
     0
 53
90.0
  3
ISO-25
100
AcDbAlignedDimension
 13
1474.15620696
 23
877.1023218963
 33
0.0
 14
1474.15620696
 24
1277.1023218963
 34
0.0
 50
90.0
100
AcDbRotatedDimension
1001
ACAD
1000
DSTYLE
1002
{
1070
     3
1000
<>
1070
   340
1005
5F
1070
    44
1040
9.768009936716
1070
   280
1070
     3
1070
    77
1070
     1
1070
   179
1070
     0
1070
   271
1070
     0
1070
   173
1070
     1
1070
    41
1040
13.675213911402
1070
   147
1040
3.101343154907
1070
   140
1040
21.709402084351
1070
   178
1070
     7
1070
   177
1070
     7
1070
   176
1070
     7
1002
}
  0
DIMENSION
  5
B2
330
1F
100
AcDbEntity
  8
SLD-0
  6
AUSGEZOGEN
 62
     7
370
    18
100
AcDbDimension
280
     0
  2
*D6
 10
1300.1844000709
 20
1362.1023218963
 30
0.0
 11
1281.38640984875
 21
1322.1023218963
 31
0.0
 70
   160
 71
     5
 42
-1.0
 73
     0
 74
     0
 75
     0
 53
90.0
  3
ISO-25
100
AcDbAlignedDimension
 13
1474.15620696
 23
1277.1023218963
 33
0.0
 14
1447.15620696
 24
1362.1023218963
 34
0.0
 50
90.0
100
AcDbRotatedDimension
1001
ACAD
1000
DSTYLE
1002
{
1070
     3
1000
<>
1070
   340
1005
5F
1070
    44
1040
9.768009936716
1070
   280
1070
     3
1070
    77
1070
     1
1070
   179
1070
     0
1070
   271
1070
     0
1070
   173
1070
     1
1070
    41
1040
13.675213911402
1070
   147
1040
3.101343154907
1070
   140
1040
21.709402084351
1070
   178
1070
     7
1070
   177
1070
     7
1070
   176
1070
     7
1002
}
  0
DIMENSION
  5
BC
330
1F
100
AcDbEntity
  8
SLD-0
  6
AUSGEZOGEN
 62
     7
370
    18
100
AcDbDimension
280
     0
  2
*D7
 10
1217.15620696
 20
852.1023218963
 30
0.0
 11
1199.796770897124
 21
1100.7709510464
 31
0.0
 70
   160
 71
     5
 42
-1.0
 73
     0
 74
     0
 75
     0
 53
90.0
  3
ISO-25
100
AcDbAlignedDimension
 13
1447.15620696
 23
1362.1023218963
 33
0.0
 14
1447.15620696
 24
852.1023218963
 34
0.0
 50
-90.0
100
AcDbRotatedDimension
1001
ACAD
1000
DSTYLE
1002
{
1070
     3
1000
<>
1070
   340
1005
5F
1070
    44
1040
9.768009936716
1070
   280
1070
     3
1070
    77
1070
     1
1070
   179
1070
     0
1070
   271
1070
     0
1070
   173
1070
     1
1070
    41
1040
13.675213911402
1070
   147
1040
3.101343154907
1070
   140
1040
21.709402084351
1070
   178
1070
     7
1070
   177
1070
     7
1070
   176
1070
     7
1002
}
  0
DIMENSION
  5
C6
330
1F
100
AcDbEntity
  8
SLD-0
  6
AUSGEZOGEN
 62
     7
370
    18
100
AcDbDimension
280
     0
  2
*D8
 10
1300.1844000709
 20
852.1023218963
 30
0.0
 11
1293.671579445594
 21
864.6023218963
 31
0.0
 70
    32
 71
     5
 42
-1.0
 73
     0
 74
     0
 75
     0
 53
90.0
  3
ISO-25
100
AcDbAlignedDimension
 13
1474.15620696
 23
877.1023218963
 33
0.0
 14
1447.15620696
 24
852.1023218963
 34
0.0
 50
-90.0
100
AcDbRotatedDimension
1001
ACAD
1000
DSTYLE
1002
{
1070
     3
1000
<>
1070
   340
1005
5F
1070
    44
1040
9.768009936716
1070
   280
1070
     0
1070
    77
1070
     1
1070
   179
1070
     0
1070
   271
1070
     0
1070
   173
1070
     1
1070
    41
1040
13.675213911402
1070
   147
1040
3.101343154907
1070
   140
1040
21.709402084351
1070
   178
1070
     7
1070
   177
1070
     7
1070
   176
1070
     7
1002
}
  0
DIMENSION
  5
D0
330
1F
100
AcDbEntity
  8
SLD-0
  6
AUSGEZOGEN
 62
     7
370
    18
100
AcDbDimension
280
     0
  2
*D9
 10
1437.15620696
 20
1448.2744156297
 30
0.0
 11
1550.0
 21
1465.0
 31
0.0
 70
   160
 71
     5
 42
-1.0
 73
     0
 74
     0
 75
     0
  3
ISO-25
100
AcDbAlignedDimension
 13
1662.15620696
 23
1322.1023218963
 33
0.0
 14
1437.15620696
 24
1352.1023218963
 34
0.0
 50
180.0
100
AcDbRotatedDimension
1001
ACAD
1000
DSTYLE
1002
{
1070
     3
1000
<>
1070
   340
1005
5F
1070
    44
1040
9.768009936716
1070
   280
1070
     3
1070
    77
1070
     1
1070
   179
1070
     0
1070
   271
1070
     0
1070
   173
1070
     1
1070
    41
1040
13.675213911402
1070
   147
1040
3.101343154907
1070
   140
1040
21.709402084351
1070
   178
1070
     7
1070
   177
1070
     7
1070
   176
1070
     7
1002
}
  0
INSERT
  5
D9
330
1F
100
AcDbEntity
  8
0
100
AcDbBlockReference
  2
_D_9_nNn09
 10
0.0
 20
0.0
 30
0.0
  0
INSERT
  5
E5
330
1F
100
AcDbEntity
  8
0
100
AcDbBlockReference
  2
_D_10_nNn010
 10
0.0
 20
0.0
 30
0.0
  0
DIMENSION
  5
F0
330
1F
100
AcDbEntity
  8
SLD-0
  6
AUSGEZOGEN
 62
     7
370
    18
100
AcDbDimension
280
     0
  2
*D12
 10
1774.6080132074
 20
1362.1023218963
 30
0.0
 11
1758.731323818865
 21
1340.9365122093
 31
0.0
 70
   160
 71
     5
 42
-1.0
 73
     0
 74
     0
 75
     0
 53
90.0
  3
ISO-25
100
AcDbAlignedDimension
 13
1662.15620696
 23
1322.1023218963
 33
0.0
 14
1877.15620696
 24
1362.1023218963
 34
0.0
 50
90.0
100
AcDbRotatedDimension
1001
ACAD
1000
DSTYLE
1002
{
1070
     3
1000
<>
1070
   340
1005
5F
1070
    44
1040
9.768009936716
1070
   280
1070
     3
1070
    77
1070
     1
1070
   179
1070
     0
1070
   271
1070
     0
1070
   173
1070
     1
1070
    41
1040
13.675213911402
1070
   147
1040
3.101343154907
1070
   140
1040
21.709402084351
1070
   178
1070
     7
1070
   177
1070
     7
1070
   176
1070
     7
1002
}
  0
LINE
  5
F1
330
1F
100
AcDbEntity
  8
0
  6
DASHDOT
 62
     7
370
    18
100
AcDbLine
 10
1932.3493884535
 20
1157.1023218963
 30
0.0
 11
1390.35620696
 21
1157.1023218963
 31
0.0
  0
LINE
  5
F2
330
1F
100
AcDbEntity
  8
0
  6
AUSGEZOGEN
 62
     7
370
    18
100
AcDbLine
 10
1912.3493884535
 20
1037.1023218963
 30
0.0
 11
1912.3493884535
 21
1157.1023218963
 31
0.0
  0
LINE
  5
F3
330
1F
100
AcDbEntity
  8
0
  6
AUSGEZOGEN
 62
     7
370
    18
100
AcDbLine
 10
1912.3493884535
 20
1157.1023218963
 30
0.0
 11
1897.3493884535
 21
1097.1023218963
 31
0.0
  0
LINE
  5
F4
330
1F
100
AcDbEntity
  8
0
  6
AUSGEZOGEN
 62
     7
370
    18
100
AcDbLine
 10
1897.3493884535
 20
1097.1023218963
 30
0.0
 11
1927.3493884535
 21
1097.1023218963
 31
0.0
  0
LINE
  5
F5
330
1F
100
AcDbEntity
  8
0
  6
AUSGEZOGEN
 62
     7
370
    18
100
AcDbLine
 10
1927.3493884535
 20
1097.1023218963
 30
0.0
 11
1912.3493884535
 21
1157.1023218963
 31
0.0
  0
LINE
  5
F6
330
1F
100
AcDbEntity
  8
0
  6
AUSGEZOGEN
 62
     7
370
    18
100
AcDbLine
 10
1410.35620696
 20
1037.1023218963
 30
0.0
 11
1410.35620696
 21
1157.1023218963
 31
0.0
  0
LINE
  5
F7
330
1F
100
AcDbEntity
  8
0
  6
AUSGEZOGEN
 62
     7
370
    18
100
AcDbLine
 10
1410.35620696
 20
1157.1023218963
 30
0.0
 11
1395.35620696
 21
1097.1023218963
 31
0.0
  0
LINE
  5
F8
330
1F
100
AcDbEntity
  8
0
  6
AUSGEZOGEN
 62
     7
370
    18
100
AcDbLine
 10
1395.35620696
 20
1097.1023218963
 30
0.0
 11
1425.35620696
 21
1097.1023218963
 31
0.0
  0
LINE
  5
F9
330
1F
100
AcDbEntity
  8
0
  6
AUSGEZOGEN
 62
     7
370
    18
100
AcDbLine
 10
1425.35620696
 20
1097.1023218963
 30
0.0
 11
1410.35620696
 21
1157.1023218963
 31
0.0
  0
TEXT
  5
FA
330
1F
100
AcDbEntity
  8
0
  6
AUSGEZOGEN
 62
     7
370
    18
100
AcDbText
 10
1937.3971958933
 20
1065.164287895231
 30
0.0
 40
32.564102564103
  1
A
 41
0.537056928034
  7
Arial
 72
     5
 11
1953.679247175351
 21
1065.164287895231
 31
0.0
100
AcDbText
  0
TEXT
  5
FB
330
1F
100
AcDbEntity
  8
0
  6
AUSGEZOGEN
 62
     7
370
    18
100
AcDbText
 10
1351.945012038891
 20
1067.467749207829
 30
0.0
 40
32.564102564103
  1
A
 41
0.537056928034
  7
Arial
 72
     5
 11
1368.227063320943
 21
1067.467749207829
 31
0.0
100
AcDbText
  0
LINE
  5
FC
330
1F
100
AcDbEntity
  8
0
  6
AUSGEZOGEN
 62
     7
370
    35
100
AcDbLine
 10
2184.558142653274
 20
1217.4336927462
 30
0.0
 11
2180.558142653274
 21
1213.4336927462
 31
0.0
  0
LINE
  5
FD
330
1F
100
AcDbEntity
  8
0
  6
AUSGEZOGEN
 62
     7
370
    35
100
AcDbLine
 10
2180.558142653274
 20
1100.7709510464
 30
0.0
 11
2184.558142653274
 21
1096.7709510464
 31
0.0
  0
LINE
  5
FE
330
1F
100
AcDbEntity
  8
0
  6
AUSGEZOGEN
 62
     7
370
    35
100
AcDbLine
 10
2363.558142653274
 20
872.2543218963
 30
0.0
 11
2362.558142653274
 21
872.2543218963
 31
0.0
  0
LINE
  5
FF
330
1F
100
AcDbEntity
  8
0
  6
AUSGEZOGEN
 62
     7
370
    35
100
AcDbLine
 10
2362.558142653274
 20
865.7543218963
 30
0.0
 11
2363.558142653274
 21
865.7543218963
 31
0.0
  0
LINE
  5
100
330
1F
100
AcDbEntity
  8
0
  6
AUSGEZOGEN
 62
     7
370
    35
100
AcDbLine
 10
2362.558142653274
 20
871.5043218963
 30
0.0
 11
2313.558142653274
 21
871.5043218963
 31
0.0
  0
LINE
  5
101
330
1F
100
AcDbEntity
  8
0
  6
AUSGEZOGEN
 62
     7
370
    35
100
AcDbLine
 10
2313.558142653274
 20
866.5043218963
 30
0.0
 11
2362.558142653274
 21
866.5043218963
 31
0.0
  0
LINE
  5
102
330
1F
100
AcDbEntity
  8
0
  6
AUSGEZOGEN
 62
     7
370
    35
100
AcDbLine
 10
2363.558142653274
 20
1245.3523218963
 30
0.0
 11
2362.558142653274
 21
1245.3523218963
 31
0.0
  0
LINE
  5
103
330
1F
100
AcDbEntity
  8
0
  6
AUSGEZOGEN
 62
     7
370
    35
100
AcDbLine
 10
2362.558142653274
 20
1238.8523218963
 30
0.0
 11
2363.558142653274
 21
1238.8523218963
 31
0.0
  0
LINE
  5
104
330
1F
100
AcDbEntity
  8
0
  6
AUSGEZOGEN
 62
     7
370
    35
100
AcDbLine
 10
2362.558142653274
 20
1244.6023218963
 30
0.0
 11
2313.558142653274
 21
1244.6023218963
 31
0.0
  0
LINE
  5
105
330
1F
100
AcDbEntity
  8
0
  6
AUSGEZOGEN
 62
     7
370
    35
100
AcDbLine
 10
2313.558142653274
 20
1239.6023218963
 30
0.0
 11
2362.558142653274
 21
1239.6023218963
 31
0.0
  0
LINE
  5
106
330
1F
100
AcDbEntity
  8
0
  6
AUSGEZOGEN
 62
     7
370
    35
100
AcDbLine
 10
2362.558142653274
 20
1347.2304228963
 30
0.0
 11
2361.558142653274
 21
1347.2304228963
 31
0.0
  0
LINE
  5
107
330
1F
100
AcDbEntity
  8
0
  6
AUSGEZOGEN
 62
     7
370
    35
100
AcDbLine
 10
2361.558142653274
 20
1340.7304228963
 30
0.0
 11
2362.439133046074
 21
1340.7304228963
 31
0.0
  0
LINE
  5
108
330
1F
100
AcDbEntity
  8
0
  6
AUSGEZOGEN
 62
     7
370
    35
100
AcDbLine
 10
2361.558142653274
 20
1346.4804228963
 30
0.0
 11
2312.558142653274
 21
1346.4804228963
 31
0.0
  0
LINE
  5
109
330
1F
100
AcDbEntity
  8
0
  6
AUSGEZOGEN
 62
     7
370
    35
100
AcDbLine
 10
2312.558142653274
 20
1341.4804228963
 30
0.0
 11
2361.558142653274
 21
1341.4804228963
 31
0.0
  0
LINE
  5
10A
330
1F
100
AcDbEntity
  8
0
  6
AUSGEZOGEN
 62
     7
370
    35
100
AcDbLine
 10
2363.558142653274
 20
920.3523218963
 30
0.0
 11
2362.558142653274
 21
920.3523218963
 31
0.0
  0
LINE
  5
10B
330
1F
100
AcDbEntity
  8
0
  6
AUSGEZOGEN
 62
     7
370
    35
100
AcDbLine
 10
2362.558142653274
 20
913.8523218963
 30
0.0
 11
2363.558142653274
 21
913.8523218963
 31
0.0
  0
LINE
  5
10C
330
1F
100
AcDbEntity
  8
0
  6
AUSGEZOGEN
 62
     7
370
    35
100
AcDbLine
 10
2362.558142653274
 20
919.6023218963
 30
0.0
 11
2313.558142653274
 21
919.6023218963
 31
0.0
  0
LINE
  5
10D
330
1F
100
AcDbEntity
  8
0
  6
AUSGEZOGEN
 62
     7
370
    35
100
AcDbLine
 10
2313.558142653274
 20
914.6023218963
 30
0.0
 11
2362.558142653274
 21
914.6023218963
 31
0.0
  0
LINE
  5
10E
330
1F
100
AcDbEntity
  8
0
  6
AUSGEZOGEN
 62
     7
370
    35
100
AcDbLine
 10
2349.533142653274
 20
1277.9023218963
 30
0.0
 11
2352.533142653274
 21
1277.9023218963
 31
0.0
  0
LINE
  5
10F
330
1F
100
AcDbEntity
  8
0
  6
AUSGEZOGEN
 62
     7
370
    35
100
AcDbLine
 10
2349.533142653274
 20
1277.9023218963
 30
0.0
 11
2349.533142653274
 21
1278.9023218963
 31
0.0
  0
LINE
  5
110
330
1F
100
AcDbEntity
  8
0
  6
AUSGEZOGEN
 62
     7
370
    35
100
AcDbLine
 10
2349.533142653274
 20
1278.9023218963
 30
0.0
 11
2352.533142653274
 21
1278.9023218963
 31
0.0
  0
LINE
  5
111
330
1F
100
AcDbEntity
  8
0
  6
AUSGEZOGEN
 62
     7
370
    35
100
AcDbLine
 10
2352.533142653274
 20
1277.9023218963
 30
0.0
 11
2363.458142653274
 21
1277.9023218963
 31
0.0
  0
LINE
  5
112
330
1F
100
AcDbEntity
  8
0
  6
AUSGEZOGEN
 62
     7
370
    35
100
AcDbLine
 10
2352.533142653274
 20
1278.9023218963
 30
0.0
 11
2363.458142653274
 21
1278.9023218963
 31
0.0
  0
LINE
  5
113
330
1F
100
AcDbEntity
  8
0
  6
AUSGEZOGEN
 62
     7
370
    35
100
AcDbLine
 10
2363.558142653274
 20
1279.0023218963
 30
0.0
 11
2363.558142653274
 21
1340.9365122093
 31
0.0
  0
ARC
  5
114
330
1F
100
AcDbEntity
  8
0
  6
AUSGEZOGEN
 62
     7
370
    35
100
AcDbCircle
 10
2363.458142653274
 20
1279.0023218963
 30
0.0
 40
0.1000000000003638
100
AcDbArc
 50
270.0
 51
0.0
  0
ARC
  5
115
330
1F
100
AcDbEntity
  8
0
  6
AUSGEZOGEN
 62
     7
370
    35
100
AcDbCircle
 10
2363.458142653274
 20
1279.0023218963
 30
0.0
 40
1.099999999999909
100
AcDbArc
 50
270.0
 51
0.0
  0
LINE
  5
116
330
1F
100
AcDbEntity
  8
0
  6
AUSGEZOGEN
 62
     7
370
    35
100
AcDbLine
 10
2363.558142653274
 20
1340.9365122093
 30
0.0
 11
2363.558142653274
 21
1343.0578325528
 31
0.0
  0
LINE
  5
117
330
1F
100
AcDbEntity
  8
0
  6
AUSGEZOGEN
 62
     7
370
    35
100
AcDbLine
 10
2364.558142653274
 20
1350.1791528963
 30
0.0
 11
2363.558142653274
 21
1350.1791528963
 31
0.0
  0
LINE
  5
118
330
1F
100
AcDbEntity
  8
0
  6
AUSGEZOGEN
 62
     7
370
    35
100
AcDbLine
 10
2363.558142653274
 20
1343.0578325528
 30
0.0
 11
2363.558142653274
 21
1350.1791528963
 31
0.0
  0
LINE
  5
119
330
1F
100
AcDbEntity
  8
0
  6
AUSGEZOGEN
 62
     7
370
    35
100
AcDbLine
 10
2356.033142653274
 20
1351.5559598963
 30
0.0
 11
2356.033142653274
 21
1350.5559598963
 31
0.0
  0
LINE
  5
11A
330
1F
100
AcDbEntity
  8
0
  6
AUSGEZOGEN
 62
     7
370
    35
100
AcDbLine
 10
2359.033142653274
 20
1351.5559598963
 30
0.0
 11
2356.033142653274
 21
1351.5559598963
 31
0.0
  0
LINE
  5
11B
330
1F
100
AcDbEntity
  8
0
  6
AUSGEZOGEN
 62
     7
370
    35
100
AcDbLine
 10
2359.033142653274
 20
1350.5559598963
 30
0.0
 11
2356.033142653274
 21
1350.5559598963
 31
0.0
  0
LINE
  5
11C
330
1F
100
AcDbEntity
  8
0
  6
AUSGEZOGEN
 62
     7
370
    35
100
AcDbLine
 10
2363.458142653274
 20
1350.5559598963
 30
0.0
 11
2359.033142653274
 21
1350.5559598963
 31
0.0
  0
LINE
  5
11D
330
1F
100
AcDbEntity
  8
0
  6
AUSGEZOGEN
 62
     7
370
    35
100
AcDbLine
 10
2363.458142653274
 20
1351.5559598963
 30
0.0
 11
2359.033142653274
 21
1351.5559598963
 31
0.0
  0
LINE
  5
11E
330
1F
100
AcDbEntity
  8
0
  6
AUSGEZOGEN
 62
     7
370
    35
100
AcDbLine
 10
2363.558142653274
 20
1350.1791528963
 30
0.0
 11
2363.558142653274
 21
1350.4559598963
 31
0.0
  0
ARC
  5
11F
330
1F
100
AcDbEntity
  8
0
  6
AUSGEZOGEN
 62
     7
370
    35
100
AcDbCircle
 10
2363.458142653274
 20
1350.4559598963
 30
0.0
 40
1.100000000000136
100
AcDbArc
 50
0.0
 51
90.0
  0
ARC
  5
120
330
1F
100
AcDbEntity
  8
0
  6
AUSGEZOGEN
 62
     7
370
    35
100
AcDbCircle
 10
2363.458142653274
 20
1350.4559598963
 30
0.0
 40
0.1000000000001364
100
AcDbArc
 50
0.0
 51
90.0
  0
LINE
  5
121
330
1F
100
AcDbEntity
  8
0
  6
AUSGEZOGEN
 62
     7
370
    35
100
AcDbLine
 10
2365.358142653274
 20
1352.1023218963
 30
0.0
 11
2365.358142653274
 21
862.1023218963
 31
0.0
  0
LINE
  5
122
330
1F
100
AcDbEntity
  8
0
  6
AUSGEZOGEN
 62
     7
370
    35
100
AcDbLine
 10
2364.558142653274
 20
1352.1023218963
 30
0.0
 11
2364.558142653274
 21
862.1023218963
 31
0.0
  0
LINE
  5
123
330
1F
100
AcDbEntity
  8
0
  6
AUSGEZOGEN
 62
     7
370
    35
100
AcDbLine
 10
2364.558142653274
 20
1362.1023218963
 30
0.0
 11
2365.358142653274
 21
1362.1023218963
 31
0.0
  0
LINE
  5
124
330
1F
100
AcDbEntity
  8
0
  6
AUSGEZOGEN
 62
     7
370
    35
100
AcDbLine
 10
2365.358142653274
 20
1362.1023218963
 30
0.0
 11
2365.358142653274
 21
1352.1023218963
 31
0.0
  0
LINE
  5
125
330
1F
100
AcDbEntity
  8
0
  6
AUSGEZOGEN
 62
     7
370
    35
100
AcDbLine
 10
2364.558142653274
 20
1352.1023218963
 30
0.0
 11
2364.558142653274
 21
1362.1023218963
 31
0.0
  0
LINE
  5
126
330
1F
100
AcDbEntity
  8
0
  6
AUSGEZOGEN
 62
     7
370
    35
100
AcDbLine
 10
2365.358142653274
 20
852.1023218963
 30
0.0
 11
2364.558142653274
 21
852.1023218963
 31
0.0
  0
LINE
  5
127
330
1F
100
AcDbEntity
  8
0
  6
AUSGEZOGEN
 62
     7
370
    35
100
AcDbLine
 10
2365.358142653274
 20
862.1023218963
 30
0.0
 11
2365.358142653274
 21
852.1023218963
 31
0.0
  0
LINE
  5
128
330
1F
100
AcDbEntity
  8
0
  6
AUSGEZOGEN
 62
     7
370
    35
100
AcDbLine
 10
2364.558142653274
 20
852.1023218963
 30
0.0
 11
2364.558142653274
 21
862.1023218963
 31
0.0
  0
LINE
  5
129
330
1F
100
AcDbEntity
  8
0
  6
AUSGEZOGEN
 62
     7
370
    35
100
AcDbLine
 10
2184.558142653274
 20
1265.1023218963
 30
0.0
 11
2184.558142653274
 21
889.1023218963
 31
0.0
  0
ARC
  5
12A
330
1F
100
AcDbEntity
  8
0
  6
AUSGEZOGEN
 62
     7
370
    35
100
AcDbCircle
 10
2197.358142653274
 20
1265.1023218963
 30
0.0
 40
12.80000000000018
100
AcDbArc
 50
90.0
 51
180.0
  0
ARC
  5
12B
330
1F
100
AcDbEntity
  8
0
  6
AUSGEZOGEN
 62
     7
370
    35
100
AcDbCircle
 10
2197.358142653274
 20
889.1023218963
 30
0.0
 40
12.80000000000018
100
AcDbArc
 50
180.0
 51
270.0
  0
LINE
  5
12C
330
1F
100
AcDbEntity
  8
0
  6
AUSGEZOGEN
 62
     7
370
    35
100
AcDbLine
 10
2364.558142653274
 20
1277.9023218963
 30
0.0
 11
2363.458142653274
 21
1277.9023218963
 31
0.0
  0
LINE
  5
12D
330
1F
100
AcDbEntity
  8
0
  6
AUSGEZOGEN
 62
     7
370
    35
100
AcDbLine
 10
2349.533142653274
 20
1277.9023218963
 30
0.0
 11
2197.358142653274
 21
1277.9023218963
 31
0.0
  0
LINE
  5
12E
330
1F
100
AcDbEntity
  8
0
  6
AUSGEZOGEN
 62
     7
370
    35
100
AcDbLine
 10
2197.358142653274
 20
876.3023218963
 30
0.0
 11
2364.558142653274
 21
876.3023218963
 31
0.0
  0
LINE
  5
12F
330
1F
100
AcDbEntity
  8
0
  6
AUSGEZOGEN
 62
     7
370
    35
100
AcDbLine
 10
2180.558142653274
 20
1213.4336927462
 30
0.0
 11
2180.558142653274
 21
1100.7709510464
 31
0.0
  0
LINE
  5
130
330
1F
100
AcDbEntity
  8
0
  6
AUSGEZOGEN
 62
     7
370
    35
100
AcDbLine
 10
2362.558142653274
 20
1347.8453545277
 30
0.0
 11
2362.558142653274
 21
1347.2304228963
 31
0.0
  0
LINE
  5
131
330
1F
100
AcDbEntity
  8
0
  6
AUSGEZOGEN
 62
     7
370
    35
100
AcDbLine
 10
2276.480042653274
 20
1279.9023218963
 30
0.0
 11
2276.480042653274
 21
1284.3993678963
 31
0.0
  0
ARC
  5
132
330
1F
100
AcDbEntity
  8
0
  6
AUSGEZOGEN
 62
     7
370
    35
100
AcDbCircle
 10
2286.480042653274
 20
1284.3993758566
 30
0.0
 40
9.999999999999993
100
AcDbArc
 50
142.000041543
 51
180.0000456093
  0
LINE
  5
133
330
1F
100
AcDbEntity
  8
0
  6
AUSGEZOGEN
 62
     7
370
    35
100
AcDbLine
 10
2278.599930653274
 20
1290.5559848963
 30
0.0
 11
2312.888291653274
 21
1334.4430688963
 31
0.0
  0
LINE
  5
134
330
1F
100
AcDbEntity
  8
0
  6
AUSGEZOGEN
 62
     7
370
    35
100
AcDbLine
 10
2359.980042653274
 20
1335.5585238963
 30
0.0
 11
2359.980042653274
 21
1334.9804228963
 31
0.0
  0
LINE
  5
135
330
1F
100
AcDbEntity
  8
0
  6
AUSGEZOGEN
 62
     7
370
    35
100
AcDbLine
 10
2359.980042653274
 20
1334.9804228963
 30
0.0
 11
2361.558142653274
 21
1334.9804228963
 31
0.0
  0
LINE
  5
136
330
1F
100
AcDbEntity
  8
0
  6
AUSGEZOGEN
 62
     7
370
    35
100
AcDbLine
 10
2361.558142653274
 20
1281.9804228963
 30
0.0
 11
2347.980042653274
 21
1281.9804228963
 31
0.0
  0
ARC
  5
137
330
1F
100
AcDbEntity
  8
0
  6
AUSGEZOGEN
 62
     7
370
    35
100
AcDbCircle
 10
2347.980042653274
 20
1280.9804228963
 30
0.0
 40
1.000000000000227
100
AcDbArc
 50
90.0
 51
179.9999999999
  0
LINE
  5
138
330
1F
100
AcDbEntity
  8
0
  6
AUSGEZOGEN
 62
     7
370
    35
100
AcDbLine
 10
2346.980042653274
 20
1280.9804228963
 30
0.0
 11
2346.980042653274
 21
1279.9023218963
 31
0.0
  0
ARC
  5
139
330
1F
100
AcDbEntity
  8
0
  6
AUSGEZOGEN
 62
     7
370
    35
100
AcDbCircle
 10
2316.040334590574
 20
1331.9804228963
 30
0.0
 40
3.99999999999983
100
AcDbArc
 50
116.552485371
 51
141.999998206
  0
LINE
  5
13A
330
1F
100
AcDbEntity
  8
0
  6
AUSGEZOGEN
 62
     7
370
    35
100
AcDbLine
 10
2316.280045653274
 20
1336.187361427
 30
0.0
 11
2316.040329653274
 21
1336.187361427
 31
0.0
  0
LWPOLYLINE
  5
13B
330
1F
100
AcDbEntity
  8
0
  6
AUSGEZOGEN
 62
     7
370
    35
100
AcDbPolyline
 90
        8
 70
     0
 43
0.0
 10
2316.480042653296
 20
1336.466904755662
 10
2316.475005932114
 20
1336.435028943926
 10
2316.466898579627
 20
1336.403810818927
 10
2316.450814413036
 20
1336.369076568356
 10
2316.429184388403
 20
1336.336235315173
 10
2316.396123236668
 20
1336.295983382606
 10
2316.35944191461
 20
1336.25833155906
 10
2316.280045653295
 20
1336.187361427004
  0
LINE
  5
13C
330
1F
100
AcDbEntity
  8
0
  6
AUSGEZOGEN
 62
     7
370
    35
100
AcDbLine
 10
2316.480042653274
 20
1337.5585238963
 30
0.0
 11
2316.480042653274
 21
1336.4669047557
 31
0.0
  0
LINE
  5
13D
330
1F
100
AcDbEntity
  8
0
  6
AUSGEZOGEN
 62
     7
370
    35
100
AcDbLine
 10
2359.980042653274
 20
1337.5585238963
 30
0.0
 11
2316.480042653274
 21
1337.5585238963
 31
0.0
  0
LINE
  5
13E
330
1F
100
AcDbEntity
  8
0
  6
AUSGEZOGEN
 62
     7
370
    35
100
AcDbLine
 10
2359.980042653274
 20
1335.5585238963
 30
0.0
 11
2359.980042653274
 21
1337.5585238963
 31
0.0
  0
LWPOLYLINE
  5
13F
330
1F
100
AcDbEntity
  8
0
  6
AUSGEZOGEN
 62
     7
370
    35
100
AcDbPolyline
 90
       14
 70
     0
 43
0.0
 10
2316.040329653295
 20
1336.187361427004
 10
2315.820667896695
 20
1336.153817720357
 10
2315.602526055547
 20
1336.115794256198
 10
2315.494500076844
 20
1336.093702690829
 10
2315.387424045299
 20
1336.068811277015
 10
2315.281487950343
 20
1336.040560045068
 10
2315.176881781405
 20
1336.008389025298
 10
2315.056787195158
 20
1335.965470568843
 10
2314.938499599125
 20
1335.917226238518
 10
2314.821760851848
 20
1335.864416873447
 10
2314.706312811866
 20
1335.807803312755
 10
2314.591897337721
 20
1335.748146395565
 10
2314.478256287953
 20
1335.686206961002
 10
2314.252264895714
 20
1335.558523896254
  0
LINE
  5
140
330
1F
100
AcDbEntity
  8
0
  6
AUSGEZOGEN
 62
     7
370
    35
100
AcDbLine
 10
2346.980042653274
 20
1277.9023218963
 30
0.0
 11
2346.980042653274
 21
1279.9023218963
 31
0.0
  0
LINE
  5
141
330
1F
100
AcDbEntity
  8
0
  6
AUSGEZOGEN
 62
     7
370
    35
100
AcDbLine
 10
2276.480042653274
 20
1279.9023218963
 30
0.0
 11
2276.480042653274
 21
1277.9023218963
 31
0.0
  0
LINE
  5
142
330
1F
100
AcDbEntity
  8
0
  6
AUSGEZOGEN
 62
     7
370
    35
100
AcDbLine
 10
2363.320123438774
 20
1334.9804228963
 30
0.0
 11
2361.558142653274
 21
1334.9804228963
 31
0.0
  0
LINE
  5
143
330
1F
100
AcDbEntity
  8
0
  6
AUSGEZOGEN
 62
     7
370
    35
100
AcDbLine
 10
2363.320123438774
 20
1345.9804228963
 30
0.0
 11
2363.320123438774
 21
1334.9804228963
 31
0.0
  0
LWPOLYLINE
  5
144
330
1F
100
AcDbEntity
  8
0
  6
AUSGEZOGEN
 62
     7
370
    35
100
AcDbPolyline
 90
       11
 70
     0
 43
0.0
 10
2363.558142653295
 20
1347.845354527709
 10
2363.540041609906
 20
1347.616122415625
 10
2363.526540549703
 20
1347.498127232377
 10
2363.507698843289
 20
1347.376077096481
 10
2363.436698081308
 20
1347.02343548042
 10
2363.416120306842
 20
1346.90369990258
 10
2363.397944910034
 20
1346.779707926667
 10
2363.381828694079
 20
1346.65206760955
 10
2363.367428462167
 20
1346.521387008095
 10
2363.342403163235
 20
1346.253337179644
 10
2363.320123438773
 20
1345.980422896254
  0
LINE
  5
145
330
1F
100
AcDbEntity
  8
0
  6
AUSGEZOGEN
 62
     7
370
    35
100
AcDbLine
 10
2361.558142653274
 20
1281.9804228963
 30
0.0
 11
2363.558142653274
 21
1281.9804228963
 31
0.0
  0
LWPOLYLINE
  5
146
330
1F
100
AcDbEntity
  8
0
  6
AUSGEZOGEN
 62
     7
370
    35
100
AcDbPolyline
 90
        5
 70
     0
 43
0.0
 10
2362.558142653295
 20
1347.845354527709
 10
2362.526809985242
 20
1347.439782606157
 10
2362.497420367302
 20
1347.023435480421
 10
2362.466925869042
 20
1346.50942027215
 10
2362.439133046034
 20
1345.980422896254
  0
LINE
  5
147
330
1F
100
AcDbEntity
  8
0
  6
AUSGEZOGEN
 62
     7
370
    35
100
AcDbLine
 10
2362.439133046074
 20
1345.9804228963
 30
0.0
 11
2362.439133046074
 21
1334.9804228963
 31
0.0
  0
LINE
  5
148
330
1F
100
AcDbEntity
  8
0
  6
AUSGEZOGEN
 62
     7
370
    35
100
AcDbLine
 10
2362.439133046074
 20
1345.9804228963
 30
0.0
 11
2363.320123438774
 21
1345.9804228963
 31
0.0
  0
LINE
  5
149
330
1F
100
AcDbEntity
  8
0
  6
AUSGEZOGEN
 62
     7
370
    35
100
AcDbLine
 10
2363.558142653274
 20
1347.8453545277
 30
0.0
 11
2362.558142653274
 21
1347.8453545277
 31
0.0
  0
LINE
  5
14A
330
1F
100
AcDbEntity
  8
0
  6
AUSGEZOGEN
 62
     7
370
    35
100
AcDbLine
 10
2363.558142653274
 20
1348.9804228963
 30
0.0
 11
2362.558142653274
 21
1348.9804228963
 31
0.0
  0
LINE
  5
14B
330
1F
100
AcDbEntity
  8
0
  6
AUSGEZOGEN
 62
     7
370
    35
100
AcDbLine
 10
2362.558142653274
 20
1347.8453545277
 30
0.0
 11
2362.558142653274
 21
1348.9804228963
 31
0.0
  0
LINE
  5
14C
330
1F
100
AcDbEntity
  8
0
  6
AUSGEZOGEN
 62
     7
370
    35
100
AcDbLine
 10
2184.558142653274
 20
1066.3023218963
 30
0.0
 11
2182.758142653274
 21
1066.3023218963
 31
0.0
  0
LINE
  5
14D
330
1F
100
AcDbEntity
  8
0
  6
AUSGEZOGEN
 62
     7
370
    35
100
AcDbLine
 10
2184.558142653274
 20
946.3023218963
 30
0.0
 11
2182.758142653274
 21
946.3023218963
 31
0.0
  0
LINE
  5
14E
330
1F
100
AcDbEntity
  8
0
  6
AUSGEZOGEN
 62
     7
370
    35
100
AcDbLine
 10
2182.758142653274
 20
1066.3023218963
 30
0.0
 11
2182.758142653274
 21
946.3023218963
 31
0.0
  0
LINE
  5
14F
330
1F
100
AcDbEntity
  8
0
  6
AUSGEZOGEN
 62
     7
370
    35
100
AcDbLine
 10
2362.558142653274
 20
872.2543218963
 30
0.0
 11
2362.558142653274
 21
865.7543218963
 31
0.0
  0
LINE
  5
150
330
1F
100
AcDbEntity
  8
0
  6
AUSGEZOGEN
 62
     7
370
    35
100
AcDbLine
 10
2313.558142653274
 20
866.5043218963
 30
0.0
 11
2313.558142653274
 21
871.5043218963
 31
0.0
  0
LINE
  5
151
330
1F
100
AcDbEntity
  8
0
  6
AUSGEZOGEN
 62
     7
370
    35
100
AcDbLine
 10
2362.558142653274
 20
1245.3523218963
 30
0.0
 11
2362.558142653274
 21
1238.8523218963
 31
0.0
  0
LINE
  5
152
330
1F
100
AcDbEntity
  8
0
  6
AUSGEZOGEN
 62
     7
370
    35
100
AcDbLine
 10
2313.558142653274
 20
1242.1023218963
 30
0.0
 11
2313.558142653274
 21
1244.6023218963
 31
0.0
  0
LINE
  5
153
330
1F
100
AcDbEntity
  8
0
  6
AUSGEZOGEN
 62
     7
370
    35
100
AcDbLine
 10
2313.558142653274
 20
1239.6023218963
 30
0.0
 11
2313.558142653274
 21
1242.1023218963
 31
0.0
  0
LINE
  5
154
330
1F
100
AcDbEntity
  8
0
  6
AUSGEZOGEN
 62
     7
370
    35
100
AcDbLine
 10
2361.558142653274
 20
1341.7749124231
 30
0.0
 11
2361.558142653274
 21
1340.7304228963
 31
0.0
  0
LINE
  5
155
330
1F
100
AcDbEntity
  8
0
  6
AUSGEZOGEN
 62
     7
370
    35
100
AcDbLine
 10
2361.558142653274
 20
1347.2304228963
 30
0.0
 11
2361.558142653274
 21
1341.7749124231
 31
0.0
  0
LINE
  5
156
330
1F
100
AcDbEntity
  8
0
  6
AUSGEZOGEN
 62
     7
370
    35
100
AcDbLine
 10
2312.558142653274
 20
1341.4804228963
 30
0.0
 11
2312.558142653274
 21
1346.4804228963
 31
0.0
  0
LINE
  5
157
330
1F
100
AcDbEntity
  8
0
  6
AUSGEZOGEN
 62
     7
370
    35
100
AcDbLine
 10
2362.558142653274
 20
920.3523218963
 30
0.0
 11
2362.558142653274
 21
913.8523218963
 31
0.0
  0
LINE
  5
158
330
1F
100
AcDbEntity
  8
0
  6
AUSGEZOGEN
 62
     7
370
    35
100
AcDbLine
 10
2313.558142653274
 20
917.1023218963
 30
0.0
 11
2313.558142653274
 21
919.6023218963
 31
0.0
  0
LINE
  5
159
330
1F
100
AcDbEntity
  8
0
  6
AUSGEZOGEN
 62
     7
370
    35
100
AcDbLine
 10
2313.558142653274
 20
914.6023218963
 30
0.0
 11
2313.558142653274
 21
917.1023218963
 31
0.0
  0
LINE
  5
15A
330
1F
100
AcDbEntity
  8
0
  6
AUSGEZOGEN
 62
     7
370
    35
100
AcDbLine
 10
2363.558142653274
 20
894.1023218963
 30
0.0
 11
2363.558142653274
 21
940.1023218963
 31
0.0
  0
LINE
  5
15B
330
1F
100
AcDbEntity
  8
0
  6
AUSGEZOGEN
 62
     7
370
    35
100
AcDbLine
 10
2364.558142653274
 20
942.1023218963
 30
0.0
 11
2363.558142653274
 21
942.1023218963
 31
0.0
  0
LINE
  5
15C
330
1F
100
AcDbEntity
  8
0
  6
AUSGEZOGEN
 62
     7
370
    35
100
AcDbLine
 10
2363.558142653274
 20
940.1023218963
 30
0.0
 11
2363.558142653274
 21
942.1023218963
 31
0.0
  0
LINE
  5
15D
330
1F
100
AcDbEntity
  8
0
  6
AUSGEZOGEN
 62
     7
370
    35
100
AcDbLine
 10
2364.558142653274
 20
892.1023218963
 30
0.0
 11
2363.558142653274
 21
892.1023218963
 31
0.0
  0
LINE
  5
15E
330
1F
100
AcDbEntity
  8
0
  6
AUSGEZOGEN
 62
     7
370
    35
100
AcDbLine
 10
2363.558142653274
 20
892.1023218963
 30
0.0
 11
2363.558142653274
 21
894.1023218963
 31
0.0
  0
LINE
  5
15F
330
1F
100
AcDbEntity
  8
0
  6
AUSGEZOGEN
 62
     7
370
    35
100
AcDbLine
 10
2363.558142653274
 20
892.1023218963
 30
0.0
 11
2362.558142653274
 21
892.1023218963
 31
0.0
  0
LINE
  5
160
330
1F
100
AcDbEntity
  8
0
  6
AUSGEZOGEN
 62
     7
370
    35
100
AcDbLine
 10
2362.558142653274
 20
942.1023218963
 30
0.0
 11
2363.558142653274
 21
942.1023218963
 31
0.0
  0
LINE
  5
161
330
1F
100
AcDbEntity
  8
0
  6
AUSGEZOGEN
 62
     7
370
    35
100
AcDbLine
 10
2356.448142653274
 20
892.1023218963
 30
0.0
 11
2362.558142653274
 21
892.1023218963
 31
0.0
  0
ARC
  5
162
330
1F
100
AcDbEntity
  8
0
  6
AUSGEZOGEN
 62
     7
370
    35
100
AcDbCircle
 10
2356.448142653274
 20
894.1023218963
 30
0.0
 40
2.000000000000455
100
AcDbArc
 50
179.9999999999
 51
270.0
  0
LINE
  5
163
330
1F
100
AcDbEntity
  8
0
  6
AUSGEZOGEN
 62
     7
370
    35
100
AcDbLine
 10
2354.448142653274
 20
900.6023218963
 30
0.0
 11
2354.448142653274
 21
894.1023218963
 31
0.0
  0
ARC
  5
164
330
1F
100
AcDbEntity
  8
0
  6
AUSGEZOGEN
 62
     7
370
    35
100
AcDbCircle
 10
2350.448142653274
 20
900.6023218963
 30
0.0
 40
4.000000000000114
100
AcDbArc
 50
0.0
 51
90.0
  0
LINE
  5
165
330
1F
100
AcDbEntity
  8
0
  6
AUSGEZOGEN
 62
     7
370
    35
100
AcDbLine
 10
2316.448142653274
 20
904.6023218963
 30
0.0
 11
2350.448142653274
 21
904.6023218963
 31
0.0
  0
ARC
  5
166
330
1F
100
AcDbEntity
  8
0
  6
AUSGEZOGEN
 62
     7
370
    35
100
AcDbCircle
 10
2316.448142653274
 20
906.6023218963
 30
0.0
 40
2.000000000000114
100
AcDbArc
 50
180.0
 51
270.0
  0
LINE
  5
167
330
1F
100
AcDbEntity
  8
0
  6
AUSGEZOGEN
 62
     7
370
    35
100
AcDbLine
 10
2314.448142653274
 20
927.6023218963
 30
0.0
 11
2314.448142653274
 21
919.6023218963
 31
0.0
  0
LINE
  5
168
330
1F
100
AcDbEntity
  8
0
  6
AUSGEZOGEN
 62
     7
370
    35
100
AcDbLine
 10
2314.448142653274
 20
914.6023218963
 30
0.0
 11
2314.448142653274
 21
906.6023218963
 31
0.0
  0
ARC
  5
169
330
1F
100
AcDbEntity
  8
0
  6
AUSGEZOGEN
 62
     7
370
    35
100
AcDbCircle
 10
2316.448142653274
 20
927.6023218963
 30
0.0
 40
2.000000000000114
100
AcDbArc
 50
90.0
 51
180.0
  0
LINE
  5
16A
330
1F
100
AcDbEntity
  8
0
  6
AUSGEZOGEN
 62
     7
370
    35
100
AcDbLine
 10
2350.448142653274
 20
929.6023218963
 30
0.0
 11
2316.448142653274
 21
929.6023218963
 31
0.0
  0
ARC
  5
16B
330
1F
100
AcDbEntity
  8
0
  6
AUSGEZOGEN
 62
     7
370
    35
100
AcDbCircle
 10
2350.448142653274
 20
933.6023218963
 30
0.0
 40
4.0
100
AcDbArc
 50
270.0
 51
0.0
  0
LINE
  5
16C
330
1F
100
AcDbEntity
  8
0
  6
AUSGEZOGEN
 62
     7
370
    35
100
AcDbLine
 10
2354.448142653274
 20
940.1023218963
 30
0.0
 11
2354.448142653274
 21
933.6023218963
 31
0.0
  0
ARC
  5
16D
330
1F
100
AcDbEntity
  8
0
  6
AUSGEZOGEN
 62
     7
370
    35
100
AcDbCircle
 10
2356.448142653274
 20
940.1023218963
 30
0.0
 40
2.000000000000455
100
AcDbArc
 50
90.0
 51
180.0
  0
LINE
  5
16E
330
1F
100
AcDbEntity
  8
0
  6
AUSGEZOGEN
 62
     7
370
    35
100
AcDbLine
 10
2362.558142653274
 20
942.1023218963
 30
0.0
 11
2356.448142653274
 21
942.1023218963
 31
0.0
  0
LINE
  5
16F
330
1F
100
AcDbEntity
  8
0
  6
AUSGEZOGEN
 62
     7
370
    35
100
AcDbLine
 10
2363.558142653274
 20
1219.1023218963
 30
0.0
 11
2363.558142653274
 21
1265.1023218963
 31
0.0
  0
LINE
  5
170
330
1F
100
AcDbEntity
  8
0
  6
AUSGEZOGEN
 62
     7
370
    35
100
AcDbLine
 10
2364.558142653274
 20
1267.1023218963
 30
0.0
 11
2363.558142653274
 21
1267.1023218963
 31
0.0
  0
LINE
  5
171
330
1F
100
AcDbEntity
  8
0
  6
AUSGEZOGEN
 62
     7
370
    35
100
AcDbLine
 10
2363.558142653274
 20
1265.1023218963
 30
0.0
 11
2363.558142653274
 21
1267.1023218963
 31
0.0
  0
LINE
  5
172
330
1F
100
AcDbEntity
  8
0
  6
AUSGEZOGEN
 62
     7
370
    35
100
AcDbLine
 10
2364.558142653274
 20
1217.1023218963
 30
0.0
 11
2363.558142653274
 21
1217.1023218963
 31
0.0
  0
LINE
  5
173
330
1F
100
AcDbEntity
  8
0
  6
AUSGEZOGEN
 62
     7
370
    35
100
AcDbLine
 10
2363.558142653274
 20
1217.1023218963
 30
0.0
 11
2363.558142653274
 21
1219.1023218963
 31
0.0
  0
LINE
  5
174
330
1F
100
AcDbEntity
  8
0
  6
AUSGEZOGEN
 62
     7
370
    35
100
AcDbLine
 10
2363.558142653274
 20
1217.1023218963
 30
0.0
 11
2362.558142653274
 21
1217.1023218963
 31
0.0
  0
LINE
  5
175
330
1F
100
AcDbEntity
  8
0
  6
AUSGEZOGEN
 62
     7
370
    35
100
AcDbLine
 10
2362.558142653274
 20
1267.1023218963
 30
0.0
 11
2363.558142653274
 21
1267.1023218963
 31
0.0
  0
LINE
  5
176
330
1F
100
AcDbEntity
  8
0
  6
AUSGEZOGEN
 62
     7
370
    35
100
AcDbLine
 10
2356.448142653274
 20
1217.1023218963
 30
0.0
 11
2362.558142653274
 21
1217.1023218963
 31
0.0
  0
ARC
  5
177
330
1F
100
AcDbEntity
  8
0
  6
AUSGEZOGEN
 62
     7
370
    35
100
AcDbCircle
 10
2356.448142653274
 20
1219.1023218963
 30
0.0
 40
2.000000000000455
100
AcDbArc
 50
179.9999999999
 51
270.0
  0
LINE
  5
178
330
1F
100
AcDbEntity
  8
0
  6
AUSGEZOGEN
 62
     7
370
    35
100
AcDbLine
 10
2354.448142653274
 20
1225.6023218963
 30
0.0
 11
2354.448142653274
 21
1219.1023218963
 31
0.0
  0
ARC
  5
179
330
1F
100
AcDbEntity
  8
0
  6
AUSGEZOGEN
 62
     7
370
    35
100
AcDbCircle
 10
2350.448142653274
 20
1225.6023218963
 30
0.0
 40
4.0
100
AcDbArc
 50
0.0
 51
90.0
  0
LINE
  5
17A
330
1F
100
AcDbEntity
  8
0
  6
AUSGEZOGEN
 62
     7
370
    35
100
AcDbLine
 10
2316.448142653274
 20
1229.6023218963
 30
0.0
 11
2350.448142653274
 21
1229.6023218963
 31
0.0
  0
ARC
  5
17B
330
1F
100
AcDbEntity
  8
0
  6
AUSGEZOGEN
 62
     7
370
    35
100
AcDbCircle
 10
2316.448142653274
 20
1231.6023218963
 30
0.0
 40
2.000000000000227
100
AcDbArc
 50
180.0
 51
270.0
  0
LINE
  5
17C
330
1F
100
AcDbEntity
  8
0
  6
AUSGEZOGEN
 62
     7
370
    35
100
AcDbLine
 10
2314.448142653274
 20
1252.6023218963
 30
0.0
 11
2314.448142653274
 21
1244.6023218963
 31
0.0
  0
LINE
  5
17D
330
1F
100
AcDbEntity
  8
0
  6
AUSGEZOGEN
 62
     7
370
    35
100
AcDbLine
 10
2314.448142653274
 20
1239.6023218963
 30
0.0
 11
2314.448142653274
 21
1231.6023218963
 31
0.0
  0
ARC
  5
17E
330
1F
100
AcDbEntity
  8
0
  6
AUSGEZOGEN
 62
     7
370
    35
100
AcDbCircle
 10
2316.448142653274
 20
1252.6023218963
 30
0.0
 40
2.0
100
AcDbArc
 50
90.0
 51
180.0
  0
LINE
  5
17F
330
1F
100
AcDbEntity
  8
0
  6
AUSGEZOGEN
 62
     7
370
    35
100
AcDbLine
 10
2350.448142653274
 20
1254.6023218963
 30
0.0
 11
2316.448142653274
 21
1254.6023218963
 31
0.0
  0
ARC
  5
180
330
1F
100
AcDbEntity
  8
0
  6
AUSGEZOGEN
 62
     7
370
    35
100
AcDbCircle
 10
2350.448142653274
 20
1258.6023218963
 30
0.0
 40
4.000000000000227
100
AcDbArc
 50
270.0
 51
0.0
  0
LINE
  5
181
330
1F
100
AcDbEntity
  8
0
  6
AUSGEZOGEN
 62
     7
370
    35
100
AcDbLine
 10
2354.448142653274
 20
1265.1023218963
 30
0.0
 11
2354.448142653274
 21
1258.6023218963
 31
0.0
  0
ARC
  5
182
330
1F
100
AcDbEntity
  8
0
  6
AUSGEZOGEN
 62
     7
370
    35
100
AcDbCircle
 10
2356.448142653274
 20
1265.1023218963
 30
0.0
 40
2.000000000000455
100
AcDbArc
 50
90.0
 51
180.0
  0
LINE
  5
183
330
1F
100
AcDbEntity
  8
0
  6
AUSGEZOGEN
 62
     7
370
    35
100
AcDbLine
 10
2362.558142653274
 20
1267.1023218963
 30
0.0
 11
2356.448142653274
 21
1267.1023218963
 31
0.0
  0
LINE
  5
184
330
1F
100
AcDbEntity
  8
0
  6
AUSGEZOGEN
 62
     7
370
    35
100
AcDbLine
 10
2362.558142653274
 20
875.3023218963
 30
0.0
 11
2356.448142653274
 21
875.3023218963
 31
0.0
  0
LINE
  5
185
330
1F
100
AcDbEntity
  8
0
  6
AUSGEZOGEN
 62
     7
370
    35
100
AcDbLine
 10
2364.558142653274
 20
865.3043218963
 30
0.0
 11
2363.558142653274
 21
865.3043218963
 31
0.0
  0
LINE
  5
186
330
1F
100
AcDbEntity
  8
0
  6
AUSGEZOGEN
 62
     7
370
    35
100
AcDbLine
 10
2363.558142653274
 20
865.3043218963
 30
0.0
 11
2363.558142653274
 21
867.3043218963
 31
0.0
  0
LINE
  5
187
330
1F
100
AcDbEntity
  8
0
  6
AUSGEZOGEN
 62
     7
370
    35
100
AcDbLine
 10
2354.448142653274
 20
876.3023218963
 30
0.0
 11
2354.448142653274
 21
875.3023218963
 31
0.0
  0
LINE
  5
188
330
1F
100
AcDbEntity
  8
0
  6
AUSGEZOGEN
 62
     7
370
    35
100
AcDbLine
 10
2356.448142653274
 20
875.3023218963
 30
0.0
 11
2354.448142653274
 21
875.3023218963
 31
0.0
  0
ARC
  5
189
330
1F
100
AcDbEntity
  8
0
  6
AUSGEZOGEN
 62
     7
370
    35
100
AcDbCircle
 10
2362.558142653274
 20
874.3023218963
 30
0.0
 40
2.0
100
AcDbArc
 50
0.0
 51
90.0
  0
ARC
  5
18A
330
1F
100
AcDbEntity
  8
0
  6
AUSGEZOGEN
 62
     7
370
    35
100
AcDbCircle
 10
2362.558142653274
 20
874.3023218963
 30
0.0
 40
1.0
100
AcDbArc
 50
0.0
 51
90.0
  0
LINE
  5
18B
330
1F
100
AcDbEntity
  8
0
  6
AUSGEZOGEN
 62
     7
370
    35
100
AcDbLine
 10
2363.558142653274
 20
867.3043218963
 30
0.0
 11
2363.558142653274
 21
874.3023218963
 31
0.0
  0
LINE
  5
18C
330
1F
100
AcDbEntity
  8
0
  6
AUSGEZOGEN
 62
     7
370
    35
100
AcDbLine
 10
2354.448142653274
 20
875.3023218963
 30
0.0
 11
2350.448142653274
 21
875.3023218963
 31
0.0
  0
LINE
  5
18D
330
1F
100
AcDbEntity
  8
0
  6
AUSGEZOGEN
 62
     7
370
    35
100
AcDbLine
 10
2314.448142653274
 20
876.3023218963
 30
0.0
 11
2314.448142653274
 21
875.3023218963
 31
0.0
  0
LINE
  5
18E
330
1F
100
AcDbEntity
  8
0
  6
AUSGEZOGEN
 62
     7
370
    35
100
AcDbLine
 10
2316.448142653274
 20
875.3023218963
 30
0.0
 11
2314.448142653274
 21
875.3023218963
 31
0.0
  0
LINE
  5
18F
330
1F
100
AcDbEntity
  8
0
  6
AUSGEZOGEN
 62
     7
370
    35
100
AcDbLine
 10
2350.448142653274
 20
875.3023218963
 30
0.0
 11
2316.448142653274
 21
875.3023218963
 31
0.0
  0
DIMENSION
  5
199
330
1F
100
AcDbEntity
  8
SLD-0
  6
AUSGEZOGEN
 62
     7
370
    18
100
AcDbDimension
280
     0
  2
*D13
 10
2365.358142653274
 20
1435.1370819849
 30
0.0
 11
2276.480042653274
 21
1448.2744156297
 31
0.0
 70
   160
 71
     5
 42
-1.0
 73
     0
 74
     0
 75
     0
  3
ISO-25
100
AcDbAlignedDimension
 13
2184.558142653274
 23
1265.1023218963
 33
0.0
 14
2365.358142653274
 24
1362.1023218963
 34
0.0
100
AcDbRotatedDimension
1001
ACAD
1000
DSTYLE
1002
{
1070
     3
1000
<>
1070
   340
1005
5F
1070
    44
1040
9.768009936716
1070
   280
1070
     3
1070
    77
1070
     1
1070
   179
1070
     0
1070
   271
1070
     0
1070
   173
1070
     1
1070
    41
1040
13.675213911402
1070
   147
1040
3.101343154907
1070
   140
1040
21.709402084351
1070
   178
1070
     7
1070
   177
1070
     7
1070
   176
1070
     7
1002
}
  0
LINE
  5
19A
330
1F
100
AcDbEntity
  8
0
  6
AUSGEZOGEN
 62
     7
370
    35
100
AcDbLine
 10
2733.582437984663
 20
1277.9023218963
 30
0.0
 11
2733.582437984663
 21
1278.9023218963
 31
0.0
  0
LINE
  5
19B
330
1F
100
AcDbEntity
  8
0
  6
AUSGEZOGEN
 62
     7
370
    35
100
AcDbLine
 10
2733.582437984663
 20
1278.9023218963
 30
0.0
 11
2736.582437984663
 21
1278.9023218963
 31
0.0
  0
LINE
  5
19C
330
1F
100
AcDbEntity
  8
0
  6
AUSGEZOGEN
 62
     7
370
    35
100
AcDbLine
 10
2733.582437984663
 20
1277.9023218963
 30
0.0
 11
2736.582437984663
 21
1277.9023218963
 31
0.0
  0
LINE
  5
19D
330
1F
100
AcDbEntity
  8
0
  6
AUSGEZOGEN
 62
     7
370
    35
100
AcDbLine
 10
2736.582437984663
 20
1278.9023218963
 30
0.0
 11
2758.322387177063
 21
1278.9023218963
 31
0.0
  0
LINE
  5
19E
330
1F
100
AcDbEntity
  8
0
  6
AUSGEZOGEN
 62
     7
370
    35
100
AcDbLine
 10
2773.082437984663
 20
1278.9023218963
 30
0.0
 11
2883.082437984663
 21
1278.9023218963
 31
0.0
  0
LINE
  5
19F
330
1F
100
AcDbEntity
  8
0
  6
AUSGEZOGEN
 62
     7
370
    35
100
AcDbLine
 10
2897.842488792263
 20
1278.9023218963
 30
0.0
 11
2905.082437984663
 21
1278.9023218963
 31
0.0
  0
LINE
  5
1A0
330
1F
100
AcDbEntity
  8
0
  6
AUSGEZOGEN
 62
     7
370
    35
100
AcDbLine
 10
2736.582437984663
 20
1277.9023218963
 30
0.0
 11
2757.582437984663
 21
1277.9023218963
 31
0.0
  0
LINE
  5
1A1
330
1F
100
AcDbEntity
  8
0
  6
AUSGEZOGEN
 62
     7
370
    35
100
AcDbLine
 10
2908.082437984663
 20
1277.9023218963
 30
0.0
 11
2908.082437984663
 21
1278.9023218963
 31
0.0
  0
LINE
  5
1A2
330
1F
100
AcDbEntity
  8
0
  6
AUSGEZOGEN
 62
     7
370
    35
100
AcDbLine
 10
2905.082437984663
 20
1278.9023218963
 30
0.0
 11
2908.082437984663
 21
1278.9023218963
 31
0.0
  0
LINE
  5
1A3
330
1F
100
AcDbEntity
  8
0
  6
AUSGEZOGEN
 62
     7
370
    35
100
AcDbLine
 10
2986.082437984663
 20
1278.9023218963
 30
0.0
 11
2993.322387177063
 21
1278.9023218963
 31
0.0
  0
LINE
  5
1A4
330
1F
100
AcDbEntity
  8
0
  6
AUSGEZOGEN
 62
     7
370
    35
100
AcDbLine
 10
3008.082437984663
 20
1278.9023218963
 30
0.0
 11
3118.082437984663
 21
1278.9023218963
 31
0.0
  0
LINE
  5
1A5
330
1F
100
AcDbEntity
  8
0
  6
AUSGEZOGEN
 62
     7
370
    35
100
AcDbLine
 10
3132.842488792263
 20
1278.9023218963
 30
0.0
 11
3154.582437984663
 21
1278.9023218963
 31
0.0
  0
LINE
  5
1A6
330
1F
100
AcDbEntity
  8
0
  6
AUSGEZOGEN
 62
     7
370
    35
100
AcDbLine
 10
3133.582437984663
 20
1277.9023218963
 30
0.0
 11
3154.582437984663
 21
1277.9023218963
 31
0.0
  0
LINE
  5
1A7
330
1F
100
AcDbEntity
  8
0
  6
AUSGEZOGEN
 62
     7
370
    35
100
AcDbLine
 10
2983.082437984663
 20
1277.9023218963
 30
0.0
 11
2983.082437984663
 21
1278.9023218963
 31
0.0
  0
LINE
  5
1A8
330
1F
100
AcDbEntity
  8
0
  6
AUSGEZOGEN
 62
     7
370
    35
100
AcDbLine
 10
2983.082437984663
 20
1278.9023218963
 30
0.0
 11
2986.082437984663
 21
1278.9023218963
 31
0.0
  0
LINE
  5
1A9
330
1F
100
AcDbEntity
  8
0
  6
AUSGEZOGEN
 62
     7
370
    35
100
AcDbLine
 10
3157.582437984663
 20
1277.9023218963
 30
0.0
 11
3157.582437984663
 21
1278.9023218963
 31
0.0
  0
LINE
  5
1AA
330
1F
100
AcDbEntity
  8
0
  6
AUSGEZOGEN
 62
     7
370
    35
100
AcDbLine
 10
3154.582437984663
 20
1278.9023218963
 30
0.0
 11
3157.582437984663
 21
1278.9023218963
 31
0.0
  0
LINE
  5
1AB
330
1F
100
AcDbEntity
  8
0
  6
AUSGEZOGEN
 62
     7
370
    35
100
AcDbLine
 10
3154.582437984663
 20
1277.9023218963
 30
0.0
 11
3157.582437984663
 21
1277.9023218963
 31
0.0
  0
LINE
  5
1AC
330
1F
100
AcDbEntity
  8
0
  6
AUSGEZOGEN
 62
     7
370
    35
100
AcDbLine
 10
2908.082437984663
 20
1278.9023218963
 30
0.0
 11
2911.082437984663
 21
1278.9023218963
 31
0.0
  0
LINE
  5
1AD
330
1F
100
AcDbEntity
  8
0
  6
AUSGEZOGEN
 62
     7
370
    35
100
AcDbLine
 10
2980.082437984663
 20
1278.9023218963
 30
0.0
 11
2983.082437984663
 21
1278.9023218963
 31
0.0
  0
LINE
  5
1AE
330
1F
100
AcDbEntity
  8
0
  6
AUSGEZOGEN
 62
     7
370
    35
100
AcDbLine
 10
2741.582437984663
 20
1351.5559598963
 30
0.0
 11
2741.582437984663
 21
1350.5559598963
 31
0.0
  0
LINE
  5
1AF
330
1F
100
AcDbEntity
  8
0
  6
AUSGEZOGEN
 62
     7
370
    35
100
AcDbLine
 10
2744.582437984663
 20
1350.5559598963
 30
0.0
 11
2741.582437984663
 21
1350.5559598963
 31
0.0
  0
LINE
  5
1B0
330
1F
100
AcDbEntity
  8
0
  6
AUSGEZOGEN
 62
     7
370
    35
100
AcDbLine
 10
2744.582437984663
 20
1351.5559598963
 30
0.0
 11
2741.582437984663
 21
1351.5559598963
 31
0.0
  0
LINE
  5
1B1
330
1F
100
AcDbEntity
  8
0
  6
AUSGEZOGEN
 62
     7
370
    35
100
AcDbLine
 10
3146.582437984663
 20
1350.5559598963
 30
0.0
 11
2744.582437984663
 21
1350.5559598963
 31
0.0
  0
LINE
  5
1B2
330
1F
100
AcDbEntity
  8
0
  6
AUSGEZOGEN
 62
     7
370
    35
100
AcDbLine
 10
3146.582437984663
 20
1351.5559598963
 30
0.0
 11
2744.582437984663
 21
1351.5559598963
 31
0.0
  0
LINE
  5
1B3
330
1F
100
AcDbEntity
  8
0
  6
AUSGEZOGEN
 62
     7
370
    35
100
AcDbLine
 10
3149.582437984663
 20
1351.5559598963
 30
0.0
 11
3149.582437984663
 21
1350.5559598963
 31
0.0
  0
LINE
  5
1B4
330
1F
100
AcDbEntity
  8
0
  6
AUSGEZOGEN
 62
     7
370
    35
100
AcDbLine
 10
3149.582437984663
 20
1350.5559598963
 30
0.0
 11
3146.582437984663
 21
1350.5559598963
 31
0.0
  0
LINE
  5
1B5
330
1F
100
AcDbEntity
  8
0
  6
AUSGEZOGEN
 62
     7
370
    35
100
AcDbLine
 10
3149.582437984663
 20
1351.5559598963
 30
0.0
 11
3146.582437984663
 21
1351.5559598963
 31
0.0
  0
LINE
  5
1B6
330
1F
100
AcDbEntity
  8
0
  6
AUSGEZOGEN
 62
     7
370
    35
100
AcDbLine
 10
2911.082437984663
 20
1278.9023218963
 30
0.0
 11
2980.082437984663
 21
1278.9023218963
 31
0.0
  0
LINE
  5
1B7
330
1F
100
AcDbEntity
  8
0
  6
AUSGEZOGEN
 62
     7
370
    35
100
AcDbLine
 10
3149.582437984663
 20
1350.5559598963
 30
0.0
 11
3149.582437984663
 21
1350.4559598963
 31
0.0
  0
LINE
  5
1B8
330
1F
100
AcDbEntity
  8
0
  6
AUSGEZOGEN
 62
     7
370
    35
100
AcDbLine
 10
2741.582437984663
 20
1350.4559598963
 30
0.0
 11
2741.582437984663
 21
1350.5559598963
 31
0.0
  0
LINE
  5
1B9
330
1F
100
AcDbEntity
  8
0
  6
AUSGEZOGEN
 62
     7
370
    35
100
AcDbLine
 10
3157.582437984663
 20
1279.0023218963
 30
0.0
 11
3157.582437984663
 21
1278.9023218963
 31
0.0
  0
LINE
  5
1BA
330
1F
100
AcDbEntity
  8
0
  6
AUSGEZOGEN
 62
     7
370
    35
100
AcDbLine
 10
2733.582437984663
 20
1278.9023218963
 30
0.0
 11
2733.582437984663
 21
1279.0023218963
 31
0.0
  0
LINE
  5
1BB
330
1F
100
AcDbEntity
  8
0
  6
AUSGEZOGEN
 62
     7
370
    35
100
AcDbLine
 10
3156.703758328163
 20
1343.0578325528
 30
0.0
 11
3149.582437984663
 21
1350.1791528963
 31
0.0
  0
ARC
  5
1BC
330
1F
100
AcDbEntity
  8
0
  6
AUSGEZOGEN
 62
     7
370
    35
100
AcDbCircle
 10
3154.582437984663
 20
1340.9365122093
 30
0.0
 40
2.99999999994634
100
AcDbArc
 50
0.0
 51
45.0
  0
LINE
  5
1BD
330
1F
100
AcDbEntity
  8
0
  6
AUSGEZOGEN
 62
     7
370
    35
100
AcDbLine
 10
3157.582437984663
 20
1279.0023218963
 30
0.0
 11
3157.582437984563
 21
1340.9365122093
 31
0.0
  0
LINE
  5
1BE
330
1F
100
AcDbEntity
  8
0
  6
AUSGEZOGEN
 62
     7
370
    35
100
AcDbLine
 10
2733.582437984663
 20
1340.9365122093
 30
0.0
 11
2733.582437984663
 21
1279.0023218963
 31
0.0
  0
ARC
  5
1BF
330
1F
100
AcDbEntity
  8
0
  6
AUSGEZOGEN
 62
     7
370
    35
100
AcDbCircle
 10
2736.582437984663
 20
1340.9365122093
 30
0.0
 40
2.999999999996817
100
AcDbArc
 50
135.0
 51
180.0
  0
LINE
  5
1C0
330
1F
100
AcDbEntity
  8
0
  6
AUSGEZOGEN
 62
     7
370
    35
100
AcDbLine
 10
2741.582437984663
 20
1350.1791528963
 30
0.0
 11
2734.461117641163
 21
1343.0578325528
 31
0.0
  0
LINE
  5
1C1
330
1F
100
AcDbEntity
  8
0
  6
AUSGEZOGEN
 62
     7
370
    35
100
AcDbLine
 10
2741.582437984663
 20
1350.4559598963
 30
0.0
 11
2741.582437984663
 21
1350.1791528963
 31
0.0
  0
LINE
  5
1C2
330
1F
100
AcDbEntity
  8
0
  6
AUSGEZOGEN
 62
     7
370
    35
100
AcDbLine
 10
3149.582437984663
 20
1350.1791528963
 30
0.0
 11
3149.582437984663
 21
1350.4559598963
 31
0.0
  0
CIRCLE
  5
1C3
330
1F
100
AcDbEntity
  8
0
  6
AUSGEZOGEN
 62
     7
370
    35
100
AcDbCircle
 10
2945.582437984663
 20
1321.7791288963
 30
0.0
 40
19.50000000000045
  0
CIRCLE
  5
1C4
330
1F
100
AcDbEntity
  8
0
  6
AUSGEZOGEN
 62
     7
370
    35
100
AcDbCircle
 10
2945.582437984663
 20
1157.1023218963
 30
0.0
 40
60.33137084989812
  0
CIRCLE
  5
1C5
330
1F
100
AcDbEntity
  8
0
  6
AUSGEZOGEN
 62
     7
370
    35
100
AcDbCircle
 10
2945.582437984663
 20
1157.1023218963
 30
0.0
 40
56.33137084989812
  0
CIRCLE
  5
1C6
330
1F
100
AcDbEntity
  8
0
  6
AUSGEZOGEN
 62
     7
370
    35
100
AcDbCircle
 10
2945.582437984663
 20
1157.1023218963
 30
0.0
 40
45.0
  0
ARC
  5
1C7
330
1F
100
AcDbEntity
  8
0
  6
AUSGEZOGEN
 62
     7
370
    35
100
AcDbCircle
 10
2757.582437984663
 20
1265.1023218963
 30
0.0
 40
12.80000000000018
100
AcDbArc
 50
90.0
 51
180.0
  0
ARC
  5
1C8
330
1F
100
AcDbEntity
  8
0
  6
AUSGEZOGEN
 62
     7
370
    35
100
AcDbCircle
 10
2757.582437984663
 20
889.1023218963
 30
0.0
 40
12.79999999999995
100
AcDbArc
 50
180.0
 51
270.0
  0
LINE
  5
1C9
330
1F
100
AcDbEntity
  8
0
  6
AUSGEZOGEN
 62
     7
370
    35
100
AcDbLine
 10
2744.782437984663
 20
1265.1023218963
 30
0.0
 11
2744.782437984663
 21
889.1023218963
 31
0.0
  0
LINE
  5
1CA
330
1F
100
AcDbEntity
  8
0
  6
AUSGEZOGEN
 62
     7
370
    35
100
AcDbLine
 10
2757.582437984663
 20
876.3023218963
 30
0.0
 11
3133.582437984663
 21
876.3023218963
 31
0.0
  0
LINE
  5
1CB
330
1F
100
AcDbEntity
  8
0
  6
AUSGEZOGEN
 62
     7
370
    35
100
AcDbLine
 10
3133.582437984663
 20
1277.9023218963
 30
0.0
 11
2757.582437984663
 21
1277.9023218963
 31
0.0
  0
LINE
  5
1CC
330
1F
100
AcDbEntity
  8
0
  6
AUSGEZOGEN
 62
     7
370
    35
100
AcDbLine
 10
3146.382437984663
 20
889.1023218963
 30
0.0
 11
3146.382437984663
 21
1265.1023218963
 31
0.0
  0
ARC
  5
1CD
330
1F
100
AcDbEntity
  8
0
  6
AUSGEZOGEN
 62
     7
370
    35
100
AcDbCircle
 10
3133.582437984663
 20
1265.1023218963
 30
0.0
 40
12.80000000000018
100
AcDbArc
 50
0.0
 51
90.0
  0
ARC
  5
1CE
330
1F
100
AcDbEntity
  8
0
  6
AUSGEZOGEN
 62
     7
370
    35
100
AcDbCircle
 10
3133.582437984663
 20
889.1023218963
 30
0.0
 40
12.80000000000018
100
AcDbArc
 50
270.0
 51
0.0
  0
ARC
  5
1CF
330
1F
100
AcDbEntity
  8
0
  6
AUSGEZOGEN
 62
     7
370
    35
100
AcDbCircle
 10
3160.582437984663
 20
862.1023218963
 30
0.0
 40
10.00000000000045
100
AcDbArc
 50
270.0
 51
0.0
  0
LINE
  5
1D0
330
1F
100
AcDbEntity
  8
0
  6
AUSGEZOGEN
 62
     7
370
    35
100
AcDbLine
 10
3160.582437984663
 20
852.1023218963
 30
0.0
 11
2730.582437984663
 21
852.1023218963
 31
0.0
  0
ARC
  5
1D1
330
1F
100
AcDbEntity
  8
0
  6
AUSGEZOGEN
 62
     7
370
    35
100
AcDbCircle
 10
2730.582437984663
 20
862.1023218963
 30
0.0
 40
10.0
100
AcDbArc
 50
180.0
 51
270.0
  0
LINE
  5
1D2
330
1F
100
AcDbEntity
  8
0
  6
AUSGEZOGEN
 62
     7
370
    35
100
AcDbLine
 10
2720.582437984663
 20
862.1023218963
 30
0.0
 11
2720.582437984663
 21
1352.1023218963
 31
0.0
  0
ARC
  5
1D3
330
1F
100
AcDbEntity
  8
0
  6
AUSGEZOGEN
 62
     7
370
    35
100
AcDbCircle
 10
2730.582437984663
 20
1352.1023218963
 30
0.0
 40
10.0
100
AcDbArc
 50
90.0
 51
180.0
  0
LINE
  5
1D4
330
1F
100
AcDbEntity
  8
0
  6
AUSGEZOGEN
 62
     7
370
    35
100
AcDbLine
 10
2730.582437984663
 20
1362.1023218963
 30
0.0
 11
3160.582437984663
 21
1362.1023218963
 31
0.0
  0
ARC
  5
1D5
330
1F
100
AcDbEntity
  8
0
  6
AUSGEZOGEN
 62
     7
370
    35
100
AcDbCircle
 10
3160.582437984663
 20
1352.1023218963
 30
0.0
 40
10.0
100
AcDbArc
 50
0.0
 51
90.0
  0
LINE
  5
1D6
330
1F
100
AcDbEntity
  8
0
  6
AUSGEZOGEN
 62
     7
370
    35
100
AcDbLine
 10
3170.582437984663
 20
1352.1023218963
 30
0.0
 11
3170.582437984663
 21
862.1023218963
 31
0.0
  0
CIRCLE
  5
1D7
330
1F
100
AcDbEntity
  8
0
  6
AUSGEZOGEN
 62
     7
370
    35
100
AcDbCircle
 10
2945.582437984663
 20
1322.1023218963
 30
0.0
 40
17.5
  0
LINE
  5
1D8
330
1F
100
AcDbEntity
  8
0
  6
AUSGEZOGEN
 62
     7
370
    35
100
AcDbLine
 10
2994.054437984663
 20
1284.3993678963
 30
0.0
 11
2994.054437984663
 21
1290.5559848963
 31
0.0
  0
LINE
  5
1D9
330
1F
100
AcDbEntity
  8
0
  6
AUSGEZOGEN
 62
     7
370
    35
100
AcDbLine
 10
2993.054437984663
 20
1284.3993678963
 30
0.0
 11
2993.054437984663
 21
1290.5559848963
 31
0.0
  0
LINE
  5
1DA
330
1F
100
AcDbEntity
  8
0
  6
AUSGEZOGEN
 62
     7
370
    35
100
AcDbLine
 10
3005.082437984663
 20
1278.9023218963
 30
0.0
 11
2995.054437984663
 21
1278.9023218963
 31
0.0
  0
ARC
  5
1DB
330
1F
100
AcDbEntity
  8
0
  6
AUSGEZOGEN
 62
     7
370
    35
100
AcDbCircle
 10
2995.054437984663
 20
1279.9023218963
 30
0.0
 40
2.000000000000455
100
AcDbArc
 50
180.0
 51
270.0
  0
ARC
  5
1DC
330
1F
100
AcDbEntity
  8
0
  6
AUSGEZOGEN
 62
     7
370
    35
100
AcDbCircle
 10
2995.054437984663
 20
1279.9023218963
 30
0.0
 40
1.000000000000227
100
AcDbArc
 50
180.0
 51
270.0
  0
LINE
  5
1DD
330
1F
100
AcDbEntity
  8
0
  6
AUSGEZOGEN
 62
     7
370
    35
100
AcDbLine
 10
2993.054437984663
 20
1279.9023218963
 30
0.0
 11
2993.054437984663
 21
1284.3993678963
 31
0.0
  0
LINE
  5
1DE
330
1F
100
AcDbEntity
  8
0
  6
AUSGEZOGEN
 62
     7
370
    35
100
AcDbLine
 10
2994.054437984663
 20
1279.9023218963
 30
0.0
 11
2994.054437984663
 21
1284.3993678963
 31
0.0
  0
LINE
  5
1DF
330
1F
100
AcDbEntity
  8
0
  6
AUSGEZOGEN
 62
     7
370
    35
100
AcDbLine
 10
3008.082437984663
 20
1278.9023218963
 30
0.0
 11
3008.082437984663
 21
1277.9023218963
 31
0.0
  0
LINE
  5
1E0
330
1F
100
AcDbEntity
  8
0
  6
AUSGEZOGEN
 62
     7
370
    35
100
AcDbLine
 10
3008.082437984663
 20
1278.9023218963
 30
0.0
 11
3005.082437984663
 21
1278.9023218963
 31
0.0
  0
LINE
  5
1E1
330
1F
100
AcDbEntity
  8
0
  6
AUSGEZOGEN
 62
     7
370
    35
100
AcDbLine
 10
2993.054437984663
 20
1290.5559848963
 30
0.0
 11
2993.054437984663
 21
1334.4430688963
 31
0.0
  0
LINE
  5
1E2
330
1F
100
AcDbEntity
  8
0
  6
AUSGEZOGEN
 62
     7
370
    35
100
AcDbLine
 10
2994.054437984663
 20
1290.5559848963
 30
0.0
 11
2994.054437984663
 21
1334.4430688963
 31
0.0
  0
LINE
  5
1E3
330
1F
100
AcDbEntity
  8
0
  6
AUSGEZOGEN
 62
     7
370
    35
100
AcDbLine
 10
2994.054437984663
 20
1335.5585238963
 30
0.0
 11
2993.054437984663
 21
1335.5585238963
 31
0.0
  0
LINE
  5
1E4
330
1F
100
AcDbEntity
  8
0
  6
AUSGEZOGEN
 62
     7
370
    35
100
AcDbLine
 10
2993.054437984663
 20
1334.4430688963
 30
0.0
 11
2993.054437984663
 21
1335.5585238963
 31
0.0
  0
LINE
  5
1E5
330
1F
100
AcDbEntity
  8
0
  6
AUSGEZOGEN
 62
     7
370
    35
100
AcDbLine
 10
2994.054437984663
 20
1334.4430688963
 30
0.0
 11
2994.054437984663
 21
1335.5585238963
 31
0.0
  0
LINE
  5
1E6
330
1F
100
AcDbEntity
  8
0
  6
AUSGEZOGEN
 62
     7
370
    35
100
AcDbLine
 10
2994.105153601563
 20
1335.8729426616
 30
0.0
 11
2994.054437984663
 21
1335.5585238963
 31
0.0
  0
LWPOLYLINE
  5
1E7
330
1F
100
AcDbEntity
  8
0
  6
AUSGEZOGEN
 62
     7
370
    35
100
AcDbPolyline
 90
        7
 70
     0
 43
0.0
 10
2993.155869218466
 20
1336.187361427004
 10
2993.130674568834
 20
1336.11655390914
 10
2993.118414932782
 20
1336.070650159642
 10
2993.106560523249
 20
1336.012146421464
 10
2993.092832927742
 20
1335.920411876601
 10
2993.079702727256
 20
1335.81010211479
 10
2993.054437984647
 20
1335.558523896254
  0
LINE
  5
1E8
330
1F
100
AcDbEntity
  8
0
  6
AUSGEZOGEN
 62
     7
370
    35
100
AcDbLine
 10
2993.155869218463
 20
1336.187361427
 30
0.0
 11
2994.105153601563
 21
1335.8729426616
 31
0.0
  0
LINE
  5
1E9
330
1F
100
AcDbEntity
  8
0
  6
AUSGEZOGEN
 62
     7
370
    35
100
AcDbLine
 10
2993.272628731563
 20
1336.4669047557
 30
0.0
 11
2994.163533358163
 21
1336.012714326
 31
0.0
  0
LWPOLYLINE
  5
1EA
330
1F
100
AcDbEntity
  8
0
  6
AUSGEZOGEN
 62
     7
370
    35
100
AcDbPolyline
 90
        5
 70
     0
 43
0.0
 10
2993.272628731596
 20
1336.466904755662
 10
2993.234098340863
 20
1336.386994524139
 10
2993.202381570655
 20
1336.313432526085
 10
2993.17658085484
 20
1336.246748132992
 10
2993.155869218466
 20
1336.187361427004
  0
LWPOLYLINE
  5
1EB
330
1F
100
AcDbEntity
  8
0
  6
AUSGEZOGEN
 62
     7
370
    35
100
AcDbPolyline
 90
        5
 70
     0
 43
0.0
 10
2994.163533358121
 20
1336.012714325958
 10
2994.153445660209
 20
1335.992358924005
 10
2994.144268162756
 20
1335.972759210197
 10
2994.128409777652
 20
1335.93597821117
 10
2994.105153601556
 20
1335.872942661629
  0
ARC
  5
1EC
330
1F
100
AcDbEntity
  8
0
  6
AUSGEZOGEN
 62
     7
370
    35
100
AcDbCircle
 10
2995.054437984663
 20
1335.5585238963
 30
0.0
 40
2.0000000000001
100
AcDbArc
 50
90.0
 51
152.9871428571
  0
ARC
  5
1ED
330
1F
100
AcDbEntity
  8
0
  6
AUSGEZOGEN
 62
     7
370
    35
100
AcDbCircle
 10
2995.054437984663
 20
1335.5585238963
 30
0.0
 40
1.000000000000201
100
AcDbArc
 50
90.0
 51
152.9871428572
  0
LINE
  5
1EE
330
1F
100
AcDbEntity
  8
0
  6
AUSGEZOGEN
 62
     7
370
    35
100
AcDbLine
 10
2995.054437984663
 20
1337.5585238963
 30
0.0
 11
3015.082437984663
 21
1337.5585238963
 31
0.0
  0
LINE
  5
1EF
330
1F
100
AcDbEntity
  8
0
  6
AUSGEZOGEN
 62
     7
370
    35
100
AcDbLine
 10
2995.054437984663
 20
1336.5585238963
 30
0.0
 11
3015.082437984663
 21
1336.5585238963
 31
0.0
  0
LINE
  5
1F0
330
1F
100
AcDbEntity
  8
0
  6
AUSGEZOGEN
 62
     7
370
    35
100
AcDbLine
 10
3018.082437984663
 20
1336.5585238963
 30
0.0
 11
3018.082437984663
 21
1337.5585238963
 31
0.0
  0
LINE
  5
1F1
330
1F
100
AcDbEntity
  8
0
  6
AUSGEZOGEN
 62
     7
370
    35
100
AcDbLine
 10
3015.082437984663
 20
1337.5585238963
 30
0.0
 11
3018.082437984663
 21
1337.5585238963
 31
0.0
  0
LINE
  5
1F2
330
1F
100
AcDbEntity
  8
0
  6
AUSGEZOGEN
 62
     7
370
    35
100
AcDbLine
 10
3015.082437984663
 20
1336.5585238963
 30
0.0
 11
3018.082437984663
 21
1336.5585238963
 31
0.0
  0
LWPOLYLINE
  5
1F3
330
1F
100
AcDbEntity
  8
0
  6
AUSGEZOGEN
 62
     7
370
    35
100
AcDbPolyline
 90
       16
 70
     0
 43
0.0
 10
2995.054437984647
 20
1347.845354527709
 10
2994.870353443702
 20
1347.632999844988
 10
2994.780883585855
 20
1347.525566776348
 10
2994.694500623158
 20
1347.416626834972
 10
2994.612233520662
 20
1347.305677729946
 10
2994.535111243416
 20
1347.192217170361
 10
2994.46416275647
 20
1347.075742865303
 10
2994.431325235938
 20
1347.016218592312
 10
2994.400417024875
 20
1346.95575252386
 10
2994.34848469328
 20
1346.841354544461
 10
2994.302712926889
 20
1346.72394927544
 10
2994.262221644958
 20
1346.603966329603
 10
2994.226130766742
 20
1346.481835319751
 10
2994.1935602115
 20
1346.357985858687
 10
2994.163629898488
 20
1346.232847559214
 10
2994.108169676181
 20
1345.980422896254
  0
LINE
  5
1F4
330
1F
100
AcDbEntity
  8
0
  6
AUSGEZOGEN
 62
     7
370
    35
100
AcDbLine
 10
2994.108169676163
 20
1345.9804228963
 30
0.0
 11
2994.108169676163
 21
1337.3205046817
 31
0.0
  0
LINE
  5
1F5
330
1F
100
AcDbEntity
  8
0
  6
AUSGEZOGEN
 62
     7
370
    35
100
AcDbLine
 10
2994.108169676163
 20
1335.8811176909
 30
0.0
 11
2994.108169676163
 21
1334.9804228963
 31
0.0
  0
LINE
  5
1F6
330
1F
100
AcDbEntity
  8
0
  6
AUSGEZOGEN
 62
     7
370
    35
100
AcDbLine
 10
2994.581303830463
 20
1345.9804228963
 30
0.0
 11
2994.581303830463
 21
1337.5017542151
 31
0.0
  0
LINE
  5
1F7
330
1F
100
AcDbEntity
  8
0
  6
AUSGEZOGEN
 62
     7
370
    35
100
AcDbLine
 10
2994.581303830463
 20
1336.439514289
 30
0.0
 11
2994.581303830463
 21
1334.9804228963
 31
0.0
  0
LWPOLYLINE
  5
1F8
330
1F
100
AcDbEntity
  8
0
  6
AUSGEZOGEN
 62
     7
370
    35
100
AcDbPolyline
 90
       13
 70
     0
 43
0.0
 10
2995.054437984647
 20
1347.845354527709
 10
2994.961969075102
 20
1347.625672235016
 10
2994.873786681388
 20
1347.404902659016
 10
2994.832642464162
 20
1347.293770363741
 10
2994.794177319331
 20
1347.1819585164
 10
2994.75892706137
 20
1347.069331206577
 10
2994.727427504761
 20
1346.95575252386
 10
2994.699001221717
 20
1346.836413633663
 10
2994.674639268173
 20
1346.716043818164
 10
2994.653761025631
 20
1346.594790352407
 10
2994.635785875587
 20
1346.472800511435
 10
2994.606222379
 20
1346.227200804017
 10
2994.581303830414
 20
1345.980422896254
  0
LINE
  5
1F9
330
1F
100
AcDbEntity
  8
0
  6
AUSGEZOGEN
 62
     7
370
    35
100
AcDbLine
 10
2994.581303830463
 20
1334.9804228963
 30
0.0
 11
2994.054437984663
 21
1334.9804228963
 31
0.0
  0
LINE
  5
1FA
330
1F
100
AcDbEntity
  8
0
  6
AUSGEZOGEN
 62
     7
370
    35
100
AcDbLine
 10
2994.054437984663
 20
1281.9804228963
 30
0.0
 11
2995.054437984663
 21
1281.9804228963
 31
0.0
  0
LINE
  5
1FB
330
1F
100
AcDbEntity
  8
0
  6
AUSGEZOGEN
 62
     7
370
    35
100
AcDbLine
 10
2994.108169676163
 20
1345.9804228963
 30
0.0
 11
2994.581303830463
 21
1345.9804228963
 31
0.0
  0
ARC
  5
1FC
330
1F
100
AcDbEntity
  8
0
  6
AUSGEZOGEN
 62
     7
370
    35
100
AcDbCircle
 10
2997.404337984663
 20
1345.9804228963
 30
0.0
 40
3.0
100
AcDbArc
 50
90.0
 51
141.563721283
  0
LINE
  5
1FD
330
1F
100
AcDbEntity
  8
0
  6
AUSGEZOGEN
 62
     7
370
    35
100
AcDbLine
 10
2997.404337984663
 20
1348.9804228963
 30
0.0
 11
3015.082437984663
 21
1348.9804228963
 31
0.0
  0
ARC
  5
1FE
330
1F
100
AcDbEntity
  8
0
  6
AUSGEZOGEN
 62
     7
370
    35
100
AcDbCircle
 10
3015.082437984663
 20
1345.9804228963
 30
0.0
 40
3.0
100
AcDbArc
 50
0.0
 51
90.0
  0
LINE
  5
1FF
330
1F
100
AcDbEntity
  8
0
  6
AUSGEZOGEN
 62
     7
370
    35
100
AcDbLine
 10
3018.082437984663
 20
1345.9804228963
 30
0.0
 11
3018.082437984663
 21
1337.5585238963
 31
0.0
  0
LINE
  5
200
330
1F
100
AcDbEntity
  8
0
  6
AUSGEZOGEN
 62
     7
370
    35
100
AcDbLine
 10
3018.082437984663
 20
1336.5585238963
 30
0.0
 11
3018.082437984663
 21
1284.9804228963
 31
0.0
  0
ARC
  5
201
330
1F
100
AcDbEntity
  8
0
  6
AUSGEZOGEN
 62
     7
370
    35
100
AcDbCircle
 10
3015.082437984663
 20
1284.9804228963
 30
0.0
 40
3.000000000000455
100
AcDbArc
 50
270.0
 51
0.0
  0
LINE
  5
202
330
1F
100
AcDbEntity
  8
0
  6
AUSGEZOGEN
 62
     7
370
    35
100
AcDbLine
 10
3015.082437984663
 20
1281.9804228963
 30
0.0
 11
2995.054437984663
 21
1281.9804228963
 31
0.0
  0
LINE
  5
203
330
1F
100
AcDbEntity
  8
0
  6
AUSGEZOGEN
 62
     7
370
    35
100
AcDbLine
 10
2759.054437984663
 20
1284.3993678963
 30
0.0
 11
2759.054437984663
 21
1290.5559848963
 31
0.0
  0
LINE
  5
204
330
1F
100
AcDbEntity
  8
0
  6
AUSGEZOGEN
 62
     7
370
    35
100
AcDbLine
 10
2758.054437984663
 20
1284.3993678963
 30
0.0
 11
2758.054437984663
 21
1290.5559848963
 31
0.0
  0
LINE
  5
205
330
1F
100
AcDbEntity
  8
0
  6
AUSGEZOGEN
 62
     7
370
    35
100
AcDbLine
 10
2770.082437984663
 20
1278.9023218963
 30
0.0
 11
2760.054437984663
 21
1278.9023218963
 31
0.0
  0
LINE
  5
206
330
1F
100
AcDbEntity
  8
0
  6
AUSGEZOGEN
 62
     7
370
    35
100
AcDbLine
 10
2758.054437984663
 20
1279.9023218963
 30
0.0
 11
2758.054437984663
 21
1284.3993678963
 31
0.0
  0
LINE
  5
207
330
1F
100
AcDbEntity
  8
0
  6
AUSGEZOGEN
 62
     7
370
    35
100
AcDbLine
 10
2759.054437984663
 20
1279.9023218963
 30
0.0
 11
2759.054437984663
 21
1284.3993678963
 31
0.0
  0
LINE
  5
208
330
1F
100
AcDbEntity
  8
0
  6
AUSGEZOGEN
 62
     7
370
    35
100
AcDbLine
 10
2773.082437984663
 20
1278.9023218963
 30
0.0
 11
2773.082437984663
 21
1277.9023218963
 31
0.0
  0
LINE
  5
209
330
1F
100
AcDbEntity
  8
0
  6
AUSGEZOGEN
 62
     7
370
    35
100
AcDbLine
 10
2773.082437984663
 20
1278.9023218963
 30
0.0
 11
2770.082437984663
 21
1278.9023218963
 31
0.0
  0
ARC
  5
20A
330
1F
100
AcDbEntity
  8
0
  6
AUSGEZOGEN
 62
     7
370
    35
100
AcDbCircle
 10
2760.054437984663
 20
1279.9023218963
 30
0.0
 40
1.000000000000227
100
AcDbArc
 50
180.0
 51
270.0
  0
ARC
  5
20B
330
1F
100
AcDbEntity
  8
0
  6
AUSGEZOGEN
 62
     7
370
    35
100
AcDbCircle
 10
2760.054437984663
 20
1279.9023218963
 30
0.0
 40
2.0
100
AcDbArc
 50
180.0
 51
270.0
  0
LINE
  5
20C
330
1F
100
AcDbEntity
  8
0
  6
AUSGEZOGEN
 62
     7
370
    35
100
AcDbLine
 10
2758.054437984663
 20
1290.5559848963
 30
0.0
 11
2758.054437984663
 21
1334.4430688963
 31
0.0
  0
LINE
  5
20D
330
1F
100
AcDbEntity
  8
0
  6
AUSGEZOGEN
 62
     7
370
    35
100
AcDbLine
 10
2759.054437984663
 20
1290.5559848963
 30
0.0
 11
2759.054437984663
 21
1334.4430688963
 31
0.0
  0
LINE
  5
20E
330
1F
100
AcDbEntity
  8
0
  6
AUSGEZOGEN
 62
     7
370
    35
100
AcDbLine
 10
2759.054437984663
 20
1335.5585238963
 30
0.0
 11
2758.054437984663
 21
1335.5585238963
 31
0.0
  0
LINE
  5
20F
330
1F
100
AcDbEntity
  8
0
  6
AUSGEZOGEN
 62
     7
370
    35
100
AcDbLine
 10
2758.054437984663
 20
1334.4430688963
 30
0.0
 11
2758.054437984663
 21
1335.5585238963
 31
0.0
  0
LINE
  5
210
330
1F
100
AcDbEntity
  8
0
  6
AUSGEZOGEN
 62
     7
370
    35
100
AcDbLine
 10
2759.054437984663
 20
1334.4430688963
 30
0.0
 11
2759.054437984663
 21
1335.5585238963
 31
0.0
  0
LINE
  5
211
330
1F
100
AcDbEntity
  8
0
  6
AUSGEZOGEN
 62
     7
370
    35
100
AcDbLine
 10
2759.105153601563
 20
1335.8729426616
 30
0.0
 11
2759.054437984663
 21
1335.5585238963
 31
0.0
  0
LWPOLYLINE
  5
212
330
1F
100
AcDbEntity
  8
0
  6
AUSGEZOGEN
 62
     7
370
    35
100
AcDbPolyline
 90
        7
 70
     0
 43
0.0
 10
2758.155869218466
 20
1336.187361427004
 10
2758.130674568833
 20
1336.11655390914
 10
2758.118414932783
 20
1336.070650159642
 10
2758.106560523249
 20
1336.012146421464
 10
2758.092832927743
 20
1335.920411876601
 10
2758.079702727256
 20
1335.81010211479
 10
2758.054437984647
 20
1335.558523896254
  0
LINE
  5
213
330
1F
100
AcDbEntity
  8
0
  6
AUSGEZOGEN
 62
     7
370
    35
100
AcDbLine
 10
2758.155869218463
 20
1336.187361427
 30
0.0
 11
2759.105153601563
 21
1335.8729426616
 31
0.0
  0
LINE
  5
214
330
1F
100
AcDbEntity
  8
0
  6
AUSGEZOGEN
 62
     7
370
    35
100
AcDbLine
 10
2758.272628731563
 20
1336.4669047557
 30
0.0
 11
2759.163533358163
 21
1336.012714326
 31
0.0
  0
LWPOLYLINE
  5
215
330
1F
100
AcDbEntity
  8
0
  6
AUSGEZOGEN
 62
     7
370
    35
100
AcDbPolyline
 90
        5
 70
     0
 43
0.0
 10
2758.272628731595
 20
1336.466904755662
 10
2758.234098340863
 20
1336.386994524139
 10
2758.202381570655
 20
1336.313432526085
 10
2758.17658085484
 20
1336.246748132992
 10
2758.155869218466
 20
1336.187361427004
  0
LWPOLYLINE
  5
216
330
1F
100
AcDbEntity
  8
0
  6
AUSGEZOGEN
 62
     7
370
    35
100
AcDbPolyline
 90
        5
 70
     0
 43
0.0
 10
2759.163533358121
 20
1336.012714325958
 10
2759.153445660208
 20
1335.992358924005
 10
2759.144268162755
 20
1335.972759210197
 10
2759.128409777652
 20
1335.935978211169
 10
2759.105153601556
 20
1335.872942661629
  0
ARC
  5
217
330
1F
100
AcDbEntity
  8
0
  6
AUSGEZOGEN
 62
     7
370
    35
100
AcDbCircle
 10
2760.054437984663
 20
1335.5585238963
 30
0.0
 40
2.0000000000001
100
AcDbArc
 50
90.0
 51
152.9871428571
  0
ARC
  5
218
330
1F
100
AcDbEntity
  8
0
  6
AUSGEZOGEN
 62
     7
370
    35
100
AcDbCircle
 10
2760.054437984663
 20
1335.5585238963
 30
0.0
 40
0.9999999999997957
100
AcDbArc
 50
90.0
 51
152.9871428571
  0
LINE
  5
219
330
1F
100
AcDbEntity
  8
0
  6
AUSGEZOGEN
 62
     7
370
    35
100
AcDbLine
 10
2760.054437984663
 20
1337.5585238963
 30
0.0
 11
2780.082437984663
 21
1337.5585238963
 31
0.0
  0
LINE
  5
21A
330
1F
100
AcDbEntity
  8
0
  6
AUSGEZOGEN
 62
     7
370
    35
100
AcDbLine
 10
2760.054437984663
 20
1336.5585238963
 30
0.0
 11
2780.082437984663
 21
1336.5585238963
 31
0.0
  0
LINE
  5
21B
330
1F
100
AcDbEntity
  8
0
  6
AUSGEZOGEN
 62
     7
370
    35
100
AcDbLine
 10
2783.082437984663
 20
1336.5585238963
 30
0.0
 11
2783.082437984663
 21
1337.5585238963
 31
0.0
  0
LINE
  5
21C
330
1F
100
AcDbEntity
  8
0
  6
AUSGEZOGEN
 62
     7
370
    35
100
AcDbLine
 10
2780.082437984663
 20
1337.5585238963
 30
0.0
 11
2783.082437984663
 21
1337.5585238963
 31
0.0
  0
LINE
  5
21D
330
1F
100
AcDbEntity
  8
0
  6
AUSGEZOGEN
 62
     7
370
    35
100
AcDbLine
 10
2780.082437984663
 20
1336.5585238963
 30
0.0
 11
2783.082437984663
 21
1336.5585238963
 31
0.0
  0
LWPOLYLINE
  5
21E
330
1F
100
AcDbEntity
  8
0
  6
AUSGEZOGEN
 62
     7
370
    35
100
AcDbPolyline
 90
       16
 70
     0
 43
0.0
 10
2760.054437984647
 20
1347.845354527709
 10
2759.870353443702
 20
1347.632999844988
 10
2759.780883585855
 20
1347.525566776348
 10
2759.694500623158
 20
1347.416626834972
 10
2759.612233520662
 20
1347.305677729946
 10
2759.535111243415
 20
1347.192217170361
 10
2759.46416275647
 20
1347.075742865303
 10
2759.431325235938
 20
1347.016218592312
 10
2759.400417024875
 20
1346.95575252386
 10
2759.348484693281
 20
1346.841354544461
 10
2759.302712926889
 20
1346.72394927544
 10
2759.262221644958
 20
1346.603966329603
 10
2759.226130766742
 20
1346.481835319751
 10
2759.1935602115
 20
1346.357985858687
 10
2759.163629898488
 20
1346.232847559214
 10
2759.108169676181
 20
1345.980422896254
  0
LINE
  5
21F
330
1F
100
AcDbEntity
  8
0
  6
AUSGEZOGEN
 62
     7
370
    35
100
AcDbLine
 10
2759.108169676163
 20
1345.9804228963
 30
0.0
 11
2759.108169676163
 21
1337.3205046817
 31
0.0
  0
LINE
  5
220
330
1F
100
AcDbEntity
  8
0
  6
AUSGEZOGEN
 62
     7
370
    35
100
AcDbLine
 10
2759.108169676163
 20
1335.8811176909
 30
0.0
 11
2759.108169676163
 21
1334.9804228963
 31
0.0
  0
LINE
  5
221
330
1F
100
AcDbEntity
  8
0
  6
AUSGEZOGEN
 62
     7
370
    35
100
AcDbLine
 10
2759.581303830463
 20
1345.9804228963
 30
0.0
 11
2759.581303830463
 21
1337.5017542151
 31
0.0
  0
LINE
  5
222
330
1F
100
AcDbEntity
  8
0
  6
AUSGEZOGEN
 62
     7
370
    35
100
AcDbLine
 10
2759.581303830463
 20
1336.439514289
 30
0.0
 11
2759.581303830463
 21
1334.9804228963
 31
0.0
  0
LWPOLYLINE
  5
223
330
1F
100
AcDbEntity
  8
0
  6
AUSGEZOGEN
 62
     7
370
    35
100
AcDbPolyline
 90
       13
 70
     0
 43
0.0
 10
2760.054437984647
 20
1347.845354527709
 10
2759.961969075103
 20
1347.625672235016
 10
2759.873786681388
 20
1347.404902659016
 10
2759.832642464163
 20
1347.293770363741
 10
2759.794177319331
 20
1347.1819585164
 10
2759.758927061371
 20
1347.069331206577
 10
2759.727427504761
 20
1346.95575252386
 10
2759.699001221717
 20
1346.836413633663
 10
2759.674639268174
 20
1346.716043818164
 10
2759.653761025631
 20
1346.594790352407
 10
2759.635785875587
 20
1346.472800511435
 10
2759.606222379
 20
1346.227200804017
 10
2759.581303830414
 20
1345.980422896254
  0
LINE
  5
224
330
1F
100
AcDbEntity
  8
0
  6
AUSGEZOGEN
 62
     7
370
    35
100
AcDbLine
 10
2759.581303830463
 20
1334.9804228963
 30
0.0
 11
2759.054437984663
 21
1334.9804228963
 31
0.0
  0
LINE
  5
225
330
1F
100
AcDbEntity
  8
0
  6
AUSGEZOGEN
 62
     7
370
    35
100
AcDbLine
 10
2759.054437984663
 20
1281.9804228963
 30
0.0
 11
2760.054437984663
 21
1281.9804228963
 31
0.0
  0
LINE
  5
226
330
1F
100
AcDbEntity
  8
0
  6
AUSGEZOGEN
 62
     7
370
    35
100
AcDbLine
 10
2759.108169676163
 20
1345.9804228963
 30
0.0
 11
2759.581303830463
 21
1345.9804228963
 31
0.0
  0
ARC
  5
227
330
1F
100
AcDbEntity
  8
0
  6
AUSGEZOGEN
 62
     7
370
    35
100
AcDbCircle
 10
2762.404337984663
 20
1345.9804228963
 30
0.0
 40
3.0
100
AcDbArc
 50
90.0
 51
141.563721283
  0
LINE
  5
228
330
1F
100
AcDbEntity
  8
0
  6
AUSGEZOGEN
 62
     7
370
    35
100
AcDbLine
 10
2762.404337984663
 20
1348.9804228963
 30
0.0
 11
2780.082437984663
 21
1348.9804228963
 31
0.0
  0
ARC
  5
229
330
1F
100
AcDbEntity
  8
0
  6
AUSGEZOGEN
 62
     7
370
    35
100
AcDbCircle
 10
2780.082437984663
 20
1345.9804228963
 30
0.0
 40
3.0
100
AcDbArc
 50
0.0
 51
90.0
  0
LINE
  5
22A
330
1F
100
AcDbEntity
  8
0
  6
AUSGEZOGEN
 62
     7
370
    35
100
AcDbLine
 10
2783.082437984663
 20
1345.9804228963
 30
0.0
 11
2783.082437984663
 21
1337.5585238963
 31
0.0
  0
LINE
  5
22B
330
1F
100
AcDbEntity
  8
0
  6
AUSGEZOGEN
 62
     7
370
    35
100
AcDbLine
 10
2783.082437984663
 20
1336.5585238963
 30
0.0
 11
2783.082437984663
 21
1284.9804228963
 31
0.0
  0
ARC
  5
22C
330
1F
100
AcDbEntity
  8
0
  6
AUSGEZOGEN
 62
     7
370
    35
100
AcDbCircle
 10
2780.082437984663
 20
1284.9804228963
 30
0.0
 40
3.000000000000227
100
AcDbArc
 50
270.0
 51
0.0
  0
LINE
  5
22D
330
1F
100
AcDbEntity
  8
0
  6
AUSGEZOGEN
 62
     7
370
    35
100
AcDbLine
 10
2780.082437984663
 20
1281.9804228963
 30
0.0
 11
2760.054437984663
 21
1281.9804228963
 31
0.0
  0
LINE
  5
22E
330
1F
100
AcDbEntity
  8
0
  6
AUSGEZOGEN
 62
     7
370
    35
100
AcDbLine
 10
2898.110437984663
 20
1284.3993678963
 30
0.0
 11
2898.110437984663
 21
1290.5559848963
 31
0.0
  0
LINE
  5
22F
330
1F
100
AcDbEntity
  8
0
  6
AUSGEZOGEN
 62
     7
370
    35
100
AcDbLine
 10
2897.110437984663
 20
1284.3993678963
 30
0.0
 11
2897.110437984663
 21
1290.5559848963
 31
0.0
  0
LINE
  5
230
330
1F
100
AcDbEntity
  8
0
  6
AUSGEZOGEN
 62
     7
370
    35
100
AcDbLine
 10
2886.082437984663
 20
1278.9023218963
 30
0.0
 11
2896.110437984663
 21
1278.9023218963
 31
0.0
  0
LINE
  5
231
330
1F
100
AcDbEntity
  8
0
  6
AUSGEZOGEN
 62
     7
370
    35
100
AcDbLine
 10
2898.110437984663
 20
1279.9023218963
 30
0.0
 11
2898.110437984663
 21
1284.3993678963
 31
0.0
  0
LINE
  5
232
330
1F
100
AcDbEntity
  8
0
  6
AUSGEZOGEN
 62
     7
370
    35
100
AcDbLine
 10
2897.110437984663
 20
1279.9023218963
 30
0.0
 11
2897.110437984663
 21
1284.3993678963
 31
0.0
  0
ARC
  5
233
330
1F
100
AcDbEntity
  8
0
  6
AUSGEZOGEN
 62
     7
370
    35
100
AcDbCircle
 10
2896.110437984663
 20
1279.9023218963
 30
0.0
 40
2.000000000000455
100
AcDbArc
 50
270.0
 51
0.0
  0
ARC
  5
234
330
1F
100
AcDbEntity
  8
0
  6
AUSGEZOGEN
 62
     7
370
    35
100
AcDbCircle
 10
2896.110437984663
 20
1279.9023218963
 30
0.0
 40
1.000000000000455
100
AcDbArc
 50
270.0
 51
0.0
  0
LINE
  5
235
330
1F
100
AcDbEntity
  8
0
  6
AUSGEZOGEN
 62
     7
370
    35
100
AcDbLine
 10
2883.082437984663
 20
1277.9023218963
 30
0.0
 11
2883.082437984663
 21
1278.9023218963
 31
0.0
  0
LINE
  5
236
330
1F
100
AcDbEntity
  8
0
  6
AUSGEZOGEN
 62
     7
370
    35
100
AcDbLine
 10
2883.082437984663
 20
1278.9023218963
 30
0.0
 11
2886.082437984663
 21
1278.9023218963
 31
0.0
  0
LINE
  5
237
330
1F
100
AcDbEntity
  8
0
  6
AUSGEZOGEN
 62
     7
370
    35
100
AcDbLine
 10
2898.110437984663
 20
1290.5559848963
 30
0.0
 11
2898.110437984663
 21
1334.4430688963
 31
0.0
  0
LINE
  5
238
330
1F
100
AcDbEntity
  8
0
  6
AUSGEZOGEN
 62
     7
370
    35
100
AcDbLine
 10
2897.110437984663
 20
1290.5559848963
 30
0.0
 11
2897.110437984663
 21
1334.4430688963
 31
0.0
  0
LINE
  5
239
330
1F
100
AcDbEntity
  8
0
  6
AUSGEZOGEN
 62
     7
370
    35
100
AcDbLine
 10
2897.110437984663
 20
1335.5585238963
 30
0.0
 11
2898.110437984663
 21
1335.5585238963
 31
0.0
  0
LINE
  5
23A
330
1F
100
AcDbEntity
  8
0
  6
AUSGEZOGEN
 62
     7
370
    35
100
AcDbLine
 10
2898.110437984663
 20
1334.4430688963
 30
0.0
 11
2898.110437984663
 21
1335.5585238963
 31
0.0
  0
LINE
  5
23B
330
1F
100
AcDbEntity
  8
0
  6
AUSGEZOGEN
 62
     7
370
    35
100
AcDbLine
 10
2897.110437984663
 20
1334.4430688963
 30
0.0
 11
2897.110437984663
 21
1335.5585238963
 31
0.0
  0
LWPOLYLINE
  5
23C
330
1F
100
AcDbEntity
  8
0
  6
AUSGEZOGEN
 62
     7
370
    35
100
AcDbPolyline
 90
        7
 70
     0
 43
0.0
 10
2898.009006750828
 20
1336.187361427004
 10
2898.034634486711
 20
1336.115794256198
 10
2898.047112238614
 20
1336.068811277015
 10
2898.059186651271
 20
1336.008389025298
 10
2898.072638844803
 20
1335.917226238518
 10
2898.085543015316
 20
1335.807803312755
 10
2898.110437984647
 20
1335.558523896254
  0
LINE
  5
23D
330
1F
100
AcDbEntity
  8
0
  6
AUSGEZOGEN
 62
     7
370
    35
100
AcDbLine
 10
2897.059722367763
 20
1335.8729426616
 30
0.0
 11
2898.009006750863
 21
1336.187361427
 31
0.0
  0
LINE
  5
23E
330
1F
100
AcDbEntity
  8
0
  6
AUSGEZOGEN
 62
     7
370
    35
100
AcDbLine
 10
2897.059722367763
 20
1335.8729426616
 30
0.0
 11
2897.110437984663
 21
1335.5585238963
 31
0.0
  0
LINE
  5
23F
330
1F
100
AcDbEntity
  8
0
  6
AUSGEZOGEN
 62
     7
370
    35
100
AcDbLine
 10
2897.001342611163
 20
1336.012714326
 30
0.0
 11
2897.892247237663
 21
1336.4669047557
 31
0.0
  0
LWPOLYLINE
  5
240
330
1F
100
AcDbEntity
  8
0
  6
AUSGEZOGEN
 62
     7
370
    35
100
AcDbPolyline
 90
        5
 70
     0
 43
0.0
 10
2897.892247237699
 20
1336.466904755662
 10
2897.923030056338
 20
1336.403810818927
 10
2897.953035322343
 20
1336.336235315173
 10
2897.983669145752
 20
1336.25833155906
 10
2898.009006750828
 20
1336.187361427004
  0
LWPOLYLINE
  5
241
330
1F
100
AcDbEntity
  8
0
  6
AUSGEZOGEN
 62
     7
370
    35
100
AcDbPolyline
 90
        5
 70
     0
 43
0.0
 10
2897.001342611172
 20
1336.012714325958
 10
2897.009074349395
 20
1335.997218190668
 10
2897.016734020493
 20
1335.981167357591
 10
2897.031736653495
 20
1335.947379605713
 10
2897.059722367737
 20
1335.872942661629
  0
ARC
  5
242
330
1F
100
AcDbEntity
  8
0
  6
AUSGEZOGEN
 62
     7
370
    35
100
AcDbCircle
 10
2896.110437984663
 20
1335.5585238963
 30
0.0
 40
2.0
100
AcDbArc
 50
27.0128571429
 51
90.0
  0
ARC
  5
243
330
1F
100
AcDbEntity
  8
0
  6
AUSGEZOGEN
 62
     7
370
    35
100
AcDbCircle
 10
2896.110437984663
 20
1335.5585238963
 30
0.0
 40
0.9999999999997957
100
AcDbArc
 50
27.0128571429
 51
90.0
  0
LINE
  5
244
330
1F
100
AcDbEntity
  8
0
  6
AUSGEZOGEN
 62
     7
370
    35
100
AcDbLine
 10
2873.082437984663
 20
1337.5585238963
 30
0.0
 11
2873.082437984663
 21
1336.5585238963
 31
0.0
  0
LINE
  5
245
330
1F
100
AcDbEntity
  8
0
  6
AUSGEZOGEN
 62
     7
370
    35
100
AcDbLine
 10
2876.082437984663
 20
1337.5585238963
 30
0.0
 11
2873.082437984663
 21
1337.5585238963
 31
0.0
  0
LINE
  5
246
330
1F
100
AcDbEntity
  8
0
  6
AUSGEZOGEN
 62
     7
370
    35
100
AcDbLine
 10
2876.082437984663
 20
1336.5585238963
 30
0.0
 11
2873.082437984663
 21
1336.5585238963
 31
0.0
  0
LINE
  5
247
330
1F
100
AcDbEntity
  8
0
  6
AUSGEZOGEN
 62
     7
370
    35
100
AcDbLine
 10
2896.110437984663
 20
1336.5585238963
 30
0.0
 11
2876.082437984663
 21
1336.5585238963
 31
0.0
  0
LINE
  5
248
330
1F
100
AcDbEntity
  8
0
  6
AUSGEZOGEN
 62
     7
370
    35
100
AcDbLine
 10
2896.110437984663
 20
1337.5585238963
 30
0.0
 11
2876.082437984663
 21
1337.5585238963
 31
0.0
  0
LINE
  5
249
330
1F
100
AcDbEntity
  8
0
  6
AUSGEZOGEN
 62
     7
370
    35
100
AcDbLine
 10
2897.110437984663
 20
1281.9804228963
 30
0.0
 11
2896.110437984663
 21
1281.9804228963
 31
0.0
  0
LWPOLYLINE
  5
24A
330
1F
100
AcDbEntity
  8
0
  6
AUSGEZOGEN
 62
     7
370
    35
100
AcDbPolyline
 90
       14
 70
     0
 43
0.0
 10
2896.110437984647
 20
1347.845354527709
 10
2896.208753625342
 20
1347.643242017194
 10
2896.302058804369
 20
1347.439782606156
 10
2896.345266701486
 20
1347.337126906528
 10
2896.38534306006
 20
1347.233629394073
 10
2896.421661572382
 20
1347.129121706226
 10
2896.453595930745
 20
1347.023435480421
 10
2896.485082605217
 20
1346.89715559386
 10
2896.510473420308
 20
1346.769237032715
 10
2896.53063921307
 20
1346.639913893356
 10
2896.54645082056
 20
1346.50942027215
 10
2896.558779079831
 20
1346.377990265468
 10
2896.568494827938
 20
1346.245857969679
 10
2896.58357213888
 20
1345.980422896254
  0
LINE
  5
24B
330
1F
100
AcDbEntity
  8
0
  6
AUSGEZOGEN
 62
     7
370
    35
100
AcDbLine
 10
2896.583572138863
 20
1345.9804228963
 30
0.0
 11
2896.583572138863
 21
1337.5017542151
 31
0.0
  0
LINE
  5
24C
330
1F
100
AcDbEntity
  8
0
  6
AUSGEZOGEN
 62
     7
370
    35
100
AcDbLine
 10
2896.583572138863
 20
1336.439514289
 30
0.0
 11
2896.583572138863
 21
1334.9804228963
 31
0.0
  0
LINE
  5
24D
330
1F
100
AcDbEntity
  8
0
  6
AUSGEZOGEN
 62
     7
370
    35
100
AcDbLine
 10
2896.583572138863
 20
1334.9804228963
 30
0.0
 11
2897.110437984663
 21
1334.9804228963
 31
0.0
  0
LINE
  5
24E
330
1F
100
AcDbEntity
  8
0
  6
AUSGEZOGEN
 62
     7
370
    35
100
AcDbLine
 10
2897.056706293163
 20
1345.9804228963
 30
0.0
 11
2897.056706293163
 21
1337.3205046817
 31
0.0
  0
LINE
  5
24F
330
1F
100
AcDbEntity
  8
0
  6
AUSGEZOGEN
 62
     7
370
    35
100
AcDbLine
 10
2897.056706293163
 20
1335.8809648753
 30
0.0
 11
2897.056706293163
 21
1334.9804228963
 31
0.0
  0
LWPOLYLINE
  5
250
330
1F
100
AcDbEntity
  8
0
  6
AUSGEZOGEN
 62
     7
370
    35
100
AcDbPolyline
 90
       19
 70
     0
 43
0.0
 10
2896.110437984647
 20
1347.845354527709
 10
2896.226130418621
 20
1347.731414297108
 10
2896.340181141082
 20
1347.616122415625
 10
2896.450948440514
 20
1347.498127232376
 10
2896.556790605406
 20
1347.376077096481
 10
2896.623620637135
 20
1347.29195790756
 10
2896.686551119598
 20
1347.205264002481
 10
2896.744592162824
 20
1347.115816240386
 10
2896.796753876844
 20
1347.02343548042
 10
2896.826002728539
 20
1346.964137744813
 10
2896.852735097845
 20
1346.90369990258
 10
2896.877118750253
 20
1346.842197960828
 10
2896.899321451258
 20
1346.779707926667
 10
2896.919510966351
 20
1346.716305807205
 10
2896.937855061026
 20
1346.65206760955
 10
2896.969678051089
 20
1346.521387008095
 10
2896.996132545388
 20
1346.388274179171
 10
2897.018560667865
 20
1346.253337179644
 10
2897.056706293113
 20
1345.980422896254
  0
LINE
  5
251
330
1F
100
AcDbEntity
  8
0
  6
AUSGEZOGEN
 62
     7
370
    35
100
AcDbLine
 10
2896.583572138863
 20
1345.9804228963
 30
0.0
 11
2897.056706293163
 21
1345.9804228963
 31
0.0
  0
LINE
  5
252
330
1F
100
AcDbEntity
  8
0
  6
AUSGEZOGEN
 62
     7
370
    35
100
AcDbLine
 10
2876.082437984663
 20
1281.9804228963
 30
0.0
 11
2896.110437984663
 21
1281.9804228963
 31
0.0
  0
ARC
  5
253
330
1F
100
AcDbEntity
  8
0
  6
AUSGEZOGEN
 62
     7
370
    35
100
AcDbCircle
 10
2876.082437984663
 20
1284.9804228963
 30
0.0
 40
3.0
100
AcDbArc
 50
180.0
 51
270.0
  0
LINE
  5
254
330
1F
100
AcDbEntity
  8
0
  6
AUSGEZOGEN
 62
     7
370
    35
100
AcDbLine
 10
2873.082437984663
 20
1345.9804228963
 30
0.0
 11
2873.082437984663
 21
1337.5585238963
 31
0.0
  0
LINE
  5
255
330
1F
100
AcDbEntity
  8
0
  6
AUSGEZOGEN
 62
     7
370
    35
100
AcDbLine
 10
2873.082437984663
 20
1336.5585238963
 30
0.0
 11
2873.082437984663
 21
1284.9804228963
 31
0.0
  0
ARC
  5
256
330
1F
100
AcDbEntity
  8
0
  6
AUSGEZOGEN
 62
     7
370
    35
100
AcDbCircle
 10
2876.082437984663
 20
1345.9804228963
 30
0.0
 40
3.0
100
AcDbArc
 50
90.0
 51
180.0
  0
LINE
  5
257
330
1F
100
AcDbEntity
  8
0
  6
AUSGEZOGEN
 62
     7
370
    35
100
AcDbLine
 10
2893.760537984663
 20
1348.9804228963
 30
0.0
 11
2876.082437984663
 21
1348.9804228963
 31
0.0
  0
ARC
  5
258
330
1F
100
AcDbEntity
  8
0
  6
AUSGEZOGEN
 62
     7
370
    35
100
AcDbCircle
 10
2893.760537984663
 20
1345.9804228963
 30
0.0
 40
2.999999999999842
100
AcDbArc
 50
38.436278717
 51
90.0
  0
LINE
  5
259
330
1F
100
AcDbEntity
  8
0
  6
AUSGEZOGEN
 62
     7
370
    35
100
AcDbLine
 10
3133.110437984663
 20
1284.3993678963
 30
0.0
 11
3133.110437984663
 21
1290.5559848963
 31
0.0
  0
LINE
  5
25A
330
1F
100
AcDbEntity
  8
0
  6
AUSGEZOGEN
 62
     7
370
    35
100
AcDbLine
 10
3132.110437984663
 20
1284.3993678963
 30
0.0
 11
3132.110437984663
 21
1290.5559848963
 31
0.0
  0
LINE
  5
25B
330
1F
100
AcDbEntity
  8
0
  6
AUSGEZOGEN
 62
     7
370
    35
100
AcDbLine
 10
3121.082437984663
 20
1278.9023218963
 30
0.0
 11
3131.110437984663
 21
1278.9023218963
 31
0.0
  0
ARC
  5
25C
330
1F
100
AcDbEntity
  8
0
  6
AUSGEZOGEN
 62
     7
370
    35
100
AcDbCircle
 10
3131.110437984663
 20
1279.9023218963
 30
0.0
 40
2.0
100
AcDbArc
 50
270.0
 51
0.0
  0
ARC
  5
25D
330
1F
100
AcDbEntity
  8
0
  6
AUSGEZOGEN
 62
     7
370
    35
100
AcDbCircle
 10
3131.110437984663
 20
1279.9023218963
 30
0.0
 40
1.0
100
AcDbArc
 50
270.0
 51
0.0
  0
LINE
  5
25E
330
1F
100
AcDbEntity
  8
0
  6
AUSGEZOGEN
 62
     7
370
    35
100
AcDbLine
 10
3133.110437984663
 20
1279.9023218963
 30
0.0
 11
3133.110437984663
 21
1284.3993678963
 31
0.0
  0
LINE
  5
25F
330
1F
100
AcDbEntity
  8
0
  6
AUSGEZOGEN
 62
     7
370
    35
100
AcDbLine
 10
3132.110437984663
 20
1279.9023218963
 30
0.0
 11
3132.110437984663
 21
1284.3993678963
 31
0.0
  0
LINE
  5
260
330
1F
100
AcDbEntity
  8
0
  6
AUSGEZOGEN
 62
     7
370
    35
100
AcDbLine
 10
3118.082437984663
 20
1277.9023218963
 30
0.0
 11
3118.082437984663
 21
1278.9023218963
 31
0.0
  0
LINE
  5
261
330
1F
100
AcDbEntity
  8
0
  6
AUSGEZOGEN
 62
     7
370
    35
100
AcDbLine
 10
3118.082437984663
 20
1278.9023218963
 30
0.0
 11
3121.082437984663
 21
1278.9023218963
 31
0.0
  0
LINE
  5
262
330
1F
100
AcDbEntity
  8
0
  6
AUSGEZOGEN
 62
     7
370
    35
100
AcDbLine
 10
3133.110437984663
 20
1290.5559848963
 30
0.0
 11
3133.110437984663
 21
1334.4430688963
 31
0.0
  0
LINE
  5
263
330
1F
100
AcDbEntity
  8
0
  6
AUSGEZOGEN
 62
     7
370
    35
100
AcDbLine
 10
3132.110437984663
 20
1290.5559848963
 30
0.0
 11
3132.110437984663
 21
1334.4430688963
 31
0.0
  0
LINE
  5
264
330
1F
100
AcDbEntity
  8
0
  6
AUSGEZOGEN
 62
     7
370
    35
100
AcDbLine
 10
3132.110437984663
 20
1335.5585238963
 30
0.0
 11
3133.110437984663
 21
1335.5585238963
 31
0.0
  0
LINE
  5
265
330
1F
100
AcDbEntity
  8
0
  6
AUSGEZOGEN
 62
     7
370
    35
100
AcDbLine
 10
3133.110437984663
 20
1334.4430688963
 30
0.0
 11
3133.110437984663
 21
1335.5585238963
 31
0.0
  0
LINE
  5
266
330
1F
100
AcDbEntity
  8
0
  6
AUSGEZOGEN
 62
     7
370
    35
100
AcDbLine
 10
3132.110437984663
 20
1334.4430688963
 30
0.0
 11
3132.110437984663
 21
1335.5585238963
 31
0.0
  0
LWPOLYLINE
  5
267
330
1F
100
AcDbEntity
  8
0
  6
AUSGEZOGEN
 62
     7
370
    35
100
AcDbPolyline
 90
        7
 70
     0
 43
0.0
 10
3133.009006750828
 20
1336.187361427004
 10
3133.034634486711
 20
1336.115794256198
 10
3133.047112238614
 20
1336.068811277015
 10
3133.05918665127
 20
1336.008389025298
 10
3133.072638844802
 20
1335.917226238518
 10
3133.085543015316
 20
1335.807803312755
 10
3133.110437984647
 20
1335.558523896254
  0
LINE
  5
268
330
1F
100
AcDbEntity
  8
0
  6
AUSGEZOGEN
 62
     7
370
    35
100
AcDbLine
 10
3132.059722367763
 20
1335.8729426616
 30
0.0
 11
3133.009006750863
 21
1336.187361427
 31
0.0
  0
LINE
  5
269
330
1F
100
AcDbEntity
  8
0
  6
AUSGEZOGEN
 62
     7
370
    35
100
AcDbLine
 10
3132.059722367763
 20
1335.8729426616
 30
0.0
 11
3132.110437984663
 21
1335.5585238963
 31
0.0
  0
LINE
  5
26A
330
1F
100
AcDbEntity
  8
0
  6
AUSGEZOGEN
 62
     7
370
    35
100
AcDbLine
 10
3132.001342611163
 20
1336.012714326
 30
0.0
 11
3132.892247237663
 21
1336.4669047557
 31
0.0
  0
LWPOLYLINE
  5
26B
330
1F
100
AcDbEntity
  8
0
  6
AUSGEZOGEN
 62
     7
370
    35
100
AcDbPolyline
 90
        5
 70
     0
 43
0.0
 10
3132.892247237698
 20
1336.466904755662
 10
3132.923030056338
 20
1336.403810818927
 10
3132.953035322342
 20
1336.336235315173
 10
3132.983669145752
 20
1336.25833155906
 10
3133.009006750828
 20
1336.187361427004
  0
LWPOLYLINE
  5
26C
330
1F
100
AcDbEntity
  8
0
  6
AUSGEZOGEN
 62
     7
370
    35
100
AcDbPolyline
 90
        5
 70
     0
 43
0.0
 10
3132.001342611172
 20
1336.012714325958
 10
3132.009074349396
 20
1335.997218190668
 10
3132.016734020493
 20
1335.981167357591
 10
3132.031736653495
 20
1335.947379605713
 10
3132.059722367737
 20
1335.872942661629
  0
ARC
  5
26D
330
1F
100
AcDbEntity
  8
0
  6
AUSGEZOGEN
 62
     7
370
    35
100
AcDbCircle
 10
3131.110437984663
 20
1335.5585238963
 30
0.0
 40
2.0
100
AcDbArc
 50
27.0128571429
 51
90.0
  0
ARC
  5
26E
330
1F
100
AcDbEntity
  8
0
  6
AUSGEZOGEN
 62
     7
370
    35
100
AcDbCircle
 10
3131.110437984663
 20
1335.5585238963
 30
0.0
 40
1.000000000000201
100
AcDbArc
 50
27.0128571428
 51
90.0
  0
LINE
  5
26F
330
1F
100
AcDbEntity
  8
0
  6
AUSGEZOGEN
 62
     7
370
    35
100
AcDbLine
 10
3108.082437984663
 20
1337.5585238963
 30
0.0
 11
3108.082437984663
 21
1336.5585238963
 31
0.0
  0
LINE
  5
270
330
1F
100
AcDbEntity
  8
0
  6
AUSGEZOGEN
 62
     7
370
    35
100
AcDbLine
 10
3111.082437984663
 20
1337.5585238963
 30
0.0
 11
3108.082437984663
 21
1337.5585238963
 31
0.0
  0
LINE
  5
271
330
1F
100
AcDbEntity
  8
0
  6
AUSGEZOGEN
 62
     7
370
    35
100
AcDbLine
 10
3111.082437984663
 20
1336.5585238963
 30
0.0
 11
3108.082437984663
 21
1336.5585238963
 31
0.0
  0
LINE
  5
272
330
1F
100
AcDbEntity
  8
0
  6
AUSGEZOGEN
 62
     7
370
    35
100
AcDbLine
 10
3131.110437984663
 20
1337.5585238963
 30
0.0
 11
3111.082437984663
 21
1337.5585238963
 31
0.0
  0
LINE
  5
273
330
1F
100
AcDbEntity
  8
0
  6
AUSGEZOGEN
 62
     7
370
    35
100
AcDbLine
 10
3131.110437984663
 20
1336.5585238963
 30
0.0
 11
3111.082437984663
 21
1336.5585238963
 31
0.0
  0
LINE
  5
274
330
1F
100
AcDbEntity
  8
0
  6
AUSGEZOGEN
 62
     7
370
    35
100
AcDbLine
 10
3132.110437984663
 20
1281.9804228963
 30
0.0
 11
3131.110437984663
 21
1281.9804228963
 31
0.0
  0
LWPOLYLINE
  5
275
330
1F
100
AcDbEntity
  8
0
  6
AUSGEZOGEN
 62
     7
370
    35
100
AcDbPolyline
 90
       14
 70
     0
 43
0.0
 10
3131.110437984647
 20
1347.845354527709
 10
3131.208753625343
 20
1347.643242017194
 10
3131.302058804369
 20
1347.439782606157
 10
3131.345266701485
 20
1347.337126906528
 10
3131.38534306006
 20
1347.233629394073
 10
3131.421661572383
 20
1347.129121706226
 10
3131.453595930746
 20
1347.023435480421
 10
3131.485082605218
 20
1346.89715559386
 10
3131.510473420308
 20
1346.769237032715
 10
3131.530639213071
 20
1346.639913893355
 10
3131.54645082056
 20
1346.50942027215
 10
3131.558779079831
 20
1346.377990265468
 10
3131.568494827938
 20
1346.245857969679
 10
3131.58357213888
 20
1345.980422896254
  0
LINE
  5
276
330
1F
100
AcDbEntity
  8
0
  6
AUSGEZOGEN
 62
     7
370
    35
100
AcDbLine
 10
3131.583572138863
 20
1345.9804228963
 30
0.0
 11
3131.583572138863
 21
1337.5017542151
 31
0.0
  0
LINE
  5
277
330
1F
100
AcDbEntity
  8
0
  6
AUSGEZOGEN
 62
     7
370
    35
100
AcDbLine
 10
3131.583572138863
 20
1336.439514289
 30
0.0
 11
3131.583572138863
 21
1334.9804228963
 31
0.0
  0
LINE
  5
278
330
1F
100
AcDbEntity
  8
0
  6
AUSGEZOGEN
 62
     7
370
    35
100
AcDbLine
 10
3131.583572138863
 20
1334.9804228963
 30
0.0
 11
3132.110437984663
 21
1334.9804228963
 31
0.0
  0
LINE
  5
279
330
1F
100
AcDbEntity
  8
0
  6
AUSGEZOGEN
 62
     7
370
    35
100
AcDbLine
 10
3132.056706293163
 20
1345.9804228963
 30
0.0
 11
3132.056706293063
 21
1337.3205046817
 31
0.0
  0
LINE
  5
27A
330
1F
100
AcDbEntity
  8
0
  6
AUSGEZOGEN
 62
     7
370
    35
100
AcDbLine
 10
3132.056706293063
 20
1335.8809648753
 30
0.0
 11
3132.056706293063
 21
1334.9804228963
 31
0.0
  0
LWPOLYLINE
  5
27B
330
1F
100
AcDbEntity
  8
0
  6
AUSGEZOGEN
 62
     7
370
    35
100
AcDbPolyline
 90
       19
 70
     0
 43
0.0
 10
3131.110437984647
 20
1347.845354527709
 10
3131.226130418621
 20
1347.731414297108
 10
3131.340181141082
 20
1347.616122415625
 10
3131.450948440515
 20
1347.498127232377
 10
3131.556790605406
 20
1347.376077096481
 10
3131.623620637135
 20
1347.29195790756
 10
3131.686551119597
 20
1347.20526400248
 10
3131.744592162824
 20
1347.115816240386
 10
3131.796753876845
 20
1347.02343548042
 10
3131.826002728539
 20
1346.964137744813
 10
3131.852735097845
 20
1346.90369990258
 10
3131.877118750253
 20
1346.842197960828
 10
3131.899321451258
 20
1346.779707926667
 10
3131.919510966351
 20
1346.716305807205
 10
3131.937855061025
 20
1346.65206760955
 10
3131.969678051089
 20
1346.521387008095
 10
3131.996132545389
 20
1346.388274179171
 10
3132.018560667865
 20
1346.253337179644
 10
3132.056706293113
 20
1345.980422896254
  0
LINE
  5
27C
330
1F
100
AcDbEntity
  8
0
  6
AUSGEZOGEN
 62
     7
370
    35
100
AcDbLine
 10
3131.583572138863
 20
1345.9804228963
 30
0.0
 11
3132.056706293163
 21
1345.9804228963
 31
0.0
  0
LINE
  5
27D
330
1F
100
AcDbEntity
  8
0
  6
AUSGEZOGEN
 62
     7
370
    35
100
AcDbLine
 10
3111.082437984663
 20
1281.9804228963
 30
0.0
 11
3131.110437984663
 21
1281.9804228963
 31
0.0
  0
ARC
  5
27E
330
1F
100
AcDbEntity
  8
0
  6
AUSGEZOGEN
 62
     7
370
    35
100
AcDbCircle
 10
3111.082437984663
 20
1284.9804228963
 30
0.0
 40
3.000000000000455
100
AcDbArc
 50
180.0
 51
270.0
  0
LINE
  5
27F
330
1F
100
AcDbEntity
  8
0
  6
AUSGEZOGEN
 62
     7
370
    35
100
AcDbLine
 10
3108.082437984663
 20
1345.9804228963
 30
0.0
 11
3108.082437984663
 21
1337.5585238963
 31
0.0
  0
LINE
  5
280
330
1F
100
AcDbEntity
  8
0
  6
AUSGEZOGEN
 62
     7
370
    35
100
AcDbLine
 10
3108.082437984663
 20
1336.5585238963
 30
0.0
 11
3108.082437984663
 21
1284.9804228963
 31
0.0
  0
ARC
  5
281
330
1F
100
AcDbEntity
  8
0
  6
AUSGEZOGEN
 62
     7
370
    35
100
AcDbCircle
 10
3111.082437984663
 20
1345.9804228963
 30
0.0
 40
3.000000000000455
100
AcDbArc
 50
90.0
 51
180.0
  0
LINE
  5
282
330
1F
100
AcDbEntity
  8
0
  6
AUSGEZOGEN
 62
     7
370
    35
100
AcDbLine
 10
3128.760537984663
 20
1348.9804228963
 30
0.0
 11
3111.082437984663
 21
1348.9804228963
 31
0.0
  0
ARC
  5
283
330
1F
100
AcDbEntity
  8
0
  6
AUSGEZOGEN
 62
     7
370
    35
100
AcDbCircle
 10
3128.760537984663
 20
1345.9804228963
 30
0.0
 40
2.999999999999842
100
AcDbArc
 50
38.436278717
 51
90.0
  0
LINE
  5
284
330
1F
100
AcDbEntity
  8
0
  6
AUSGEZOGEN
 62
     7
370
    35
100
AcDbLine
 10
3095.782437984663
 20
946.3023218963
 30
0.0
 11
2795.782437984663
 21
946.3023218963
 31
0.0
  0
LINE
  5
285
330
1F
100
AcDbEntity
  8
0
  6
AUSGEZOGEN
 62
     7
370
    35
100
AcDbLine
 10
2795.782437984663
 20
1066.3023218963
 30
0.0
 11
3095.782437984663
 21
1066.3023218963
 31
0.0
  0
LINE
  5
286
330
1F
100
AcDbEntity
  8
0
  6
AUSGEZOGEN
 62
     7
370
    35
100
AcDbLine
 10
3095.782437984663
 20
1066.3023218963
 30
0.0
 11
3095.782437984663
 21
946.3023218963
 31
0.0
  0
LINE
  5
287
330
1F
100
AcDbEntity
  8
0
  6
AUSGEZOGEN
 62
     7
370
    35
100
AcDbLine
 10
2795.782437984663
 20
946.3023218963
 30
0.0
 11
2795.782437984663
 21
1066.3023218963
 31
0.0
  0
CIRCLE
  5
288
330
1F
100
AcDbEntity
  8
0
  6
AUSGEZOGEN
 62
     7
370
    35
100
AcDbCircle
 10
2945.382437984663
 20
869.0043218963
 30
0.0
 40
2.5
  0
CIRCLE
  5
289
330
1F
100
AcDbEntity
  8
0
  6
AUSGEZOGEN
 62
     7
370
    35
100
AcDbCircle
 10
2945.382437984663
 20
869.0043218963
 30
0.0
 40
3.249999999999886
  0
CIRCLE
  5
28A
330
1F
100
AcDbEntity
  8
0
  6
AUSGEZOGEN
 62
     7
370
    35
100
AcDbCircle
 10
3153.680437984663
 20
1242.1023218963
 30
0.0
 40
2.500000000000455
  0
CIRCLE
  5
28B
330
1F
100
AcDbEntity
  8
0
  6
AUSGEZOGEN
 62
     7
370
    35
100
AcDbCircle
 10
3153.680437984663
 20
1242.1023218963
 30
0.0
 40
3.25
  0
CIRCLE
  5
28C
330
1F
100
AcDbEntity
  8
0
  6
AUSGEZOGEN
 62
     7
370
    35
100
AcDbCircle
 10
3120.582437984663
 20
1343.9804228963
 30
0.0
 40
2.500000000000144
  0
CIRCLE
  5
28D
330
1F
100
AcDbEntity
  8
0
  6
AUSGEZOGEN
 62
     7
370
    35
100
AcDbCircle
 10
3120.582437984663
 20
1343.9804228963
 30
0.0
 40
3.249999999999807
  0
CIRCLE
  5
28E
330
1F
100
AcDbEntity
  8
0
  6
AUSGEZOGEN
 62
     7
370
    35
100
AcDbCircle
 10
2770.582437984663
 20
1343.9804228963
 30
0.0
 40
2.500000000000144
  0
CIRCLE
  5
28F
330
1F
100
AcDbEntity
  8
0
  6
AUSGEZOGEN
 62
     7
370
    35
100
AcDbCircle
 10
2770.582437984663
 20
1343.9804228963
 30
0.0
 40
3.250000000000141
  0
CIRCLE
  5
290
330
1F
100
AcDbEntity
  8
0
  6
AUSGEZOGEN
 62
     7
370
    35
100
AcDbCircle
 10
3153.680437984663
 20
917.1023218963
 30
0.0
 40
2.5
  0
CIRCLE
  5
291
330
1F
100
AcDbEntity
  8
0
  6
AUSGEZOGEN
 62
     7
370
    35
100
AcDbCircle
 10
3153.680437984663
 20
917.1023218963
 30
0.0
 40
3.25
  0
CIRCLE
  5
292
330
1F
100
AcDbEntity
  8
0
  6
AUSGEZOGEN
 62
     7
370
    35
100
AcDbCircle
 10
2885.582437984663
 20
1343.9804228963
 30
0.0
 40
2.500000000000144
  0
CIRCLE
  5
293
330
1F
100
AcDbEntity
  8
0
  6
AUSGEZOGEN
 62
     7
370
    35
100
AcDbCircle
 10
2885.582437984663
 20
1343.9804228963
 30
0.0
 40
3.250000000000141
  0
CIRCLE
  5
294
330
1F
100
AcDbEntity
  8
0
  6
AUSGEZOGEN
 62
     7
370
    35
100
AcDbCircle
 10
2737.484437984663
 20
1242.1023218963
 30
0.0
 40
2.5
  0
CIRCLE
  5
295
330
1F
100
AcDbEntity
  8
0
  6
AUSGEZOGEN
 62
     7
370
    35
100
AcDbCircle
 10
2737.484437984663
 20
1242.1023218963
 30
0.0
 40
3.249999999999545
  0
CIRCLE
  5
296
330
1F
100
AcDbEntity
  8
0
  6
AUSGEZOGEN
 62
     7
370
    35
100
AcDbCircle
 10
3005.582437984663
 20
1343.9804228963
 30
0.0
 40
2.500000000000478
  0
CIRCLE
  5
297
330
1F
100
AcDbEntity
  8
0
  6
AUSGEZOGEN
 62
     7
370
    35
100
AcDbCircle
 10
3005.582437984663
 20
1343.9804228963
 30
0.0
 40
3.249999999999807
  0
CIRCLE
  5
298
330
1F
100
AcDbEntity
  8
0
  6
AUSGEZOGEN
 62
     7
370
    35
100
AcDbCircle
 10
2737.484437984663
 20
917.1023218963
 30
0.0
 40
2.5
  0
CIRCLE
  5
299
330
1F
100
AcDbEntity
  8
0
  6
AUSGEZOGEN
 62
     7
370
    35
100
AcDbCircle
 10
2737.484437984663
 20
917.1023218963
 30
0.0
 40
3.249999999999545
  0
LINE
  5
29A
330
1F
100
AcDbEntity
  8
0
  6
AUSGEZOGEN
 62
     7
370
    35
100
AcDbLine
 10
3146.382437984663
 20
904.6023218963
 30
0.0
 11
3147.382437984663
 21
904.6023218963
 31
0.0
  0
LINE
  5
29B
330
1F
100
AcDbEntity
  8
0
  6
AUSGEZOGEN
 62
     7
370
    35
100
AcDbLine
 10
3147.382437984663
 20
906.6023218963
 30
0.0
 11
3147.382437984663
 21
904.6023218963
 31
0.0
  0
LINE
  5
29C
330
1F
100
AcDbEntity
  8
0
  6
AUSGEZOGEN
 62
     7
370
    35
100
AcDbLine
 10
3147.382437984663
 20
927.6023218963
 30
0.0
 11
3147.382437984663
 21
906.6023218963
 31
0.0
  0
LINE
  5
29D
330
1F
100
AcDbEntity
  8
0
  6
AUSGEZOGEN
 62
     7
370
    35
100
AcDbLine
 10
3146.382437984663
 20
929.6023218963
 30
0.0
 11
3147.382437984663
 21
929.6023218963
 31
0.0
  0
LINE
  5
29E
330
1F
100
AcDbEntity
  8
0
  6
AUSGEZOGEN
 62
     7
370
    35
100
AcDbLine
 10
3147.382437984663
 20
929.6023218963
 30
0.0
 11
3147.382437984663
 21
927.6023218963
 31
0.0
  0
LINE
  5
29F
330
1F
100
AcDbEntity
  8
0
  6
AUSGEZOGEN
 62
     7
370
    35
100
AcDbLine
 10
3147.382437984663
 20
933.6023218963
 30
0.0
 11
3147.382437984663
 21
929.6023218963
 31
0.0
  0
LINE
  5
2A0
330
1F
100
AcDbEntity
  8
0
  6
AUSGEZOGEN
 62
     7
370
    35
100
AcDbLine
 10
3147.382437984663
 20
904.6023218963
 30
0.0
 11
3147.382437984663
 21
900.6023218963
 31
0.0
  0
LINE
  5
2A1
330
1F
100
AcDbEntity
  8
0
  6
AUSGEZOGEN
 62
     7
370
    35
100
AcDbLine
 10
3147.382437984663
 20
940.1023218963
 30
0.0
 11
3147.382437984663
 21
933.6023218963
 31
0.0
  0
LINE
  5
2A2
330
1F
100
AcDbEntity
  8
0
  6
AUSGEZOGEN
 62
     7
370
    35
100
AcDbLine
 10
3146.382437984663
 20
942.1023218963
 30
0.0
 11
3147.382437984663
 21
942.1023218963
 31
0.0
  0
LINE
  5
2A3
330
1F
100
AcDbEntity
  8
0
  6
AUSGEZOGEN
 62
     7
370
    35
100
AcDbLine
 10
3147.382437984663
 20
942.1023218963
 30
0.0
 11
3147.382437984663
 21
940.1023218963
 31
0.0
  0
LINE
  5
2A4
330
1F
100
AcDbEntity
  8
0
  6
AUSGEZOGEN
 62
     7
370
    35
100
AcDbLine
 10
3146.382437984663
 20
892.1023218963
 30
0.0
 11
3147.382437984663
 21
892.1023218963
 31
0.0
  0
LINE
  5
2A5
330
1F
100
AcDbEntity
  8
0
  6
AUSGEZOGEN
 62
     7
370
    35
100
AcDbLine
 10
3147.382437984663
 20
894.1023218963
 30
0.0
 11
3147.382437984663
 21
892.1023218963
 31
0.0
  0
LINE
  5
2A6
330
1F
100
AcDbEntity
  8
0
  6
AUSGEZOGEN
 62
     7
370
    35
100
AcDbLine
 10
3147.382437984663
 20
900.6023218963
 30
0.0
 11
3147.382437984663
 21
894.1023218963
 31
0.0
  0
LINE
  5
2A7
330
1F
100
AcDbEntity
  8
0
  6
AUSGEZOGEN
 62
     7
370
    35
100
AcDbLine
 10
3148.382437984663
 20
892.1023218963
 30
0.0
 11
3147.382437984663
 21
892.1023218963
 31
0.0
  0
LINE
  5
2A8
330
1F
100
AcDbEntity
  8
0
  6
AUSGEZOGEN
 62
     7
370
    35
100
AcDbLine
 10
3147.382437984663
 20
942.1023218963
 30
0.0
 11
3148.382437984663
 21
942.1023218963
 31
0.0
  0
ARC
  5
2A9
330
1F
100
AcDbEntity
  8
0
  6
AUSGEZOGEN
 62
     7
370
    35
100
AcDbCircle
 10
3155.380437984663
 20
940.1023218963
 30
0.0
 40
2.0
100
AcDbArc
 50
0.0
 51
90.0
  0
LINE
  5
2AA
330
1F
100
AcDbEntity
  8
0
  6
AUSGEZOGEN
 62
     7
370
    35
100
AcDbLine
 10
3157.380437984663
 20
894.1023218963
 30
0.0
 11
3157.380437984663
 21
940.1023218963
 31
0.0
  0
ARC
  5
2AB
330
1F
100
AcDbEntity
  8
0
  6
AUSGEZOGEN
 62
     7
370
    35
100
AcDbCircle
 10
3155.380437984663
 20
894.1023218963
 30
0.0
 40
2.000000000000114
100
AcDbArc
 50
270.0
 51
0.0
  0
LINE
  5
2AC
330
1F
100
AcDbEntity
  8
0
  6
AUSGEZOGEN
 62
     7
370
    35
100
AcDbLine
 10
3148.382437984663
 20
892.1023218963
 30
0.0
 11
3155.380437984663
 21
892.1023218963
 31
0.0
  0
LINE
  5
2AD
330
1F
100
AcDbEntity
  8
0
  6
AUSGEZOGEN
 62
     7
370
    35
100
AcDbLine
 10
3155.380437984663
 20
942.1023218963
 30
0.0
 11
3148.382437984663
 21
942.1023218963
 31
0.0
  0
LINE
  5
2AE
330
1F
100
AcDbEntity
  8
0
  6
AUSGEZOGEN
 62
     7
370
    35
100
AcDbLine
 10
3146.382437984663
 20
1229.6023218963
 30
0.0
 11
3147.382437984663
 21
1229.6023218963
 31
0.0
  0
LINE
  5
2AF
330
1F
100
AcDbEntity
  8
0
  6
AUSGEZOGEN
 62
     7
370
    35
100
AcDbLine
 10
3147.382437984663
 20
1231.6023218963
 30
0.0
 11
3147.382437984663
 21
1229.6023218963
 31
0.0
  0
LINE
  5
2B0
330
1F
100
AcDbEntity
  8
0
  6
AUSGEZOGEN
 62
     7
370
    35
100
AcDbLine
 10
3146.382437984663
 20
1254.6023218963
 30
0.0
 11
3147.382437984663
 21
1254.6023218963
 31
0.0
  0
LINE
  5
2B1
330
1F
100
AcDbEntity
  8
0
  6
AUSGEZOGEN
 62
     7
370
    35
100
AcDbLine
 10
3147.382437984663
 20
1254.6023218963
 30
0.0
 11
3147.382437984663
 21
1252.6023218963
 31
0.0
  0
LINE
  5
2B2
330
1F
100
AcDbEntity
  8
0
  6
AUSGEZOGEN
 62
     7
370
    35
100
AcDbLine
 10
3147.382437984663
 20
1252.6023218963
 30
0.0
 11
3147.382437984663
 21
1231.6023218963
 31
0.0
  0
LINE
  5
2B3
330
1F
100
AcDbEntity
  8
0
  6
AUSGEZOGEN
 62
     7
370
    35
100
AcDbLine
 10
3147.382437984663
 20
1258.6023218963
 30
0.0
 11
3147.382437984663
 21
1254.6023218963
 31
0.0
  0
LINE
  5
2B4
330
1F
100
AcDbEntity
  8
0
  6
AUSGEZOGEN
 62
     7
370
    35
100
AcDbLine
 10
3147.382437984663
 20
1229.6023218963
 30
0.0
 11
3147.382437984663
 21
1225.6023218963
 31
0.0
  0
LINE
  5
2B5
330
1F
100
AcDbEntity
  8
0
  6
AUSGEZOGEN
 62
     7
370
    35
100
AcDbLine
 10
3146.382437984663
 20
1267.1023218963
 30
0.0
 11
3147.382437984663
 21
1267.1023218963
 31
0.0
  0
LINE
  5
2B6
330
1F
100
AcDbEntity
  8
0
  6
AUSGEZOGEN
 62
     7
370
    35
100
AcDbLine
 10
3146.382437984663
 20
1267.1023218963
 30
0.0
 11
3146.382437984663
 21
1265.1023218963
 31
0.0
  0
LINE
  5
2B7
330
1F
100
AcDbEntity
  8
0
  6
AUSGEZOGEN
 62
     7
370
    35
100
AcDbLine
 10
3147.382437984663
 20
1267.1023218963
 30
0.0
 11
3147.382437984663
 21
1265.1023218963
 31
0.0
  0
LINE
  5
2B8
330
1F
100
AcDbEntity
  8
0
  6
AUSGEZOGEN
 62
     7
370
    35
100
AcDbLine
 10
3147.382437984663
 20
1265.1023218963
 30
0.0
 11
3147.382437984663
 21
1258.6023218963
 31
0.0
  0
LINE
  5
2B9
330
1F
100
AcDbEntity
  8
0
  6
AUSGEZOGEN
 62
     7
370
    35
100
AcDbLine
 10
3146.382437984663
 20
1217.1023218963
 30
0.0
 11
3147.382437984663
 21
1217.1023218963
 31
0.0
  0
LINE
  5
2BA
330
1F
100
AcDbEntity
  8
0
  6
AUSGEZOGEN
 62
     7
370
    35
100
AcDbLine
 10
3147.382437984663
 20
1219.1023218963
 30
0.0
 11
3147.382437984663
 21
1217.1023218963
 31
0.0
  0
LINE
  5
2BB
330
1F
100
AcDbEntity
  8
0
  6
AUSGEZOGEN
 62
     7
370
    35
100
AcDbLine
 10
3147.382437984663
 20
1225.6023218963
 30
0.0
 11
3147.382437984663
 21
1219.1023218963
 31
0.0
  0
LINE
  5
2BC
330
1F
100
AcDbEntity
  8
0
  6
AUSGEZOGEN
 62
     7
370
    35
100
AcDbLine
 10
3148.382437984663
 20
1217.1023218963
 30
0.0
 11
3147.382437984663
 21
1217.1023218963
 31
0.0
  0
LINE
  5
2BD
330
1F
100
AcDbEntity
  8
0
  6
AUSGEZOGEN
 62
     7
370
    35
100
AcDbLine
 10
3147.382437984663
 20
1267.1023218963
 30
0.0
 11
3148.382437984663
 21
1267.1023218963
 31
0.0
  0
ARC
  5
2BE
330
1F
100
AcDbEntity
  8
0
  6
AUSGEZOGEN
 62
     7
370
    35
100
AcDbCircle
 10
3155.380437984663
 20
1265.1023218963
 30
0.0
 40
2.000000000000455
100
AcDbArc
 50
0.0
 51
90.0
  0
LINE
  5
2BF
330
1F
100
AcDbEntity
  8
0
  6
AUSGEZOGEN
 62
     7
370
    35
100
AcDbLine
 10
3157.380437984663
 20
1219.1023218963
 30
0.0
 11
3157.380437984663
 21
1265.1023218963
 31
0.0
  0
ARC
  5
2C0
330
1F
100
AcDbEntity
  8
0
  6
AUSGEZOGEN
 62
     7
370
    35
100
AcDbCircle
 10
3155.380437984663
 20
1219.1023218963
 30
0.0
 40
2.000000000000455
100
AcDbArc
 50
270.0
 51
0.0
  0
LINE
  5
2C1
330
1F
100
AcDbEntity
  8
0
  6
AUSGEZOGEN
 62
     7
370
    35
100
AcDbLine
 10
3148.382437984663
 20
1217.1023218963
 30
0.0
 11
3155.380437984663
 21
1217.1023218963
 31
0.0
  0
LINE
  5
2C2
330
1F
100
AcDbEntity
  8
0
  6
AUSGEZOGEN
 62
     7
370
    35
100
AcDbLine
 10
3155.380437984663
 20
1267.1023218963
 30
0.0
 11
3148.382437984663
 21
1267.1023218963
 31
0.0
  0
LINE
  5
2C3
330
1F
100
AcDbEntity
  8
0
  6
AUSGEZOGEN
 62
     7
370
    35
100
AcDbLine
 10
2932.882437984663
 20
876.3023218963
 30
0.0
 11
2932.882437984663
 21
875.3023218963
 31
0.0
  0
LINE
  5
2C4
330
1F
100
AcDbEntity
  8
0
  6
AUSGEZOGEN
 62
     7
370
    35
100
AcDbLine
 10
2934.882437984663
 20
875.3023218963
 30
0.0
 11
2932.882437984663
 21
875.3023218963
 31
0.0
  0
LINE
  5
2C5
330
1F
100
AcDbEntity
  8
0
  6
AUSGEZOGEN
 62
     7
370
    35
100
AcDbLine
 10
2955.882437984663
 20
875.3023218963
 30
0.0
 11
2934.882437984663
 21
875.3023218963
 31
0.0
  0
LINE
  5
2C6
330
1F
100
AcDbEntity
  8
0
  6
AUSGEZOGEN
 62
     7
370
    35
100
AcDbLine
 10
2957.882437984663
 20
876.3023218963
 30
0.0
 11
2957.882437984663
 21
875.3023218963
 31
0.0
  0
LINE
  5
2C7
330
1F
100
AcDbEntity
  8
0
  6
AUSGEZOGEN
 62
     7
370
    35
100
AcDbLine
 10
2957.882437984663
 20
875.3023218963
 30
0.0
 11
2955.882437984663
 21
875.3023218963
 31
0.0
  0
LINE
  5
2C8
330
1F
100
AcDbEntity
  8
0
  6
AUSGEZOGEN
 62
     7
370
    35
100
AcDbLine
 10
2932.882437984663
 20
875.3023218963
 30
0.0
 11
2928.882437984663
 21
875.3023218963
 31
0.0
  0
LINE
  5
2C9
330
1F
100
AcDbEntity
  8
0
  6
AUSGEZOGEN
 62
     7
370
    35
100
AcDbLine
 10
2961.882437984663
 20
875.3023218963
 30
0.0
 11
2957.882437984663
 21
875.3023218963
 31
0.0
  0
LINE
  5
2CA
330
1F
100
AcDbEntity
  8
0
  6
AUSGEZOGEN
 62
     7
370
    35
100
AcDbLine
 10
2920.382437984663
 20
876.3023218963
 30
0.0
 11
2920.382437984663
 21
875.3023218963
 31
0.0
  0
LINE
  5
2CB
330
1F
100
AcDbEntity
  8
0
  6
AUSGEZOGEN
 62
     7
370
    35
100
AcDbLine
 10
2922.382437984663
 20
875.3023218963
 30
0.0
 11
2920.382437984663
 21
875.3023218963
 31
0.0
  0
LINE
  5
2CC
330
1F
100
AcDbEntity
  8
0
  6
AUSGEZOGEN
 62
     7
370
    35
100
AcDbLine
 10
2928.882437984663
 20
875.3023218963
 30
0.0
 11
2922.382437984663
 21
875.3023218963
 31
0.0
  0
LINE
  5
2CD
330
1F
100
AcDbEntity
  8
0
  6
AUSGEZOGEN
 62
     7
370
    35
100
AcDbLine
 10
2968.382437984663
 20
875.3023218963
 30
0.0
 11
2961.882437984663
 21
875.3023218963
 31
0.0
  0
LINE
  5
2CE
330
1F
100
AcDbEntity
  8
0
  6
AUSGEZOGEN
 62
     7
370
    35
100
AcDbLine
 10
2970.382437984663
 20
876.3023218963
 30
0.0
 11
2970.382437984663
 21
875.3023218963
 31
0.0
  0
LINE
  5
2CF
330
1F
100
AcDbEntity
  8
0
  6
AUSGEZOGEN
 62
     7
370
    35
100
AcDbLine
 10
2970.382437984663
 20
875.3023218963
 30
0.0
 11
2968.382437984663
 21
875.3023218963
 31
0.0
  0
LINE
  5
2D0
330
1F
100
AcDbEntity
  8
0
  6
AUSGEZOGEN
 62
     7
370
    35
100
AcDbLine
 10
2970.382437984663
 20
875.3023218963
 30
0.0
 11
2970.382437984663
 21
874.3023218963
 31
0.0
  0
LINE
  5
2D1
330
1F
100
AcDbEntity
  8
0
  6
AUSGEZOGEN
 62
     7
370
    35
100
AcDbLine
 10
2920.382437984663
 20
874.3023218963
 30
0.0
 11
2920.382437984663
 21
875.3023218963
 31
0.0
  0
ARC
  5
2D2
330
1F
100
AcDbEntity
  8
0
  6
AUSGEZOGEN
 62
     7
370
    35
100
AcDbCircle
 10
2968.382437984663
 20
867.3043218963
 30
0.0
 40
2.000000000000114
100
AcDbArc
 50
270.0
 51
0.0
  0
LINE
  5
2D3
330
1F
100
AcDbEntity
  8
0
  6
AUSGEZOGEN
 62
     7
370
    35
100
AcDbLine
 10
2922.382437984663
 20
865.3043218963
 30
0.0
 11
2968.382437984663
 21
865.3043218963
 31
0.0
  0
ARC
  5
2D4
330
1F
100
AcDbEntity
  8
0
  6
AUSGEZOGEN
 62
     7
370
    35
100
AcDbCircle
 10
2922.382437984663
 20
867.3043218963
 30
0.0
 40
2.000000000000455
100
AcDbArc
 50
180.0
 51
270.0
  0
LINE
  5
2D5
330
1F
100
AcDbEntity
  8
0
  6
AUSGEZOGEN
 62
     7
370
    35
100
AcDbLine
 10
2920.382437984663
 20
874.3023218963
 30
0.0
 11
2920.382437984663
 21
867.3043218963
 31
0.0
  0
LINE
  5
2D6
330
1F
100
AcDbEntity
  8
0
  6
AUSGEZOGEN
 62
     7
370
    35
100
AcDbLine
 10
2970.382437984663
 20
867.3043218963
 30
0.0
 11
2970.382437984663
 21
874.3023218963
 31
0.0
  0
LINE
  5
2D7
330
1F
100
AcDbEntity
  8
0
  6
AUSGEZOGEN
 62
     7
370
    35
100
AcDbLine
 10
2744.782437984663
 20
1229.6023218963
 30
0.0
 11
2743.782437984663
 21
1229.6023218963
 31
0.0
  0
LINE
  5
2D8
330
1F
100
AcDbEntity
  8
0
  6
AUSGEZOGEN
 62
     7
370
    35
100
AcDbLine
 10
2743.782437984663
 20
1229.6023218963
 30
0.0
 11
2743.782437984663
 21
1231.6023218963
 31
0.0
  0
LINE
  5
2D9
330
1F
100
AcDbEntity
  8
0
  6
AUSGEZOGEN
 62
     7
370
    35
100
AcDbLine
 10
2744.782437984663
 20
1254.6023218963
 30
0.0
 11
2743.782437984663
 21
1254.6023218963
 31
0.0
  0
LINE
  5
2DA
330
1F
100
AcDbEntity
  8
0
  6
AUSGEZOGEN
 62
     7
370
    35
100
AcDbLine
 10
2743.782437984663
 20
1252.6023218963
 30
0.0
 11
2743.782437984663
 21
1254.6023218963
 31
0.0
  0
LINE
  5
2DB
330
1F
100
AcDbEntity
  8
0
  6
AUSGEZOGEN
 62
     7
370
    35
100
AcDbLine
 10
2743.782437984663
 20
1231.6023218963
 30
0.0
 11
2743.782437984663
 21
1252.6023218963
 31
0.0
  0
LINE
  5
2DC
330
1F
100
AcDbEntity
  8
0
  6
AUSGEZOGEN
 62
     7
370
    35
100
AcDbLine
 10
2743.782437984663
 20
1225.6023218963
 30
0.0
 11
2743.782437984663
 21
1229.6023218963
 31
0.0
  0
LINE
  5
2DD
330
1F
100
AcDbEntity
  8
0
  6
AUSGEZOGEN
 62
     7
370
    35
100
AcDbLine
 10
2743.782437984663
 20
1254.6023218963
 30
0.0
 11
2743.782437984663
 21
1258.6023218963
 31
0.0
  0
LINE
  5
2DE
330
1F
100
AcDbEntity
  8
0
  6
AUSGEZOGEN
 62
     7
370
    35
100
AcDbLine
 10
2743.782437984663
 20
1219.1023218963
 30
0.0
 11
2743.782437984663
 21
1225.6023218963
 31
0.0
  0
LINE
  5
2DF
330
1F
100
AcDbEntity
  8
0
  6
AUSGEZOGEN
 62
     7
370
    35
100
AcDbLine
 10
2744.782437984663
 20
1217.1023218963
 30
0.0
 11
2743.782437984663
 21
1217.1023218963
 31
0.0
  0
LINE
  5
2E0
330
1F
100
AcDbEntity
  8
0
  6
AUSGEZOGEN
 62
     7
370
    35
100
AcDbLine
 10
2743.782437984663
 20
1217.1023218963
 30
0.0
 11
2743.782437984663
 21
1219.1023218963
 31
0.0
  0
LINE
  5
2E1
330
1F
100
AcDbEntity
  8
0
  6
AUSGEZOGEN
 62
     7
370
    35
100
AcDbLine
 10
2744.782437984663
 20
1267.1023218963
 30
0.0
 11
2743.782437984663
 21
1267.1023218963
 31
0.0
  0
LINE
  5
2E2
330
1F
100
AcDbEntity
  8
0
  6
AUSGEZOGEN
 62
     7
370
    35
100
AcDbLine
 10
2744.782437984663
 20
1265.1023218963
 30
0.0
 11
2744.782437984663
 21
1267.1023218963
 31
0.0
  0
LINE
  5
2E3
330
1F
100
AcDbEntity
  8
0
  6
AUSGEZOGEN
 62
     7
370
    35
100
AcDbLine
 10
2743.782437984663
 20
1265.1023218963
 30
0.0
 11
2743.782437984663
 21
1267.1023218963
 31
0.0
  0
LINE
  5
2E4
330
1F
100
AcDbEntity
  8
0
  6
AUSGEZOGEN
 62
     7
370
    35
100
AcDbLine
 10
2743.782437984663
 20
1258.6023218963
 30
0.0
 11
2743.782437984663
 21
1265.1023218963
 31
0.0
  0
LINE
  5
2E5
330
1F
100
AcDbEntity
  8
0
  6
AUSGEZOGEN
 62
     7
370
    35
100
AcDbLine
 10
2742.782437984663
 20
1267.1023218963
 30
0.0
 11
2743.782437984663
 21
1267.1023218963
 31
0.0
  0
LINE
  5
2E6
330
1F
100
AcDbEntity
  8
0
  6
AUSGEZOGEN
 62
     7
370
    35
100
AcDbLine
 10
2743.782437984663
 20
1217.1023218963
 30
0.0
 11
2742.782437984663
 21
1217.1023218963
 31
0.0
  0
ARC
  5
2E7
330
1F
100
AcDbEntity
  8
0
  6
AUSGEZOGEN
 62
     7
370
    35
100
AcDbCircle
 10
2735.784437984663
 20
1219.1023218963
 30
0.0
 40
2.0
100
AcDbArc
 50
180.0
 51
270.0
  0
LINE
  5
2E8
330
1F
100
AcDbEntity
  8
0
  6
AUSGEZOGEN
 62
     7
370
    35
100
AcDbLine
 10
2733.784437984663
 20
1265.1023218963
 30
0.0
 11
2733.784437984663
 21
1219.1023218963
 31
0.0
  0
ARC
  5
2E9
330
1F
100
AcDbEntity
  8
0
  6
AUSGEZOGEN
 62
     7
370
    35
100
AcDbCircle
 10
2735.784437984663
 20
1265.1023218963
 30
0.0
 40
2.0
100
AcDbArc
 50
90.0
 51
180.0
  0
LINE
  5
2EA
330
1F
100
AcDbEntity
  8
0
  6
AUSGEZOGEN
 62
     7
370
    35
100
AcDbLine
 10
2742.782437984663
 20
1267.1023218963
 30
0.0
 11
2735.784437984663
 21
1267.1023218963
 31
0.0
  0
LINE
  5
2EB
330
1F
100
AcDbEntity
  8
0
  6
AUSGEZOGEN
 62
     7
370
    35
100
AcDbLine
 10
2735.784437984663
 20
1217.1023218963
 30
0.0
 11
2742.782437984663
 21
1217.1023218963
 31
0.0
  0
LINE
  5
2EC
330
1F
100
AcDbEntity
  8
0
  6
AUSGEZOGEN
 62
     7
370
    35
100
AcDbLine
 10
2743.782437984663
 20
906.6023218963
 30
0.0
 11
2743.782437984663
 21
927.6023218963
 31
0.0
  0
LINE
  5
2ED
330
1F
100
AcDbEntity
  8
0
  6
AUSGEZOGEN
 62
     7
370
    35
100
AcDbLine
 10
2744.782437984663
 20
929.6023218963
 30
0.0
 11
2743.782437984663
 21
929.6023218963
 31
0.0
  0
LINE
  5
2EE
330
1F
100
AcDbEntity
  8
0
  6
AUSGEZOGEN
 62
     7
370
    35
100
AcDbLine
 10
2743.782437984663
 20
927.6023218963
 30
0.0
 11
2743.782437984663
 21
929.6023218963
 31
0.0
  0
LINE
  5
2EF
330
1F
100
AcDbEntity
  8
0
  6
AUSGEZOGEN
 62
     7
370
    35
100
AcDbLine
 10
2744.782437984663
 20
904.6023218963
 30
0.0
 11
2743.782437984663
 21
904.6023218963
 31
0.0
  0
LINE
  5
2F0
330
1F
100
AcDbEntity
  8
0
  6
AUSGEZOGEN
 62
     7
370
    35
100
AcDbLine
 10
2743.782437984663
 20
904.6023218963
 30
0.0
 11
2743.782437984663
 21
906.6023218963
 31
0.0
  0
LINE
  5
2F1
330
1F
100
AcDbEntity
  8
0
  6
AUSGEZOGEN
 62
     7
370
    35
100
AcDbLine
 10
2743.782437984663
 20
900.6023218963
 30
0.0
 11
2743.782437984663
 21
904.6023218963
 31
0.0
  0
LINE
  5
2F2
330
1F
100
AcDbEntity
  8
0
  6
AUSGEZOGEN
 62
     7
370
    35
100
AcDbLine
 10
2743.782437984663
 20
929.6023218963
 30
0.0
 11
2743.782437984663
 21
933.6023218963
 31
0.0
  0
LINE
  5
2F3
330
1F
100
AcDbEntity
  8
0
  6
AUSGEZOGEN
 62
     7
370
    35
100
AcDbLine
 10
2744.782437984663
 20
892.1023218963
 30
0.0
 11
2743.782437984663
 21
892.1023218963
 31
0.0
  0
LINE
  5
2F4
330
1F
100
AcDbEntity
  8
0
  6
AUSGEZOGEN
 62
     7
370
    35
100
AcDbLine
 10
2743.782437984663
 20
892.1023218963
 30
0.0
 11
2743.782437984663
 21
894.1023218963
 31
0.0
  0
LINE
  5
2F5
330
1F
100
AcDbEntity
  8
0
  6
AUSGEZOGEN
 62
     7
370
    35
100
AcDbLine
 10
2743.782437984663
 20
894.1023218963
 30
0.0
 11
2743.782437984663
 21
900.6023218963
 31
0.0
  0
LINE
  5
2F6
330
1F
100
AcDbEntity
  8
0
  6
AUSGEZOGEN
 62
     7
370
    35
100
AcDbLine
 10
2744.782437984663
 20
942.1023218963
 30
0.0
 11
2743.782437984663
 21
942.1023218963
 31
0.0
  0
LINE
  5
2F7
330
1F
100
AcDbEntity
  8
0
  6
AUSGEZOGEN
 62
     7
370
    35
100
AcDbLine
 10
2743.782437984663
 20
940.1023218963
 30
0.0
 11
2743.782437984663
 21
942.1023218963
 31
0.0
  0
LINE
  5
2F8
330
1F
100
AcDbEntity
  8
0
  6
AUSGEZOGEN
 62
     7
370
    35
100
AcDbLine
 10
2743.782437984663
 20
933.6023218963
 30
0.0
 11
2743.782437984663
 21
940.1023218963
 31
0.0
  0
LINE
  5
2F9
330
1F
100
AcDbEntity
  8
0
  6
AUSGEZOGEN
 62
     7
370
    35
100
AcDbLine
 10
2742.782437984663
 20
942.1023218963
 30
0.0
 11
2743.782437984663
 21
942.1023218963
 31
0.0
  0
LINE
  5
2FA
330
1F
100
AcDbEntity
  8
0
  6
AUSGEZOGEN
 62
     7
370
    35
100
AcDbLine
 10
2743.782437984663
 20
892.1023218963
 30
0.0
 11
2742.782437984663
 21
892.1023218963
 31
0.0
  0
ARC
  5
2FB
330
1F
100
AcDbEntity
  8
0
  6
AUSGEZOGEN
 62
     7
370
    35
100
AcDbCircle
 10
2735.784437984663
 20
894.1023218963
 30
0.0
 40
2.0
100
AcDbArc
 50
180.0
 51
270.0
  0
ARC
  5
2FC
330
1F
100
AcDbEntity
  8
0
  6
AUSGEZOGEN
 62
     7
370
    35
100
AcDbCircle
 10
2735.784437984663
 20
940.1023218963
 30
0.0
 40
2.000000000000114
100
AcDbArc
 50
90.0
 51
180.0
  0
LINE
  5
2FD
330
1F
100
AcDbEntity
  8
0
  6
AUSGEZOGEN
 62
     7
370
    35
100
AcDbLine
 10
2742.782437984663
 20
942.1023218963
 30
0.0
 11
2735.784437984663
 21
942.1023218963
 31
0.0
  0
LINE
  5
2FE
330
1F
100
AcDbEntity
  8
0
  6
AUSGEZOGEN
 62
     7
370
    35
100
AcDbLine
 10
2735.784437984663
 20
892.1023218963
 30
0.0
 11
2742.782437984663
 21
892.1023218963
 31
0.0
  0
LINE
  5
2FF
330
1F
100
AcDbEntity
  8
0
  6
AUSGEZOGEN
 62
     7
370
    35
100
AcDbLine
 10
2733.784437984663
 20
940.1023218963
 30
0.0
 11
2733.784437984663
 21
894.1023218963
 31
0.0
  0
HATCH
  5
300
330
1F
100
AcDbEntity
  8
0
  6
AUSGEZOGEN
 62
     7
370
    18
100
AcDbHatch
 10
0.0
 20
0.0
 30
0.0
210
0.0
220
0.0
230
1.0
  2
SOLID
 70
     1
 71
     0
 91
        1
 92
        2
 72
     0
 73
     1
 93
        4
 10
3095.782437984649
 20
946.302321896254
 10
3095.782437984649
 20
1066.302321896254
 10
2795.782437984649
 20
1066.302321896254
 10
2795.782437984649
 20
946.302321896254
 97
        0
 75
     0
 76
     1
 98
        0
  0
LINE
  5
301
330
1F
100
AcDbEntity
  8
0
  6
AUSGEZOGEN
 62
     7
370
    35
100
AcDbLine
 10
1867.00420696
 20
1894.1759983685
 30
0.0
 11
1867.00420696
 21
1893.1759983685
 31
0.0
  0
LINE
  5
302
330
1F
100
AcDbEntity
  8
0
  6
AUSGEZOGEN
 62
     7
370
    35
100
AcDbLine
 10
1873.50420696
 20
1893.1759983685
 30
0.0
 11
1873.50420696
 21
1894.1759983685
 31
0.0
  0
LINE
  5
303
330
1F
100
AcDbEntity
  8
0
  6
AUSGEZOGEN
 62
     7
370
    35
100
AcDbLine
 10
1867.75420696
 20
1893.1759983685
 30
0.0
 11
1867.75420696
 21
1844.1759983685
 31
0.0
  0
LINE
  5
304
330
1F
100
AcDbEntity
  8
0
  6
AUSGEZOGEN
 62
     7
370
    35
100
AcDbLine
 10
1872.75420696
 20
1844.1759983685
 30
0.0
 11
1872.75420696
 21
1893.1759983685
 31
0.0
  0
LINE
  5
305
330
1F
100
AcDbEntity
  8
0
  6
AUSGEZOGEN
 62
     7
370
    35
100
AcDbLine
 10
1450.80820696
 20
1894.1759983685
 30
0.0
 11
1450.80820696
 21
1893.1759983685
 31
0.0
  0
LINE
  5
306
330
1F
100
AcDbEntity
  8
0
  6
AUSGEZOGEN
 62
     7
370
    35
100
AcDbLine
 10
1457.30820696
 20
1893.1759983685
 30
0.0
 11
1457.30820696
 21
1894.1759983685
 31
0.0
  0
LINE
  5
307
330
1F
100
AcDbEntity
  8
0
  6
AUSGEZOGEN
 62
     7
370
    35
100
AcDbLine
 10
1451.55820696
 20
1893.1759983685
 30
0.0
 11
1451.55820696
 21
1844.1759983685
 31
0.0
  0
LINE
  5
308
330
1F
100
AcDbEntity
  8
0
  6
AUSGEZOGEN
 62
     7
370
    35
100
AcDbLine
 10
1456.55820696
 20
1844.1759983685
 30
0.0
 11
1456.55820696
 21
1893.1759983685
 31
0.0
  0
LINE
  5
309
330
1F
100
AcDbEntity
  8
0
  6
AUSGEZOGEN
 62
     7
370
    35
100
AcDbLine
 10
1862.95620696
 20
1895.1759983685
 30
0.0
 11
1887.15620696
 21
1895.1759983685
 31
0.0
  0
LINE
  5
30A
330
1F
100
AcDbEntity
  8
0
  6
AUSGEZOGEN
 62
     7
370
    35
100
AcDbLine
 10
1862.95620696
 20
1895.1759983685
 30
0.0
 11
1862.95620696
 21
1727.9759983685
 31
0.0
  0
ARC
  5
30B
330
1F
100
AcDbEntity
  8
0
  6
AUSGEZOGEN
 62
     7
370
    35
100
AcDbCircle
 10
1850.15620696
 20
1727.9759983685
 30
0.0
 40
12.79999999999973
100
AcDbArc
 50
270.0
 51
0.0
  0
LINE
  5
30C
330
1F
100
AcDbEntity
  8
0
  6
AUSGEZOGEN
 62
     7
370
    35
100
AcDbLine
 10
1722.4875778099
 20
1715.1759983685
 30
0.0
 11
1850.15620696
 21
1715.1759983685
 31
0.0
  0
LINE
  5
30D
330
1F
100
AcDbEntity
  8
0
  6
AUSGEZOGEN
 62
     7
370
    35
100
AcDbLine
 10
1722.4875778099
 20
1715.1759983685
 30
0.0
 11
1718.4875778099
 21
1711.1759983685
 31
0.0
  0
LINE
  5
30E
330
1F
100
AcDbEntity
  8
0
  6
AUSGEZOGEN
 62
     7
370
    35
100
AcDbLine
 10
1707.15620696
 20
1711.1759983685
 30
0.0
 11
1718.4875778099
 21
1711.1759983685
 31
0.0
  0
LINE
  5
30F
330
1F
100
AcDbEntity
  8
0
  6
AUSGEZOGEN
 62
     7
370
    35
100
AcDbLine
 10
1707.15620696
 20
1711.9759983685
 30
0.0
 11
1707.15620696
 21
1711.1759983685
 31
0.0
  0
LINE
  5
310
330
1F
100
AcDbEntity
  8
0
  6
AUSGEZOGEN
 62
     7
370
    35
100
AcDbLine
 10
1707.15620696
 20
1711.9759983685
 30
0.0
 11
1718.15620696
 21
1711.9759983685
 31
0.0
  0
LINE
  5
311
330
1F
100
AcDbEntity
  8
0
  6
AUSGEZOGEN
 62
     7
370
    35
100
AcDbLine
 10
1722.15620696
 20
1715.9759983685
 30
0.0
 11
1718.15620696
 21
1711.9759983685
 31
0.0
  0
LINE
  5
312
330
1F
100
AcDbEntity
  8
0
  6
AUSGEZOGEN
 62
     7
370
    35
100
AcDbLine
 10
1722.15620696
 20
1715.9759983685
 30
0.0
 11
1850.15620696
 21
1715.9759983685
 31
0.0
  0
ARC
  5
313
330
1F
100
AcDbEntity
  8
0
  6
AUSGEZOGEN
 62
     7
370
    35
100
AcDbCircle
 10
1850.15620696
 20
1727.9759983685
 30
0.0
 40
11.99999999999977
100
AcDbArc
 50
270.0
 51
0.0
  0
LINE
  5
314
330
1F
100
AcDbEntity
  8
0
  6
AUSGEZOGEN
 62
     7
370
    35
100
AcDbLine
 10
1862.15620696
 20
1895.9759983685
 30
0.0
 11
1862.15620696
 21
1727.9759983685
 31
0.0
  0
LINE
  5
315
330
1F
100
AcDbEntity
  8
0
  6
AUSGEZOGEN
 62
     7
370
    35
100
AcDbLine
 10
1862.15620696
 20
1895.9759983685
 30
0.0
 11
1887.15620696
 21
1895.9759983685
 31
0.0
  0
LINE
  5
316
330
1F
100
AcDbEntity
  8
0
  6
AUSGEZOGEN
 62
     7
370
    35
100
AcDbLine
 10
1887.15620696
 20
1895.9759983685
 30
0.0
 11
1887.15620696
 21
1895.1759983685
 31
0.0
  0
LINE
  5
317
330
1F
100
AcDbEntity
  8
0
  6
AUSGEZOGEN
 62
     7
370
    35
100
AcDbLine
 10
1606.15620696
 20
1711.9759983685
 30
0.0
 11
1602.15620696
 21
1715.9759983685
 31
0.0
  0
LINE
  5
318
330
1F
100
AcDbEntity
  8
0
  6
AUSGEZOGEN
 62
     7
370
    35
100
AcDbLine
 10
1722.15620696
 20
1715.9759983685
 30
0.0
 11
1602.15620696
 21
1715.9759983685
 31
0.0
  0
LINE
  5
319
330
1F
100
AcDbEntity
  8
0
  6
AUSGEZOGEN
 62
     7
370
    35
100
AcDbLine
 10
1605.8248361101
 20
1711.1759983685
 30
0.0
 11
1601.8248361101
 21
1715.1759983685
 31
0.0
  0
LINE
  5
31A
330
1F
100
AcDbEntity
  8
0
  6
AUSGEZOGEN
 62
     7
370
    35
100
AcDbLine
 10
1617.15620696
 20
1711.1759983685
 30
0.0
 11
1617.15620696
 21
1711.9759983685
 31
0.0
  0
LINE
  5
31B
330
1F
100
AcDbEntity
  8
0
  6
AUSGEZOGEN
 62
     7
370
    35
100
AcDbLine
 10
1707.15620696
 20
1711.1759983685
 30
0.0
 11
1617.15620696
 21
1711.1759983685
 31
0.0
  0
LINE
  5
31C
330
1F
100
AcDbEntity
  8
0
  6
AUSGEZOGEN
 62
     7
370
    35
100
AcDbLine
 10
1707.15620696
 20
1711.9759983685
 30
0.0
 11
1617.15620696
 21
1711.9759983685
 31
0.0
  0
LINE
  5
31D
330
1F
100
AcDbEntity
  8
0
  6
AUSGEZOGEN
 62
     7
370
    35
100
AcDbLine
 10
1437.15620696
 20
1895.1759983685
 30
0.0
 11
1461.35620696
 21
1895.1759983685
 31
0.0
  0
LINE
  5
31E
330
1F
100
AcDbEntity
  8
0
  6
AUSGEZOGEN
 62
     7
370
    35
100
AcDbLine
 10
1605.8248361101
 20
1711.1759983685
 30
0.0
 11
1617.15620696
 21
1711.1759983685
 31
0.0
  0
ARC
  5
31F
330
1F
100
AcDbEntity
  8
0
  6
AUSGEZOGEN
 62
     7
370
    35
100
AcDbCircle
 10
1474.15620696
 20
1727.9759983685
 30
0.0
 40
12.79999999999995
100
AcDbArc
 50
180.0
 51
270.0
  0
LINE
  5
320
330
1F
100
AcDbEntity
  8
0
  6
AUSGEZOGEN
 62
     7
370
    35
100
AcDbLine
 10
1474.15620696
 20
1715.1759983685
 30
0.0
 11
1601.8248361101
 21
1715.1759983685
 31
0.0
  0
LINE
  5
321
330
1F
100
AcDbEntity
  8
0
  6
AUSGEZOGEN
 62
     7
370
    35
100
AcDbLine
 10
1461.35620696
 20
1727.9759983685
 30
0.0
 11
1461.35620696
 21
1895.1759983685
 31
0.0
  0
LINE
  5
322
330
1F
100
AcDbEntity
  8
0
  6
AUSGEZOGEN
 62
     7
370
    35
100
AcDbLine
 10
1474.15620696
 20
1715.9759983685
 30
0.0
 11
1602.15620696
 21
1715.9759983685
 31
0.0
  0
LINE
  5
323
330
1F
100
AcDbEntity
  8
0
  6
AUSGEZOGEN
 62
     7
370
    35
100
AcDbLine
 10
1606.15620696
 20
1711.9759983685
 30
0.0
 11
1617.15620696
 21
1711.9759983685
 31
0.0
  0
ARC
  5
324
330
1F
100
AcDbEntity
  8
0
  6
AUSGEZOGEN
 62
     7
370
    35
100
AcDbCircle
 10
1474.15620696
 20
1727.9759983685
 30
0.0
 40
11.99999999999977
100
AcDbArc
 50
180.0
 51
270.0
  0
LINE
  5
325
330
1F
100
AcDbEntity
  8
0
  6
AUSGEZOGEN
 62
     7
370
    35
100
AcDbLine
 10
1437.15620696
 20
1895.1759983685
 30
0.0
 11
1437.15620696
 21
1895.9759983685
 31
0.0
  0
LINE
  5
326
330
1F
100
AcDbEntity
  8
0
  6
AUSGEZOGEN
 62
     7
370
    35
100
AcDbLine
 10
1462.15620696
 20
1727.9759983685
 30
0.0
 11
1462.15620696
 21
1895.9759983685
 31
0.0
  0
LINE
  5
327
330
1F
100
AcDbEntity
  8
0
  6
AUSGEZOGEN
 62
     7
370
    35
100
AcDbLine
 10
1437.15620696
 20
1895.9759983685
 30
0.0
 11
1462.15620696
 21
1895.9759983685
 31
0.0
  0
LINE
  5
328
330
1F
100
AcDbEntity
  8
0
  6
AUSGEZOGEN
 62
     7
370
    35
100
AcDbLine
 10
1850.15620696
 20
1895.9759983685
 30
0.0
 11
1862.15620696
 21
1895.9759983685
 31
0.0
  0
LINE
  5
329
330
1F
100
AcDbEntity
  8
0
  6
AUSGEZOGEN
 62
     7
370
    35
100
AcDbLine
 10
1462.15620696
 20
1895.9759983685
 30
0.0
 11
1474.15620696
 21
1895.9759983685
 31
0.0
  0
ARC
  5
32A
330
1F
100
AcDbEntity
  8
0
  6
AUSGEZOGEN
 62
     7
370
    35
100
AcDbCircle
 10
1685.15620696
 20
1875.9759983685
 30
0.0
 40
1.0
100
AcDbArc
 50
0.0
 51
90.0
  0
ARC
  5
32B
330
1F
100
AcDbEntity
  8
0
  6
AUSGEZOGEN
 62
     7
370
    35
100
AcDbCircle
 10
1639.15620696
 20
1875.9759983685
 30
0.0
 40
1.0
100
AcDbArc
 50
90.0
 51
180.0
  0
LINE
  5
32C
330
1F
100
AcDbEntity
  8
0
  6
AUSGEZOGEN
 62
     7
370
    35
100
AcDbLine
 10
1638.15620696
 20
1875.9759983685
 30
0.0
 11
1638.15620696
 21
1853.9759983685
 31
0.0
  0
LINE
  5
32D
330
1F
100
AcDbEntity
  8
0
  6
AUSGEZOGEN
 62
     7
370
    35
100
AcDbLine
 10
1686.15620696
 20
1853.9759983685
 30
0.0
 11
1686.15620696
 21
1875.9759983685
 31
0.0
  0
LINE
  5
32E
330
1F
100
AcDbEntity
  8
0
  6
AUSGEZOGEN
 62
     7
370
    35
100
AcDbLine
 10
1685.15620696
 20
1876.9759983685
 30
0.0
 11
1639.15620696
 21
1876.9759983685
 31
0.0
  0
LINE
  5
32F
330
1F
100
AcDbEntity
  8
0
  6
AUSGEZOGEN
 62
     7
370
    35
100
AcDbLine
 10
1639.15620696
 20
1852.9759983685
 30
0.0
 11
1685.15620696
 21
1852.9759983685
 31
0.0
  0
ARC
  5
330
330
1F
100
AcDbEntity
  8
0
  6
AUSGEZOGEN
 62
     7
370
    35
100
AcDbCircle
 10
1685.15620696
 20
1853.9759983685
 30
0.0
 40
1.0
100
AcDbArc
 50
270.0
 51
0.0
  0
ARC
  5
331
330
1F
100
AcDbEntity
  8
0
  6
AUSGEZOGEN
 62
     7
370
    35
100
AcDbCircle
 10
1639.15620696
 20
1853.9759983685
 30
0.0
 40
1.0
100
AcDbArc
 50
180.0
 51
270.0
  0
LINE
  5
332
330
1F
100
AcDbEntity
  8
0
  6
AUSGEZOGEN
 62
     7
370
    35
100
AcDbLine
 10
1850.15620696
 20
1895.9759983685
 30
0.0
 11
1474.15620696
 21
1895.9759983685
 31
0.0
  0
LINE
  5
333
330
1F
100
AcDbEntity
  8
0
  6
AUSGEZOGEN
 62
     7
370
    35
100
AcDbLine
 10
1874.15620696
 20
1894.0759983685
 30
0.0
 11
1874.15620696
 21
1883.1509983685
 31
0.0
  0
ARC
  5
334
330
1F
100
AcDbEntity
  8
0
  6
AUSGEZOGEN
 62
     7
370
    35
100
AcDbCircle
 10
1871.15620696
 20
1883.1509983685
 30
0.0
 40
2.999999999999773
100
AcDbArc
 50
302.1858084439
 51
0.0
  0
LINE
  5
335
330
1F
100
AcDbEntity
  8
0
  6
AUSGEZOGEN
 62
     7
370
    35
100
AcDbLine
 10
1867.75420696
 20
1880.1509983685
 30
0.0
 11
1863.95620696
 21
1880.1509983685
 31
0.0
  0
LINE
  5
336
330
1F
100
AcDbEntity
  8
0
  6
AUSGEZOGEN
 62
     7
370
    35
100
AcDbLine
 10
1460.35620696
 20
1880.1509983685
 30
0.0
 11
1456.55820696
 21
1880.1509983685
 31
0.0
  0
ARC
  5
337
330
1F
100
AcDbEntity
  8
0
  6
AUSGEZOGEN
 62
     7
370
    35
100
AcDbCircle
 10
1453.15620696
 20
1883.1509983685
 30
0.0
 40
2.999999999999804
100
AcDbArc
 50
180.0
 51
237.8141915561
  0
LINE
  5
338
330
1F
100
AcDbEntity
  8
0
  6
AUSGEZOGEN
 62
     7
370
    35
100
AcDbLine
 10
1450.15620696
 20
1883.1509983685
 30
0.0
 11
1450.15620696
 21
1894.0759983685
 31
0.0
  0
LINE
  5
339
330
1F
100
AcDbEntity
  8
0
  6
AUSGEZOGEN
 62
     7
370
    35
100
AcDbLine
 10
1450.15620696
 20
1895.1759983685
 30
0.0
 11
1450.15620696
 21
1894.0759983685
 31
0.0
  0
LINE
  5
33A
330
1F
100
AcDbEntity
  8
0
  6
AUSGEZOGEN
 62
     7
370
    35
100
AcDbLine
 10
1874.15620696
 20
1894.0759983685
 30
0.0
 11
1874.15620696
 21
1895.1759983685
 31
0.0
  0
LINE
  5
33B
330
1F
100
AcDbEntity
  8
0
  6
AUSGEZOGEN
 62
     7
370
    35
100
AcDbLine
 10
1867.00420696
 20
1893.1759983685
 30
0.0
 11
1873.50420696
 21
1893.1759983685
 31
0.0
  0
LINE
  5
33C
330
1F
100
AcDbEntity
  8
0
  6
AUSGEZOGEN
 62
     7
370
    35
100
AcDbLine
 10
1872.75420696
 20
1844.1759983685
 30
0.0
 11
1867.75420696
 21
1844.1759983685
 31
0.0
  0
LINE
  5
33D
330
1F
100
AcDbEntity
  8
0
  6
AUSGEZOGEN
 62
     7
370
    35
100
AcDbLine
 10
1450.80820696
 20
1893.1759983685
 30
0.0
 11
1457.30820696
 21
1893.1759983685
 31
0.0
  0
LINE
  5
33E
330
1F
100
AcDbEntity
  8
0
  6
AUSGEZOGEN
 62
     7
370
    35
100
AcDbLine
 10
1456.55820696
 20
1844.1759983685
 30
0.0
 11
1451.55820696
 21
1844.1759983685
 31
0.0
  0
LINE
  5
33F
330
1F
100
AcDbEntity
  8
0
  6
AUSGEZOGEN
 62
     7
370
    35
100
AcDbLine
 10
1450.35820696
 20
1895.1759983685
 30
0.0
 11
1450.35820696
 21
1894.1759983685
 31
0.0
  0
LINE
  5
340
330
1F
100
AcDbEntity
  8
0
  6
AUSGEZOGEN
 62
     7
370
    35
100
AcDbLine
 10
1452.35820696
 20
1894.1759983685
 30
0.0
 11
1450.35820696
 21
1894.1759983685
 31
0.0
  0
LINE
  5
341
330
1F
100
AcDbEntity
  8
0
  6
AUSGEZOGEN
 62
     7
370
    35
100
AcDbLine
 10
1460.35620696
 20
1887.0659983685
 30
0.0
 11
1460.35620696
 21
1893.1759983685
 31
0.0
  0
ARC
  5
342
330
1F
100
AcDbEntity
  8
0
  6
AUSGEZOGEN
 62
     7
370
    35
100
AcDbCircle
 10
1459.35620696
 20
1893.1759983685
 30
0.0
 40
1.000000000000227
100
AcDbArc
 50
0.0
 51
90.0
  0
ARC
  5
343
330
1F
100
AcDbEntity
  8
0
  6
AUSGEZOGEN
 62
     7
370
    35
100
AcDbCircle
 10
1459.35620696
 20
1893.1759983685
 30
0.0
 40
2.000000000000227
100
AcDbArc
 50
0.0
 51
90.0
  0
LINE
  5
344
330
1F
100
AcDbEntity
  8
0
  6
AUSGEZOGEN
 62
     7
370
    35
100
AcDbLine
 10
1459.35620696
 20
1894.1759983685
 30
0.0
 11
1452.35820696
 21
1894.1759983685
 31
0.0
  0
LINE
  5
345
330
1F
100
AcDbEntity
  8
0
  6
AUSGEZOGEN
 62
     7
370
    35
100
AcDbLine
 10
1461.35620696
 20
1885.0659983685
 30
0.0
 11
1460.35620696
 21
1885.0659983685
 31
0.0
  0
LINE
  5
346
330
1F
100
AcDbEntity
  8
0
  6
AUSGEZOGEN
 62
     7
370
    35
100
AcDbLine
 10
1460.35620696
 20
1885.0659983685
 30
0.0
 11
1460.35620696
 21
1887.0659983685
 31
0.0
  0
LINE
  5
347
330
1F
100
AcDbEntity
  8
0
  6
AUSGEZOGEN
 62
     7
370
    35
100
AcDbLine
 10
1460.35620696
 20
1881.0659983685
 30
0.0
 11
1460.35620696
 21
1885.0659983685
 31
0.0
  0
LINE
  5
348
330
1F
100
AcDbEntity
  8
0
  6
AUSGEZOGEN
 62
     7
370
    35
100
AcDbLine
 10
1460.35620696
 20
1847.0659983685
 30
0.0
 11
1460.35620696
 21
1881.0659983685
 31
0.0
  0
LINE
  5
349
330
1F
100
AcDbEntity
  8
0
  6
AUSGEZOGEN
 62
     7
370
    35
100
AcDbLine
 10
1461.35620696
 20
1845.0659983685
 30
0.0
 11
1460.35620696
 21
1845.0659983685
 31
0.0
  0
LINE
  5
34A
330
1F
100
AcDbEntity
  8
0
  6
AUSGEZOGEN
 62
     7
370
    35
100
AcDbLine
 10
1460.35620696
 20
1845.0659983685
 30
0.0
 11
1460.35620696
 21
1847.0659983685
 31
0.0
  0
LINE
  5
34B
330
1F
100
AcDbEntity
  8
0
  6
AUSGEZOGEN
 62
     7
370
    35
100
AcDbLine
 10
1873.95420696
 20
1895.1759983685
 30
0.0
 11
1873.95420696
 21
1894.1759983685
 31
0.0
  0
LINE
  5
34C
330
1F
100
AcDbEntity
  8
0
  6
AUSGEZOGEN
 62
     7
370
    35
100
AcDbLine
 10
1873.95420696
 20
1894.1759983685
 30
0.0
 11
1871.95420696
 21
1894.1759983685
 31
0.0
  0
ARC
  5
34D
330
1F
100
AcDbEntity
  8
0
  6
AUSGEZOGEN
 62
     7
370
    35
100
AcDbCircle
 10
1864.95620696
 20
1893.1759983685
 30
0.0
 40
2.000000000000227
100
AcDbArc
 50
90.0
 51
180.0
  0
ARC
  5
34E
330
1F
100
AcDbEntity
  8
0
  6
AUSGEZOGEN
 62
     7
370
    35
100
AcDbCircle
 10
1864.95620696
 20
1893.1759983685
 30
0.0
 40
1.000000000000227
100
AcDbArc
 50
90.0
 51
180.0
  0
LINE
  5
34F
330
1F
100
AcDbEntity
  8
0
  6
AUSGEZOGEN
 62
     7
370
    35
100
AcDbLine
 10
1862.95620696
 20
1885.0659983685
 30
0.0
 11
1863.95620696
 21
1885.0659983685
 31
0.0
  0
LINE
  5
350
330
1F
100
AcDbEntity
  8
0
  6
AUSGEZOGEN
 62
     7
370
    35
100
AcDbLine
 10
1863.95620696
 20
1887.0659983685
 30
0.0
 11
1863.95620696
 21
1885.0659983685
 31
0.0
  0
LINE
  5
351
330
1F
100
AcDbEntity
  8
0
  6
AUSGEZOGEN
 62
     7
370
    35
100
AcDbLine
 10
1871.95420696
 20
1894.1759983685
 30
0.0
 11
1864.95620696
 21
1894.1759983685
 31
0.0
  0
LINE
  5
352
330
1F
100
AcDbEntity
  8
0
  6
AUSGEZOGEN
 62
     7
370
    35
100
AcDbLine
 10
1863.95620696
 20
1893.1759983685
 30
0.0
 11
1863.95620696
 21
1887.0659983685
 31
0.0
  0
LINE
  5
353
330
1F
100
AcDbEntity
  8
0
  6
AUSGEZOGEN
 62
     7
370
    35
100
AcDbLine
 10
1863.95620696
 20
1885.0659983685
 30
0.0
 11
1863.95620696
 21
1881.0659983685
 31
0.0
  0
LINE
  5
354
330
1F
100
AcDbEntity
  8
0
  6
AUSGEZOGEN
 62
     7
370
    35
100
AcDbLine
 10
1862.95620696
 20
1845.0659983685
 30
0.0
 11
1863.95620696
 21
1845.0659983685
 31
0.0
  0
LINE
  5
355
330
1F
100
AcDbEntity
  8
0
  6
AUSGEZOGEN
 62
     7
370
    35
100
AcDbLine
 10
1863.95620696
 20
1847.0659983685
 30
0.0
 11
1863.95620696
 21
1845.0659983685
 31
0.0
  0
LINE
  5
356
330
1F
100
AcDbEntity
  8
0
  6
AUSGEZOGEN
 62
     7
370
    35
100
AcDbLine
 10
1863.95620696
 20
1881.0659983685
 30
0.0
 11
1863.95620696
 21
1847.0659983685
 31
0.0
  0
INSERT
  5
35F
330
1F
100
AcDbEntity
  8
0
100
AcDbBlockReference
  2
*X14
 10
0.0
 20
0.0
 30
0.0
  0
INSERT
  5
369
330
1F
100
AcDbEntity
  8
0
100
AcDbBlockReference
  2
*X15
 10
0.0
 20
0.0
 30
0.0
  0
DIMENSION
  5
374
330
1F
100
AcDbEntity
  8
SLD-0
  6
AUSGEZOGEN
 62
     7
370
    18
100
AcDbDimension
280
     0
  2
*D16
 10
1727.9885129398
 20
1895.9759983685
 30
0.0
 11
1711.712328601183
 21
1880.618915397018
 31
0.0
 70
   160
 71
     5
 42
-1.0
 73
     0
 74
     0
 75
     0
 53
90.0
  3
ISO-25
100
AcDbAlignedDimension
 13
1686.15620696
 23
1864.9759983685
 33
0.0
 14
1887.15620696
 24
1895.9759983685
 34
0.0
 50
90.0
100
AcDbRotatedDimension
1001
ACAD
1000
DSTYLE
1002
{
1070
     3
1000
<>
1070
   340
1005
5F
1070
    44
1040
9.768009936716
1070
   280
1070
     3
1070
    77
1070
     1
1070
   179
1070
     0
1070
   271
1070
     0
1070
   173
1070
     1
1070
    41
1040
13.675213911402
1070
   147
1040
3.101343154907
1070
   140
1040
21.709402084351
1070
   178
1070
     7
1070
   177
1070
     7
1070
   176
1070
     7
1002
}
  0
DIMENSION
  5
37F
330
1F
100
AcDbEntity
  8
SLD-0
  6
AUSGEZOGEN
 62
     7
370
    18
100
AcDbDimension
280
     0
  2
*D17
 10
1686.15620696
 20
1780.8854400857
 30
0.0
 11
1662.13536931865
 21
1796.774293685205
 31
0.0
 70
   160
 71
     5
 42
-1.0
 73
     0
 74
     0
 75
     0
  3
ISO-25
100
AcDbAlignedDimension
 13
1638.15620696
 23
1853.9759983685
 33
0.0
 14
1686.15620696
 24
1853.9759983685
 34
0.0
100
AcDbRotatedDimension
1001
ACAD
1000
DSTYLE
1002
{
1070
     3
1000
<>
1070
   340
1005
5F
1070
    44
1040
9.768009936716
1070
   280
1070
     3
1070
    77
1070
     1
1070
   179
1070
     0
1070
   271
1070
     0
1070
   173
1070
     1
1070
    41
1040
13.675213911402
1070
   147
1040
3.101343154907
1070
   140
1040
21.709402084351
1070
   178
1070
     7
1070
   177
1070
     7
1070
   176
1070
     7
1002
}
  0
DIMENSION
  5
38A
330
1F
100
AcDbEntity
  8
SLD-0
  6
AUSGEZOGEN
 62
     7
370
    18
100
AcDbDimension
280
     0
  2
*D18
 10
1585.4331322522
 20
1852.9759983685
 30
0.0
 11
1567.081800769434
 21
1866.085847633637
 31
0.0
 70
   160
 71
     5
 42
-1.0
 73
     0
 74
     0
 75
     0
 53
90.0
  3
ISO-25
100
AcDbAlignedDimension
 13
1639.15620696
 23
1876.9759983685
 33
0.0
 14
1639.15620696
 24
1852.9759983685
 34
0.0
 50
-90.0
100
AcDbRotatedDimension
1001
ACAD
1000
DSTYLE
1002
{
1070
     3
1000
<>
1070
   340
1005
5F
1070
    44
1040
9.768009936716
1070
   280
1070
     3
1070
    77
1070
     1
1070
   179
1070
     0
1070
   271
1070
     0
1070
   173
1070
     1
1070
    41
1040
13.675213911402
1070
   147
1040
3.101343154907
1070
   140
1040
21.709402084351
1070
   178
1070
     7
1070
   177
1070
     7
1070
   176
1070
     7
1002
}
  0
INSERT
  5
393
330
1F
100
AcDbEntity
  8
0
100
AcDbBlockReference
  2
_D_16_nNn018
 10
0.0
 20
0.0
 30
0.0
  0
INSERT
  5
403
330
1F
100
AcDbEntity
  8
0
100
AcDbBlockReference
  2
A3-NABER_nNn019
 10
0.0
 20
0.0
 30
0.0
  0
LINE
  5
404
330
1F
100
AcDbEntity
  8
Layer100
  6
AUSGEZOGEN
 62
    18
420
        0
370
    50
100
AcDbLine
 10
2239.84
 20
179.996243607848
 30
0.0
 11
2239.84
 21
566.304923376728
 31
0.0
  0
LINE
  5
405
330
1F
100
AcDbEntity
  8
Layer100
  6
AUSGEZOGEN
 62
    18
420
        0
370
    50
100
AcDbLine
 10
2239.84
 20
209.715763336671
 30
0.0
 11
3520.0
 21
209.715763336671
 31
0.0
  0
LINE
  5
406
330
1F
100
AcDbEntity
  8
Layer100
  6
AUSGEZOGEN
 62
    18
420
        0
370
    18
100
AcDbLine
 10
2239.84
 20
239.431526673343
 30
0.0
 11
2623.07338333454
 21
239.431526673343
 31
0.0
  0
LINE
  5
407
330
1F
100
AcDbEntity
  8
Layer100
  6
AUSGEZOGEN
 62
    18
420
        0
370
    18
100
AcDbLine
 10
2239.84
 20
269.147290010014
 30
0.0
 11
2623.07338333454
 21
269.147290010014
 31
0.0
  0
LINE
  5
408
330
1F
100
AcDbEntity
  8
Layer100
  6
AUSGEZOGEN
 62
    18
420
        0
370
    18
100
AcDbLine
 10
2239.84
 20
298.863053346685
 30
0.0
 11
2623.07338333454
 21
298.863053346685
 31
0.0
  0
LINE
  5
409
330
1F
100
AcDbEntity
  8
Layer100
  6
AUSGEZOGEN
 62
    18
420
        0
370
    18
100
AcDbLine
 10
2239.84
 20
328.578816683357
 30
0.0
 11
2623.07338333454
 21
328.578816683357
 31
0.0
  0
LINE
  5
40A
330
1F
100
AcDbEntity
  8
Layer100
  6
AUSGEZOGEN
 62
    18
420
        0
370
    18
100
AcDbLine
 10
2239.84
 20
358.294580020028
 30
0.0
 11
2932.117322035923
 21
358.294580020028
 31
0.0
  0
LINE
  5
40B
330
1F
100
AcDbEntity
  8
Layer100
  6
AUSGEZOGEN
 62
    18
420
        0
370
    18
100
AcDbLine
 10
2239.84
 20
388.0103433567
 30
0.0
 11
2932.117322035923
 21
388.0103433567
 31
0.0
  0
LINE
  5
40C
330
1F
100
AcDbEntity
  8
Layer100
  6
AUSGEZOGEN
 62
    18
420
        0
370
    18
100
AcDbLine
 10
2239.84
 20
417.726106693371
 30
0.0
 11
2932.117322035923
 21
417.726106693371
 31
0.0
  0
LINE
  5
40D
330
1F
100
AcDbEntity
  8
Layer100
  6
AUSGEZOGEN
 62
    18
420
        0
370
    50
100
AcDbLine
 10
2239.84
 20
447.441870030043
 30
0.0
 11
3520.0
 21
447.441870030043
 31
0.0
  0
WIPEOUT
  5
40E
330
1F
100
AcDbEntity
  8
ASSI
  6
AUSGEZOGEN
 62
    18
420
        0
370
    18
160
               128
310
80000000020000000C00000014000000010000006C0000000700000004000000BAE039B634F29C4030444ACBA0279E40000000000000000016702CB662059E4030444ACBA0279E40000000000000000016702CB662059E4063777D7A91B29E400000000000000000BAE039B634F29C4063777D7A91B29E4000000000000000
310
00
100
AcDbWipeout
 90
        0
 10
1852.551476387349
 20
1929.9070254902
 30
0.0
 11
68.79492167472836
 21
0.0
 31
0.0
 12
0.0
 22
68.79492167472836
 32
0.0
 13
1.0
 23
1.0
340
0
 70
     7
280
     1
281
    50
282
    50
283
     0
360
0
 71
     2
 91
        5
 14
-0.5
 24
0.5
 14
0.5
 24
0.5
 14
0.5
 24
-0.004907084555
 14
-0.5
 24
-0.004907084555
 14
-0.5
 24
0.5
290
     0
  0
TEXT
  5
40F
330
1F
100
AcDbEntity
  8
ASSI
  6
AUSGEZOGEN
 62
    18
420
        0
370
    18
100
AcDbText
 10
1852.551476387349
 20
1936.419846115505
 30
0.0
 40
21.709402084351
  1
A - A
 41
1.021237473632
  7
Arial
 72
     5
 11
1921.346398062078
 21
1936.419846115505
 31
0.0
100
AcDbText
  0
ENDSEC
  0
SECTION
  2
OBJECTS
  0
DICTIONARY
  5
C
330
0
100
AcDbDictionary
281
     1
  3
ACAD_DETAILVIEWSTYLE
350
448
  3
ACAD_GROUP
350
D
  3
ACAD_IMAGE_DICT
350
3FE
  3
ACAD_LAYOUT
350
1A
  3
ACAD_MATERIAL
350
43
  3
ACAD_MLEADERSTYLE
350
5B
  3
ACAD_MLINESTYLE
350
17
  3
ACAD_PLOTSETTINGS
350
19
  3
ACAD_PLOTSTYLENAME
350
E
  3
ACAD_SCALELIST
350
47
  3
ACAD_SECTIONVIEWSTYLE
350
449
  3
ACAD_TABLESTYLE
350
59
  3
ACAD_VISUALSTYLE
350
2A
  3
ACAD_WIPEOUT_VARS
350
445
  3
ACDB_RECOMPOSE_DATA
350
444
  3
AcDbVariableDictionary
350
410
  0
SUN
  5
5D
330
29
100
AcDbSun
 90
        1
290
     0
 63
     7
421
 16777215
 40
1.0
291
     1
 91
  2455826
 92
 54000000
292
     0
 70
     2
 71
   256
280
     1
  0
IMAGEDEF_REACTOR
  5
401
330
400
100
AcDbRasterImageDefReactor
 90
        2
330
400
  0
DICTIONARY
  5
448
102
{ACAD_REACTORS
330
C
102
}
330
C
100
AcDbDictionary
281
     1
  0
DICTIONARY
  5
D
102
{ACAD_REACTORS
330
C
102
}
330
C
100
AcDbDictionary
281
     1
  0
DICTIONARY
  5
3FE
102
{ACAD_REACTORS
330
C
102
}
330
C
100
AcDbDictionary
281
     1
  3
NABER.JPG
350
3FF
  0
DICTIONARY
  5
1A
102
{ACAD_REACTORS
330
C
102
}
330
C
100
AcDbDictionary
281
     1
  3
Layout1
350
1E
  3
Layout2
350
26
  3
Model
350
22
  0
DICTIONARY
  5
43
102
{ACAD_REACTORS
330
C
102
}
330
C
100
AcDbDictionary
281
     1
  3
ByBlock
350
45
  3
ByLayer
350
44
  3
Global
350
46
  0
DICTIONARY
  5
5B
102
{ACAD_REACTORS
330
C
102
}
330
C
100
AcDbDictionary
281
     1
  3
Standard
350
5C
  0
DICTIONARY
  5
17
102
{ACAD_REACTORS
330
C
102
}
330
C
100
AcDbDictionary
281
     1
  3
Standard
350
18
  0
DICTIONARY
  5
19
102
{ACAD_REACTORS
330
C
102
}
330
C
100
AcDbDictionary
281
     1
  0
ACDBDICTIONARYWDFLT
  5
E
102
{ACAD_REACTORS
330
C
102
}
330
C
100
AcDbDictionary
281
     1
  3
Normal
350
F
100
AcDbDictionaryWithDefault
340
F
  0
DICTIONARY
  5
47
102
{ACAD_REACTORS
330
C
102
}
330
C
100
AcDbDictionary
281
     1
  3
A0
350
48
  3
A1
350
49
  3
A2
350
4A
  3
A3
350
4B
  3
A4
350
4C
  3
A5
350
4D
  3
A6
350
4E
  3
A7
350
4F
  3
A8
350
50
  3
A9
350
51
  3
B0
350
52
  3
B1
350
53
  3
B2
350
54
  3
B3
350
55
  3
B4
350
56
  3
B5
350
57
  3
B6
350
58
  0
DICTIONARY
  5
449
102
{ACAD_REACTORS
330
C
102
}
330
C
100
AcDbDictionary
281
     1
  0
DICTIONARY
  5
59
102
{ACAD_REACTORS
330
C
102
}
330
C
100
AcDbDictionary
281
     1
  3
Standard
350
5A
  0
DICTIONARY
  5
2A
102
{ACAD_REACTORS
330
C
102
}
330
C
100
AcDbDictionary
281
     1
  3
2dWireframe
350
2F
  3
Basic
350
32
  3
Brighten
350
36
  3
ColorChange
350
3A
  3
Conceptual
350
34
  3
Dim
350
35
  3
EdgeColorOff
350
3D
  3
Facepattern
350
39
  3
Flat
350
2B
  3
FlatWithEdges
350
2C
  3
Gouraud
350
2D
  3
GouraudWithEdges
350
2E
  3
Hidden
350
31
  3
JitterOff
350
3B
  3
Linepattern
350
38
  3
OverhangOff
350
3C
  3
Realistic
350
33
  3
Shaded
350
42
  3
Shaded with edges
350
41
  3
Shades of Gray
350
3E
  3
Sketchy
350
3F
  3
Thicken
350
37
  3
Wireframe
350
30
  3
X-Ray
350
40
  0
WIPEOUTVARIABLES
  5
445
102
{ACAD_REACTORS
330
C
102
}
330
C
100
AcDbWipeoutVariables
 70
     0
  0
XRECORD
  5
444
102
{ACAD_REACTORS
330
C
102
}
330
C
100
AcDbXrecord
280
     1
 90
        1
330
5A
  0
DICTIONARY
  5
410
102
{ACAD_REACTORS
330
C
102
}
330
C
100
AcDbDictionary
281
     1
  3
CANNOSCALE
350
411
  3
CENTEREXE
350
44B
  3
CENTERLTYPEFILE
350
44C
  3
CMLEADERSTYLE
350
447
  3
CTABLESTYLE
350
446
  3
WIPEOUTFRAME
350
44A
  0
IMAGEDEF
  5
3FF
102
{ACAD_REACTORS
330
3FE
330
401
102
}
330
3FE
100
AcDbRasterImageDef
 90
        0
  1
NABER.JPG
 10
3781.0
 20
943.0
 11
0.0002644802962179318
 21
0.0002644802962179318
280
     1
281
     0
  0
LAYOUT
  5
1E
102
{ACAD_REACTORS
330
1A
102
}
330
1A
100
AcDbPlotSettings
  1

  2
none_device
  4

  6

 40
0.0
 41
0.0
 42
0.0
 43
0.0
 44
0.0
 45
0.0
 46
0.0
 47
0.0
 48
0.0
 49
0.0
140
0.0
141
0.0
142
1.0
143
1.0
 70
   688
 72
     1
 73
     0
 74
     5
  7

 75
    16
 76
     0
 77
     2
 78
   300
147
1.0
148
0.0
149
0.0
100
AcDbLayout
  1
Layout1
 70
     1
 71
     1
 10
0.0
 20
0.0
 11
420.0
 21
297.0
 12
0.0
 22
0.0
 32
0.0
 14
1.000000000000E+20
 24
1.000000000000E+20
 34
1.000000000000E+20
 15
-1.000000000000E+20
 25
-1.000000000000E+20
 35
-1.000000000000E+20
146
0.0
 13
0.0
 23
0.0
 33
0.0
 16
1.0
 26
0.0
 36
0.0
 17
0.0
 27
1.0
 37
0.0
 76
     0
330
1B
  0
LAYOUT
  5
26
102
{ACAD_REACTORS
330
1A
102
}
330
1A
100
AcDbPlotSettings
  1

  2
none_device
  4

  6

 40
0.0
 41
0.0
 42
0.0
 43
0.0
 44
0.0
 45
0.0
 46
0.0
 47
0.0
 48
0.0
 49
0.0
140
0.0
141
0.0
142
1.0
143
1.0
 70
   688
 72
     1
 73
     0
 74
     5
  7

 75
    16
 76
     0
 77
     2
 78
   300
147
1.0
148
0.0
149
0.0
100
AcDbLayout
  1
Layout2
 70
     1
 71
     2
 10
0.0
 20
0.0
 11
0.0
 21
0.0
 12
0.0
 22
0.0
 32
0.0
 14
0.0
 24
0.0
 34
0.0
 15
0.0
 25
0.0
 35
0.0
146
0.0
 13
0.0
 23
0.0
 33
0.0
 16
1.0
 26
0.0
 36
0.0
 17
0.0
 27
1.0
 37
0.0
 76
     0
330
23
  0
LAYOUT
  5
22
102
{ACAD_REACTORS
330
1A
102
}
330
1A
100
AcDbPlotSettings
  1

  2
none_device
  4
Letter_(8.50_x_11.00_Inches)
  6

 40
6.35
 41
6.35
 42
6.35000508
 43
6.35000508
 44
215.9
 45
279.4
 46
0.0
 47
0.0
 48
0.0
 49
0.0
140
0.0
141
0.0
142
1.0
143
1.0
 70
  1712
 72
     1
 73
     0
 74
     0
  7

 75
     0
 76
     0
 77
     2
 78
   300
147
1.0
148
0.0
149
0.0
100
AcDbLayout
  1
Model
 70
     1
 71
     0
 10
0.0
 20
0.0
 11
420.0
 21
297.0
 12
0.0
 22
0.0
 32
0.0
 14
-756.767588369205
 24
41.435
 34
0.0
 15
5031.767588369205
 25
2319.865
 35
0.0
146
0.0
 13
0.0
 23
0.0
 33
0.0
 16
1.0
 26
0.0
 36
0.0
 17
0.0
 27
1.0
 37
0.0
 76
     0
330
1F
331
29
  0
MATERIAL
  5
45
102
{ACAD_REACTORS
330
43
102
}
330
43
100
AcDbMaterial
  1
ByBlock
 72
     1
 94
      127
  0
MATERIAL
  5
44
102
{ACAD_REACTORS
330
43
102
}
330
43
100
AcDbMaterial
  1
ByLayer
 72
     1
 94
      127
  0
MATERIAL
  5
46
102
{ACAD_REACTORS
330
43
102
}
330
43
100
AcDbMaterial
  1
Global
 72
     1
 94
      127
  0
MLEADERSTYLE
  5
5C
102
{ACAD_REACTORS
330
5B
102
}
330
5B
100
AcDbMLeaderStyle
179
     2
170
     2
171
     1
172
     0
 90
        2
 40
0.0
 41
0.0
173
     1
 91
-1056964608
340
14
 92
       -2
290
     1
 42
2.0
291
     1
 43
8.0
  3
Standard
341
0
 44
4.0
300

342
11
174
     1
178
     6
175
     1
176
     0
 93
-1056964608
 45
4.0
292
     0
297
     0
 46
4.0
343
0
 94
-1056964608
 47
1.0
 49
1.0
140
1.0
293
     1
141
0.0
294
     1
177
     0
142
1.0
295
     0
296
     0
143
3.75
271
     0
272
     9
273
     9
  0
MLINESTYLE
  5
18
102
{ACAD_REACTORS
330
17
102
}
330
17
100
AcDbMlineStyle
  2
Standard
 70
     0
  3

 62
   256
 51
90.0
 52
90.0
 71
     2
 49
0.5
 62
   256
  6
BYLAYER
 49
-0.5
 62
   256
  6
BYLAYER
  0
ACDBPLACEHOLDER
  5
F
102
{ACAD_REACTORS
330
E
102
}
330
E
  0
SCALE
  5
48
102
{ACAD_REACTORS
330
47
102
}
330
47
100
AcDbScale
 70
     0
300
1:1
140
1.0
141
1.0
290
     1
  0
SCALE
  5
49
102
{ACAD_REACTORS
330
47
102
}
330
47
100
AcDbScale
 70
     0
300
1:2
140
1.0
141
2.0
290
     0
  0
SCALE
  5
4A
102
{ACAD_REACTORS
330
47
102
}
330
47
100
AcDbScale
 70
     0
300
1:4
140
1.0
141
4.0
290
     0
  0
SCALE
  5
4B
102
{ACAD_REACTORS
330
47
102
}
330
47
100
AcDbScale
 70
     0
300
1:5
140
1.0
141
5.0
290
     0
  0
SCALE
  5
4C
102
{ACAD_REACTORS
330
47
102
}
330
47
100
AcDbScale
 70
     0
300
1:8
140
1.0
141
8.0
290
     0
  0
SCALE
  5
4D
102
{ACAD_REACTORS
330
47
102
}
330
47
100
AcDbScale
 70
     0
300
1:10
140
1.0
141
10.0
290
     0
  0
SCALE
  5
4E
102
{ACAD_REACTORS
330
47
102
}
330
47
100
AcDbScale
 70
     0
300
1:16
140
1.0
141
16.0
290
     0
  0
SCALE
  5
4F
102
{ACAD_REACTORS
330
47
102
}
330
47
100
AcDbScale
 70
     0
300
1:20
140
1.0
141
20.0
290
     0
  0
SCALE
  5
50
102
{ACAD_REACTORS
330
47
102
}
330
47
100
AcDbScale
 70
     0
300
1:30
140
1.0
141
30.0
290
     0
  0
SCALE
  5
51
102
{ACAD_REACTORS
330
47
102
}
330
47
100
AcDbScale
 70
     0
300
1:40
140
1.0
141
40.0
290
     0
  0
SCALE
  5
52
102
{ACAD_REACTORS
330
47
102
}
330
47
100
AcDbScale
 70
     0
300
1:50
140
1.0
141
50.0
290
     0
  0
SCALE
  5
53
102
{ACAD_REACTORS
330
47
102
}
330
47
100
AcDbScale
 70
     0
300
1:100
140
1.0
141
100.0
290
     0
  0
SCALE
  5
54
102
{ACAD_REACTORS
330
47
102
}
330
47
100
AcDbScale
 70
     0
300
2:1
140
2.0
141
1.0
290
     0
  0
SCALE
  5
55
102
{ACAD_REACTORS
330
47
102
}
330
47
100
AcDbScale
 70
     0
300
4:1
140
4.0
141
1.0
290
     0
  0
SCALE
  5
56
102
{ACAD_REACTORS
330
47
102
}
330
47
100
AcDbScale
 70
     0
300
8:1
140
8.0
141
1.0
290
     0
  0
SCALE
  5
57
102
{ACAD_REACTORS
330
47
102
}
330
47
100
AcDbScale
 70
     0
300
10:1
140
10.0
141
1.0
290
     0
  0
SCALE
  5
58
102
{ACAD_REACTORS
330
47
102
}
330
47
100
AcDbScale
 70
     0
300
100:1
140
100.0
141
1.0
290
     0
  0
TABLESTYLE
  5
5A
102
{ACAD_REACTORS
330
59
102
}
102
{ACAD_XDICTIONARY
360
442
102
}
330
59
100
AcDbTableStyle
  3
Standard
 70
     0
 71
     0
 40
0.06
 41
0.06
280
     0
281
     0
  7
Standard
140
4.5
170
     2
 62
     0
 63
   257
283
     0
 90
        4
 91
        0
  1

274
    -2
284
     1
 64
     0
275
    -2
285
     1
 65
     0
276
    -2
286
     1
 66
     0
277
    -2
287
     1
 67
     0
278
    -2
288
     1
 68
     0
279
    -2
289
     1
 69
     0
  7
Standard
140
6.0
170
     5
 62
     0
 63
   257
283
     0
 90
        4
 91
        0
  1

274
    -2
284
     1
 64
     0
275
    -2
285
     1
 65
     0
276
    -2
286
     1
 66
     0
277
    -2
287
     1
 67
     0
278
    -2
288
     1
 68
     0
279
    -2
289
     1
 69
     0
  7
Standard
140
4.5
170
     5
 62
     0
 63
   257
283
     0
 90
        4
 91
        0
  1

274
    -2
284
     1
 64
     0
275
    -2
285
     1
 65
     0
276
    -2
286
     1
 66
     0
277
    -2
287
     1
 67
     0
278
    -2
288
     1
 68
     0
279
    -2
289
     1
 69
     0
  0
VISUALSTYLE
  5
2F
102
{ACAD_REACTORS
330
2A
102
}
102
{ACAD_XDICTIONARY
360
41A
102
}
330
2A
100
AcDbVisualStyle
  2
2dWireframe
 70
     4
177
     2
291
     0
 71
     0
176
     1
 72
     2
176
     1
 73
     0
176
     1
 90
        0
176
     1
 40
0.6
176
     1
 41
30.0
176
     1
 62
     5
 63
     7
421
 16777215
176
     1
 74
     1
176
     1
 91
        4
176
     1
 64
     7
176
     1
 65
   257
176
     1
 75
     1
176
     1
175
     1
176
     1
 42
1.0
176
     1
 92
        0
176
     1
 66
   257
176
     1
 43
1.0
176
     1
 76
     1
176
     1
 77
     6
176
     1
 78
     2
176
     1
 67
     7
176
     1
 79
     5
176
     1
170
     0
176
     1
171
     0
176
     1
290
     0
176
     1
 93
        1
176
     1
 44
0.0
176
     1
173
     0
176
     1
  0
VISUALSTYLE
  5
32
102
{ACAD_REACTORS
330
2A
102
}
102
{ACAD_XDICTIONARY
360
420
102
}
330
2A
100
AcDbVisualStyle
  2
Basic
 70
     7
177
     2
291
     1
 71
     1
176
     1
 72
     0
176
     1
 73
     1
176
     1
 90
        0
176
     1
 40
0.6
176
     1
 41
30.0
176
     1
 62
     5
 63
     7
421
 16777215
176
     1
 74
     0
176
     1
 91
        4
176
     1
 64
     7
176
     1
 65
   257
176
     1
 75
     1
176
     1
175
     1
176
     1
 42
1.0
176
     1
 92
        8
176
     1
 66
     7
176
     1
 43
1.0
176
     1
 76
     1
176
     1
 77
     6
176
     1
 78
     2
176
     1
 67
     7
176
     1
 79
     5
176
     1
170
     0
176
     1
171
     0
176
     1
290
     0
176
     1
 93
        1
176
     1
 44
0.0
176
     1
173
     0
176
     1
  0
VISUALSTYLE
  5
36
102
{ACAD_REACTORS
330
2A
102
}
102
{ACAD_XDICTIONARY
360
428
102
}
330
2A
100
AcDbVisualStyle
  2
Brighten
 70
    12
177
     2
291
     1
 71
     2
176
     1
 72
     2
176
     1
 73
     0
176
     1
 90
        0
176
     1
 40
0.6
176
     1
 41
30.0
176
     1
 62
     5
 63
     7
421
 16777215
176
     1
 74
     1
176
     1
 91
        4
176
     1
 64
     7
176
     1
 65
   257
176
     1
 75
     1
176
     1
175
     1
176
     1
 42
1.0
176
     1
 92
        8
176
     1
 66
     7
176
     1
 43
1.0
176
     1
 76
     1
176
     1
 77
     6
176
     1
 78
     2
176
     1
 67
     7
176
     1
 79
     5
176
     1
170
     0
176
     1
171
     0
176
     1
290
     0
176
     1
 93
        1
176
     1
 44
50.0
176
     1
173
     0
176
     1
  0
VISUALSTYLE
  5
3A
102
{ACAD_REACTORS
330
2A
102
}
102
{ACAD_XDICTIONARY
360
430
102
}
330
2A
100
AcDbVisualStyle
  2
ColorChange
 70
    16
177
     2
291
     1
 71
     2
176
     1
 72
     2
176
     1
 73
     3
176
     1
 90
        0
176
     1
 40
0.6
176
     1
 41
30.0
176
     1
 62
     5
 63
     8
421
  8421504
176
     1
 74
     1
176
     1
 91
        4
176
     1
 64
     7
176
     1
 65
   257
176
     1
 75
     1
176
     1
175
     1
176
     1
 42
1.0
176
     1
 92
        8
176
     1
 66
     8
424
  8421504
176
     1
 43
1.0
176
     1
 76
     1
176
     1
 77
     6
176
     1
 78
     2
176
     1
 67
     7
176
     1
 79
     5
176
     1
170
     0
176
     1
171
     0
176
     1
290
     0
176
     1
 93
        1
176
     1
 44
0.0
176
     1
173
     0
176
     1
  0
VISUALSTYLE
  5
34
102
{ACAD_REACTORS
330
2A
102
}
102
{ACAD_XDICTIONARY
360
424
102
}
330
2A
100
AcDbVisualStyle
  2
Conceptual
 70
     9
177
     2
291
     0
 71
     3
176
     1
 72
     2
176
     1
 73
     0
176
     1
 90
        0
176
     1
 40
0.6
176
     1
 41
30.0
176
     1
 62
     5
 63
     7
421
 16777215
176
     1
 74
     2
176
     1
 91
        2
176
     1
 64
     7
176
     1
 65
   257
176
     1
 75
     1
176
     1
175
     1
176
     1
 42
179.0
176
     1
 92
        8
176
     1
 66
     7
176
     1
 43
1.0
176
     1
 76
     1
176
     1
 77
     6
176
     1
 78
     2
176
     1
 67
     7
176
     1
 79
     3
176
     1
170
     0
176
     1
171
     0
176
     1
290
     0
176
     1
 93
        1
176
     1
 44
0.0
176
     1
173
     0
176
     1
  0
VISUALSTYLE
  5
35
102
{ACAD_REACTORS
330
2A
102
}
102
{ACAD_XDICTIONARY
360
426
102
}
330
2A
100
AcDbVisualStyle
  2
Dim
 70
    11
177
     2
291
     1
 71
     2
176
     1
 72
     2
176
     1
 73
     0
176
     1
 90
        0
176
     1
 40
0.6
176
     1
 41
30.0
176
     1
 62
     5
 63
     7
421
 16777215
176
     1
 74
     1
176
     1
 91
        4
176
     1
 64
     7
176
     1
 65
   257
176
     1
 75
     1
176
     1
175
     1
176
     1
 42
1.0
176
     1
 92
        8
176
     1
 66
     7
176
     1
 43
1.0
176
     1
 76
     1
176
     1
 77
     6
176
     1
 78
     2
176
     1
 67
     7
176
     1
 79
     5
176
     1
170
     0
176
     1
171
     0
176
     1
290
     0
176
     1
 93
        1
176
     1
 44
-50.0
176
     1
173
     0
176
     1
  0
VISUALSTYLE
  5
3D
102
{ACAD_REACTORS
330
2A
102
}
102
{ACAD_XDICTIONARY
360
436
102
}
330
2A
100
AcDbVisualStyle
  2
EdgeColorOff
 70
    22
177
     2
291
     1
 71
     2
176
     0
 72
     2
176
     0
 73
     0
176
     0
 90
        0
176
     0
 40
0.6
176
     0
 41
30.0
176
     0
 62
     5
 63
     7
421
 16777215
176
     0
 74
     1
176
     0
 91
        4
176
     0
 64
     7
176
     0
 65
   257
176
     0
 75
     1
176
     0
175
     1
176
     0
 42
1.0
176
     0
 92
        8
176
     2
 66
     7
176
     0
 43
1.0
176
     0
 76
     1
176
     0
 77
     6
176
     0
 78
     2
176
     0
 67
     7
176
     0
 79
     5
176
     0
170
     0
176
     0
171
     0
176
     0
290
     0
176
     0
 93
        1
176
     0
 44
0.0
176
     0
173
     0
176
     0
  0
VISUALSTYLE
  5
39
102
{ACAD_REACTORS
330
2A
102
}
102
{ACAD_XDICTIONARY
360
42E
102
}
330
2A
100
AcDbVisualStyle
  2
Facepattern
 70
    15
177
     2
291
     1
 71
     2
176
     1
 72
     2
176
     1
 73
     0
176
     1
 90
        0
176
     1
 40
0.6
176
     1
 41
30.0
176
     1
 62
     5
 63
     7
421
 16777215
176
     1
 74
     1
176
     1
 91
        4
176
     1
 64
     7
176
     1
 65
   257
176
     1
 75
     1
176
     1
175
     1
176
     1
 42
1.0
176
     1
 92
        8
176
     1
 66
     7
176
     1
 43
1.0
176
     1
 76
     1
176
     1
 77
     6
176
     1
 78
     2
176
     1
 67
     7
176
     1
 79
     5
176
     1
170
     0
176
     1
171
     0
176
     1
290
     0
176
     1
 93
        1
176
     1
 44
0.0
176
     1
173
     0
176
     1
  0
VISUALSTYLE
  5
2B
102
{ACAD_REACTORS
330
2A
102
}
102
{ACAD_XDICTIONARY
360
412
102
}
330
2A
100
AcDbVisualStyle
  2
Flat
 70
     0
177
     2
291
     1
 71
     2
176
     1
 72
     1
176
     1
 73
     1
176
     1
 90
        2
176
     1
 40
0.6
176
     1
 41
30.0
176
     1
 62
     5
 63
     7
421
 16777215
176
     1
 74
     0
176
     1
 91
        0
176
     1
 64
     7
176
     1
 65
   257
176
     1
 75
     1
176
     1
175
     1
176
     1
 42
1.0
176
     1
 92
        8
176
     1
 66
     7
176
     1
 43
1.0
176
     1
 76
     1
176
     1
 77
     6
176
     1
 78
     2
176
     1
 67
     7
176
     1
 79
     5
176
     1
170
     0
176
     1
171
     0
176
     1
290
     0
176
     1
 93
       13
176
     1
 44
0.0
176
     1
173
     0
176
     1
  0
VISUALSTYLE
  5
2C
102
{ACAD_REACTORS
330
2A
102
}
102
{ACAD_XDICTIONARY
360
414
102
}
330
2A
100
AcDbVisualStyle
  2
FlatWithEdges
 70
     1
177
     2
291
     1
 71
     2
176
     1
 72
     1
176
     1
 73
     1
176
     1
 90
        2
176
     1
 40
0.6
176
     1
 41
30.0
176
     1
 62
     5
 63
     7
421
 16777215
176
     1
 74
     1
176
     1
 91
        0
176
     1
 64
     7
176
     1
 65
   257
176
     1
 75
     1
176
     1
175
     1
176
     1
 42
1.0
176
     1
 92
        0
176
     1
 66
   257
176
     1
 43
1.0
176
     1
 76
     1
176
     1
 77
     6
176
     1
 78
     2
176
     1
 67
     7
176
     1
 79
     5
176
     1
170
     0
176
     1
171
     0
176
     1
290
     0
176
     1
 93
       13
176
     1
 44
0.0
176
     1
173
     0
176
     1
  0
VISUALSTYLE
  5
2D
102
{ACAD_REACTORS
330
2A
102
}
102
{ACAD_XDICTIONARY
360
416
102
}
330
2A
100
AcDbVisualStyle
  2
Gouraud
 70
     2
177
     2
291
     1
 71
     2
176
     1
 72
     2
176
     1
 73
     1
176
     1
 90
        2
176
     1
 40
0.6
176
     1
 41
30.0
176
     1
 62
     5
 63
     7
421
 16777215
176
     1
 74
     0
176
     1
 91
        0
176
     1
 64
     7
176
     1
 65
   257
176
     1
 75
     1
176
     1
175
     1
176
     1
 42
1.0
176
     1
 92
        0
176
     1
 66
     7
176
     1
 43
1.0
176
     1
 76
     1
176
     1
 77
     6
176
     1
 78
     2
176
     1
 67
     7
176
     1
 79
     5
176
     1
170
     0
176
     1
171
     0
176
     1
290
     0
176
     1
 93
       13
176
     1
 44
0.0
176
     1
173
     0
176
     1
  0
VISUALSTYLE
  5
2E
102
{ACAD_REACTORS
330
2A
102
}
102
{ACAD_XDICTIONARY
360
418
102
}
330
2A
100
AcDbVisualStyle
  2
GouraudWithEdges
 70
     3
177
     2
291
     1
 71
     2
176
     1
 72
     2
176
     1
 73
     1
176
     1
 90
        2
176
     1
 40
0.6
176
     1
 41
30.0
176
     1
 62
     5
 63
     7
421
 16777215
176
     1
 74
     1
176
     1
 91
        0
176
     1
 64
     7
176
     1
 65
   257
176
     1
 75
     1
176
     1
175
     1
176
     1
 42
1.0
176
     1
 92
        0
176
     1
 66
   257
176
     1
 43
1.0
176
     1
 76
     1
176
     1
 77
     6
176
     1
 78
     2
176
     1
 67
     7
176
     1
 79
     5
176
     1
170
     0
176
     1
171
     0
176
     1
290
     0
176
     1
 93
       13
176
     1
 44
0.0
176
     1
173
     0
176
     1
  0
VISUALSTYLE
  5
31
102
{ACAD_REACTORS
330
2A
102
}
102
{ACAD_XDICTIONARY
360
41E
102
}
330
2A
100
AcDbVisualStyle
  2
Hidden
 70
     6
177
     2
291
     0
 71
     1
176
     1
 72
     2
176
     1
 73
     2
176
     1
 90
        0
176
     1
 40
0.6
176
     1
 41
30.0
176
     1
 62
     5
 63
     7
421
 16777215
176
     1
 74
     2
176
     1
 91
        2
176
     1
 64
     7
176
     1
 65
   257
176
     1
 75
     2
176
     1
175
     1
176
     1
 42
40.0
176
     1
 92
        0
176
     1
 66
   257
176
     1
 43
1.0
176
     1
 76
     1
176
     1
 77
     6
176
     1
 78
     2
176
     1
 67
     7
176
     1
 79
     3
176
     1
170
     0
176
     1
171
     0
176
     1
290
     0
176
     1
 93
        1
176
     1
 44
0.0
176
     1
173
     0
176
     1
  0
VISUALSTYLE
  5
3B
102
{ACAD_REACTORS
330
2A
102
}
102
{ACAD_XDICTIONARY
360
432
102
}
330
2A
100
AcDbVisualStyle
  2
JitterOff
 70
    20
177
     2
291
     1
 71
     2
176
     0
 72
     2
176
     0
 73
     0
176
     0
 90
        0
176
     0
 40
0.6
176
     0
 41
30.0
176
     0
 62
     5
 63
     7
421
 16777215
176
     0
 74
     1
176
     0
 91
        4
176
     0
 64
     7
176
     0
 65
   257
176
     0
 75
     1
176
     0
175
     1
176
     0
 42
1.0
176
     0
 92
       10
176
     2
 66
     7
176
     0
 43
1.0
176
     0
 76
     1
176
     0
 77
     6
176
     0
 78
     2
176
     0
 67
     7
176
     0
 79
     5
176
     0
170
     0
176
     0
171
     0
176
     0
290
     0
176
     0
 93
        1
176
     0
 44
0.0
176
     0
173
     0
176
     0
  0
VISUALSTYLE
  5
38
102
{ACAD_REACTORS
330
2A
102
}
102
{ACAD_XDICTIONARY
360
42C
102
}
330
2A
100
AcDbVisualStyle
  2
Linepattern
 70
    14
177
     2
291
     1
 71
     2
176
     1
 72
     2
176
     1
 73
     0
176
     1
 90
        0
176
     1
 40
0.6
176
     1
 41
30.0
176
     1
 62
     5
 63
     7
421
 16777215
176
     1
 74
     1
176
     1
 91
        4
176
     1
 64
     7
176
     1
 65
   257
176
     1
 75
     7
176
     1
175
     7
176
     1
 42
1.0
176
     1
 92
        8
176
     1
 66
     7
176
     1
 43
1.0
176
     1
 76
     1
176
     1
 77
     6
176
     1
 78
     2
176
     1
 67
     7
176
     1
 79
     5
176
     1
170
     0
176
     1
171
     0
176
     1
290
     0
176
     1
 93
        1
176
     1
 44
0.0
176
     1
173
     0
176
     1
  0
VISUALSTYLE
  5
3C
102
{ACAD_REACTORS
330
2A
102
}
102
{ACAD_XDICTIONARY
360
434
102
}
330
2A
100
AcDbVisualStyle
  2
OverhangOff
 70
    21
177
     2
291
     1
 71
     2
176
     0
 72
     2
176
     0
 73
     0
176
     0
 90
        0
176
     0
 40
0.6
176
     0
 41
30.0
176
     0
 62
     5
 63
     7
421
 16777215
176
     0
 74
     1
176
     0
 91
        4
176
     0
 64
     7
176
     0
 65
   257
176
     0
 75
     1
176
     0
175
     1
176
     0
 42
1.0
176
     0
 92
        9
176
     2
 66
     7
176
     0
 43
1.0
176
     0
 76
     1
176
     0
 77
     6
176
     0
 78
     2
176
     0
 67
     7
176
     0
 79
     5
176
     0
170
     0
176
     0
171
     0
176
     0
290
     0
176
     0
 93
        1
176
     0
 44
0.0
176
     0
173
     0
176
     0
  0
VISUALSTYLE
  5
33
102
{ACAD_REACTORS
330
2A
102
}
102
{ACAD_XDICTIONARY
360
422
102
}
330
2A
100
AcDbVisualStyle
  2
Realistic
 70
     8
177
     2
291
     0
 71
     2
176
     1
 72
     3
176
     1
 73
     0
176
     1
 90
        2
176
     1
 40
0.6
176
     1
 41
30.0
176
     1
 62
     5
 63
     7
421
 16777215
176
     1
 74
     0
176
     1
 91
        0
176
     1
 64
     7
176
     1
 65
   257
176
     1
 75
     1
176
     1
175
     1
176
     1
 42
1.0
176
     1
 92
        8
176
     1
 66
   257
176
     1
 43
1.0
176
     1
 76
     1
176
     1
 77
     6
176
     1
 78
     2
176
     1
 67
     7
176
     1
 79
     3
176
     1
170
     0
176
     1
171
     0
176
     1
290
     0
176
     1
 93
       13
176
     1
 44
0.0
176
     1
173
     0
176
     1
  0
VISUALSTYLE
  5
42
102
{ACAD_REACTORS
330
2A
102
}
102
{ACAD_XDICTIONARY
360
440
102
}
330
2A
100
AcDbVisualStyle
  2
Shaded
 70
    27
177
     2
291
     0
 71
     2
176
     1
 72
     2
176
     1
 73
     1
176
     1
 90
        2
176
     1
 40
0.6
176
     1
 41
30.0
176
     1
 62
     5
 63
     7
421
 16777215
176
     1
 74
     0
176
     1
 91
        4
176
     1
 64
     7
176
     1
 65
   257
176
     1
 75
     1
176
     1
175
     1
176
     1
 42
1.0
176
     1
 92
        8
176
     1
 66
   257
176
     1
 43
1.0
176
     1
 76
     1
176
     1
 77
     6
176
     1
 78
     2
176
     1
 67
     8
425
  7895160
176
     1
 79
     3
176
     1
170
     0
176
     1
171
     0
176
     1
290
     0
176
     1
 93
        5
176
     1
 44
0.0
176
     1
173
     0
176
     1
  0
VISUALSTYLE
  5
41
102
{ACAD_REACTORS
330
2A
102
}
102
{ACAD_XDICTIONARY
360
43E
102
}
330
2A
100
AcDbVisualStyle
  2
Shaded with edges
 70
    26
177
     2
291
     0
 71
     2
176
     1
 72
     2
176
     1
 73
     1
176
     1
 90
        2
176
     1
 40
0.6
176
     1
 41
30.0
176
     1
 62
     5
 63
     7
421
 16777215
176
     1
 74
     1
176
     1
 91
       10
176
     1
 64
     7
176
     1
 65
   257
176
     1
 75
     2
176
     1
175
     1
176
     1
 42
1.0
176
     1
 92
        8
176
     1
 66
   257
176
     1
 43
1.0
176
     1
 76
     1
176
     1
 77
     6
176
     1
 78
     2
176
     1
 67
     7
176
     1
 79
     3
176
     1
170
     0
176
     1
171
     0
176
     1
290
     0
176
     1
 93
        5
176
     1
 44
0.0
176
     1
173
     0
176
     1
  0
VISUALSTYLE
  5
3E
102
{ACAD_REACTORS
330
2A
102
}
102
{ACAD_XDICTIONARY
360
438
102
}
330
2A
100
AcDbVisualStyle
  2
Shades of Gray
 70
    23
177
     2
291
     0
 71
     2
176
     1
 72
     2
176
     1
 73
     3
176
     1
 90
        0
176
     1
 40
0.6
176
     1
 41
30.0
176
     1
 62
     5
 63
     7
421
 16777215
176
     1
 74
     2
176
     1
 91
        2
176
     1
 64
     7
176
     1
 65
     7
176
     1
 75
     1
176
     1
175
     1
176
     1
 42
40.0
176
     1
 92
        8
176
     1
 66
     7
176
     1
 43
1.0
176
     1
 76
     1
176
     1
 77
     6
176
     1
 78
     2
176
     1
 67
     7
176
     1
 79
     3
176
     1
170
     0
176
     1
171
     0
176
     1
290
     0
176
     1
 93
        1
176
     1
 44
0.0
176
     1
173
     0
176
     1
  0
VISUALSTYLE
  5
3F
102
{ACAD_REACTORS
330
2A
102
}
102
{ACAD_XDICTIONARY
360
43A
102
}
330
2A
100
AcDbVisualStyle
  2
Sketchy
 70
    24
177
     2
291
     0
 71
     1
176
     1
 72
     2
176
     1
 73
     2
176
     1
 90
        0
176
     1
 40
0.6
176
     1
 41
30.0
176
     1
 62
     5
 63
     7
421
 16777215
176
     1
 74
     2
176
     1
 91
        2
176
     1
 64
     7
176
     1
 65
     7
176
     1
 75
     1
176
     1
175
     1
176
     1
 42
40.0
176
     1
 92
       11
176
     1
 66
     7
176
     1
 43
1.0
176
     1
 76
     1
176
     1
 77
     6
176
     1
 78
     2
176
     1
 67
     7
176
     1
 79
     6
176
     1
170
     0
176
     1
171
     0
176
     1
290
     0
176
     1
 93
        1
176
     1
 44
0.0
176
     1
173
     0
176
     1
  0
VISUALSTYLE
  5
37
102
{ACAD_REACTORS
330
2A
102
}
102
{ACAD_XDICTIONARY
360
42A
102
}
330
2A
100
AcDbVisualStyle
  2
Thicken
 70
    13
177
     2
291
     1
 71
     2
176
     1
 72
     2
176
     1
 73
     0
176
     1
 90
        0
176
     1
 40
0.6
176
     1
 41
30.0
176
     1
 62
     5
 63
     7
421
 16777215
176
     1
 74
     1
176
     1
 91
        4
176
     1
 64
     7
176
     1
 65
   257
176
     1
 75
     1
176
     1
175
     1
176
     1
 42
1.0
176
     1
 92
       12
176
     1
 66
     7
176
     1
 43
1.0
176
     1
 76
     1
176
     1
 77
     6
176
     1
 78
     2
176
     1
 67
     7
176
     1
 79
     5
176
     1
170
     0
176
     1
171
     0
176
     1
290
     0
176
     1
 93
        1
176
     1
 44
0.0
176
     1
173
     0
176
     1
  0
VISUALSTYLE
  5
30
102
{ACAD_REACTORS
330
2A
102
}
102
{ACAD_XDICTIONARY
360
41C
102
}
330
2A
100
AcDbVisualStyle
  2
Wireframe
 70
     5
177
     2
291
     0
 71
     0
176
     1
 72
     2
176
     1
 73
     0
176
     1
 90
        0
176
     1
 40
0.6
176
     1
 41
30.0
176
     1
 62
     5
 63
     7
421
 16777215
176
     1
 74
     1
176
     1
 91
        4
176
     1
 64
     7
176
     1
 65
   257
176
     1
 75
     1
176
     1
175
     1
176
     1
 42
1.0
176
     1
 92
        0
176
     1
 66
   257
176
     1
 43
1.0
176
     1
 76
     1
176
     1
 77
     6
176
     1
 78
     2
176
     1
 67
     7
176
     1
 79
     3
176
     1
170
     0
176
     1
171
     0
176
     1
290
     0
176
     1
 93
        1
176
     1
 44
0.0
176
     1
173
     0
176
     1
  0
VISUALSTYLE
  5
40
102
{ACAD_REACTORS
330
2A
102
}
102
{ACAD_XDICTIONARY
360
43C
102
}
330
2A
100
AcDbVisualStyle
  2
X-Ray
 70
    25
177
     2
291
     0
 71
     2
176
     1
 72
     2
176
     1
 73
     1
176
     1
 90
        1
176
     1
 40
0.5
176
     1
 41
30.0
176
     1
 62
     5
 63
     7
421
 16777215
176
     1
 74
     1
176
     1
 91
        0
176
     1
 64
     7
176
     1
 65
   257
176
     1
 75
     1
176
     1
175
     1
176
     1
 42
1.0
176
     1
 92
        8
176
     1
 66
     7
176
     1
 43
1.0
176
     1
 76
     1
176
     1
 77
     6
176
     1
 78
     2
176
     1
 67
     7
176
     1
 79
     3
176
     1
170
     0
176
     1
171
     0
176
     1
290
     0
176
     1
 93
       13
176
     1
 44
0.0
176
     1
173
     0
176
     1
  0
DICTIONARYVAR
  5
411
102
{ACAD_REACTORS
330
410
102
}
330
410
100
DictionaryVariables
280
     0
  1
1:1
  0
DICTIONARYVAR
  5
44B
102
{ACAD_REACTORS
330
410
102
}
330
410
100
DictionaryVariables
280
     0
  1
3.500000
  0
DICTIONARYVAR
  5
44C
102
{ACAD_REACTORS
330
410
102
}
330
410
100
DictionaryVariables
280
     0
  1
acadiso.lin
  0
DICTIONARYVAR
  5
447
102
{ACAD_REACTORS
330
410
102
}
330
410
100
DictionaryVariables
280
     0
  1
Standard
  0
DICTIONARYVAR
  5
446
102
{ACAD_REACTORS
330
410
102
}
330
410
100
DictionaryVariables
280
     0
  1
Standard
  0
DICTIONARYVAR
  5
44A
102
{ACAD_REACTORS
330
410
102
}
330
410
100
DictionaryVariables
280
     0
  1
0
  0
DICTIONARY
  5
442
330
5A
100
AcDbDictionary
280
     1
281
     1
  3
ACAD_ROUNDTRIP_2008_TABLESTYLE_CELLSTYLEMAP
360
443
  0
DICTIONARY
  5
41A
330
2F
100
AcDbDictionary
280
     1
281
     1
  3
ACAD_XREC_ROUNDTRIP
360
41B
  0
DICTIONARY
  5
420
330
32
100
AcDbDictionary
280
     1
281
     1
  3
ACAD_XREC_ROUNDTRIP
360
421
  0
DICTIONARY
  5
428
330
36
100
AcDbDictionary
280
     1
281
     1
  3
ACAD_XREC_ROUNDTRIP
360
429
  0
DICTIONARY
  5
430
330
3A
100
AcDbDictionary
280
     1
281
     1
  3
ACAD_XREC_ROUNDTRIP
360
431
  0
DICTIONARY
  5
424
330
34
100
AcDbDictionary
280
     1
281
     1
  3
ACAD_XREC_ROUNDTRIP
360
425
  0
DICTIONARY
  5
426
330
35
100
AcDbDictionary
280
     1
281
     1
  3
ACAD_XREC_ROUNDTRIP
360
427
  0
DICTIONARY
  5
436
330
3D
100
AcDbDictionary
280
     1
281
     1
  3
ACAD_XREC_ROUNDTRIP
360
437
  0
DICTIONARY
  5
42E
330
39
100
AcDbDictionary
280
     1
281
     1
  3
ACAD_XREC_ROUNDTRIP
360
42F
  0
DICTIONARY
  5
412
330
2B
100
AcDbDictionary
280
     1
281
     1
  3
ACAD_XREC_ROUNDTRIP
360
413
  0
DICTIONARY
  5
414
330
2C
100
AcDbDictionary
280
     1
281
     1
  3
ACAD_XREC_ROUNDTRIP
360
415
  0
DICTIONARY
  5
416
330
2D
100
AcDbDictionary
280
     1
281
     1
  3
ACAD_XREC_ROUNDTRIP
360
417
  0
DICTIONARY
  5
418
330
2E
100
AcDbDictionary
280
     1
281
     1
  3
ACAD_XREC_ROUNDTRIP
360
419
  0
DICTIONARY
  5
41E
330
31
100
AcDbDictionary
280
     1
281
     1
  3
ACAD_XREC_ROUNDTRIP
360
41F
  0
DICTIONARY
  5
432
330
3B
100
AcDbDictionary
280
     1
281
     1
  3
ACAD_XREC_ROUNDTRIP
360
433
  0
DICTIONARY
  5
42C
330
38
100
AcDbDictionary
280
     1
281
     1
  3
ACAD_XREC_ROUNDTRIP
360
42D
  0
DICTIONARY
  5
434
330
3C
100
AcDbDictionary
280
     1
281
     1
  3
ACAD_XREC_ROUNDTRIP
360
435
  0
DICTIONARY
  5
422
330
33
100
AcDbDictionary
280
     1
281
     1
  3
ACAD_XREC_ROUNDTRIP
360
423
  0
DICTIONARY
  5
440
330
42
100
AcDbDictionary
280
     1
281
     1
  3
ACAD_XREC_ROUNDTRIP
360
441
  0
DICTIONARY
  5
43E
330
41
100
AcDbDictionary
280
     1
281
     1
  3
ACAD_XREC_ROUNDTRIP
360
43F
  0
DICTIONARY
  5
438
330
3E
100
AcDbDictionary
280
     1
281
     1
  3
ACAD_XREC_ROUNDTRIP
360
439
  0
DICTIONARY
  5
43A
330
3F
100
AcDbDictionary
280
     1
281
     1
  3
ACAD_XREC_ROUNDTRIP
360
43B
  0
DICTIONARY
  5
42A
330
37
100
AcDbDictionary
280
     1
281
     1
  3
ACAD_XREC_ROUNDTRIP
360
42B
  0
DICTIONARY
  5
41C
330
30
100
AcDbDictionary
280
     1
281
     1
  3
ACAD_XREC_ROUNDTRIP
360
41D
  0
DICTIONARY
  5
43C
330
40
100
AcDbDictionary
280
     1
281
     1
  3
ACAD_XREC_ROUNDTRIP
360
43D
  0
CELLSTYLEMAP
  5
443
102
{ACAD_REACTORS
330
442
102
}
330
442
100
AcDbCellStyleMap
 90
        3
300
CELLSTYLE
  1
TABLEFORMAT_BEGIN
 90
        5
170
     1
 91
        0
 92
    32768
 62
   257
 93
        1
300
CONTENTFORMAT
  1
CONTENTFORMAT_BEGIN
 90
        0
 91
        0
 92
        4
 93
        0
300

 40
0.0
140
1.0
 94
        5
 62
     0
340
11
144
6.0
309
CONTENTFORMAT_END
171
     1
301
MARGIN
  1
CELLMARGIN_BEGIN
 40
1.5
 40
1.5
 40
1.5
 40
1.5
 40
1.5
 40
1.5
309
CELLMARGIN_END
 94
        6
 95
        1
302
GRIDFORMAT
  1
GRIDFORMAT_BEGIN
 90
        0
 91
        1
 62
     0
 92
       -2
340
14
 93
        0
 40
0.045
309
GRIDFORMAT_END
 95
        2
302
GRIDFORMAT
  1
GRIDFORMAT_BEGIN
 90
        0
 91
        1
 62
     0
 92
       -2
340
14
 93
        0
 40
0.045
309
GRIDFORMAT_END
 95
        4
302
GRIDFORMAT
  1
GRIDFORMAT_BEGIN
 90
        0
 91
        1
 62
     0
 92
       -2
340
14
 93
        0
 40
0.045
309
GRIDFORMAT_END
 95
        8
302
GRIDFORMAT
  1
GRIDFORMAT_BEGIN
 90
        0
 91
        1
 62
     0
 92
       -2
340
14
 93
        0
 40
0.045
309
GRIDFORMAT_END
 95
       16
302
GRIDFORMAT
  1
GRIDFORMAT_BEGIN
 90
        0
 91
        1
 62
     0
 92
       -2
340
14
 93
        0
 40
0.045
309
GRIDFORMAT_END
 95
       32
302
GRIDFORMAT
  1
GRIDFORMAT_BEGIN
 90
        0
 91
        1
 62
     0
 92
       -2
340
14
 93
        0
 40
0.045
309
GRIDFORMAT_END
309
TABLEFORMAT_END
  1
CELLSTYLE_BEGIN
 90
        1
 91
        1
300
_TITLE
309
CELLSTYLE_END
300
CELLSTYLE
  1
TABLEFORMAT_BEGIN
 90
        5
170
     1
 91
        0
 92
        0
 62
   257
 93
        1
300
CONTENTFORMAT
  1
CONTENTFORMAT_BEGIN
 90
        0
 91
        0
 92
        4
 93
        0
300

 40
0.0
140
1.0
 94
        5
 62
     0
340
11
144
4.5
309
CONTENTFORMAT_END
171
     1
301
MARGIN
  1
CELLMARGIN_BEGIN
 40
1.5
 40
1.5
 40
1.5
 40
1.5
 40
1.5
 40
1.5
309
CELLMARGIN_END
 94
        6
 95
        1
302
GRIDFORMAT
  1
GRIDFORMAT_BEGIN
 90
        0
 91
        1
 62
     0
 92
       -2
340
14
 93
        0
 40
0.045
309
GRIDFORMAT_END
 95
        2
302
GRIDFORMAT
  1
GRIDFORMAT_BEGIN
 90
        0
 91
        1
 62
     0
 92
       -2
340
14
 93
        0
 40
0.045
309
GRIDFORMAT_END
 95
        4
302
GRIDFORMAT
  1
GRIDFORMAT_BEGIN
 90
        0
 91
        1
 62
     0
 92
       -2
340
14
 93
        0
 40
0.045
309
GRIDFORMAT_END
 95
        8
302
GRIDFORMAT
  1
GRIDFORMAT_BEGIN
 90
        0
 91
        1
 62
     0
 92
       -2
340
14
 93
        0
 40
0.045
309
GRIDFORMAT_END
 95
       16
302
GRIDFORMAT
  1
GRIDFORMAT_BEGIN
 90
        0
 91
        1
 62
     0
 92
       -2
340
14
 93
        0
 40
0.045
309
GRIDFORMAT_END
 95
       32
302
GRIDFORMAT
  1
GRIDFORMAT_BEGIN
 90
        0
 91
        1
 62
     0
 92
       -2
340
14
 93
        0
 40
0.045
309
GRIDFORMAT_END
309
TABLEFORMAT_END
  1
CELLSTYLE_BEGIN
 90
        2
 91
        1
300
_HEADER
309
CELLSTYLE_END
300
CELLSTYLE
  1
TABLEFORMAT_BEGIN
 90
        5
170
     1
 91
        0
 92
        0
 62
   257
 93
        1
300
CONTENTFORMAT
  1
CONTENTFORMAT_BEGIN
 90
        0
 91
        0
 92
        4
 93
        0
300

 40
0.0
140
1.0
 94
        2
 62
     0
340
11
144
4.5
309
CONTENTFORMAT_END
171
     1
301
MARGIN
  1
CELLMARGIN_BEGIN
 40
1.5
 40
1.5
 40
1.5
 40
1.5
 40
1.5
 40
1.5
309
CELLMARGIN_END
 94
        6
 95
        1
302
GRIDFORMAT
  1
GRIDFORMAT_BEGIN
 90
        0
 91
        1
 62
     0
 92
       -2
340
14
 93
        0
 40
0.045
309
GRIDFORMAT_END
 95
        2
302
GRIDFORMAT
  1
GRIDFORMAT_BEGIN
 90
        0
 91
        1
 62
     0
 92
       -2
340
14
 93
        0
 40
0.045
309
GRIDFORMAT_END
 95
        4
302
GRIDFORMAT
  1
GRIDFORMAT_BEGIN
 90
        0
 91
        1
 62
     0
 92
       -2
340
14
 93
        0
 40
0.045
309
GRIDFORMAT_END
 95
        8
302
GRIDFORMAT
  1
GRIDFORMAT_BEGIN
 90
        0
 91
        1
 62
     0
 92
       -2
340
14
 93
        0
 40
0.045
309
GRIDFORMAT_END
 95
       16
302
GRIDFORMAT
  1
GRIDFORMAT_BEGIN
 90
        0
 91
        1
 62
     0
 92
       -2
340
14
 93
        0
 40
0.045
309
GRIDFORMAT_END
 95
       32
302
GRIDFORMAT
  1
GRIDFORMAT_BEGIN
 90
        0
 91
        1
 62
     0
 92
       -2
340
14
 93
        0
 40
0.045
309
GRIDFORMAT_END
309
TABLEFORMAT_END
  1
CELLSTYLE_BEGIN
 90
        3
 91
        2
300
_DATA
309
CELLSTYLE_END
  0
XRECORD
  5
41B
102
{ACAD_REACTORS
330
41A
102
}
330
41A
100
AcDbXrecord
280
     1
102
RTVSPost2010Prop28
280
     1
102
RTVSPost2010PropOp28
 70
     1
102
RTVSPost2010Prop29
280
     1
102
RTVSPost2010PropOp29
 70
     1
102
RTVSPost2010Prop30
280
     0
102
RTVSPost2010PropOp30
 70
     1
102
RTVSPost2010Prop31
280
     0
102
RTVSPost2010PropOp31
 70
     1
102
RTVSPost2010Prop32
280
     0
102
RTVSPost2010PropOp32
 70
     1
102
RTVSPost2010Prop33
280
     0
102
RTVSPost2010PropOp33
 70
     1
102
RTVSPost2010Prop34
280
     0
102
RTVSPost2010PropOp34
 70
     1
102
RTVSPost2010Prop35
280
     0
102
RTVSPost2010PropOp35
 70
     1
102
RTVSPost2010Prop36
280
     0
102
RTVSPost2010PropOp36
 70
     1
102
RTVSPost2010Prop37
 90
       50
102
RTVSPost2010PropOp37
 70
     1
102
RTVSPost2010Prop38
140
0.0
102
RTVSPost2010PropOp38
 70
     1
102
RTVSPost2010Prop39
140
1.0
102
RTVSPost2010PropOp39
 70
     1
102
RTVSPost2010Prop40
 90
        0
102
RTVSPost2010PropOp40
 70
     1
102
RTVSPost2010Prop41ColorIndex
 90
       18
102
RTVSPost2010Prop41ColorRGB
 90
        0
102
RTVSPost2010PropOp41
 70
     1
102
RTVSPost2010Prop42
 90
       50
102
RTVSPost2010PropOp42
 70
     1
102
RTVSPost2010Prop43
 90
        3
102
RTVSPost2010PropOp43
 70
     1
102
RTVSPost2010Prop44ColorIndex
 90
        5
102
RTVSPost2010Prop44ColorRGB
 90
      255
102
RTVSPost2010PropOp44
 70
     1
102
RTVSPost2010Prop45
280
     0
102
RTVSPost2010PropOp45
 70
     1
102
RTVSPost2010Prop46
 90
       50
102
RTVSPost2010PropOp46
 70
     1
102
RTVSPost2010Prop47
 90
       50
102
RTVSPost2010PropOp47
 70
     1
102
RTVSPost2010Prop48
 90
       50
102
RTVSPost2010PropOp48
 70
     1
102
RTVSPost2010Prop49
280
     0
102
RTVSPost2010PropOp49
 70
     1
102
RTVSPost2010Prop50
 90
       50
102
RTVSPost2010PropOp50
 70
     1
102
RTVSPost2010Prop51ColorIndex
 90
      256
102
RTVSPost2010Prop51ColorRGB
 90
-16777216
102
RTVSPost2010PropOp51
 70
     0
102
RTVSPost2010Prop52
140
1.0
102
RTVSPost2010PropOp52
 70
     0
102
RTVSPost2010Prop53
 90
        2
102
RTVSPost2010PropOp53
 70
     1
102
RTVSPost2010Prop54
  1
strokes_ogs.tif
102
RTVSPost2010PropOp54
 70
     1
102
RTVSPost2010Prop55
280
     0
102
RTVSPost2010PropOp55
 70
     1
102
RTVSPost2010Prop56
140
1.0
102
RTVSPost2010PropOp56
 70
     1
102
RTVSPost2010Prop57
140
1.0
102
RTVSPost2010PropOp57
 70
     1
  0
XRECORD
  5
421
102
{ACAD_REACTORS
330
420
102
}
330
420
100
AcDbXrecord
280
     1
102
RTVSPost2010Prop28
280
     0
102
RTVSPost2010PropOp28
 70
     1
102
RTVSPost2010Prop29
280
     1
102
RTVSPost2010PropOp29
 70
     1
102
RTVSPost2010Prop30
280
     1
102
RTVSPost2010PropOp30
 70
     1
102
RTVSPost2010Prop31
280
     0
102
RTVSPost2010PropOp31
 70
     1
102
RTVSPost2010Prop32
280
     0
102
RTVSPost2010PropOp32
 70
     1
102
RTVSPost2010Prop33
280
     0
102
RTVSPost2010PropOp33
 70
     1
102
RTVSPost2010Prop34
280
     0
102
RTVSPost2010PropOp34
 70
     1
102
RTVSPost2010Prop35
280
     0
102
RTVSPost2010PropOp35
 70
     1
102
RTVSPost2010Prop36
280
     0
102
RTVSPost2010PropOp36
 70
     1
102
RTVSPost2010Prop37
 90
       50
102
RTVSPost2010PropOp37
 70
     1
102
RTVSPost2010Prop38
140
0.0
102
RTVSPost2010PropOp38
 70
     1
102
RTVSPost2010Prop39
140
1.0
102
RTVSPost2010PropOp39
 70
     1
102
RTVSPost2010Prop40
 90
        0
102
RTVSPost2010PropOp40
 70
     1
102
RTVSPost2010Prop41ColorIndex
 90
       18
102
RTVSPost2010Prop41ColorRGB
 90
        0
102
RTVSPost2010PropOp41
 70
     1
102
RTVSPost2010Prop42
 90
       50
102
RTVSPost2010PropOp42
 70
     1
102
RTVSPost2010Prop43
 90
        3
102
RTVSPost2010PropOp43
 70
     1
102
RTVSPost2010Prop44ColorIndex
 90
        5
102
RTVSPost2010Prop44ColorRGB
 90
      255
102
RTVSPost2010PropOp44
 70
     1
102
RTVSPost2010Prop45
280
     0
102
RTVSPost2010PropOp45
 70
     1
102
RTVSPost2010Prop46
 90
       50
102
RTVSPost2010PropOp46
 70
     1
102
RTVSPost2010Prop47
 90
       50
102
RTVSPost2010PropOp47
 70
     1
102
RTVSPost2010Prop48
 90
       50
102
RTVSPost2010PropOp48
 70
     1
102
RTVSPost2010Prop49
280
     0
102
RTVSPost2010PropOp49
 70
     1
102
RTVSPost2010Prop50
 90
       50
102
RTVSPost2010PropOp50
 70
     1
102
RTVSPost2010Prop51ColorIndex
 90
      256
102
RTVSPost2010Prop51ColorRGB
 90
-16777216
102
RTVSPost2010PropOp51
 70
     0
102
RTVSPost2010Prop52
140
1.0
102
RTVSPost2010PropOp52
 70
     0
102
RTVSPost2010Prop53
 90
        2
102
RTVSPost2010PropOp53
 70
     1
102
RTVSPost2010Prop54
  1
strokes_ogs.tif
102
RTVSPost2010PropOp54
 70
     1
102
RTVSPost2010Prop55
280
     0
102
RTVSPost2010PropOp55
 70
     1
102
RTVSPost2010Prop56
140
1.0
102
RTVSPost2010PropOp56
 70
     1
102
RTVSPost2010Prop57
140
1.0
102
RTVSPost2010PropOp57
 70
     1
  0
XRECORD
  5
429
102
{ACAD_REACTORS
330
428
102
}
330
428
100
AcDbXrecord
280
     1
102
RTVSPost2010Prop28
280
     0
102
RTVSPost2010PropOp28
 70
     1
102
RTVSPost2010Prop29
280
     1
102
RTVSPost2010PropOp29
 70
     1
102
RTVSPost2010Prop30
280
     1
102
RTVSPost2010PropOp30
 70
     1
102
RTVSPost2010Prop31
280
     0
102
RTVSPost2010PropOp31
 70
     1
102
RTVSPost2010Prop32
280
     0
102
RTVSPost2010PropOp32
 70
     1
102
RTVSPost2010Prop33
280
     0
102
RTVSPost2010PropOp33
 70
     1
102
RTVSPost2010Prop34
280
     0
102
RTVSPost2010PropOp34
 70
     1
102
RTVSPost2010Prop35
280
     0
102
RTVSPost2010PropOp35
 70
     1
102
RTVSPost2010Prop36
280
     0
102
RTVSPost2010PropOp36
 70
     1
102
RTVSPost2010Prop37
 90
       50
102
RTVSPost2010PropOp37
 70
     1
102
RTVSPost2010Prop38
140
0.0
102
RTVSPost2010PropOp38
 70
     1
102
RTVSPost2010Prop39
140
1.0
102
RTVSPost2010PropOp39
 70
     1
102
RTVSPost2010Prop40
 90
        0
102
RTVSPost2010PropOp40
 70
     1
102
RTVSPost2010Prop41ColorIndex
 90
       18
102
RTVSPost2010Prop41ColorRGB
 90
        0
102
RTVSPost2010PropOp41
 70
     1
102
RTVSPost2010Prop42
 90
       50
102
RTVSPost2010PropOp42
 70
     1
102
RTVSPost2010Prop43
 90
        3
102
RTVSPost2010PropOp43
 70
     1
102
RTVSPost2010Prop44ColorIndex
 90
        5
102
RTVSPost2010Prop44ColorRGB
 90
      255
102
RTVSPost2010PropOp44
 70
     1
102
RTVSPost2010Prop45
280
     0
102
RTVSPost2010PropOp45
 70
     1
102
RTVSPost2010Prop46
 90
       50
102
RTVSPost2010PropOp46
 70
     1
102
RTVSPost2010Prop47
 90
       50
102
RTVSPost2010PropOp47
 70
     1
102
RTVSPost2010Prop48
 90
       50
102
RTVSPost2010PropOp48
 70
     1
102
RTVSPost2010Prop49
280
     0
102
RTVSPost2010PropOp49
 70
     1
102
RTVSPost2010Prop50
 90
       50
102
RTVSPost2010PropOp50
 70
     1
102
RTVSPost2010Prop51ColorIndex
 90
      256
102
RTVSPost2010Prop51ColorRGB
 90
-16777216
102
RTVSPost2010PropOp51
 70
     0
102
RTVSPost2010Prop52
140
1.0
102
RTVSPost2010PropOp52
 70
     0
102
RTVSPost2010Prop53
 90
        2
102
RTVSPost2010PropOp53
 70
     1
102
RTVSPost2010Prop54
  1
strokes_ogs.tif
102
RTVSPost2010PropOp54
 70
     1
102
RTVSPost2010Prop55
280
     0
102
RTVSPost2010PropOp55
 70
     1
102
RTVSPost2010Prop56
140
1.0
102
RTVSPost2010PropOp56
 70
     1
102
RTVSPost2010Prop57
140
1.0
102
RTVSPost2010PropOp57
 70
     1
  0
XRECORD
  5
431
102
{ACAD_REACTORS
330
430
102
}
330
430
100
AcDbXrecord
280
     1
102
RTVSPost2010Prop28
280
     0
102
RTVSPost2010PropOp28
 70
     1
102
RTVSPost2010Prop29
280
     1
102
RTVSPost2010PropOp29
 70
     1
102
RTVSPost2010Prop30
280
     1
102
RTVSPost2010PropOp30
 70
     1
102
RTVSPost2010Prop31
280
     0
102
RTVSPost2010PropOp31
 70
     1
102
RTVSPost2010Prop32
280
     0
102
RTVSPost2010PropOp32
 70
     1
102
RTVSPost2010Prop33
280
     0
102
RTVSPost2010PropOp33
 70
     1
102
RTVSPost2010Prop34
280
     0
102
RTVSPost2010PropOp34
 70
     1
102
RTVSPost2010Prop35
280
     0
102
RTVSPost2010PropOp35
 70
     1
102
RTVSPost2010Prop36
280
     0
102
RTVSPost2010PropOp36
 70
     1
102
RTVSPost2010Prop37
 90
       50
102
RTVSPost2010PropOp37
 70
     1
102
RTVSPost2010Prop38
140
0.0
102
RTVSPost2010PropOp38
 70
     1
102
RTVSPost2010Prop39
140
1.0
102
RTVSPost2010PropOp39
 70
     1
102
RTVSPost2010Prop40
 90
        0
102
RTVSPost2010PropOp40
 70
     1
102
RTVSPost2010Prop41ColorIndex
 90
       18
102
RTVSPost2010Prop41ColorRGB
 90
        0
102
RTVSPost2010PropOp41
 70
     1
102
RTVSPost2010Prop42
 90
       50
102
RTVSPost2010PropOp42
 70
     1
102
RTVSPost2010Prop43
 90
        3
102
RTVSPost2010PropOp43
 70
     1
102
RTVSPost2010Prop44ColorIndex
 90
        5
102
RTVSPost2010Prop44ColorRGB
 90
      255
102
RTVSPost2010PropOp44
 70
     1
102
RTVSPost2010Prop45
280
     0
102
RTVSPost2010PropOp45
 70
     1
102
RTVSPost2010Prop46
 90
       50
102
RTVSPost2010PropOp46
 70
     1
102
RTVSPost2010Prop47
 90
       50
102
RTVSPost2010PropOp47
 70
     1
102
RTVSPost2010Prop48
 90
       50
102
RTVSPost2010PropOp48
 70
     1
102
RTVSPost2010Prop49
280
     0
102
RTVSPost2010PropOp49
 70
     1
102
RTVSPost2010Prop50
 90
       50
102
RTVSPost2010PropOp50
 70
     1
102
RTVSPost2010Prop51ColorIndex
 90
      256
102
RTVSPost2010Prop51ColorRGB
 90
-16777216
102
RTVSPost2010PropOp51
 70
     0
102
RTVSPost2010Prop52
140
1.0
102
RTVSPost2010PropOp52
 70
     0
102
RTVSPost2010Prop53
 90
        2
102
RTVSPost2010PropOp53
 70
     1
102
RTVSPost2010Prop54
  1
strokes_ogs.tif
102
RTVSPost2010PropOp54
 70
     1
102
RTVSPost2010Prop55
280
     0
102
RTVSPost2010PropOp55
 70
     1
102
RTVSPost2010Prop56
140
1.0
102
RTVSPost2010PropOp56
 70
     1
102
RTVSPost2010Prop57
140
1.0
102
RTVSPost2010PropOp57
 70
     1
  0
XRECORD
  5
425
102
{ACAD_REACTORS
330
424
102
}
330
424
100
AcDbXrecord
280
     1
102
RTVSPost2010Prop28
280
     0
102
RTVSPost2010PropOp28
 70
     1
102
RTVSPost2010Prop29
280
     1
102
RTVSPost2010PropOp29
 70
     1
102
RTVSPost2010Prop30
280
     1
102
RTVSPost2010PropOp30
 70
     1
102
RTVSPost2010Prop31
280
     0
102
RTVSPost2010PropOp31
 70
     1
102
RTVSPost2010Prop32
280
     0
102
RTVSPost2010PropOp32
 70
     1
102
RTVSPost2010Prop33
280
     0
102
RTVSPost2010PropOp33
 70
     1
102
RTVSPost2010Prop34
280
     0
102
RTVSPost2010PropOp34
 70
     1
102
RTVSPost2010Prop35
280
     0
102
RTVSPost2010PropOp35
 70
     1
102
RTVSPost2010Prop36
280
     0
102
RTVSPost2010PropOp36
 70
     1
102
RTVSPost2010Prop37
 90
       50
102
RTVSPost2010PropOp37
 70
     1
102
RTVSPost2010Prop38
140
0.0
102
RTVSPost2010PropOp38
 70
     1
102
RTVSPost2010Prop39
140
1.0
102
RTVSPost2010PropOp39
 70
     1
102
RTVSPost2010Prop40
 90
        0
102
RTVSPost2010PropOp40
 70
     1
102
RTVSPost2010Prop41ColorIndex
 90
       18
102
RTVSPost2010Prop41ColorRGB
 90
        0
102
RTVSPost2010PropOp41
 70
     1
102
RTVSPost2010Prop42
 90
       50
102
RTVSPost2010PropOp42
 70
     1
102
RTVSPost2010Prop43
 90
        3
102
RTVSPost2010PropOp43
 70
     1
102
RTVSPost2010Prop44ColorIndex
 90
        5
102
RTVSPost2010Prop44ColorRGB
 90
      255
102
RTVSPost2010PropOp44
 70
     1
102
RTVSPost2010Prop45
280
     0
102
RTVSPost2010PropOp45
 70
     1
102
RTVSPost2010Prop46
 90
       50
102
RTVSPost2010PropOp46
 70
     1
102
RTVSPost2010Prop47
 90
       50
102
RTVSPost2010PropOp47
 70
     1
102
RTVSPost2010Prop48
 90
       50
102
RTVSPost2010PropOp48
 70
     1
102
RTVSPost2010Prop49
280
     0
102
RTVSPost2010PropOp49
 70
     1
102
RTVSPost2010Prop50
 90
       50
102
RTVSPost2010PropOp50
 70
     1
102
RTVSPost2010Prop51ColorIndex
 90
      256
102
RTVSPost2010Prop51ColorRGB
 90
-16777216
102
RTVSPost2010PropOp51
 70
     0
102
RTVSPost2010Prop52
140
1.0
102
RTVSPost2010PropOp52
 70
     0
102
RTVSPost2010Prop53
 90
        2
102
RTVSPost2010PropOp53
 70
     1
102
RTVSPost2010Prop54
  1
strokes_ogs.tif
102
RTVSPost2010PropOp54
 70
     1
102
RTVSPost2010Prop55
280
     0
102
RTVSPost2010PropOp55
 70
     1
102
RTVSPost2010Prop56
140
1.0
102
RTVSPost2010PropOp56
 70
     1
102
RTVSPost2010Prop57
140
1.0
102
RTVSPost2010PropOp57
 70
     1
  0
XRECORD
  5
427
102
{ACAD_REACTORS
330
426
102
}
330
426
100
AcDbXrecord
280
     1
102
RTVSPost2010Prop28
280
     0
102
RTVSPost2010PropOp28
 70
     1
102
RTVSPost2010Prop29
280
     1
102
RTVSPost2010PropOp29
 70
     1
102
RTVSPost2010Prop30
280
     1
102
RTVSPost2010PropOp30
 70
     1
102
RTVSPost2010Prop31
280
     0
102
RTVSPost2010PropOp31
 70
     1
102
RTVSPost2010Prop32
280
     0
102
RTVSPost2010PropOp32
 70
     1
102
RTVSPost2010Prop33
280
     0
102
RTVSPost2010PropOp33
 70
     1
102
RTVSPost2010Prop34
280
     0
102
RTVSPost2010PropOp34
 70
     1
102
RTVSPost2010Prop35
280
     0
102
RTVSPost2010PropOp35
 70
     1
102
RTVSPost2010Prop36
280
     0
102
RTVSPost2010PropOp36
 70
     1
102
RTVSPost2010Prop37
 90
       50
102
RTVSPost2010PropOp37
 70
     1
102
RTVSPost2010Prop38
140
0.0
102
RTVSPost2010PropOp38
 70
     1
102
RTVSPost2010Prop39
140
1.0
102
RTVSPost2010PropOp39
 70
     1
102
RTVSPost2010Prop40
 90
        0
102
RTVSPost2010PropOp40
 70
     1
102
RTVSPost2010Prop41ColorIndex
 90
       18
102
RTVSPost2010Prop41ColorRGB
 90
        0
102
RTVSPost2010PropOp41
 70
     1
102
RTVSPost2010Prop42
 90
       50
102
RTVSPost2010PropOp42
 70
     1
102
RTVSPost2010Prop43
 90
        3
102
RTVSPost2010PropOp43
 70
     1
102
RTVSPost2010Prop44ColorIndex
 90
        5
102
RTVSPost2010Prop44ColorRGB
 90
      255
102
RTVSPost2010PropOp44
 70
     1
102
RTVSPost2010Prop45
280
     0
102
RTVSPost2010PropOp45
 70
     1
102
RTVSPost2010Prop46
 90
       50
102
RTVSPost2010PropOp46
 70
     1
102
RTVSPost2010Prop47
 90
       50
102
RTVSPost2010PropOp47
 70
     1
102
RTVSPost2010Prop48
 90
       50
102
RTVSPost2010PropOp48
 70
     1
102
RTVSPost2010Prop49
280
     0
102
RTVSPost2010PropOp49
 70
     1
102
RTVSPost2010Prop50
 90
       50
102
RTVSPost2010PropOp50
 70
     1
102
RTVSPost2010Prop51ColorIndex
 90
      256
102
RTVSPost2010Prop51ColorRGB
 90
-16777216
102
RTVSPost2010PropOp51
 70
     0
102
RTVSPost2010Prop52
140
1.0
102
RTVSPost2010PropOp52
 70
     0
102
RTVSPost2010Prop53
 90
        2
102
RTVSPost2010PropOp53
 70
     1
102
RTVSPost2010Prop54
  1
strokes_ogs.tif
102
RTVSPost2010PropOp54
 70
     1
102
RTVSPost2010Prop55
280
     0
102
RTVSPost2010PropOp55
 70
     1
102
RTVSPost2010Prop56
140
1.0
102
RTVSPost2010PropOp56
 70
     1
102
RTVSPost2010Prop57
140
1.0
102
RTVSPost2010PropOp57
 70
     1
  0
XRECORD
  5
437
102
{ACAD_REACTORS
330
436
102
}
330
436
100
AcDbXrecord
280
     1
102
RTVSPost2010Prop28
280
     0
102
RTVSPost2010PropOp28
 70
     0
102
RTVSPost2010Prop29
280
     1
102
RTVSPost2010PropOp29
 70
     0
102
RTVSPost2010Prop30
280
     1
102
RTVSPost2010PropOp30
 70
     0
102
RTVSPost2010Prop31
280
     0
102
RTVSPost2010PropOp31
 70
     0
102
RTVSPost2010Prop32
280
     0
102
RTVSPost2010PropOp32
 70
     0
102
RTVSPost2010Prop33
280
     0
102
RTVSPost2010PropOp33
 70
     0
102
RTVSPost2010Prop34
280
     0
102
RTVSPost2010PropOp34
 70
     0
102
RTVSPost2010Prop35
280
     0
102
RTVSPost2010PropOp35
 70
     0
102
RTVSPost2010Prop36
280
     0
102
RTVSPost2010PropOp36
 70
     0
102
RTVSPost2010Prop37
 90
       50
102
RTVSPost2010PropOp37
 70
     0
102
RTVSPost2010Prop38
140
0.0
102
RTVSPost2010PropOp38
 70
     0
102
RTVSPost2010Prop39
140
1.0
102
RTVSPost2010PropOp39
 70
     0
102
RTVSPost2010Prop40
 90
        0
102
RTVSPost2010PropOp40
 70
     0
102
RTVSPost2010Prop41ColorIndex
 90
       18
102
RTVSPost2010Prop41ColorRGB
 90
        0
102
RTVSPost2010PropOp41
 70
     0
102
RTVSPost2010Prop42
 90
       50
102
RTVSPost2010PropOp42
 70
     0
102
RTVSPost2010Prop43
 90
        3
102
RTVSPost2010PropOp43
 70
     0
102
RTVSPost2010Prop44ColorIndex
 90
        5
102
RTVSPost2010Prop44ColorRGB
 90
      255
102
RTVSPost2010PropOp44
 70
     0
102
RTVSPost2010Prop45
280
     0
102
RTVSPost2010PropOp45
 70
     0
102
RTVSPost2010Prop46
 90
       50
102
RTVSPost2010PropOp46
 70
     0
102
RTVSPost2010Prop47
 90
       50
102
RTVSPost2010PropOp47
 70
     0
102
RTVSPost2010Prop48
 90
       50
102
RTVSPost2010PropOp48
 70
     0
102
RTVSPost2010Prop49
280
     0
102
RTVSPost2010PropOp49
 70
     0
102
RTVSPost2010Prop50
 90
       50
102
RTVSPost2010PropOp50
 70
     0
102
RTVSPost2010Prop51ColorIndex
 90
      256
102
RTVSPost2010Prop51ColorRGB
 90
-16777216
102
RTVSPost2010PropOp51
 70
     0
102
RTVSPost2010Prop52
140
1.0
102
RTVSPost2010PropOp52
 70
     0
102
RTVSPost2010Prop53
 90
        2
102
RTVSPost2010PropOp53
 70
     0
102
RTVSPost2010Prop54
  1
strokes_ogs.tif
102
RTVSPost2010PropOp54
 70
     0
102
RTVSPost2010Prop55
280
     0
102
RTVSPost2010PropOp55
 70
     0
102
RTVSPost2010Prop56
140
1.0
102
RTVSPost2010PropOp56
 70
     0
102
RTVSPost2010Prop57
140
1.0
102
RTVSPost2010PropOp57
 70
     0
  0
XRECORD
  5
42F
102
{ACAD_REACTORS
330
42E
102
}
330
42E
100
AcDbXrecord
280
     1
102
RTVSPost2010Prop28
280
     0
102
RTVSPost2010PropOp28
 70
     1
102
RTVSPost2010Prop29
280
     1
102
RTVSPost2010PropOp29
 70
     1
102
RTVSPost2010Prop30
280
     1
102
RTVSPost2010PropOp30
 70
     1
102
RTVSPost2010Prop31
280
     0
102
RTVSPost2010PropOp31
 70
     1
102
RTVSPost2010Prop32
280
     0
102
RTVSPost2010PropOp32
 70
     1
102
RTVSPost2010Prop33
280
     0
102
RTVSPost2010PropOp33
 70
     1
102
RTVSPost2010Prop34
280
     0
102
RTVSPost2010PropOp34
 70
     1
102
RTVSPost2010Prop35
280
     0
102
RTVSPost2010PropOp35
 70
     1
102
RTVSPost2010Prop36
280
     0
102
RTVSPost2010PropOp36
 70
     1
102
RTVSPost2010Prop37
 90
       50
102
RTVSPost2010PropOp37
 70
     1
102
RTVSPost2010Prop38
140
0.0
102
RTVSPost2010PropOp38
 70
     1
102
RTVSPost2010Prop39
140
1.0
102
RTVSPost2010PropOp39
 70
     1
102
RTVSPost2010Prop40
 90
        0
102
RTVSPost2010PropOp40
 70
     1
102
RTVSPost2010Prop41ColorIndex
 90
       18
102
RTVSPost2010Prop41ColorRGB
 90
        0
102
RTVSPost2010PropOp41
 70
     1
102
RTVSPost2010Prop42
 90
       50
102
RTVSPost2010PropOp42
 70
     1
102
RTVSPost2010Prop43
 90
        3
102
RTVSPost2010PropOp43
 70
     1
102
RTVSPost2010Prop44ColorIndex
 90
        5
102
RTVSPost2010Prop44ColorRGB
 90
      255
102
RTVSPost2010PropOp44
 70
     1
102
RTVSPost2010Prop45
280
     0
102
RTVSPost2010PropOp45
 70
     1
102
RTVSPost2010Prop46
 90
       50
102
RTVSPost2010PropOp46
 70
     1
102
RTVSPost2010Prop47
 90
       50
102
RTVSPost2010PropOp47
 70
     1
102
RTVSPost2010Prop48
 90
       50
102
RTVSPost2010PropOp48
 70
     1
102
RTVSPost2010Prop49
280
     0
102
RTVSPost2010PropOp49
 70
     1
102
RTVSPost2010Prop50
 90
       50
102
RTVSPost2010PropOp50
 70
     1
102
RTVSPost2010Prop51ColorIndex
 90
      256
102
RTVSPost2010Prop51ColorRGB
 90
-16777216
102
RTVSPost2010PropOp51
 70
     0
102
RTVSPost2010Prop52
140
1.0
102
RTVSPost2010PropOp52
 70
     0
102
RTVSPost2010Prop53
 90
        2
102
RTVSPost2010PropOp53
 70
     1
102
RTVSPost2010Prop54
  1
strokes_ogs.tif
102
RTVSPost2010PropOp54
 70
     1
102
RTVSPost2010Prop55
280
     0
102
RTVSPost2010PropOp55
 70
     1
102
RTVSPost2010Prop56
140
1.0
102
RTVSPost2010PropOp56
 70
     1
102
RTVSPost2010Prop57
140
1.0
102
RTVSPost2010PropOp57
 70
     1
  0
XRECORD
  5
413
102
{ACAD_REACTORS
330
412
102
}
330
412
100
AcDbXrecord
280
     1
102
RTVSPost2010Prop28
280
     0
102
RTVSPost2010PropOp28
 70
     1
102
RTVSPost2010Prop29
280
     1
102
RTVSPost2010PropOp29
 70
     1
102
RTVSPost2010Prop30
280
     1
102
RTVSPost2010PropOp30
 70
     1
102
RTVSPost2010Prop31
280
     0
102
RTVSPost2010PropOp31
 70
     1
102
RTVSPost2010Prop32
280
     0
102
RTVSPost2010PropOp32
 70
     1
102
RTVSPost2010Prop33
280
     0
102
RTVSPost2010PropOp33
 70
     1
102
RTVSPost2010Prop34
280
     0
102
RTVSPost2010PropOp34
 70
     1
102
RTVSPost2010Prop35
280
     0
102
RTVSPost2010PropOp35
 70
     1
102
RTVSPost2010Prop36
280
     0
102
RTVSPost2010PropOp36
 70
     1
102
RTVSPost2010Prop37
 90
       50
102
RTVSPost2010PropOp37
 70
     1
102
RTVSPost2010Prop38
140
0.0
102
RTVSPost2010PropOp38
 70
     1
102
RTVSPost2010Prop39
140
1.0
102
RTVSPost2010PropOp39
 70
     1
102
RTVSPost2010Prop40
 90
        0
102
RTVSPost2010PropOp40
 70
     1
102
RTVSPost2010Prop41ColorIndex
 90
       18
102
RTVSPost2010Prop41ColorRGB
 90
        0
102
RTVSPost2010PropOp41
 70
     1
102
RTVSPost2010Prop42
 90
       50
102
RTVSPost2010PropOp42
 70
     1
102
RTVSPost2010Prop43
 90
        3
102
RTVSPost2010PropOp43
 70
     1
102
RTVSPost2010Prop44ColorIndex
 90
        5
102
RTVSPost2010Prop44ColorRGB
 90
      255
102
RTVSPost2010PropOp44
 70
     1
102
RTVSPost2010Prop45
280
     0
102
RTVSPost2010PropOp45
 70
     1
102
RTVSPost2010Prop46
 90
       50
102
RTVSPost2010PropOp46
 70
     1
102
RTVSPost2010Prop47
 90
       50
102
RTVSPost2010PropOp47
 70
     1
102
RTVSPost2010Prop48
 90
       50
102
RTVSPost2010PropOp48
 70
     1
102
RTVSPost2010Prop49
280
     0
102
RTVSPost2010PropOp49
 70
     1
102
RTVSPost2010Prop50
 90
       50
102
RTVSPost2010PropOp50
 70
     1
102
RTVSPost2010Prop51ColorIndex
 90
      256
102
RTVSPost2010Prop51ColorRGB
 90
-16777216
102
RTVSPost2010PropOp51
 70
     0
102
RTVSPost2010Prop52
140
1.0
102
RTVSPost2010PropOp52
 70
     0
102
RTVSPost2010Prop53
 90
        2
102
RTVSPost2010PropOp53
 70
     1
102
RTVSPost2010Prop54
  1
strokes_ogs.tif
102
RTVSPost2010PropOp54
 70
     1
102
RTVSPost2010Prop55
280
     0
102
RTVSPost2010PropOp55
 70
     1
102
RTVSPost2010Prop56
140
1.0
102
RTVSPost2010PropOp56
 70
     1
102
RTVSPost2010Prop57
140
1.0
102
RTVSPost2010PropOp57
 70
     1
  0
XRECORD
  5
415
102
{ACAD_REACTORS
330
414
102
}
330
414
100
AcDbXrecord
280
     1
102
RTVSPost2010Prop28
280
     0
102
RTVSPost2010PropOp28
 70
     1
102
RTVSPost2010Prop29
280
     1
102
RTVSPost2010PropOp29
 70
     1
102
RTVSPost2010Prop30
280
     1
102
RTVSPost2010PropOp30
 70
     1
102
RTVSPost2010Prop31
280
     0
102
RTVSPost2010PropOp31
 70
     1
102
RTVSPost2010Prop32
280
     0
102
RTVSPost2010PropOp32
 70
     1
102
RTVSPost2010Prop33
280
     0
102
RTVSPost2010PropOp33
 70
     1
102
RTVSPost2010Prop34
280
     0
102
RTVSPost2010PropOp34
 70
     1
102
RTVSPost2010Prop35
280
     0
102
RTVSPost2010PropOp35
 70
     1
102
RTVSPost2010Prop36
280
     0
102
RTVSPost2010PropOp36
 70
     1
102
RTVSPost2010Prop37
 90
       50
102
RTVSPost2010PropOp37
 70
     1
102
RTVSPost2010Prop38
140
0.0
102
RTVSPost2010PropOp38
 70
     1
102
RTVSPost2010Prop39
140
1.0
102
RTVSPost2010PropOp39
 70
     1
102
RTVSPost2010Prop40
 90
        0
102
RTVSPost2010PropOp40
 70
     1
102
RTVSPost2010Prop41ColorIndex
 90
       18
102
RTVSPost2010Prop41ColorRGB
 90
        0
102
RTVSPost2010PropOp41
 70
     1
102
RTVSPost2010Prop42
 90
       50
102
RTVSPost2010PropOp42
 70
     1
102
RTVSPost2010Prop43
 90
        3
102
RTVSPost2010PropOp43
 70
     1
102
RTVSPost2010Prop44ColorIndex
 90
        5
102
RTVSPost2010Prop44ColorRGB
 90
      255
102
RTVSPost2010PropOp44
 70
     1
102
RTVSPost2010Prop45
280
     0
102
RTVSPost2010PropOp45
 70
     1
102
RTVSPost2010Prop46
 90
       50
102
RTVSPost2010PropOp46
 70
     1
102
RTVSPost2010Prop47
 90
       50
102
RTVSPost2010PropOp47
 70
     1
102
RTVSPost2010Prop48
 90
       50
102
RTVSPost2010PropOp48
 70
     1
102
RTVSPost2010Prop49
280
     0
102
RTVSPost2010PropOp49
 70
     1
102
RTVSPost2010Prop50
 90
       50
102
RTVSPost2010PropOp50
 70
     1
102
RTVSPost2010Prop51ColorIndex
 90
      256
102
RTVSPost2010Prop51ColorRGB
 90
-16777216
102
RTVSPost2010PropOp51
 70
     0
102
RTVSPost2010Prop52
140
1.0
102
RTVSPost2010PropOp52
 70
     0
102
RTVSPost2010Prop53
 90
        2
102
RTVSPost2010PropOp53
 70
     1
102
RTVSPost2010Prop54
  1
strokes_ogs.tif
102
RTVSPost2010PropOp54
 70
     1
102
RTVSPost2010Prop55
280
     0
102
RTVSPost2010PropOp55
 70
     1
102
RTVSPost2010Prop56
140
1.0
102
RTVSPost2010PropOp56
 70
     1
102
RTVSPost2010Prop57
140
1.0
102
RTVSPost2010PropOp57
 70
     1
  0
XRECORD
  5
417
102
{ACAD_REACTORS
330
416
102
}
330
416
100
AcDbXrecord
280
     1
102
RTVSPost2010Prop28
280
     0
102
RTVSPost2010PropOp28
 70
     1
102
RTVSPost2010Prop29
280
     1
102
RTVSPost2010PropOp29
 70
     1
102
RTVSPost2010Prop30
280
     1
102
RTVSPost2010PropOp30
 70
     1
102
RTVSPost2010Prop31
280
     0
102
RTVSPost2010PropOp31
 70
     1
102
RTVSPost2010Prop32
280
     0
102
RTVSPost2010PropOp32
 70
     1
102
RTVSPost2010Prop33
280
     0
102
RTVSPost2010PropOp33
 70
     1
102
RTVSPost2010Prop34
280
     0
102
RTVSPost2010PropOp34
 70
     1
102
RTVSPost2010Prop35
280
     0
102
RTVSPost2010PropOp35
 70
     1
102
RTVSPost2010Prop36
280
     0
102
RTVSPost2010PropOp36
 70
     1
102
RTVSPost2010Prop37
 90
       50
102
RTVSPost2010PropOp37
 70
     1
102
RTVSPost2010Prop38
140
0.0
102
RTVSPost2010PropOp38
 70
     1
102
RTVSPost2010Prop39
140
1.0
102
RTVSPost2010PropOp39
 70
     1
102
RTVSPost2010Prop40
 90
        0
102
RTVSPost2010PropOp40
 70
     1
102
RTVSPost2010Prop41ColorIndex
 90
       18
102
RTVSPost2010Prop41ColorRGB
 90
        0
102
RTVSPost2010PropOp41
 70
     1
102
RTVSPost2010Prop42
 90
       50
102
RTVSPost2010PropOp42
 70
     1
102
RTVSPost2010Prop43
 90
        3
102
RTVSPost2010PropOp43
 70
     1
102
RTVSPost2010Prop44ColorIndex
 90
        5
102
RTVSPost2010Prop44ColorRGB
 90
      255
102
RTVSPost2010PropOp44
 70
     1
102
RTVSPost2010Prop45
280
     0
102
RTVSPost2010PropOp45
 70
     1
102
RTVSPost2010Prop46
 90
       50
102
RTVSPost2010PropOp46
 70
     1
102
RTVSPost2010Prop47
 90
       50
102
RTVSPost2010PropOp47
 70
     1
102
RTVSPost2010Prop48
 90
       50
102
RTVSPost2010PropOp48
 70
     1
102
RTVSPost2010Prop49
280
     0
102
RTVSPost2010PropOp49
 70
     1
102
RTVSPost2010Prop50
 90
       50
102
RTVSPost2010PropOp50
 70
     1
102
RTVSPost2010Prop51ColorIndex
 90
      256
102
RTVSPost2010Prop51ColorRGB
 90
-16777216
102
RTVSPost2010PropOp51
 70
     0
102
RTVSPost2010Prop52
140
1.0
102
RTVSPost2010PropOp52
 70
     0
102
RTVSPost2010Prop53
 90
        2
102
RTVSPost2010PropOp53
 70
     1
102
RTVSPost2010Prop54
  1
strokes_ogs.tif
102
RTVSPost2010PropOp54
 70
     1
102
RTVSPost2010Prop55
280
     0
102
RTVSPost2010PropOp55
 70
     1
102
RTVSPost2010Prop56
140
1.0
102
RTVSPost2010PropOp56
 70
     1
102
RTVSPost2010Prop57
140
1.0
102
RTVSPost2010PropOp57
 70
     1
  0
XRECORD
  5
419
102
{ACAD_REACTORS
330
418
102
}
330
418
100
AcDbXrecord
280
     1
102
RTVSPost2010Prop28
280
     0
102
RTVSPost2010PropOp28
 70
     1
102
RTVSPost2010Prop29
280
     1
102
RTVSPost2010PropOp29
 70
     1
102
RTVSPost2010Prop30
280
     1
102
RTVSPost2010PropOp30
 70
     1
102
RTVSPost2010Prop31
280
     0
102
RTVSPost2010PropOp31
 70
     1
102
RTVSPost2010Prop32
280
     0
102
RTVSPost2010PropOp32
 70
     1
102
RTVSPost2010Prop33
280
     0
102
RTVSPost2010PropOp33
 70
     1
102
RTVSPost2010Prop34
280
     0
102
RTVSPost2010PropOp34
 70
     1
102
RTVSPost2010Prop35
280
     0
102
RTVSPost2010PropOp35
 70
     1
102
RTVSPost2010Prop36
280
     0
102
RTVSPost2010PropOp36
 70
     1
102
RTVSPost2010Prop37
 90
       50
102
RTVSPost2010PropOp37
 70
     1
102
RTVSPost2010Prop38
140
0.0
102
RTVSPost2010PropOp38
 70
     1
102
RTVSPost2010Prop39
140
1.0
102
RTVSPost2010PropOp39
 70
     1
102
RTVSPost2010Prop40
 90
        0
102
RTVSPost2010PropOp40
 70
     1
102
RTVSPost2010Prop41ColorIndex
 90
       18
102
RTVSPost2010Prop41ColorRGB
 90
        0
102
RTVSPost2010PropOp41
 70
     1
102
RTVSPost2010Prop42
 90
       50
102
RTVSPost2010PropOp42
 70
     1
102
RTVSPost2010Prop43
 90
        3
102
RTVSPost2010PropOp43
 70
     1
102
RTVSPost2010Prop44ColorIndex
 90
        5
102
RTVSPost2010Prop44ColorRGB
 90
      255
102
RTVSPost2010PropOp44
 70
     1
102
RTVSPost2010Prop45
280
     0
102
RTVSPost2010PropOp45
 70
     1
102
RTVSPost2010Prop46
 90
       50
102
RTVSPost2010PropOp46
 70
     1
102
RTVSPost2010Prop47
 90
       50
102
RTVSPost2010PropOp47
 70
     1
102
RTVSPost2010Prop48
 90
       50
102
RTVSPost2010PropOp48
 70
     1
102
RTVSPost2010Prop49
280
     0
102
RTVSPost2010PropOp49
 70
     1
102
RTVSPost2010Prop50
 90
       50
102
RTVSPost2010PropOp50
 70
     1
102
RTVSPost2010Prop51ColorIndex
 90
      256
102
RTVSPost2010Prop51ColorRGB
 90
-16777216
102
RTVSPost2010PropOp51
 70
     0
102
RTVSPost2010Prop52
140
1.0
102
RTVSPost2010PropOp52
 70
     0
102
RTVSPost2010Prop53
 90
        2
102
RTVSPost2010PropOp53
 70
     1
102
RTVSPost2010Prop54
  1
strokes_ogs.tif
102
RTVSPost2010PropOp54
 70
     1
102
RTVSPost2010Prop55
280
     0
102
RTVSPost2010PropOp55
 70
     1
102
RTVSPost2010Prop56
140
1.0
102
RTVSPost2010PropOp56
 70
     1
102
RTVSPost2010Prop57
140
1.0
102
RTVSPost2010PropOp57
 70
     1
  0
XRECORD
  5
41F
102
{ACAD_REACTORS
330
41E
102
}
330
41E
100
AcDbXrecord
280
     1
102
RTVSPost2010Prop28
280
     0
102
RTVSPost2010PropOp28
 70
     1
102
RTVSPost2010Prop29
280
     1
102
RTVSPost2010PropOp29
 70
     1
102
RTVSPost2010Prop30
280
     1
102
RTVSPost2010PropOp30
 70
     1
102
RTVSPost2010Prop31
280
     0
102
RTVSPost2010PropOp31
 70
     1
102
RTVSPost2010Prop32
280
     0
102
RTVSPost2010PropOp32
 70
     1
102
RTVSPost2010Prop33
280
     0
102
RTVSPost2010PropOp33
 70
     1
102
RTVSPost2010Prop34
280
     0
102
RTVSPost2010PropOp34
 70
     1
102
RTVSPost2010Prop35
280
     0
102
RTVSPost2010PropOp35
 70
     1
102
RTVSPost2010Prop36
280
     0
102
RTVSPost2010PropOp36
 70
     1
102
RTVSPost2010Prop37
 90
       50
102
RTVSPost2010PropOp37
 70
     1
102
RTVSPost2010Prop38
140
0.0
102
RTVSPost2010PropOp38
 70
     1
102
RTVSPost2010Prop39
140
1.0
102
RTVSPost2010PropOp39
 70
     1
102
RTVSPost2010Prop40
 90
        0
102
RTVSPost2010PropOp40
 70
     1
102
RTVSPost2010Prop41ColorIndex
 90
       18
102
RTVSPost2010Prop41ColorRGB
 90
        0
102
RTVSPost2010PropOp41
 70
     1
102
RTVSPost2010Prop42
 90
       50
102
RTVSPost2010PropOp42
 70
     1
102
RTVSPost2010Prop43
 90
        3
102
RTVSPost2010PropOp43
 70
     1
102
RTVSPost2010Prop44ColorIndex
 90
        5
102
RTVSPost2010Prop44ColorRGB
 90
      255
102
RTVSPost2010PropOp44
 70
     1
102
RTVSPost2010Prop45
280
     0
102
RTVSPost2010PropOp45
 70
     1
102
RTVSPost2010Prop46
 90
       50
102
RTVSPost2010PropOp46
 70
     1
102
RTVSPost2010Prop47
 90
       50
102
RTVSPost2010PropOp47
 70
     1
102
RTVSPost2010Prop48
 90
       50
102
RTVSPost2010PropOp48
 70
     1
102
RTVSPost2010Prop49
280
     0
102
RTVSPost2010PropOp49
 70
     1
102
RTVSPost2010Prop50
 90
       50
102
RTVSPost2010PropOp50
 70
     1
102
RTVSPost2010Prop51ColorIndex
 90
      256
102
RTVSPost2010Prop51ColorRGB
 90
-16777216
102
RTVSPost2010PropOp51
 70
     0
102
RTVSPost2010Prop52
140
1.0
102
RTVSPost2010PropOp52
 70
     0
102
RTVSPost2010Prop53
 90
        2
102
RTVSPost2010PropOp53
 70
     1
102
RTVSPost2010Prop54
  1
strokes_ogs.tif
102
RTVSPost2010PropOp54
 70
     1
102
RTVSPost2010Prop55
280
     0
102
RTVSPost2010PropOp55
 70
     1
102
RTVSPost2010Prop56
140
1.0
102
RTVSPost2010PropOp56
 70
     1
102
RTVSPost2010Prop57
140
1.0
102
RTVSPost2010PropOp57
 70
     1
  0
XRECORD
  5
433
102
{ACAD_REACTORS
330
432
102
}
330
432
100
AcDbXrecord
280
     1
102
RTVSPost2010Prop28
280
     0
102
RTVSPost2010PropOp28
 70
     0
102
RTVSPost2010Prop29
280
     1
102
RTVSPost2010PropOp29
 70
     0
102
RTVSPost2010Prop30
280
     1
102
RTVSPost2010PropOp30
 70
     0
102
RTVSPost2010Prop31
280
     0
102
RTVSPost2010PropOp31
 70
     0
102
RTVSPost2010Prop32
280
     0
102
RTVSPost2010PropOp32
 70
     0
102
RTVSPost2010Prop33
280
     0
102
RTVSPost2010PropOp33
 70
     0
102
RTVSPost2010Prop34
280
     0
102
RTVSPost2010PropOp34
 70
     0
102
RTVSPost2010Prop35
280
     0
102
RTVSPost2010PropOp35
 70
     0
102
RTVSPost2010Prop36
280
     0
102
RTVSPost2010PropOp36
 70
     0
102
RTVSPost2010Prop37
 90
       50
102
RTVSPost2010PropOp37
 70
     0
102
RTVSPost2010Prop38
140
0.0
102
RTVSPost2010PropOp38
 70
     0
102
RTVSPost2010Prop39
140
1.0
102
RTVSPost2010PropOp39
 70
     0
102
RTVSPost2010Prop40
 90
        0
102
RTVSPost2010PropOp40
 70
     0
102
RTVSPost2010Prop41ColorIndex
 90
       18
102
RTVSPost2010Prop41ColorRGB
 90
        0
102
RTVSPost2010PropOp41
 70
     0
102
RTVSPost2010Prop42
 90
       50
102
RTVSPost2010PropOp42
 70
     0
102
RTVSPost2010Prop43
 90
        3
102
RTVSPost2010PropOp43
 70
     0
102
RTVSPost2010Prop44ColorIndex
 90
        5
102
RTVSPost2010Prop44ColorRGB
 90
      255
102
RTVSPost2010PropOp44
 70
     0
102
RTVSPost2010Prop45
280
     0
102
RTVSPost2010PropOp45
 70
     0
102
RTVSPost2010Prop46
 90
       50
102
RTVSPost2010PropOp46
 70
     0
102
RTVSPost2010Prop47
 90
       50
102
RTVSPost2010PropOp47
 70
     0
102
RTVSPost2010Prop48
 90
       50
102
RTVSPost2010PropOp48
 70
     0
102
RTVSPost2010Prop49
280
     0
102
RTVSPost2010PropOp49
 70
     0
102
RTVSPost2010Prop50
 90
       50
102
RTVSPost2010PropOp50
 70
     0
102
RTVSPost2010Prop51ColorIndex
 90
      256
102
RTVSPost2010Prop51ColorRGB
 90
-16777216
102
RTVSPost2010PropOp51
 70
     0
102
RTVSPost2010Prop52
140
1.0
102
RTVSPost2010PropOp52
 70
     0
102
RTVSPost2010Prop53
 90
        2
102
RTVSPost2010PropOp53
 70
     0
102
RTVSPost2010Prop54
  1
strokes_ogs.tif
102
RTVSPost2010PropOp54
 70
     0
102
RTVSPost2010Prop55
280
     0
102
RTVSPost2010PropOp55
 70
     0
102
RTVSPost2010Prop56
140
1.0
102
RTVSPost2010PropOp56
 70
     0
102
RTVSPost2010Prop57
140
1.0
102
RTVSPost2010PropOp57
 70
     0
  0
XRECORD
  5
42D
102
{ACAD_REACTORS
330
42C
102
}
330
42C
100
AcDbXrecord
280
     1
102
RTVSPost2010Prop28
280
     0
102
RTVSPost2010PropOp28
 70
     1
102
RTVSPost2010Prop29
280
     1
102
RTVSPost2010PropOp29
 70
     1
102
RTVSPost2010Prop30
280
     1
102
RTVSPost2010PropOp30
 70
     1
102
RTVSPost2010Prop31
280
     0
102
RTVSPost2010PropOp31
 70
     1
102
RTVSPost2010Prop32
280
     0
102
RTVSPost2010PropOp32
 70
     1
102
RTVSPost2010Prop33
280
     0
102
RTVSPost2010PropOp33
 70
     1
102
RTVSPost2010Prop34
280
     0
102
RTVSPost2010PropOp34
 70
     1
102
RTVSPost2010Prop35
280
     0
102
RTVSPost2010PropOp35
 70
     1
102
RTVSPost2010Prop36
280
     0
102
RTVSPost2010PropOp36
 70
     1
102
RTVSPost2010Prop37
 90
       50
102
RTVSPost2010PropOp37
 70
     1
102
RTVSPost2010Prop38
140
0.0
102
RTVSPost2010PropOp38
 70
     1
102
RTVSPost2010Prop39
140
1.0
102
RTVSPost2010PropOp39
 70
     1
102
RTVSPost2010Prop40
 90
        0
102
RTVSPost2010PropOp40
 70
     1
102
RTVSPost2010Prop41ColorIndex
 90
       18
102
RTVSPost2010Prop41ColorRGB
 90
        0
102
RTVSPost2010PropOp41
 70
     1
102
RTVSPost2010Prop42
 90
       50
102
RTVSPost2010PropOp42
 70
     1
102
RTVSPost2010Prop43
 90
        3
102
RTVSPost2010PropOp43
 70
     1
102
RTVSPost2010Prop44ColorIndex
 90
        5
102
RTVSPost2010Prop44ColorRGB
 90
      255
102
RTVSPost2010PropOp44
 70
     1
102
RTVSPost2010Prop45
280
     0
102
RTVSPost2010PropOp45
 70
     1
102
RTVSPost2010Prop46
 90
       50
102
RTVSPost2010PropOp46
 70
     1
102
RTVSPost2010Prop47
 90
       50
102
RTVSPost2010PropOp47
 70
     1
102
RTVSPost2010Prop48
 90
       50
102
RTVSPost2010PropOp48
 70
     1
102
RTVSPost2010Prop49
280
     0
102
RTVSPost2010PropOp49
 70
     1
102
RTVSPost2010Prop50
 90
       50
102
RTVSPost2010PropOp50
 70
     1
102
RTVSPost2010Prop51ColorIndex
 90
      256
102
RTVSPost2010Prop51ColorRGB
 90
-16777216
102
RTVSPost2010PropOp51
 70
     0
102
RTVSPost2010Prop52
140
1.0
102
RTVSPost2010PropOp52
 70
     0
102
RTVSPost2010Prop53
 90
        2
102
RTVSPost2010PropOp53
 70
     1
102
RTVSPost2010Prop54
  1
strokes_ogs.tif
102
RTVSPost2010PropOp54
 70
     1
102
RTVSPost2010Prop55
280
     0
102
RTVSPost2010PropOp55
 70
     1
102
RTVSPost2010Prop56
140
1.0
102
RTVSPost2010PropOp56
 70
     1
102
RTVSPost2010Prop57
140
1.0
102
RTVSPost2010PropOp57
 70
     1
  0
XRECORD
  5
435
102
{ACAD_REACTORS
330
434
102
}
330
434
100
AcDbXrecord
280
     1
102
RTVSPost2010Prop28
280
     0
102
RTVSPost2010PropOp28
 70
     0
102
RTVSPost2010Prop29
280
     1
102
RTVSPost2010PropOp29
 70
     0
102
RTVSPost2010Prop30
280
     1
102
RTVSPost2010PropOp30
 70
     0
102
RTVSPost2010Prop31
280
     0
102
RTVSPost2010PropOp31
 70
     0
102
RTVSPost2010Prop32
280
     0
102
RTVSPost2010PropOp32
 70
     0
102
RTVSPost2010Prop33
280
     0
102
RTVSPost2010PropOp33
 70
     0
102
RTVSPost2010Prop34
280
     0
102
RTVSPost2010PropOp34
 70
     0
102
RTVSPost2010Prop35
280
     0
102
RTVSPost2010PropOp35
 70
     0
102
RTVSPost2010Prop36
280
     0
102
RTVSPost2010PropOp36
 70
     0
102
RTVSPost2010Prop37
 90
       50
102
RTVSPost2010PropOp37
 70
     0
102
RTVSPost2010Prop38
140
0.0
102
RTVSPost2010PropOp38
 70
     0
102
RTVSPost2010Prop39
140
1.0
102
RTVSPost2010PropOp39
 70
     0
102
RTVSPost2010Prop40
 90
        0
102
RTVSPost2010PropOp40
 70
     0
102
RTVSPost2010Prop41ColorIndex
 90
       18
102
RTVSPost2010Prop41ColorRGB
 90
        0
102
RTVSPost2010PropOp41
 70
     0
102
RTVSPost2010Prop42
 90
       50
102
RTVSPost2010PropOp42
 70
     0
102
RTVSPost2010Prop43
 90
        3
102
RTVSPost2010PropOp43
 70
     0
102
RTVSPost2010Prop44ColorIndex
 90
        5
102
RTVSPost2010Prop44ColorRGB
 90
      255
102
RTVSPost2010PropOp44
 70
     0
102
RTVSPost2010Prop45
280
     0
102
RTVSPost2010PropOp45
 70
     0
102
RTVSPost2010Prop46
 90
       50
102
RTVSPost2010PropOp46
 70
     0
102
RTVSPost2010Prop47
 90
       50
102
RTVSPost2010PropOp47
 70
     0
102
RTVSPost2010Prop48
 90
       50
102
RTVSPost2010PropOp48
 70
     0
102
RTVSPost2010Prop49
280
     0
102
RTVSPost2010PropOp49
 70
     0
102
RTVSPost2010Prop50
 90
       50
102
RTVSPost2010PropOp50
 70
     0
102
RTVSPost2010Prop51ColorIndex
 90
      256
102
RTVSPost2010Prop51ColorRGB
 90
-16777216
102
RTVSPost2010PropOp51
 70
     0
102
RTVSPost2010Prop52
140
1.0
102
RTVSPost2010PropOp52
 70
     0
102
RTVSPost2010Prop53
 90
        2
102
RTVSPost2010PropOp53
 70
     0
102
RTVSPost2010Prop54
  1
strokes_ogs.tif
102
RTVSPost2010PropOp54
 70
     0
102
RTVSPost2010Prop55
280
     0
102
RTVSPost2010PropOp55
 70
     0
102
RTVSPost2010Prop56
140
1.0
102
RTVSPost2010PropOp56
 70
     0
102
RTVSPost2010Prop57
140
1.0
102
RTVSPost2010PropOp57
 70
     0
  0
XRECORD
  5
423
102
{ACAD_REACTORS
330
422
102
}
330
422
100
AcDbXrecord
280
     1
102
RTVSPost2010Prop28
280
     0
102
RTVSPost2010PropOp28
 70
     1
102
RTVSPost2010Prop29
280
     1
102
RTVSPost2010PropOp29
 70
     1
102
RTVSPost2010Prop30
280
     1
102
RTVSPost2010PropOp30
 70
     1
102
RTVSPost2010Prop31
280
     0
102
RTVSPost2010PropOp31
 70
     1
102
RTVSPost2010Prop32
280
     0
102
RTVSPost2010PropOp32
 70
     1
102
RTVSPost2010Prop33
280
     0
102
RTVSPost2010PropOp33
 70
     1
102
RTVSPost2010Prop34
280
     0
102
RTVSPost2010PropOp34
 70
     1
102
RTVSPost2010Prop35
280
     0
102
RTVSPost2010PropOp35
 70
     1
102
RTVSPost2010Prop36
280
     0
102
RTVSPost2010PropOp36
 70
     1
102
RTVSPost2010Prop37
 90
       50
102
RTVSPost2010PropOp37
 70
     1
102
RTVSPost2010Prop38
140
0.0
102
RTVSPost2010PropOp38
 70
     1
102
RTVSPost2010Prop39
140
1.0
102
RTVSPost2010PropOp39
 70
     1
102
RTVSPost2010Prop40
 90
        0
102
RTVSPost2010PropOp40
 70
     1
102
RTVSPost2010Prop41ColorIndex
 90
       18
102
RTVSPost2010Prop41ColorRGB
 90
        0
102
RTVSPost2010PropOp41
 70
     1
102
RTVSPost2010Prop42
 90
       50
102
RTVSPost2010PropOp42
 70
     1
102
RTVSPost2010Prop43
 90
        3
102
RTVSPost2010PropOp43
 70
     1
102
RTVSPost2010Prop44ColorIndex
 90
        5
102
RTVSPost2010Prop44ColorRGB
 90
      255
102
RTVSPost2010PropOp44
 70
     1
102
RTVSPost2010Prop45
280
     0
102
RTVSPost2010PropOp45
 70
     1
102
RTVSPost2010Prop46
 90
       50
102
RTVSPost2010PropOp46
 70
     1
102
RTVSPost2010Prop47
 90
       50
102
RTVSPost2010PropOp47
 70
     1
102
RTVSPost2010Prop48
 90
       50
102
RTVSPost2010PropOp48
 70
     1
102
RTVSPost2010Prop49
280
     0
102
RTVSPost2010PropOp49
 70
     1
102
RTVSPost2010Prop50
 90
       50
102
RTVSPost2010PropOp50
 70
     1
102
RTVSPost2010Prop51ColorIndex
 90
      256
102
RTVSPost2010Prop51ColorRGB
 90
-16777216
102
RTVSPost2010PropOp51
 70
     0
102
RTVSPost2010Prop52
140
1.0
102
RTVSPost2010PropOp52
 70
     0
102
RTVSPost2010Prop53
 90
        2
102
RTVSPost2010PropOp53
 70
     1
102
RTVSPost2010Prop54
  1
strokes_ogs.tif
102
RTVSPost2010PropOp54
 70
     1
102
RTVSPost2010Prop55
280
     0
102
RTVSPost2010PropOp55
 70
     1
102
RTVSPost2010Prop56
140
1.0
102
RTVSPost2010PropOp56
 70
     1
102
RTVSPost2010Prop57
140
1.0
102
RTVSPost2010PropOp57
 70
     1
  0
XRECORD
  5
441
102
{ACAD_REACTORS
330
440
102
}
330
440
100
AcDbXrecord
280
     1
102
RTVSPost2010Prop28
280
     0
102
RTVSPost2010PropOp28
 70
     1
102
RTVSPost2010Prop29
280
     1
102
RTVSPost2010PropOp29
 70
     1
102
RTVSPost2010Prop30
280
     1
102
RTVSPost2010PropOp30
 70
     1
102
RTVSPost2010Prop31
280
     0
102
RTVSPost2010PropOp31
 70
     1
102
RTVSPost2010Prop32
280
     0
102
RTVSPost2010PropOp32
 70
     1
102
RTVSPost2010Prop33
280
     0
102
RTVSPost2010PropOp33
 70
     1
102
RTVSPost2010Prop34
280
     0
102
RTVSPost2010PropOp34
 70
     1
102
RTVSPost2010Prop35
280
     0
102
RTVSPost2010PropOp35
 70
     1
102
RTVSPost2010Prop36
280
     0
102
RTVSPost2010PropOp36
 70
     1
102
RTVSPost2010Prop37
 90
       50
102
RTVSPost2010PropOp37
 70
     1
102
RTVSPost2010Prop38
140
0.0
102
RTVSPost2010PropOp38
 70
     1
102
RTVSPost2010Prop39
140
1.0
102
RTVSPost2010PropOp39
 70
     1
102
RTVSPost2010Prop40
 90
        0
102
RTVSPost2010PropOp40
 70
     1
102
RTVSPost2010Prop41ColorIndex
 90
       18
102
RTVSPost2010Prop41ColorRGB
 90
        0
102
RTVSPost2010PropOp41
 70
     1
102
RTVSPost2010Prop42
 90
       50
102
RTVSPost2010PropOp42
 70
     1
102
RTVSPost2010Prop43
 90
        3
102
RTVSPost2010PropOp43
 70
     1
102
RTVSPost2010Prop44ColorIndex
 90
        5
102
RTVSPost2010Prop44ColorRGB
 90
      255
102
RTVSPost2010PropOp44
 70
     1
102
RTVSPost2010Prop45
280
     0
102
RTVSPost2010PropOp45
 70
     1
102
RTVSPost2010Prop46
 90
       50
102
RTVSPost2010PropOp46
 70
     1
102
RTVSPost2010Prop47
 90
       50
102
RTVSPost2010PropOp47
 70
     1
102
RTVSPost2010Prop48
 90
       50
102
RTVSPost2010PropOp48
 70
     1
102
RTVSPost2010Prop49
280
     0
102
RTVSPost2010PropOp49
 70
     1
102
RTVSPost2010Prop50
 90
       50
102
RTVSPost2010PropOp50
 70
     1
102
RTVSPost2010Prop51ColorIndex
 90
      256
102
RTVSPost2010Prop51ColorRGB
 90
-16777216
102
RTVSPost2010PropOp51
 70
     0
102
RTVSPost2010Prop52
140
1.0
102
RTVSPost2010PropOp52
 70
     0
102
RTVSPost2010Prop53
 90
        2
102
RTVSPost2010PropOp53
 70
     1
102
RTVSPost2010Prop54
  1
strokes_ogs.tif
102
RTVSPost2010PropOp54
 70
     1
102
RTVSPost2010Prop55
280
     0
102
RTVSPost2010PropOp55
 70
     1
102
RTVSPost2010Prop56
140
1.0
102
RTVSPost2010PropOp56
 70
     1
102
RTVSPost2010Prop57
140
1.0
102
RTVSPost2010PropOp57
 70
     1
  0
XRECORD
  5
43F
102
{ACAD_REACTORS
330
43E
102
}
330
43E
100
AcDbXrecord
280
     1
102
RTVSPost2010Prop28
280
     0
102
RTVSPost2010PropOp28
 70
     1
102
RTVSPost2010Prop29
280
     1
102
RTVSPost2010PropOp29
 70
     1
102
RTVSPost2010Prop30
280
     1
102
RTVSPost2010PropOp30
 70
     1
102
RTVSPost2010Prop31
280
     0
102
RTVSPost2010PropOp31
 70
     1
102
RTVSPost2010Prop32
280
     0
102
RTVSPost2010PropOp32
 70
     1
102
RTVSPost2010Prop33
280
     0
102
RTVSPost2010PropOp33
 70
     1
102
RTVSPost2010Prop34
280
     0
102
RTVSPost2010PropOp34
 70
     1
102
RTVSPost2010Prop35
280
     0
102
RTVSPost2010PropOp35
 70
     1
102
RTVSPost2010Prop36
280
     0
102
RTVSPost2010PropOp36
 70
     1
102
RTVSPost2010Prop37
 90
       50
102
RTVSPost2010PropOp37
 70
     1
102
RTVSPost2010Prop38
140
0.0
102
RTVSPost2010PropOp38
 70
     1
102
RTVSPost2010Prop39
140
1.0
102
RTVSPost2010PropOp39
 70
     1
102
RTVSPost2010Prop40
 90
        0
102
RTVSPost2010PropOp40
 70
     1
102
RTVSPost2010Prop41ColorIndex
 90
       18
102
RTVSPost2010Prop41ColorRGB
 90
        0
102
RTVSPost2010PropOp41
 70
     1
102
RTVSPost2010Prop42
 90
       50
102
RTVSPost2010PropOp42
 70
     1
102
RTVSPost2010Prop43
 90
        3
102
RTVSPost2010PropOp43
 70
     1
102
RTVSPost2010Prop44ColorIndex
 90
        5
102
RTVSPost2010Prop44ColorRGB
 90
      255
102
RTVSPost2010PropOp44
 70
     1
102
RTVSPost2010Prop45
280
     0
102
RTVSPost2010PropOp45
 70
     1
102
RTVSPost2010Prop46
 90
       50
102
RTVSPost2010PropOp46
 70
     1
102
RTVSPost2010Prop47
 90
       50
102
RTVSPost2010PropOp47
 70
     1
102
RTVSPost2010Prop48
 90
       50
102
RTVSPost2010PropOp48
 70
     1
102
RTVSPost2010Prop49
280
     0
102
RTVSPost2010PropOp49
 70
     1
102
RTVSPost2010Prop50
 90
       50
102
RTVSPost2010PropOp50
 70
     1
102
RTVSPost2010Prop51ColorIndex
 90
      256
102
RTVSPost2010Prop51ColorRGB
 90
-16777216
102
RTVSPost2010PropOp51
 70
     0
102
RTVSPost2010Prop52
140
1.0
102
RTVSPost2010PropOp52
 70
     0
102
RTVSPost2010Prop53
 90
        2
102
RTVSPost2010PropOp53
 70
     1
102
RTVSPost2010Prop54
  1
strokes_ogs.tif
102
RTVSPost2010PropOp54
 70
     1
102
RTVSPost2010Prop55
280
     0
102
RTVSPost2010PropOp55
 70
     1
102
RTVSPost2010Prop56
140
1.0
102
RTVSPost2010PropOp56
 70
     1
102
RTVSPost2010Prop57
140
1.0
102
RTVSPost2010PropOp57
 70
     1
  0
XRECORD
  5
439
102
{ACAD_REACTORS
330
438
102
}
330
438
100
AcDbXrecord
280
     1
102
RTVSPost2010Prop28
280
     0
102
RTVSPost2010PropOp28
 70
     1
102
RTVSPost2010Prop29
280
     1
102
RTVSPost2010PropOp29
 70
     1
102
RTVSPost2010Prop30
280
     1
102
RTVSPost2010PropOp30
 70
     1
102
RTVSPost2010Prop31
280
     0
102
RTVSPost2010PropOp31
 70
     1
102
RTVSPost2010Prop32
280
     0
102
RTVSPost2010PropOp32
 70
     1
102
RTVSPost2010Prop33
280
     0
102
RTVSPost2010PropOp33
 70
     1
102
RTVSPost2010Prop34
280
     0
102
RTVSPost2010PropOp34
 70
     1
102
RTVSPost2010Prop35
280
     0
102
RTVSPost2010PropOp35
 70
     1
102
RTVSPost2010Prop36
280
     0
102
RTVSPost2010PropOp36
 70
     1
102
RTVSPost2010Prop37
 90
       50
102
RTVSPost2010PropOp37
 70
     1
102
RTVSPost2010Prop38
140
0.0
102
RTVSPost2010PropOp38
 70
     1
102
RTVSPost2010Prop39
140
1.0
102
RTVSPost2010PropOp39
 70
     1
102
RTVSPost2010Prop40
 90
        0
102
RTVSPost2010PropOp40
 70
     1
102
RTVSPost2010Prop41ColorIndex
 90
       18
102
RTVSPost2010Prop41ColorRGB
 90
        0
102
RTVSPost2010PropOp41
 70
     1
102
RTVSPost2010Prop42
 90
       50
102
RTVSPost2010PropOp42
 70
     1
102
RTVSPost2010Prop43
 90
        3
102
RTVSPost2010PropOp43
 70
     1
102
RTVSPost2010Prop44ColorIndex
 90
        5
102
RTVSPost2010Prop44ColorRGB
 90
      255
102
RTVSPost2010PropOp44
 70
     1
102
RTVSPost2010Prop45
280
     0
102
RTVSPost2010PropOp45
 70
     1
102
RTVSPost2010Prop46
 90
       50
102
RTVSPost2010PropOp46
 70
     1
102
RTVSPost2010Prop47
 90
       50
102
RTVSPost2010PropOp47
 70
     1
102
RTVSPost2010Prop48
 90
       50
102
RTVSPost2010PropOp48
 70
     1
102
RTVSPost2010Prop49
280
     0
102
RTVSPost2010PropOp49
 70
     1
102
RTVSPost2010Prop50
 90
       50
102
RTVSPost2010PropOp50
 70
     1
102
RTVSPost2010Prop51ColorIndex
 90
      256
102
RTVSPost2010Prop51ColorRGB
 90
-16777216
102
RTVSPost2010PropOp51
 70
     0
102
RTVSPost2010Prop52
140
1.0
102
RTVSPost2010PropOp52
 70
     0
102
RTVSPost2010Prop53
 90
        2
102
RTVSPost2010PropOp53
 70
     1
102
RTVSPost2010Prop54
  1
strokes_ogs.tif
102
RTVSPost2010PropOp54
 70
     1
102
RTVSPost2010Prop55
280
     0
102
RTVSPost2010PropOp55
 70
     1
102
RTVSPost2010Prop56
140
1.0
102
RTVSPost2010PropOp56
 70
     1
102
RTVSPost2010Prop57
140
1.0
102
RTVSPost2010PropOp57
 70
     1
  0
XRECORD
  5
43B
102
{ACAD_REACTORS
330
43A
102
}
330
43A
100
AcDbXrecord
280
     1
102
RTVSPost2010Prop28
280
     0
102
RTVSPost2010PropOp28
 70
     1
102
RTVSPost2010Prop29
280
     1
102
RTVSPost2010PropOp29
 70
     1
102
RTVSPost2010Prop30
280
     1
102
RTVSPost2010PropOp30
 70
     1
102
RTVSPost2010Prop31
280
     0
102
RTVSPost2010PropOp31
 70
     1
102
RTVSPost2010Prop32
280
     0
102
RTVSPost2010PropOp32
 70
     1
102
RTVSPost2010Prop33
280
     0
102
RTVSPost2010PropOp33
 70
     1
102
RTVSPost2010Prop34
280
     0
102
RTVSPost2010PropOp34
 70
     1
102
RTVSPost2010Prop35
280
     0
102
RTVSPost2010PropOp35
 70
     1
102
RTVSPost2010Prop36
280
     0
102
RTVSPost2010PropOp36
 70
     1
102
RTVSPost2010Prop37
 90
       50
102
RTVSPost2010PropOp37
 70
     1
102
RTVSPost2010Prop38
140
0.0
102
RTVSPost2010PropOp38
 70
     1
102
RTVSPost2010Prop39
140
1.0
102
RTVSPost2010PropOp39
 70
     1
102
RTVSPost2010Prop40
 90
        0
102
RTVSPost2010PropOp40
 70
     1
102
RTVSPost2010Prop41ColorIndex
 90
       18
102
RTVSPost2010Prop41ColorRGB
 90
        0
102
RTVSPost2010PropOp41
 70
     1
102
RTVSPost2010Prop42
 90
       50
102
RTVSPost2010PropOp42
 70
     1
102
RTVSPost2010Prop43
 90
        3
102
RTVSPost2010PropOp43
 70
     1
102
RTVSPost2010Prop44ColorIndex
 90
        5
102
RTVSPost2010Prop44ColorRGB
 90
      255
102
RTVSPost2010PropOp44
 70
     1
102
RTVSPost2010Prop45
280
     0
102
RTVSPost2010PropOp45
 70
     1
102
RTVSPost2010Prop46
 90
       50
102
RTVSPost2010PropOp46
 70
     1
102
RTVSPost2010Prop47
 90
       50
102
RTVSPost2010PropOp47
 70
     1
102
RTVSPost2010Prop48
 90
       50
102
RTVSPost2010PropOp48
 70
     1
102
RTVSPost2010Prop49
280
     0
102
RTVSPost2010PropOp49
 70
     1
102
RTVSPost2010Prop50
 90
       50
102
RTVSPost2010PropOp50
 70
     1
102
RTVSPost2010Prop51ColorIndex
 90
      256
102
RTVSPost2010Prop51ColorRGB
 90
-16777216
102
RTVSPost2010PropOp51
 70
     0
102
RTVSPost2010Prop52
140
1.0
102
RTVSPost2010PropOp52
 70
     0
102
RTVSPost2010Prop53
 90
        2
102
RTVSPost2010PropOp53
 70
     1
102
RTVSPost2010Prop54
  1
strokes_ogs.tif
102
RTVSPost2010PropOp54
 70
     1
102
RTVSPost2010Prop55
280
     0
102
RTVSPost2010PropOp55
 70
     1
102
RTVSPost2010Prop56
140
1.0
102
RTVSPost2010PropOp56
 70
     1
102
RTVSPost2010Prop57
140
1.0
102
RTVSPost2010PropOp57
 70
     1
  0
XRECORD
  5
42B
102
{ACAD_REACTORS
330
42A
102
}
330
42A
100
AcDbXrecord
280
     1
102
RTVSPost2010Prop28
280
     0
102
RTVSPost2010PropOp28
 70
     1
102
RTVSPost2010Prop29
280
     1
102
RTVSPost2010PropOp29
 70
     1
102
RTVSPost2010Prop30
280
     1
102
RTVSPost2010PropOp30
 70
     1
102
RTVSPost2010Prop31
280
     0
102
RTVSPost2010PropOp31
 70
     1
102
RTVSPost2010Prop32
280
     0
102
RTVSPost2010PropOp32
 70
     1
102
RTVSPost2010Prop33
280
     0
102
RTVSPost2010PropOp33
 70
     1
102
RTVSPost2010Prop34
280
     0
102
RTVSPost2010PropOp34
 70
     1
102
RTVSPost2010Prop35
280
     0
102
RTVSPost2010PropOp35
 70
     1
102
RTVSPost2010Prop36
280
     0
102
RTVSPost2010PropOp36
 70
     1
102
RTVSPost2010Prop37
 90
       50
102
RTVSPost2010PropOp37
 70
     1
102
RTVSPost2010Prop38
140
0.0
102
RTVSPost2010PropOp38
 70
     1
102
RTVSPost2010Prop39
140
1.0
102
RTVSPost2010PropOp39
 70
     1
102
RTVSPost2010Prop40
 90
        0
102
RTVSPost2010PropOp40
 70
     1
102
RTVSPost2010Prop41ColorIndex
 90
       18
102
RTVSPost2010Prop41ColorRGB
 90
        0
102
RTVSPost2010PropOp41
 70
     1
102
RTVSPost2010Prop42
 90
       50
102
RTVSPost2010PropOp42
 70
     1
102
RTVSPost2010Prop43
 90
        3
102
RTVSPost2010PropOp43
 70
     1
102
RTVSPost2010Prop44ColorIndex
 90
        5
102
RTVSPost2010Prop44ColorRGB
 90
      255
102
RTVSPost2010PropOp44
 70
     1
102
RTVSPost2010Prop45
280
     0
102
RTVSPost2010PropOp45
 70
     1
102
RTVSPost2010Prop46
 90
       50
102
RTVSPost2010PropOp46
 70
     1
102
RTVSPost2010Prop47
 90
       50
102
RTVSPost2010PropOp47
 70
     1
102
RTVSPost2010Prop48
 90
       50
102
RTVSPost2010PropOp48
 70
     1
102
RTVSPost2010Prop49
280
     0
102
RTVSPost2010PropOp49
 70
     1
102
RTVSPost2010Prop50
 90
       50
102
RTVSPost2010PropOp50
 70
     1
102
RTVSPost2010Prop51ColorIndex
 90
      256
102
RTVSPost2010Prop51ColorRGB
 90
-16777216
102
RTVSPost2010PropOp51
 70
     0
102
RTVSPost2010Prop52
140
1.0
102
RTVSPost2010PropOp52
 70
     0
102
RTVSPost2010Prop53
 90
        2
102
RTVSPost2010PropOp53
 70
     1
102
RTVSPost2010Prop54
  1
strokes_ogs.tif
102
RTVSPost2010PropOp54
 70
     1
102
RTVSPost2010Prop55
280
     0
102
RTVSPost2010PropOp55
 70
     1
102
RTVSPost2010Prop56
140
1.0
102
RTVSPost2010PropOp56
 70
     1
102
RTVSPost2010Prop57
140
1.0
102
RTVSPost2010PropOp57
 70
     1
  0
XRECORD
  5
41D
102
{ACAD_REACTORS
330
41C
102
}
330
41C
100
AcDbXrecord
280
     1
102
RTVSPost2010Prop28
280
     0
102
RTVSPost2010PropOp28
 70
     1
102
RTVSPost2010Prop29
280
     1
102
RTVSPost2010PropOp29
 70
     1
102
RTVSPost2010Prop30
280
     1
102
RTVSPost2010PropOp30
 70
     1
102
RTVSPost2010Prop31
280
     0
102
RTVSPost2010PropOp31
 70
     1
102
RTVSPost2010Prop32
280
     0
102
RTVSPost2010PropOp32
 70
     1
102
RTVSPost2010Prop33
280
     0
102
RTVSPost2010PropOp33
 70
     1
102
RTVSPost2010Prop34
280
     0
102
RTVSPost2010PropOp34
 70
     1
102
RTVSPost2010Prop35
280
     0
102
RTVSPost2010PropOp35
 70
     1
102
RTVSPost2010Prop36
280
     0
102
RTVSPost2010PropOp36
 70
     1
102
RTVSPost2010Prop37
 90
       50
102
RTVSPost2010PropOp37
 70
     1
102
RTVSPost2010Prop38
140
0.0
102
RTVSPost2010PropOp38
 70
     1
102
RTVSPost2010Prop39
140
1.0
102
RTVSPost2010PropOp39
 70
     1
102
RTVSPost2010Prop40
 90
        0
102
RTVSPost2010PropOp40
 70
     1
102
RTVSPost2010Prop41ColorIndex
 90
       18
102
RTVSPost2010Prop41ColorRGB
 90
        0
102
RTVSPost2010PropOp41
 70
     1
102
RTVSPost2010Prop42
 90
       50
102
RTVSPost2010PropOp42
 70
     1
102
RTVSPost2010Prop43
 90
        3
102
RTVSPost2010PropOp43
 70
     1
102
RTVSPost2010Prop44ColorIndex
 90
        5
102
RTVSPost2010Prop44ColorRGB
 90
      255
102
RTVSPost2010PropOp44
 70
     1
102
RTVSPost2010Prop45
280
     0
102
RTVSPost2010PropOp45
 70
     1
102
RTVSPost2010Prop46
 90
       50
102
RTVSPost2010PropOp46
 70
     1
102
RTVSPost2010Prop47
 90
       50
102
RTVSPost2010PropOp47
 70
     1
102
RTVSPost2010Prop48
 90
       50
102
RTVSPost2010PropOp48
 70
     1
102
RTVSPost2010Prop49
280
     0
102
RTVSPost2010PropOp49
 70
     1
102
RTVSPost2010Prop50
 90
       50
102
RTVSPost2010PropOp50
 70
     1
102
RTVSPost2010Prop51ColorIndex
 90
      256
102
RTVSPost2010Prop51ColorRGB
 90
-16777216
102
RTVSPost2010PropOp51
 70
     0
102
RTVSPost2010Prop52
140
1.0
102
RTVSPost2010PropOp52
 70
     0
102
RTVSPost2010Prop53
 90
        2
102
RTVSPost2010PropOp53
 70
     1
102
RTVSPost2010Prop54
  1
strokes_ogs.tif
102
RTVSPost2010PropOp54
 70
     1
102
RTVSPost2010Prop55
280
     0
102
RTVSPost2010PropOp55
 70
     1
102
RTVSPost2010Prop56
140
1.0
102
RTVSPost2010PropOp56
 70
     1
102
RTVSPost2010Prop57
140
1.0
102
RTVSPost2010PropOp57
 70
     1
  0
XRECORD
  5
43D
102
{ACAD_REACTORS
330
43C
102
}
330
43C
100
AcDbXrecord
280
     1
102
RTVSPost2010Prop28
280
     0
102
RTVSPost2010PropOp28
 70
     1
102
RTVSPost2010Prop29
280
     1
102
RTVSPost2010PropOp29
 70
     1
102
RTVSPost2010Prop30
280
     1
102
RTVSPost2010PropOp30
 70
     1
102
RTVSPost2010Prop31
280
     0
102
RTVSPost2010PropOp31
 70
     1
102
RTVSPost2010Prop32
280
     0
102
RTVSPost2010PropOp32
 70
     1
102
RTVSPost2010Prop33
280
     0
102
RTVSPost2010PropOp33
 70
     1
102
RTVSPost2010Prop34
280
     0
102
RTVSPost2010PropOp34
 70
     1
102
RTVSPost2010Prop35
280
     0
102
RTVSPost2010PropOp35
 70
     1
102
RTVSPost2010Prop36
280
     0
102
RTVSPost2010PropOp36
 70
     1
102
RTVSPost2010Prop37
 90
       50
102
RTVSPost2010PropOp37
 70
     1
102
RTVSPost2010Prop38
140
0.0
102
RTVSPost2010PropOp38
 70
     1
102
RTVSPost2010Prop39
140
1.0
102
RTVSPost2010PropOp39
 70
     1
102
RTVSPost2010Prop40
 90
        0
102
RTVSPost2010PropOp40
 70
     1
102
RTVSPost2010Prop41ColorIndex
 90
       18
102
RTVSPost2010Prop41ColorRGB
 90
        0
102
RTVSPost2010PropOp41
 70
     1
102
RTVSPost2010Prop42
 90
       50
102
RTVSPost2010PropOp42
 70
     1
102
RTVSPost2010Prop43
 90
        3
102
RTVSPost2010PropOp43
 70
     1
102
RTVSPost2010Prop44ColorIndex
 90
        5
102
RTVSPost2010Prop44ColorRGB
 90
      255
102
RTVSPost2010PropOp44
 70
     1
102
RTVSPost2010Prop45
280
     0
102
RTVSPost2010PropOp45
 70
     1
102
RTVSPost2010Prop46
 90
       50
102
RTVSPost2010PropOp46
 70
     1
102
RTVSPost2010Prop47
 90
       50
102
RTVSPost2010PropOp47
 70
     1
102
RTVSPost2010Prop48
 90
       50
102
RTVSPost2010PropOp48
 70
     1
102
RTVSPost2010Prop49
280
     0
102
RTVSPost2010PropOp49
 70
     1
102
RTVSPost2010Prop50
 90
       50
102
RTVSPost2010PropOp50
 70
     1
102
RTVSPost2010Prop51ColorIndex
 90
      256
102
RTVSPost2010Prop51ColorRGB
 90
-16777216
102
RTVSPost2010PropOp51
 70
     0
102
RTVSPost2010Prop52
140
1.0
102
RTVSPost2010PropOp52
 70
     0
102
RTVSPost2010Prop53
 90
        2
102
RTVSPost2010PropOp53
 70
     1
102
RTVSPost2010Prop54
  1
strokes_ogs.tif
102
RTVSPost2010PropOp54
 70
     1
102
RTVSPost2010Prop55
280
     0
102
RTVSPost2010PropOp55
 70
     1
102
RTVSPost2010Prop56
140
1.0
102
RTVSPost2010PropOp56
 70
     1
102
RTVSPost2010Prop57
140
1.0
102
RTVSPost2010PropOp57
 70
     1
  0
ENDSEC
  0
EOF
