  0
SECTION
  2
HEADER
  9
$ACADVER
  1
AC1024
  9
$ACADMAINTVER
 70
     6
  9
$DWGCODEPAGE
  3
ANSI_1252
  9
$LASTSAVEDBY
  1
c.meyer
  9
$INSBASE
 10
0.0
 20
0.0
 30
0.0
  9
$EXTMIN
 10
-951.767588369205
 20
81.435
 30
0.0
  9
$EXTMAX
 10
4836.767588369205
 20
2359.865
 30
0.0
  9
$LIMMIN
 10
0.0
 20
0.0
  9
$LIMMAX
 10
420.0
 20
297.0
  9
$ORTHOMODE
 70
     0
  9
$REGENMODE
 70
     1
  9
$FILLMODE
 70
     1
  9
$QTEXTMODE
 70
     0
  9
$MIRRTEXT
 70
     1
  9
$LTSCALE
 40
5.0
  9
$ATTMODE
 70
     1
  9
$TEXTSIZE
 40
2.5
  9
$TRACEWID
 40
1.0
  9
$TEXTSTYLE
  7
Standard
  9
$CLAYER
  8
0
  9
$CELTYPE
  6
ByLayer
  9
$CECOLOR
 62
   256
  9
$CELTSCALE
 40
1.0
  9
$DISPSILH
 70
     0
  9
$DIMSCALE
 40
1.0
  9
$DIMASZ
 40
2.5
  9
$DIMEXO
 40
0.625
  9
$DIMDLI
 40
3.75
  9
$DIMRND
 40
0.0
  9
$DIMDLE
 40
0.0
  9
$DIMEXE
 40
1.25
  9
$DIMTP
 40
0.0
  9
$DIMTM
 40
0.0
  9
$DIMTXT
 40
2.5
  9
$DIMCEN
 40
2.5
  9
$DIMTSZ
 40
0.0
  9
$DIMTOL
 70
     0
  9
$DIMLIM
 70
     0
  9
$DIMTIH
 70
     0
  9
$DIMTOH
 70
     0
  9
$DIMSE1
 70
     0
  9
$DIMSE2
 70
     0
  9
$DIMTAD
 70
     1
  9
$DIMZIN
 70
     8
  9
$DIMBLK
  1

  9
$DIMASO
 70
     1
  9
$DIMSHO
 70
     1
  9
$DIMPOST
  1

  9
$DIMAPOST
  1

  9
$DIMALT
 70
     0
  9
$DIMALTD
 70
     3
  9
$DIMALTF
 40
0.03937007874
  9
$DIMLFAC
 40
1.0
  9
$DIMTOFL
 70
     1
  9
$DIMTVP
 40
0.0
  9
$DIMTIX
 70
     0
  9
$DIMSOXD
 70
     0
  9
$DIMSAH
 70
     0
  9
$DIMBLK1
  1

  9
$DIMBLK2
  1

  9
$DIMSTYLE
  2
ISO-25
  9
$DIMCLRD
 70
     0
  9
$DIMCLRE
 70
     0
  9
$DIMCLRT
 70
     0
  9
$DIMTFAC
 40
1.0
  9
$DIMGAP
 40
0.625
  9
$DIMJUST
 70
     0
  9
$DIMSD1
 70
     0
  9
$DIMSD2
 70
     0
  9
$DIMTOLJ
 70
     0
  9
$DIMTZIN
 70
     8
  9
$DIMALTZ
 70
     0
  9
$DIMALTTZ
 70
     0
  9
$DIMUPT
 70
     0
  9
$DIMDEC
 70
     2
  9
$DIMTDEC
 70
     2
  9
$DIMALTU
 70
     2
  9
$DIMALTTD
 70
     3
  9
$DIMTXSTY
  7
Standard
  9
$DIMAUNIT
 70
     0
  9
$DIMADEC
 70
     0
  9
$DIMALTRND
 40
0.0
  9
$DIMAZIN
 70
     0
  9
$DIMDSEP
 70
    44
  9
$DIMATFIT
 70
     3
  9
$DIMFRAC
 70
     0
  9
$DIMLDRBLK
  1

  9
$DIMLUNIT
 70
     2
  9
$DIMLWD
 70
    -2
  9
$DIMLWE
 70
    -2
  9
$DIMTMOVE
 70
     0
  9
$DIMFXL
 40
1.0
  9
$DIMFXLON
 70
     0
  9
$DIMJOGANG
 40
0.785398163397
  9
$DIMTFILL
 70
     0
  9
$DIMTFILLCLR
 70
     0
  9
$DIMARCSYM
 70
     0
  9
$DIMLTYPE
  6

  9
$DIMLTEX1
  6

  9
$DIMLTEX2
  6

  9
$DIMTXTDIRECTION
 70
     0
  9
$LUNITS
 70
     2
  9
$LUPREC
 70
     4
  9
$SKETCHINC
 40
1.0
  9
$FILLETRAD
 40
0.0
  9
$AUNITS
 70
     0
  9
$AUPREC
 70
     0
  9
$MENU
  1
.
  9
$ELEVATION
 40
0.0
  9
$PELEVATION
 40
0.0
  9
$THICKNESS
 40
0.0
  9
$LIMCHECK
 70
     0
  9
$CHAMFERA
 40
0.0
  9
$CHAMFERB
 40
0.0
  9
$CHAMFERC
 40
0.0
  9
$CHAMFERD
 40
0.0
  9
$SKPOLY
 70
     0
  9
$TDCREATE
 40
2460290.476388565
  9
$TDUCREATE
 40
2460290.434721898
  9
$TDUPDATE
 40
2460290.476389144
  9
$TDUUPDATE
 40
2460290.434722477
  9
$TDINDWG
 40
0.0000000116
  9
$TDUSRTIMER
 40
0.0000000116
  9
$USRTIMER
 70
     1
  9
$ANGBASE
 50
0.0
  9
$ANGDIR
 70
     0
  9
$PDMODE
 70
     2
  9
$PDSIZE
 40
1.0
  9
$PLINEWID
 40
0.0
  9
$SPLFRAME
 70
     0
  9
$SPLINETYPE
 70
     6
  9
$SPLINESEGS
 70
     8
  9
$HANDSEED
  5
3F2
  9
$SURFTAB1
 70
     6
  9
$SURFTAB2
 70
     6
  9
$SURFTYPE
 70
     6
  9
$SURFU
 70
     6
  9
$SURFV
 70
     6
  9
$UCSBASE
  2

  9
$UCSNAME
  2

  9
$UCSORG
 10
0.0
 20
0.0
 30
0.0
  9
$UCSXDIR
 10
1.0
 20
0.0
 30
0.0
  9
$UCSYDIR
 10
0.0
 20
1.0
 30
0.0
  9
$UCSORTHOREF
  2

  9
$UCSORTHOVIEW
 70
     0
  9
$UCSORGTOP
 10
0.0
 20
0.0
 30
0.0
  9
$UCSORGBOTTOM
 10
0.0
 20
0.0
 30
0.0
  9
$UCSORGLEFT
 10
0.0
 20
0.0
 30
0.0
  9
$UCSORGRIGHT
 10
0.0
 20
0.0
 30
0.0
  9
$UCSORGFRONT
 10
0.0
 20
0.0
 30
0.0
  9
$UCSORGBACK
 10
0.0
 20
0.0
 30
0.0
  9
$PUCSBASE
  2

  9
$PUCSNAME
  2

  9
$PUCSORG
 10
0.0
 20
0.0
 30
0.0
  9
$PUCSXDIR
 10
1.0
 20
0.0
 30
0.0
  9
$PUCSYDIR
 10
0.0
 20
1.0
 30
0.0
  9
$PUCSORTHOREF
  2

  9
$PUCSORTHOVIEW
 70
     0
  9
$PUCSORGTOP
 10
0.0
 20
0.0
 30
0.0
  9
$PUCSORGBOTTOM
 10
0.0
 20
0.0
 30
0.0
  9
$PUCSORGLEFT
 10
0.0
 20
0.0
 30
0.0
  9
$PUCSORGRIGHT
 10
0.0
 20
0.0
 30
0.0
  9
$PUCSORGFRONT
 10
0.0
 20
0.0
 30
0.0
  9
$PUCSORGBACK
 10
0.0
 20
0.0
 30
0.0
  9
$USERI1
 70
     0
  9
$USERI2
 70
     0
  9
$USERI3
 70
     0
  9
$USERI4
 70
     0
  9
$USERI5
 70
     0
  9
$USERR1
 40
0.0
  9
$USERR2
 40
0.0
  9
$USERR3
 40
0.0
  9
$USERR4
 40
0.0
  9
$USERR5
 40
0.0
  9
$WORLDVIEW
 70
     1
  9
$SHADEDGE
 70
     3
  9
$SHADEDIF
 70
    70
  9
$TILEMODE
 70
     1
  9
$MAXACTVP
 70
    64
  9
$PINSBASE
 10
0.0
 20
0.0
 30
0.0
  9
$PLIMCHECK
 70
     0
  9
$PEXTMIN
 10
1.000000000000E+20
 20
1.000000000000E+20
 30
1.000000000000E+20
  9
$PEXTMAX
 10
-1.000000000000E+20
 20
-1.000000000000E+20
 30
-1.000000000000E+20
  9
$PLIMMIN
 10
0.0
 20
0.0
  9
$PLIMMAX
 10
420.0
 20
297.0
  9
$UNITMODE
 70
     0
  9
$VISRETAIN
 70
     1
  9
$PLINEGEN
 70
     0
  9
$PSLTSCALE
 70
     1
  9
$TREEDEPTH
 70
  3020
  9
$CMLSTYLE
  2
Standard
  9
$CMLJUST
 70
     0
  9
$CMLSCALE
 40
20.0
  9
$PROXYGRAPHICS
 70
     1
  9
$MEASUREMENT
 70
     1
  9
$CELWEIGHT
370
    -1
  9
$ENDCAPS
280
     0
  9
$JOINSTYLE
280
     0
  9
$LWDISPLAY
290
     0
  9
$INSUNITS
 70
     4
  9
$HYPERLINKBASE
  1

  9
$STYLESHEET
  1

  9
$XEDIT
290
     1
  9
$CEPSNTYPE
380
     0
  9
$PSTYLEMODE
290
     1
  9
$FINGERPRINTGUID
  2
{8fb673ce-0f8c-4c13-9f89-0629c6a49112}
  9
$VERSIONGUID
  2
{FAEB1C32-E019-11D5-929B-00C0DF256EC4}
  9
$EXTNAMES
290
     1
  9
$PSVPSCALE
 40
0.0
  9
$OLESTARTUP
290
     0
  9
$SORTENTS
280
   127
  9
$INDEXCTL
280
     0
  9
$HIDETEXT
280
     1
  9
$XCLIPFRAME
280
     2
  9
$HALOGAP
280
     0
  9
$OBSCOLOR
 70
   257
  9
$OBSLTYPE
280
     0
  9
$INTERSECTIONDISPLAY
280
     0
  9
$INTERSECTIONCOLOR
 70
   257
  9
$DIMASSOC
280
     2
  9
$PROJECTNAME
  1

  9
$CAMERADISPLAY
290
     0
  9
$LENSLENGTH
 40
50.0
  9
$CAMERAHEIGHT
 40
0.0
  9
$STEPSPERSEC
 40
2.0
  9
$STEPSIZE
 40
6.0
  9
$3DDWFPREC
 40
2.0
  9
$PSOLWIDTH
 40
5.0
  9
$PSOLHEIGHT
 40
80.0
  9
$LOFTANG1
 40
1.570796326795
  9
$LOFTANG2
 40
1.570796326795
  9
$LOFTMAG1
 40
0.0
  9
$LOFTMAG2
 40
0.0
  9
$LOFTPARAM
 70
     7
  9
$LOFTNORMALS
280
     1
  9
$LATITUDE
 40
37.795
  9
$LONGITUDE
 40
-122.394
  9
$NORTHDIRECTION
 40
0.0
  9
$TIMEZONE
 70
 -8000
  9
$LIGHTGLYPHDISPLAY
280
     1
  9
$TILEMODELIGHTSYNCH
280
     1
  9
$CMATERIAL
347
44
  9
$SOLIDHIST
280
     0
  9
$SHOWHIST
280
     1
  9
$DWFFRAME
280
     2
  9
$DGNFRAME
280
     2
  9
$REALWORLDSCALE
290
     1
  9
$INTERFERECOLOR
 62
   256
  9
$CSHADOW
280
     0
  9
$SHADOWPLANELOCATION
 40
0.0
  0
ENDSEC
  0
SECTION
  2
CLASSES
  0
CLASS
  1
ACDBDICTIONARYWDFLT
  2
AcDbDictionaryWithDefault
  3
ObjectDBX Classes
 90
        0
 91
        3
280
     0
281
     0
  0
CLASS
  1
VISUALSTYLE
  2
AcDbVisualStyle
  3
ObjectDBX Classes
 90
     4095
 91
        3
280
     0
281
     0
  0
CLASS
  1
MATERIAL
  2
AcDbMaterial
  3
ObjectDBX Classes
 90
     1153
 91
        3
280
     0
281
     0
  0
CLASS
  1
SCALE
  2
AcDbScale
  3
ObjectDBX Classes
 90
     1153
 91
        3
280
     0
281
     0
  0
CLASS
  1
TABLESTYLE
  2
AcDbTableStyle
  3
ObjectDBX Classes
 90
     4095
 91
        3
280
     0
281
     0
  0
CLASS
  1
MLEADERSTYLE
  2
AcDbMLeaderStyle
  3
ACDB_MLEADERSTYLE_CLASS
 90
     4095
 91
        3
280
     0
281
     0
  0
CLASS
  1
SUN
  2
AcDbSun
  3
SCENEOE
 90
     1153
 91
        3
280
     0
281
     0
  0
CLASS
  1
IMAGEDEF
  2
AcDbRasterImageDef
  3
ISM
 90
        0
 91
        3
280
     0
281
     0
  0
CLASS
  1
IMAGE
  2
AcDbRasterImage
  3
ISM
 90
      127
 91
        4
280
     0
281
     1
  0
CLASS
  1
IMAGEDEF_REACTOR
  2
AcDbRasterImageDefReactor
  3
ISM
 90
        1
 91
        3
280
     0
281
     0
  0
CLASS
  1
WIPEOUT
  2
AcDbWipeout
  3
WipeOut|AutoCAD Express Tool|expresstools@autodesk.com
 90
      127
 91
        3
280
     0
281
     1
  0
CLASS
  1
DICTIONARYVAR
  2
AcDbDictionaryVar
  3
ObjectDBX Classes
 90
        0
 91
        3
280
     0
281
     0
  0
CLASS
  1
CELLSTYLEMAP
  2
AcDbCellStyleMap
  3
ObjectDBX Classes
 90
     1152
 91
        3
280
     0
281
     0
  0
CLASS
  1
WIPEOUTVARIABLES
  2
AcDbWipeoutVariables
  3
WipeOut|AutoCAD Express Tool|expresstools@autodesk.com
 90
        0
 91
        3
280
     0
281
     0
  0
ENDSEC
  0
SECTION
  2
TABLES
  0
TABLE
  2
VPORT
  5
8
330
0
100
AcDbSymbolTable
 70
     1
  0
VPORT
  5
29
330
8
100
AcDbSymbolTableRecord
100
AcDbViewportTableRecord
  2
*Active
 70
     0
 10
0.0
 20
0.0
 11
1.0
 21
1.0
 12
1942.5
 22
1220.65
 13
0.0
 23
0.0
 14
10.0
 24
10.0
 15
10.0
 25
10.0
 16
0.0
 26
0.0
 36
1.0
 17
0.0
 27
0.0
 37
0.0
 40
2278.43
 41
2.540580652791
 42
50.0
 43
0.0
 44
0.0
 50
0.0
 51
0.0
 71
     0
 72
   100
 73
     1
 74
     3
 75
     0
 76
     0
 77
     0
 78
     0
281
     0
 65
     1
110
0.0
120
0.0
130
0.0
111
1.0
121
0.0
131
0.0
112
0.0
122
1.0
132
0.0
 79
     0
146
0.0
348
2F
 60
     3
 61
     5
292
     1
282
     1
141
0.0
142
0.0
 63
   250
361
5D
  0
ENDTAB
  0
TABLE
  2
LTYPE
  5
5
330
0
100
AcDbSymbolTable
 70
     3
  0
LTYPE
  5
14
330
5
100
AcDbSymbolTableRecord
100
AcDbLinetypeTableRecord
  2
ByBlock
 70
     0
  3

 72
    65
 73
     0
 40
0.0
  0
LTYPE
  5
15
330
5
100
AcDbSymbolTableRecord
100
AcDbLinetypeTableRecord
  2
ByLayer
 70
     0
  3

 72
    65
 73
     0
 40
0.0
  0
LTYPE
  5
16
330
5
100
AcDbSymbolTableRecord
100
AcDbLinetypeTableRecord
  2
Continuous
 70
     0
  3
Solid line
 72
    65
 73
     0
 40
0.0
  0
LTYPE
  5
5E
330
5
100
AcDbSymbolTableRecord
100
AcDbLinetypeTableRecord
  2
AUSGEZOGEN
 70
     0
  3

 72
    65
 73
     0
 40
0.0
  0
LTYPE
  5
60
330
5
100
AcDbSymbolTableRecord
100
AcDbLinetypeTableRecord
  2
DASHDOT
 70
     0
  3

 72
    65
 73
     4
 40
1.0
 49
0.5
 74
     0
 49
-0.25
 74
     0
 49
0.0
 74
     0
 49
-0.25
 74
     0
  0
ENDTAB
  0
TABLE
  2
LAYER
  5
2
330
0
100
AcDbSymbolTable
 70
     4
  0
LAYER
  5
10
330
2
100
AcDbSymbolTableRecord
100
AcDbLayerTableRecord
  2
0
 70
     0
 62
     7
  6
Continuous
370
    -3
390
F
347
46
  0
LAYER
  5
62
330
2
100
AcDbSymbolTableRecord
100
AcDbLayerTableRecord
  2
SLD-0
 70
     0
 62
     7
  6
Continuous
370
    -3
390
F
347
46
  0
LAYER
  5
63
330
2
100
AcDbSymbolTableRecord
100
AcDbLayerTableRecord
  2
ASSI
 70
     0
 62
    18
420
        0
  6
Continuous
370
    -3
390
F
347
46
  0
LAYER
  5
64
330
2
100
AcDbSymbolTableRecord
100
AcDbLayerTableRecord
  2
Layer100
 70
     0
 62
    18
420
        0
  6
Continuous
370
    -3
390
F
347
46
  0
ENDTAB
  0
TABLE
  2
STYLE
  5
3
330
0
100
AcDbSymbolTable
 70
     3
  0
STYLE
  5
11
330
3
100
AcDbSymbolTableRecord
100
AcDbTextStyleTableRecord
  2
Standard
 70
     0
 40
0.0
 41
1.0
 50
0.0
 71
     0
 42
2.5
  3
txt
  4

  0
STYLE
  5
5F
330
3
100
AcDbSymbolTableRecord
100
AcDbTextStyleTableRecord
  2
Arial
 70
     0
 40
0.0
 41
1.0
 50
0.0
 71
     0
 42
2.5
  3
arial.ttf
  4

1001
ACAD
1000
Arial
1071
        0
  0
STYLE
  5
61
330
3
100
AcDbSymbolTableRecord
100
AcDbTextStyleTableRecord
  2
Toleranzfont
 70
     0
 40
0.0
 41
1.0
 50
0.0
 71
     0
 42
2.5
  3
IGES1003.SHX
  4

  0
ENDTAB
  0
TABLE
  2
VIEW
  5
6
330
0
100
AcDbSymbolTable
 70
     0
  0
ENDTAB
  0
TABLE
  2
UCS
  5
7
330
0
100
AcDbSymbolTable
 70
     0
  0
ENDTAB
  0
TABLE
  2
APPID
  5
9
330
0
100
AcDbSymbolTable
 70
     1
  0
APPID
  5
12
330
9
100
AcDbSymbolTableRecord
100
AcDbRegAppTableRecord
  2
ACAD
 70
     0
  0
ENDTAB
  0
TABLE
  2
DIMSTYLE
  5
A
330
0
100
AcDbSymbolTable
 70
     1
100
AcDbDimStyleTable
  0
DIMSTYLE
105
27
102
{ACAD_REACTORS
330
82
330
8C
330
96
330
A8
330
B2
330
BC
330
C7
330
D1
330
F1
330
19A
330
319
330
324
330
32F
102
}
330
A
100
AcDbSymbolTableRecord
100
AcDbDimStyleTableRecord
  2
ISO-25
 70
     0
 41
2.5
 42
0.625
 43
3.75
 44
1.25
 73
     0
 74
     0
 77
     1
 78
     8
140
2.5
141
2.5
143
0.03937007874
147
0.625
171
     3
172
     1
178
     0
271
     2
272
     2
274
     3
278
    44
283
     0
284
     8
340
11
  0
ENDTAB
  0
TABLE
  2
BLOCK_RECORD
  5
1
330
0
100
AcDbSymbolTable
 70
    28
  0
BLOCK_RECORD
  5
1F
330
1
100
AcDbSymbolTableRecord
100
AcDbBlockTableRecord
  2
*Model_Space
340
22
 70
     0
280
     1
281
     0
  0
BLOCK_RECORD
  5
1B
330
1
100
AcDbSymbolTableRecord
100
AcDbBlockTableRecord
  2
*Paper_Space
340
1E
 70
     0
280
     1
281
     0
  0
BLOCK_RECORD
  5
23
330
1
100
AcDbSymbolTableRecord
100
AcDbBlockTableRecord
  2
*Paper_Space0
340
26
 70
     0
280
     1
281
     0
  0
BLOCK_RECORD
  5
79
330
1
100
AcDbSymbolTableRecord
100
AcDbBlockTableRecord
  2
*D1
340
0
 70
     0
280
     1
281
     0
  0
BLOCK_RECORD
  5
83
330
1
100
AcDbSymbolTableRecord
100
AcDbBlockTableRecord
  2
*D2
340
0
 70
     0
280
     1
281
     0
  0
BLOCK_RECORD
  5
8D
330
1
100
AcDbSymbolTableRecord
100
AcDbBlockTableRecord
  2
*D3
340
0
 70
     0
280
     1
281
     0
  0
BLOCK_RECORD
  5
97
330
1
100
AcDbSymbolTableRecord
100
AcDbBlockTableRecord
  2
_D_3_nNn03
340
0
102
{BLKREFS
331
9E
102
}
 70
     0
280
     1
281
     0
  0
BLOCK_RECORD
  5
9F
330
1
100
AcDbSymbolTableRecord
100
AcDbBlockTableRecord
  2
*D5
340
0
 70
     0
280
     1
281
     0
  0
BLOCK_RECORD
  5
A9
330
1
100
AcDbSymbolTableRecord
100
AcDbBlockTableRecord
  2
*D6
340
0
 70
     0
280
     1
281
     0
  0
BLOCK_RECORD
  5
B3
330
1
100
AcDbSymbolTableRecord
100
AcDbBlockTableRecord
  2
*D7
340
0
 70
     0
280
     1
281
     0
  0
BLOCK_RECORD
  5
BD
330
1
100
AcDbSymbolTableRecord
100
AcDbBlockTableRecord
  2
*D8
340
0
 70
     0
280
     1
281
     0
  0
BLOCK_RECORD
  5
C8
330
1
100
AcDbSymbolTableRecord
100
AcDbBlockTableRecord
  2
*D9
340
0
 70
     0
280
     1
281
     0
  0
BLOCK_RECORD
  5
D2
330
1
100
AcDbSymbolTableRecord
100
AcDbBlockTableRecord
  2
_D_9_nNn09
340
0
102
{BLKREFS
331
DA
102
}
 70
     0
280
     1
281
     0
  0
BLOCK_RECORD
  5
DB
330
1
100
AcDbSymbolTableRecord
100
AcDbBlockTableRecord
  2
_D_10_nNn010
340
0
102
{BLKREFS
331
E6
102
}
 70
     0
280
     1
281
     0
  0
BLOCK_RECORD
  5
E7
330
1
100
AcDbSymbolTableRecord
100
AcDbBlockTableRecord
  2
*D12
340
0
 70
     0
280
     1
281
     0
  0
BLOCK_RECORD
  5
191
330
1
100
AcDbSymbolTableRecord
100
AcDbBlockTableRecord
  2
*D13
340
0
 70
     0
280
     1
281
     0
  0
BLOCK_RECORD
  5
2FC
330
1
100
AcDbSymbolTableRecord
100
AcDbBlockTableRecord
  2
*X14
340
0
102
{BLKREFS
331
304
102
}
 70
     0
280
     1
281
     0
  0
BLOCK_RECORD
  5
305
330
1
100
AcDbSymbolTableRecord
100
AcDbBlockTableRecord
  2
*X15
340
0
102
{BLKREFS
331
30E
102
}
 70
     0
280
     1
281
     0
  0
BLOCK_RECORD
  5
30F
330
1
100
AcDbSymbolTableRecord
100
AcDbBlockTableRecord
  2
*D16
340
0
 70
     0
280
     1
281
     0
  0
BLOCK_RECORD
  5
31A
330
1
100
AcDbSymbolTableRecord
100
AcDbBlockTableRecord
  2
*D17
340
0
 70
     0
280
     1
281
     0
  0
BLOCK_RECORD
  5
325
330
1
100
AcDbSymbolTableRecord
100
AcDbBlockTableRecord
  2
*D18
340
0
 70
     0
280
     1
281
     0
  0
BLOCK_RECORD
  5
330
330
1
100
AcDbSymbolTableRecord
100
AcDbBlockTableRecord
  2
_D_16_nNn018
340
0
102
{BLKREFS
331
338
102
}
 70
     0
280
     1
281
     0
  0
BLOCK_RECORD
  5
339
330
1
100
AcDbSymbolTableRecord
100
AcDbBlockTableRecord
  2
A3-NABER_nNn019
340
0
102
{BLKREFS
331
3A8
102
}
 70
     0
280
     1
281
     0
  0
BLOCK_RECORD
  5
33C
330
1
100
AcDbSymbolTableRecord
100
AcDbBlockTableRecord
  2
A3-NABER_001_nNn020
340
0
102
{BLKREFS
331
357
102
}
 70
     0
280
     1
281
     0
  0
BLOCK_RECORD
  5
33F
330
1
100
AcDbSymbolTableRecord
100
AcDbBlockTableRecord
  2
A3-NABER_002_nNn021
340
0
102
{BLKREFS
331
356
102
}
 70
     0
280
     1
281
     0
  0
BLOCK_RECORD
  5
342
330
1
100
AcDbSymbolTableRecord
100
AcDbBlockTableRecord
  2
A3-NABER_nNn022
340
0
102
{BLKREFS
331
355
102
}
 70
     0
280
     1
281
     0
  0
BLOCK_RECORD
  5
345
330
1
100
AcDbSymbolTableRecord
100
AcDbBlockTableRecord
  2
A3-Textliste_nNn023
340
0
102
{BLKREFS
331
350
102
}
 70
     0
280
     1
281
     0
  0
BLOCK_RECORD
  5
348
330
1
100
AcDbSymbolTableRecord
100
AcDbBlockTableRecord
  2
Zeichnungsrahmen_nNn024
340
0
102
{BLKREFS
331
34F
102
}
 70
     0
280
     1
281
     0
  0
BLOCK_RECORD
  5
35E
330
1
100
AcDbSymbolTableRecord
100
AcDbBlockTableRecord
  2
Schriftfeld_nNn025
340
0
102
{BLKREFS
331
38E
102
}
 70
     0
280
     1
281
     0
  0
BLOCK_RECORD
  5
38F
330
1
100
AcDbSymbolTableRecord
100
AcDbBlockTableRecord
  2
Beschriftung_nNn026
340
0
102
{BLKREFS
331
39A
102
}
 70
     0
280
     1
281
     0
  0
ENDTAB
  0
ENDSEC
  0
SECTION
  2
BLOCKS
  0
BLOCK
  5
20
330
1F
100
AcDbEntity
  8
0
100
AcDbBlockBegin
  2
*Model_Space
 70
     0
 10
0.0
 20
0.0
 30
0.0
  3
*Model_Space
  1

  0
ENDBLK
  5
21
330
1F
100
AcDbEntity
  8
0
100
AcDbBlockEnd
  0
BLOCK
  5
1C
330
1B
100
AcDbEntity
 67
     1
  8
0
100
AcDbBlockBegin
  2
*Paper_Space
 70
     0
 10
0.0
 20
0.0
 30
0.0
  3
*Paper_Space
  1

  0
ENDBLK
  5
1D
330
1B
100
AcDbEntity
 67
     1
  8
0
100
AcDbBlockEnd
  0
BLOCK
  5
24
330
23
100
AcDbEntity
  8
0
100
AcDbBlockBegin
  2
*Paper_Space0
 70
     0
 10
0.0
 20
0.0
 30
0.0
  3
*Paper_Space0
  1

  0
ENDBLK
  5
25
330
23
100
AcDbEntity
  8
0
100
AcDbBlockEnd
  0
BLOCK
  5
7A
330
79
100
AcDbEntity
  8
0
100
AcDbBlockBegin
  2
*D1
 70
     1
 10
0.0
 20
0.0
 30
0.0
  3
*D1
  1

  0
HATCH
  5
7C
330
79
100
AcDbEntity
  8
SLD-0
  6
AUSGEZOGEN
 62
     7
370
    18
100
AcDbHatch
 10
0.0
 20
0.0
 30
0.0
210
0.0
220
0.0
230
1.0
  2
SOLID
 70
     1
 71
     0
 91
        1
 92
        2
 72
     0
 73
     1
 93
        3
 10
1549.6080132074
 20
1287.1023218963
 10
1546.87297042512
 20
1273.427107984898
 10
1552.34305598968
 20
1273.427107984898
 97
        0
 75
     0
 76
     1
 98
        0
  0
HATCH
  5
7D
330
79
100
AcDbEntity
  8
SLD-0
  6
AUSGEZOGEN
 62
     7
370
    18
100
AcDbHatch
 10
0.0
 20
0.0
 30
0.0
210
0.0
220
0.0
230
1.0
  2
SOLID
 70
     1
 71
     0
 91
        1
 92
        2
 72
     0
 73
     1
 93
        3
 10
1549.6080132074
 20
1167.1023218963
 10
1552.34305598968
 20
1180.777535807702
 10
1546.87297042512
 20
1180.777535807702
 97
        0
 75
     0
 76
     1
 98
        0
  0
LINE
  5
7E
330
79
100
AcDbEntity
  8
SLD-0
  6
AUSGEZOGEN
 62
     7
370
    18
100
AcDbLine
 10
1549.6080132074
 20
1180.777535807702
 30
0.0
 11
1549.6080132074
 21
1273.427107984898
 31
0.0
  0
LINE
  5
7F
330
79
100
AcDbEntity
  8
SLD-0
  6
AUSGEZOGEN
 62
     7
370
    18
100
AcDbLine
 10
1678.95620696
 20
1167.1023218963
 30
0.0
 11
1537.202640587771
 21
1167.1023218963
 31
0.0
  0
LINE
  5
80
330
79
100
AcDbEntity
  8
SLD-0
  6
AUSGEZOGEN
 62
     7
370
    18
100
AcDbLine
 10
1595.15620696
 20
1287.1023218963
 30
0.0
 11
1537.202640587771
 21
1287.1023218963
 31
0.0
  0
TEXT
  5
81
330
79
100
AcDbEntity
  8
SLD-0
  6
AUSGEZOGEN
 62
     7
370
    18
100
AcDbText
 10
1544.845512191845
 20
1209.231828069205
 30
0.0
 40
21.709402084351
  1
120
 50
90.0
 41
0.820056197844
  7
Arial
 72
     5
 11
1544.845512191845
 21
1250.677048482413
 31
0.0
100
AcDbText
  0
ENDBLK
  5
7B
330
79
100
AcDbEntity
  8
0
100
AcDbBlockEnd
  0
BLOCK
  5
84
330
83
100
AcDbEntity
  8
0
100
AcDbBlockBegin
  2
*D2
 70
     1
 10
0.0
 20
0.0
 30
0.0
  3
*D2
  1

  0
HATCH
  5
86
330
83
100
AcDbEntity
  8
SLD-0
  6
AUSGEZOGEN
 62
     7
370
    18
100
AcDbHatch
 10
0.0
 20
0.0
 30
0.0
210
0.0
220
0.0
230
1.0
  2
SOLID
 70
     1
 71
     0
 91
        1
 92
        2
 72
     0
 73
     1
 93
        3
 10
1607.15620696
 20
775.6878489986
 10
1593.480993048598
 20
778.4228917808804
 10
1593.480993048598
 20
772.9528062163196
 97
        0
 75
     0
 76
     1
 98
        0
  0
HATCH
  5
87
330
83
100
AcDbEntity
  8
SLD-0
  6
AUSGEZOGEN
 62
     7
370
    18
100
AcDbHatch
 10
0.0
 20
0.0
 30
0.0
210
0.0
220
0.0
230
1.0
  2
SOLID
 70
     1
 71
     0
 91
        1
 92
        2
 72
     0
 73
     1
 93
        3
 10
1267.15620696
 20
775.6878489986
 10
1280.831420871402
 20
772.9528062163196
 10
1280.831420871402
 20
778.4228917808804
 97
        0
 75
     0
 76
     1
 98
        0
  0
LINE
  5
88
330
83
100
AcDbEntity
  8
SLD-0
  6
AUSGEZOGEN
 62
     7
370
    18
100
AcDbLine
 10
1280.831420871402
 20
775.6878489986
 30
0.0
 11
1593.480993048598
 21
775.6878489986
 31
0.0
  0
LINE
  5
89
330
83
100
AcDbEntity
  8
SLD-0
  6
AUSGEZOGEN
 62
     7
370
    18
100
AcDbLine
 10
1267.15620696
 20
899.1023218963
 30
0.0
 11
1267.15620696
 21
763.282476378971
 31
0.0
  0
LINE
  5
8A
330
83
100
AcDbEntity
  8
SLD-0
  6
AUSGEZOGEN
 62
     7
370
    18
100
AcDbLine
 10
1607.15620696
 20
899.1023218963
 30
0.0
 11
1607.15620696
 21
763.282476378971
 31
0.0
  0
TEXT
  5
8B
330
83
100
AcDbEntity
  8
SLD-0
  6
AUSGEZOGEN
 62
     7
370
    18
100
AcDbText
 10
1416.561386090808
 20
776.613072010358
 30
0.0
 40
21.709402084351
  1
340
 41
0.820056197844
  7
Arial
 72
     5
 11
1458.006606504016
 21
776.613072010358
 31
0.0
100
AcDbText
  0
ENDBLK
  5
85
330
83
100
AcDbEntity
  8
0
100
AcDbBlockEnd
  0
BLOCK
  5
8E
330
8D
100
AcDbEntity
  8
0
100
AcDbBlockBegin
  2
*D3
 70
     1
 10
0.0
 20
0.0
 30
0.0
  3
*D3
  1

  0
HATCH
  5
90
330
8D
100
AcDbEntity
  8
SLD-0
  6
AUSGEZOGEN
 62
     7
370
    18
100
AcDbHatch
 10
0.0
 20
0.0
 30
0.0
210
0.0
220
0.0
230
1.0
  2
SOLID
 70
     1
 71
     0
 91
        1
 92
        2
 72
     0
 73
     1
 93
        3
 10
1632.15620696
 20
702.1023218963
 10
1618.480993048598
 20
704.8373646785805
 10
1618.480993048598
 20
699.3672791140197
 97
        0
 75
     0
 76
     1
 98
        0
  0
HATCH
  5
91
330
8D
100
AcDbEntity
  8
SLD-0
  6
AUSGEZOGEN
 62
     7
370
    18
100
AcDbHatch
 10
0.0
 20
0.0
 30
0.0
210
0.0
220
0.0
230
1.0
  2
SOLID
 70
     1
 71
     0
 91
        1
 92
        2
 72
     0
 73
     1
 93
        3
 10
1242.15620696
 20
702.1023218963
 10
1255.831420871402
 20
699.3672791140197
 10
1255.831420871402
 20
704.8373646785805
 97
        0
 75
     0
 76
     1
 98
        0
  0
LINE
  5
92
330
8D
100
AcDbEntity
  8
SLD-0
  6
AUSGEZOGEN
 62
     7
370
    18
100
AcDbLine
 10
1255.831420871402
 20
702.1023218963
 30
0.0
 11
1618.480993048598
 21
702.1023218963
 31
0.0
  0
LINE
  5
93
330
8D
100
AcDbEntity
  8
SLD-0
  6
AUSGEZOGEN
 62
     7
370
    18
100
AcDbLine
 10
1242.15620696
 20
872.1023218963
 30
0.0
 11
1242.15620696
 21
689.696949276671
 31
0.0
  0
LINE
  5
94
330
8D
100
AcDbEntity
  8
SLD-0
  6
AUSGEZOGEN
 62
     7
370
    18
100
AcDbLine
 10
1632.15620696
 20
872.1023218963
 30
0.0
 11
1632.15620696
 21
689.696949276671
 31
0.0
  0
TEXT
  5
95
330
8D
100
AcDbEntity
  8
SLD-0
  6
AUSGEZOGEN
 62
     7
370
    18
100
AcDbText
 10
1416.188626998458
 20
707.67416082509
 30
0.0
 40
21.709402084351
  1
390
 41
0.820056197844
  7
Arial
 72
     5
 11
1457.633847411666
 21
707.67416082509
 31
0.0
100
AcDbText
  0
ENDBLK
  5
8F
330
8D
100
AcDbEntity
  8
0
100
AcDbBlockEnd
  0
BLOCK
  5
98
330
97
100
AcDbEntity
  8
0
100
AcDbBlockBegin
  2
_D_3_nNn03
 70
     0
 10
0.0
 20
0.0
 30
0.0
  3
_D_3_nNn03
  1

  0
HATCH
  5
9A
330
97
100
AcDbEntity
  8
SLD-0
  6
AUSGEZOGEN
 62
     7
370
    18
100
AcDbHatch
 10
0.0
 20
0.0
 30
0.0
210
0.0
220
0.0
230
1.0
  2
SOLID
 70
     1
 71
     0
 91
        1
 92
        2
 72
     0
 73
     1
 93
        3
 10
1269.808406202
 20
891.5777872934
 10
1286.9556855076
 20
902.1712198069
 10
1283.8204627564
 20
906.0661367894
 97
        0
 75
     0
 76
     1
 98
        0
  0
LINE
  5
9B
330
97
100
AcDbEntity
  8
SLD-0
  6
AUSGEZOGEN
 62
     7
370
    18
100
AcDbLine
 10
1269.808406202
 20
891.5777872934
 30
0.0
 11
1339.1439413021
 21
947.3895922914
 31
0.0
  0
LINE
  5
9C
330
97
100
AcDbEntity
  8
SLD-0
  6
AUSGEZOGEN
 62
     7
370
    18
100
AcDbLine
 10
1339.1439413021
 20
947.3895922914
 30
0.0
 11
1427.6323696489
 21
947.3895922914
 31
0.0
  0
TEXT
  5
9D
330
97
100
AcDbEntity
  8
SLD-0
  6
AUSGEZOGEN
 62
     7
370
    18
100
AcDbText
 10
1355.0189413021
 20
956.5674883726
 30
0.0
 40
31.75
  1
R12
 41
0.68359375
  7
Arial
 72
     5
 11
1410.5814413021
 21
956.5674883726
 31
0.0
100
AcDbText
  0
ENDBLK
  5
99
330
97
100
AcDbEntity
  8
0
100
AcDbBlockEnd
  0
BLOCK
  5
A0
330
9F
100
AcDbEntity
  8
0
100
AcDbBlockBegin
  2
*D5
 70
     1
 10
0.0
 20
0.0
 30
0.0
  3
*D5
  1

  0
HATCH
  5
A2
330
9F
100
AcDbEntity
  8
SLD-0
  6
AUSGEZOGEN
 62
     7
370
    18
100
AcDbHatch
 10
0.0
 20
0.0
 30
0.0
210
0.0
220
0.0
230
1.0
  2
SOLID
 70
     1
 71
     0
 91
        1
 92
        2
 72
     0
 73
     1
 93
        3
 10
1105.1844000709
 20
1287.1023218963
 10
1102.44935728862
 20
1273.427107984898
 10
1107.91944285318
 20
1273.427107984898
 97
        0
 75
     0
 76
     1
 98
        0
  0
HATCH
  5
A3
330
9F
100
AcDbEntity
  8
SLD-0
  6
AUSGEZOGEN
 62
     7
370
    18
100
AcDbHatch
 10
0.0
 20
0.0
 30
0.0
210
0.0
220
0.0
230
1.0
  2
SOLID
 70
     1
 71
     0
 91
        1
 92
        2
 72
     0
 73
     1
 93
        3
 10
1105.1844000709
 20
887.1023218963
 10
1107.91944285318
 20
900.777535807702
 10
1102.44935728862
 20
900.777535807702
 97
        0
 75
     0
 76
     1
 98
        0
  0
LINE
  5
A4
330
9F
100
AcDbEntity
  8
SLD-0
  6
AUSGEZOGEN
 62
     7
370
    18
100
AcDbLine
 10
1105.1844000709
 20
900.777535807702
 30
0.0
 11
1105.1844000709
 21
1273.427107984898
 31
0.0
  0
LINE
  5
A5
330
9F
100
AcDbEntity
  8
SLD-0
  6
AUSGEZOGEN
 62
     7
370
    18
100
AcDbLine
 10
1279.15620696
 20
887.1023218963
 30
0.0
 11
1092.779027451271
 21
887.1023218963
 31
0.0
  0
LINE
  5
A6
330
9F
100
AcDbEntity
  8
SLD-0
  6
AUSGEZOGEN
 62
     7
370
    18
100
AcDbLine
 10
1279.15620696
 20
1287.1023218963
 30
0.0
 11
1092.779027451271
 21
1287.1023218963
 31
0.0
  0
TEXT
  5
A7
330
9F
100
AcDbEntity
  8
SLD-0
  6
AUSGEZOGEN
 62
     7
370
    18
100
AcDbText
 10
1101.312313296678
 20
1067.020990978336
 30
0.0
 40
21.709402084351
  1
400
 50
90.0
 41
0.820056197844
  7
Arial
 72
     5
 11
1101.312313296678
 21
1108.466211391544
 31
0.0
100
AcDbText
  0
ENDBLK
  5
A1
330
9F
100
AcDbEntity
  8
0
100
AcDbBlockEnd
  0
BLOCK
  5
AA
330
A9
100
AcDbEntity
  8
0
100
AcDbBlockBegin
  2
*D6
 70
     1
 10
0.0
 20
0.0
 30
0.0
  3
*D6
  1

  0
HATCH
  5
AC
330
A9
100
AcDbEntity
  8
SLD-0
  6
AUSGEZOGEN
 62
     7
370
    18
100
AcDbHatch
 10
0.0
 20
0.0
 30
0.0
210
0.0
220
0.0
230
1.0
  2
SOLID
 70
     1
 71
     0
 91
        1
 92
        2
 72
     0
 73
     1
 93
        3
 10
1105.1844000709
 20
1372.1023218963
 10
1102.44935728862
 20
1358.427107984898
 10
1107.91944285318
 20
1358.427107984898
 97
        0
 75
     0
 76
     1
 98
        0
  0
HATCH
  5
AD
330
A9
100
AcDbEntity
  8
SLD-0
  6
AUSGEZOGEN
 62
     7
370
    18
100
AcDbHatch
 10
0.0
 20
0.0
 30
0.0
210
0.0
220
0.0
230
1.0
  2
SOLID
 70
     1
 71
     0
 91
        1
 92
        2
 72
     0
 73
     1
 93
        3
 10
1105.1844000709
 20
1287.1023218963
 10
1107.91944285318
 20
1300.777535807702
 10
1102.44935728862
 20
1300.777535807702
 97
        0
 75
     0
 76
     1
 98
        0
  0
LINE
  5
AE
330
A9
100
AcDbEntity
  8
SLD-0
  6
AUSGEZOGEN
 62
     7
370
    18
100
AcDbLine
 10
1105.1844000709
 20
1300.777535807702
 30
0.0
 11
1105.1844000709
 21
1358.427107984898
 31
0.0
  0
LINE
  5
AF
330
A9
100
AcDbEntity
  8
SLD-0
  6
AUSGEZOGEN
 62
     7
370
    18
100
AcDbLine
 10
1279.15620696
 20
1287.1023218963
 30
0.0
 11
1092.779027451271
 21
1287.1023218963
 31
0.0
  0
LINE
  5
B0
330
A9
100
AcDbEntity
  8
SLD-0
  6
AUSGEZOGEN
 62
     7
370
    18
100
AcDbLine
 10
1252.15620696
 20
1372.1023218963
 30
0.0
 11
1092.779027451271
 21
1372.1023218963
 31
0.0
  0
TEXT
  5
B1
330
A9
100
AcDbEntity
  8
SLD-0
  6
AUSGEZOGEN
 62
     7
370
    18
100
AcDbText
 10
1099.827144341771
 20
1316.184034416669
 30
0.0
 40
21.709402084351
  1
85
 50
90.0
 41
0.820056197844
  7
Arial
 72
     5
 11
1099.827144341771
 21
1343.814181358808
 31
0.0
100
AcDbText
  0
ENDBLK
  5
AB
330
A9
100
AcDbEntity
  8
0
100
AcDbBlockEnd
  0
BLOCK
  5
B4
330
B3
100
AcDbEntity
  8
0
100
AcDbBlockBegin
  2
*D7
 70
     1
 10
0.0
 20
0.0
 30
0.0
  3
*D7
  1

  0
HATCH
  5
B6
330
B3
100
AcDbEntity
  8
SLD-0
  6
AUSGEZOGEN
 62
     7
370
    18
100
AcDbHatch
 10
0.0
 20
0.0
 30
0.0
210
0.0
220
0.0
230
1.0
  2
SOLID
 70
     1
 71
     0
 91
        1
 92
        2
 72
     0
 73
     1
 93
        3
 10
1022.15620696
 20
862.1023218963
 10
1024.89124974228
 20
875.777535807702
 10
1019.42116417772
 20
875.777535807702
 97
        0
 75
     0
 76
     1
 98
        0
  0
HATCH
  5
B7
330
B3
100
AcDbEntity
  8
SLD-0
  6
AUSGEZOGEN
 62
     7
370
    18
100
AcDbHatch
 10
0.0
 20
0.0
 30
0.0
210
0.0
220
0.0
230
1.0
  2
SOLID
 70
     1
 71
     0
 91
        1
 92
        2
 72
     0
 73
     1
 93
        3
 10
1022.15620696
 20
1372.1023218963
 10
1019.42116417772
 20
1358.427107984898
 10
1024.89124974228
 20
1358.427107984898
 97
        0
 75
     0
 76
     1
 98
        0
  0
LINE
  5
B8
330
B3
100
AcDbEntity
  8
SLD-0
  6
AUSGEZOGEN
 62
     7
370
    18
100
AcDbLine
 10
1022.15620696
 20
1358.427107984898
 30
0.0
 11
1022.15620696
 21
875.777535807702
 31
0.0
  0
LINE
  5
B9
330
B3
100
AcDbEntity
  8
SLD-0
  6
AUSGEZOGEN
 62
     7
370
    18
100
AcDbLine
 10
1252.15620696
 20
1372.1023218963
 30
0.0
 11
1009.750834340371
 21
1372.1023218963
 31
0.0
  0
LINE
  5
BA
330
B3
100
AcDbEntity
  8
SLD-0
  6
AUSGEZOGEN
 62
     7
370
    18
100
AcDbLine
 10
1252.15620696
 20
862.1023218963
 30
0.0
 11
1009.750834340371
 21
862.1023218963
 31
0.0
  0
TEXT
  5
BB
330
B3
100
AcDbEntity
  8
SLD-0
  6
AUSGEZOGEN
 62
     7
370
    18
100
AcDbText
 10
1018.270608291161
 20
1098.950140854484
 30
0.0
 40
21.709402084351
  1
510
 50
90.0
 41
0.820056197844
  7
Arial
 72
     5
 11
1018.270608291161
 21
1140.395361267692
 31
0.0
100
AcDbText
  0
ENDBLK
  5
B5
330
B3
100
AcDbEntity
  8
0
100
AcDbBlockEnd
  0
BLOCK
  5
BE
330
BD
100
AcDbEntity
  8
0
100
AcDbBlockBegin
  2
*D8
 70
     1
 10
0.0
 20
0.0
 30
0.0
  3
*D8
  1

  0
HATCH
  5
C0
330
BD
100
AcDbEntity
  8
SLD-0
  6
AUSGEZOGEN
 62
     7
370
    18
100
AcDbHatch
 10
0.0
 20
0.0
 30
0.0
210
0.0
220
0.0
230
1.0
  2
SOLID
 70
     1
 71
     0
 91
        1
 92
        2
 72
     0
 73
     1
 93
        3
 10
1105.1844000709
 20
862.1023218963
 10
1107.91944285318
 20
875.777535807702
 10
1102.44935728862
 20
875.777535807702
 97
        0
 75
     0
 76
     1
 98
        0
  0
HATCH
  5
C1
330
BD
100
AcDbEntity
  8
SLD-0
  6
AUSGEZOGEN
 62
     7
370
    18
100
AcDbHatch
 10
0.0
 20
0.0
 30
0.0
210
0.0
220
0.0
230
1.0
  2
SOLID
 70
     1
 71
     0
 91
        1
 92
        2
 72
     0
 73
     1
 93
        3
 10
1105.1844000709
 20
887.1023218963
 10
1102.44935728862
 20
873.4271079848982
 10
1107.91944285318
 20
873.4271079848982
 97
        0
 75
     0
 76
     1
 98
        0
  0
LINE
  5
C2
330
BD
100
AcDbEntity
  8
SLD-0
  6
AUSGEZOGEN
 62
     7
370
    18
100
AcDbLine
 10
1105.1844000709
 20
873.427107984898
 30
0.0
 11
1105.1844000709
 21
875.777535807702
 31
0.0
  0
LINE
  5
C3
330
BD
100
AcDbEntity
  8
SLD-0
  6
AUSGEZOGEN
 62
     7
370
    18
100
AcDbLine
 10
1105.1844000709
 20
875.777535807702
 30
0.0
 11
1105.1844000709
 21
888.956962384098
 31
0.0
  0
LINE
  5
C4
330
BD
100
AcDbEntity
  8
SLD-0
  6
AUSGEZOGEN
 62
     7
370
    18
100
AcDbLine
 10
1279.15620696
 20
887.1023218963
 30
0.0
 11
1092.779027451271
 21
887.1023218963
 31
0.0
  0
LINE
  5
C5
330
BD
100
AcDbEntity
  8
SLD-0
  6
AUSGEZOGEN
 62
     7
370
    18
100
AcDbLine
 10
1252.15620696
 20
862.1023218963
 30
0.0
 11
1092.779027451271
 21
862.1023218963
 31
0.0
  0
TEXT
  5
C6
330
BD
100
AcDbEntity
  8
SLD-0
  6
AUSGEZOGEN
 62
     7
370
    18
100
AcDbText
 10
1102.546184432722
 20
861.32681544196
 30
0.0
 40
21.709402084351
  1
25
 50
90.0
 41
0.820056197844
  7
Arial
 72
     5
 11
1102.546184432722
 21
888.956962384098
 31
0.0
100
AcDbText
  0
ENDBLK
  5
BF
330
BD
100
AcDbEntity
  8
0
100
AcDbBlockEnd
  0
BLOCK
  5
C9
330
C8
100
AcDbEntity
  8
0
100
AcDbBlockBegin
  2
*D9
 70
     1
 10
0.0
 20
0.0
 30
0.0
  3
*D9
  1

  0
HATCH
  5
CB
330
C8
100
AcDbEntity
  8
SLD-0
  6
AUSGEZOGEN
 62
     7
370
    18
100
AcDbHatch
 10
0.0
 20
0.0
 30
0.0
210
0.0
220
0.0
230
1.0
  2
SOLID
 70
     1
 71
     0
 91
        1
 92
        2
 72
     0
 73
     1
 93
        3
 10
1242.15620696
 20
1458.2744156297
 10
1255.831420871402
 20
1455.53937284742
 10
1255.831420871402
 20
1461.00945841198
 97
        0
 75
     0
 76
     1
 98
        0
  0
HATCH
  5
CC
330
C8
100
AcDbEntity
  8
SLD-0
  6
AUSGEZOGEN
 62
     7
370
    18
100
AcDbHatch
 10
0.0
 20
0.0
 30
0.0
210
0.0
220
0.0
230
1.0
  2
SOLID
 70
     1
 71
     0
 91
        1
 92
        2
 72
     0
 73
     1
 93
        3
 10
1437.15620696
 20
1458.2744156297
 10
1423.480993048598
 20
1461.00945841198
 10
1423.480993048598
 20
1455.53937284742
 97
        0
 75
     0
 76
     1
 98
        0
  0
LINE
  5
CD
330
C8
100
AcDbEntity
  8
SLD-0
  6
AUSGEZOGEN
 62
     7
370
    18
100
AcDbLine
 10
1423.480993048598
 20
1458.2744156297
 30
0.0
 11
1255.831420871402
 21
1458.2744156297
 31
0.0
  0
LINE
  5
CE
330
C8
100
AcDbEntity
  8
SLD-0
  6
AUSGEZOGEN
 62
     7
370
    18
100
AcDbLine
 10
1437.15620696
 20
1332.1023218963
 30
0.0
 11
1437.15620696
 21
1470.679788249329
 31
0.0
  0
LINE
  5
CF
330
C8
100
AcDbEntity
  8
SLD-0
  6
AUSGEZOGEN
 62
     7
370
    18
100
AcDbLine
 10
1242.15620696
 20
1362.1023218963
 30
0.0
 11
1242.15620696
 21
1470.679788249329
 31
0.0
  0
TEXT
  5
D0
330
C8
100
AcDbEntity
  8
SLD-0
  6
AUSGEZOGEN
 62
     7
370
    18
100
AcDbText
 10
1318.971823717761
 20
1464.308242063833
 30
0.0
 40
21.709402084351
  1
195
 41
0.820056197844
  7
Arial
 72
     5
 11
1360.417044130969
 21
1464.308242063833
 31
0.0
100
AcDbText
  0
ENDBLK
  5
CA
330
C8
100
AcDbEntity
  8
0
100
AcDbBlockEnd
  0
BLOCK
  5
D3
330
D2
100
AcDbEntity
  8
0
100
AcDbBlockBegin
  2
_D_9_nNn09
 70
     0
 10
0.0
 20
0.0
 30
0.0
  3
_D_9_nNn09
  1

  0
HATCH
  5
D5
330
D2
100
AcDbEntity
  8
SLD-0
  6
AUSGEZOGEN
 62
     7
370
    18
100
AcDbHatch
 10
0.0
 20
0.0
 30
0.0
210
0.0
220
0.0
230
1.0
  2
SOLID
 70
     1
 71
     0
 91
        1
 92
        2
 72
     0
 73
     1
 93
        3
 10
1244.6919271609
 20
1368.7569839524
 10
1231.4270330768
 20
1383.9323780143
 10
1228.0997020487
 20
1380.2002381148
 97
        0
 75
     0
 76
     1
 98
        0
  0
LINE
  5
D6
330
D2
100
AcDbEntity
  8
SLD-0
  6
AUSGEZOGEN
 62
     7
370
    18
100
AcDbLine
 10
1244.6919271609
 20
1368.7569839524
 30
0.0
 11
1144.2836492797
 21
1458.2744156297
 31
0.0
  0
LINE
  5
D7
330
D2
100
AcDbEntity
  8
SLD-0
  6
AUSGEZOGEN
 62
     7
370
    18
100
AcDbLine
 10
1252.15620696
 20
1362.1023218963
 30
0.0
 11
1244.6919271609
 21
1368.7569839524
 31
0.0
  0
LINE
  5
D8
330
D2
100
AcDbEntity
  8
SLD-0
  6
AUSGEZOGEN
 62
     7
370
    18
100
AcDbLine
 10
1144.2836492797
 20
1458.2744156297
 30
0.0
 11
1055.7952209329
 21
1458.2744156297
 31
0.0
  0
TEXT
  5
D9
330
D2
100
AcDbEntity
  8
SLD-0
  6
AUSGEZOGEN
 62
     7
370
    18
100
AcDbText
 10
1055.7952209329
 20
1464.44013222362
 30
0.0
 40
21.709401709402
  1
R10
 41
0.634765625
  7
Arial
 72
     5
 11
1091.072998710678
 21
1464.44013222362
 31
0.0
100
AcDbText
  0
ENDBLK
  5
D4
330
D2
100
AcDbEntity
  8
0
100
AcDbBlockEnd
  0
BLOCK
  5
DC
330
DB
100
AcDbEntity
  8
0
100
AcDbBlockBegin
  2
_D_10_nNn010
 70
     0
 10
0.0
 20
0.0
 30
0.0
  3
_D_10_nNn010
  1

  0
HATCH
  5
DE
330
DB
100
AcDbEntity
  8
SLD-0
  6
AUSGEZOGEN
 62
     7
370
    18
100
AcDbHatch
 10
0.0
 20
0.0
 30
0.0
210
0.0
220
0.0
230
1.0
  2
SOLID
 70
     1
 71
     0
 91
        1
 92
        2
 72
     0
 73
     1
 93
        3
 10
1430.7764564546
 20
1315.8066542668
 10
1421.1573605013
 20
1298.0944270483
 10
1425.8132655383
 20
1296.2716411896
 97
        0
 75
     0
 76
     1
 98
        0
  0
HATCH
  5
DF
330
DB
100
AcDbEntity
  8
SLD-0
  6
AUSGEZOGEN
 62
     7
370
    18
100
AcDbHatch
 10
0.0
 20
0.0
 30
0.0
210
0.0
220
0.0
230
1.0
  2
SOLID
 70
     1
 71
     0
 91
        1
 92
        2
 72
     0
 73
     1
 93
        3
 10
1443.5359574655
 20
1348.3979895257
 10
1453.1550534187
 20
1366.1102167442
 10
1448.4991483818
 20
1367.9330026029
 97
        0
 75
     0
 76
     1
 98
        0
  0
LINE
  5
E0
330
DB
100
AcDbEntity
  8
SLD-0
  6
AUSGEZOGEN
 62
     7
370
    18
100
AcDbLine
 10
1430.7764564546
 20
1315.8066542668
 30
0.0
 11
1421.6625271611
 21
1292.527129082
 31
0.0
  0
LINE
  5
E1
330
DB
100
AcDbEntity
  8
SLD-0
  6
AUSGEZOGEN
 62
     7
370
    18
100
AcDbLine
 10
1443.5359574655
 20
1348.3979895257
 30
0.0
 11
1486.3108593322
 21
1457.6570558648
 31
0.0
  0
LINE
  5
E2
330
DB
100
AcDbEntity
  8
SLD-0
  6
AUSGEZOGEN
 62
     7
370
    18
100
AcDbLine
 10
1430.7764564546
 20
1315.8066542668
 30
0.0
 11
1443.5359574655
 21
1348.3979895257
 31
0.0
  0
LINE
  5
E3
330
DB
100
AcDbEntity
  8
SLD-0
  6
AUSGEZOGEN
 62
     7
370
    18
100
AcDbLine
 10
1486.3108593322
 20
1457.6570558648
 30
0.0
 11
1597.0301670827
 21
1457.6570558648
 31
0.0
  0
TEXT
  5
E4
330
DB
100
AcDbEntity
  8
SLD-0
  6
AUSGEZOGEN
 62
     7
370
    18
100
AcDbText
 10
1502.1858593322
 20
1466.8349566026
 30
0.0
 40
31.75
  1
%%c
 41
0.460405156538
  7
Arial
 72
     5
 11
1518.0608593322
 21
1466.8349566026
 31
0.0
100
AcDbText
  0
TEXT
  5
E5
330
DB
100
AcDbEntity
  8
SLD-0
  6
AUSGEZOGEN
 62
     7
370
    18
100
AcDbText
 10
1550.1107225067
 20
1463.82277711542
 30
0.0
 40
21.709401709402
  1
35
 41
0.805412371134
  7
Arial
 72
     5
 11
1577.247474643452
 21
1463.82277711542
 31
0.0
100
AcDbText
  0
ENDBLK
  5
DD
330
DB
100
AcDbEntity
  8
0
100
AcDbBlockEnd
  0
BLOCK
  5
E8
330
E7
100
AcDbEntity
  8
0
100
AcDbBlockBegin
  2
*D12
 70
     1
 10
0.0
 20
0.0
 30
0.0
  3
*D12
  1

  0
HATCH
  5
EA
330
E7
100
AcDbEntity
  8
SLD-0
  6
AUSGEZOGEN
 62
     7
370
    18
100
AcDbHatch
 10
0.0
 20
0.0
 30
0.0
210
0.0
220
0.0
230
1.0
  2
SOLID
 70
     1
 71
     0
 91
        1
 92
        2
 72
     0
 73
     1
 93
        3
 10
1549.6080132074
 20
1372.1023218963
 10
1546.87297042512
 20
1358.427107984898
 10
1552.34305598968
 20
1358.427107984898
 97
        0
 75
     0
 76
     1
 98
        0
  0
HATCH
  5
EB
330
E7
100
AcDbEntity
  8
SLD-0
  6
AUSGEZOGEN
 62
     7
370
    18
100
AcDbHatch
 10
0.0
 20
0.0
 30
0.0
210
0.0
220
0.0
230
1.0
  2
SOLID
 70
     1
 71
     0
 91
        1
 92
        2
 72
     0
 73
     1
 93
        3
 10
1549.6080132074
 20
1332.1023218963
 10
1552.34305598968
 20
1345.777535807702
 10
1546.87297042512
 20
1345.777535807702
 97
        0
 75
     0
 76
     1
 98
        0
  0
LINE
  5
EC
330
E7
100
AcDbEntity
  8
SLD-0
  6
AUSGEZOGEN
 62
     7
370
    18
100
AcDbLine
 10
1549.6080132074
 20
1345.777535807702
 30
0.0
 11
1549.6080132074
 21
1358.427107984898
 31
0.0
  0
LINE
  5
ED
330
E7
100
AcDbEntity
  8
SLD-0
  6
AUSGEZOGEN
 62
     7
370
    18
100
AcDbLine
 10
1549.6080132074
 20
1358.427107984898
 30
0.0
 11
1549.6080132074
 21
1367.228891267983
 31
0.0
  0
LINE
  5
EE
330
E7
100
AcDbEntity
  8
SLD-0
  6
AUSGEZOGEN
 62
     7
370
    18
100
AcDbLine
 10
1437.15620696
 20
1332.1023218963
 30
0.0
 11
1562.013385827029
 21
1332.1023218963
 31
0.0
  0
LINE
  5
EF
330
E7
100
AcDbEntity
  8
SLD-0
  6
AUSGEZOGEN
 62
     7
370
    18
100
AcDbLine
 10
1622.15620696
 20
1372.1023218963
 30
0.0
 11
1537.202640587771
 21
1372.1023218963
 31
0.0
  0
TEXT
  5
F0
330
E7
100
AcDbEntity
  8
SLD-0
  6
AUSGEZOGEN
 62
     7
370
    18
100
AcDbText
 10
1544.845512191845
 20
1339.598744325845
 30
0.0
 40
21.709402084351
  1
40
 50
90.0
 41
0.820056197844
  7
Arial
 72
     5
 11
1544.845512191845
 21
1367.228891267983
 31
0.0
100
AcDbText
  0
ENDBLK
  5
E9
330
E7
100
AcDbEntity
  8
0
100
AcDbBlockEnd
  0
BLOCK
  5
192
330
191
100
AcDbEntity
  8
0
100
AcDbBlockBegin
  2
*D13
 70
     1
 10
0.0
 20
0.0
 30
0.0
  3
*D13
  1

  0
HATCH
  5
194
330
191
100
AcDbEntity
  8
SLD-0
  6
AUSGEZOGEN
 62
     7
370
    18
100
AcDbHatch
 10
0.0
 20
0.0
 30
0.0
210
0.0
220
0.0
230
1.0
  2
SOLID
 70
     1
 71
     0
 91
        1
 92
        2
 72
     0
 73
     1
 93
        3
 10
2255.7514311403
 20
1435.1370819849
 10
2242.076217228898
 20
1437.87212476718
 10
2242.076217228898
 20
1432.40203920262
 97
        0
 75
     0
 76
     1
 98
        0
  0
HATCH
  5
195
330
191
100
AcDbEntity
  8
SLD-0
  6
AUSGEZOGEN
 62
     7
370
    18
100
AcDbHatch
 10
0.0
 20
0.0
 30
0.0
210
0.0
220
0.0
230
1.0
  2
SOLID
 70
     1
 71
     0
 91
        1
 92
        2
 72
     0
 73
     1
 93
        3
 10
2074.9514311403
 20
1435.1370819849
 10
2088.626645051702
 20
1432.40203920262
 10
2088.626645051702
 20
1437.87212476718
 97
        0
 75
     0
 76
     1
 98
        0
  0
LINE
  5
196
330
191
100
AcDbEntity
  8
SLD-0
  6
AUSGEZOGEN
 62
     7
370
    18
100
AcDbLine
 10
2088.626645051702
 20
1435.1370819849
 30
0.0
 11
2242.076217228898
 21
1435.1370819849
 31
0.0
  0
LINE
  5
197
330
191
100
AcDbEntity
  8
SLD-0
  6
AUSGEZOGEN
 62
     7
370
    18
100
AcDbLine
 10
2074.9514311403
 20
1265.1023218963
 30
0.0
 11
2074.9514311403
 21
1447.542454604529
 31
0.0
  0
LINE
  5
198
330
191
100
AcDbEntity
  8
SLD-0
  6
AUSGEZOGEN
 62
     7
370
    18
100
AcDbLine
 10
2255.7514311403
 20
1362.1023218963
 30
0.0
 11
2255.7514311403
 21
1447.542454604529
 31
0.0
  0
TEXT
  5
199
330
191
100
AcDbEntity
  8
SLD-0
  6
AUSGEZOGEN
 62
     7
370
    18
100
AcDbText
 10
2135.959358226051
 20
1438.16176413124
 30
0.0
 40
21.709402084351
  1
181
 41
0.820056197844
  7
Arial
 72
     5
 11
2177.404578639259
 21
1438.16176413124
 31
0.0
100
AcDbText
  0
ENDBLK
  5
193
330
191
100
AcDbEntity
  8
0
100
AcDbBlockEnd
  0
BLOCK
  5
2FD
330
2FC
100
AcDbEntity
  8
0
100
AcDbBlockBegin
  2
*X14
 70
     1
 10
0.0
 20
0.0
 30
0.0
  3
*X14
  1

  0
LINE
  5
2FF
330
2FC
100
AcDbEntity
  8
0
  6
AUSGEZOGEN
 62
     7
370
    18
100
AcDbLine
 10
1381.472156552484
 20
1721.175998368521
 30
0.0
 11
1382.272156552484
 21
1721.975998368521
 31
0.0
  0
LINE
  5
300
330
2FC
100
AcDbEntity
  8
0
  6
AUSGEZOGEN
 62
     7
370
    18
100
AcDbLine
 10
1266.356206960028
 20
1740.763890592103
 30
0.0
 11
1267.156206960027
 21
1741.563890592102
 31
0.0
  0
LINE
  5
301
330
2FC
100
AcDbEntity
  8
0
  6
AUSGEZOGEN
 62
     7
370
    18
100
AcDbLine
 10
1266.356206960028
 20
1875.46773240814
 30
0.0
 11
1267.156206960027
 21
1876.267732408139
 31
0.0
  0
LINE
  5
302
330
2FC
100
AcDbEntity
  8
0
  6
AUSGEZOGEN
 62
     7
370
    18
100
AcDbLine
 10
1295.669614736447
 20
1725.175998368521
 30
0.0
 11
1296.469614736447
 21
1725.975998368521
 31
0.0
  0
LINE
  5
303
330
2FC
100
AcDbEntity
  8
0
  6
AUSGEZOGEN
 62
     7
370
    18
100
AcDbLine
 10
1266.356206960028
 20
1830.56643240814
 30
0.0
 11
1267.156206960027
 21
1831.366432408139
 31
0.0
  0
ENDBLK
  5
2FE
330
2FC
100
AcDbEntity
  8
0
100
AcDbBlockEnd
  0
BLOCK
  5
306
330
305
100
AcDbEntity
  8
0
100
AcDbBlockBegin
  2
*X15
 70
     1
 10
0.0
 20
0.0
 30
0.0
  3
*X15
  1

  0
LINE
  5
308
330
305
100
AcDbEntity
  8
0
  6
AUSGEZOGEN
 62
     7
370
    18
100
AcDbLine
 10
1520.175998368521
 20
1725.175998368521
 30
0.0
 11
1520.975998368521
 21
1725.975998368521
 31
0.0
  0
LINE
  5
309
330
305
100
AcDbEntity
  8
0
  6
AUSGEZOGEN
 62
     7
370
    18
100
AcDbLine
 10
1607.156206960027
 20
1812.156206960027
 30
0.0
 11
1607.956206960027
 21
1812.956206960027
 31
0.0
  0
LINE
  5
30A
330
305
100
AcDbEntity
  8
0
  6
AUSGEZOGEN
 62
     7
370
    18
100
AcDbLine
 10
1565.077298368521
 20
1725.175998368521
 30
0.0
 11
1565.877298368521
 21
1725.975998368521
 31
0.0
  0
LINE
  5
30B
330
305
100
AcDbEntity
  8
0
  6
AUSGEZOGEN
 62
     7
370
    18
100
AcDbLine
 10
1607.156206960027
 20
1767.254906960027
 30
0.0
 11
1607.956206960027
 21
1768.054906960027
 31
0.0
  0
LINE
  5
30C
330
305
100
AcDbEntity
  8
0
  6
AUSGEZOGEN
 62
     7
370
    18
100
AcDbLine
 10
1607.156206960027
 20
1901.958748776064
 30
0.0
 11
1607.956206960027
 21
1902.758748776065
 31
0.0
  0
LINE
  5
30D
330
305
100
AcDbEntity
  8
0
  6
AUSGEZOGEN
 62
     7
370
    18
100
AcDbLine
 10
1610.373456552484
 20
1905.175998368521
 30
0.0
 11
1611.173456552484
 21
1905.975998368521
 31
0.0
  0
ENDBLK
  5
307
330
305
100
AcDbEntity
  8
0
100
AcDbBlockEnd
  0
BLOCK
  5
310
330
30F
100
AcDbEntity
  8
0
100
AcDbBlockBegin
  2
*D16
 70
     1
 10
0.0
 20
0.0
 30
0.0
  3
*D16
  1

  0
HATCH
  5
312
330
30F
100
AcDbEntity
  8
SLD-0
  6
AUSGEZOGEN
 62
     7
370
    18
100
AcDbHatch
 10
0.0
 20
0.0
 30
0.0
210
0.0
220
0.0
230
1.0
  2
SOLID
 70
     1
 71
     0
 91
        1
 92
        2
 72
     0
 73
     1
 93
        3
 10
1502.9885129398
 20
1905.9759983685
 10
1500.25347015752
 20
1892.300784457098
 10
1505.72355572208
 20
1892.300784457098
 97
        0
 75
     0
 76
     1
 98
        0
  0
HATCH
  5
313
330
30F
100
AcDbEntity
  8
SLD-0
  6
AUSGEZOGEN
 62
     7
370
    18
100
AcDbHatch
 10
0.0
 20
0.0
 30
0.0
210
0.0
220
0.0
230
1.0
  2
SOLID
 70
     1
 71
     0
 91
        1
 92
        2
 72
     0
 73
     1
 93
        3
 10
1502.9885129398
 20
1874.9759983685
 10
1505.72355572208
 20
1888.651212279902
 10
1500.25347015752
 20
1888.651212279902
 97
        0
 75
     0
 76
     1
 98
        0
  0
LINE
  5
314
330
30F
100
AcDbEntity
  8
SLD-0
  6
AUSGEZOGEN
 62
     7
370
    18
100
AcDbLine
 10
1502.9885129398
 20
1888.651212279902
 30
0.0
 11
1502.9885129398
 21
1892.300784457098
 31
0.0
  0
LINE
  5
315
330
30F
100
AcDbEntity
  8
SLD-0
  6
AUSGEZOGEN
 62
     7
370
    18
100
AcDbLine
 10
1502.9885129398
 20
1888.651212279902
 30
0.0
 11
1502.9885129398
 21
1875.617097790986
 31
0.0
  0
LINE
  5
316
330
30F
100
AcDbEntity
  8
SLD-0
  6
AUSGEZOGEN
 62
     7
370
    18
100
AcDbLine
 10
1461.15620696
 20
1874.9759983685
 30
0.0
 11
1515.393885559429
 21
1874.9759983685
 31
0.0
  0
LINE
  5
317
330
30F
100
AcDbEntity
  8
SLD-0
  6
AUSGEZOGEN
 62
     7
370
    18
100
AcDbLine
 10
1632.15620696
 20
1905.9759983685
 30
0.0
 11
1490.583140320171
 21
1905.9759983685
 31
0.0
  0
TEXT
  5
318
330
30F
100
AcDbEntity
  8
SLD-0
  6
AUSGEZOGEN
 62
     7
370
    18
100
AcDbText
 10
1499.521125305716
 20
1875.617097790986
 30
0.0
 40
21.709402084351
  1
31
 50
90.0
 41
0.820056197844
  7
Arial
 72
     5
 11
1499.521125305716
 21
1903.247244733125
 31
0.0
100
AcDbText
  0
ENDBLK
  5
311
330
30F
100
AcDbEntity
  8
0
100
AcDbBlockEnd
  0
BLOCK
  5
31B
330
31A
100
AcDbEntity
  8
0
100
AcDbBlockBegin
  2
*D17
 70
     1
 10
0.0
 20
0.0
 30
0.0
  3
*D17
  1

  0
HATCH
  5
31D
330
31A
100
AcDbEntity
  8
SLD-0
  6
AUSGEZOGEN
 62
     7
370
    18
100
AcDbHatch
 10
0.0
 20
0.0
 30
0.0
210
0.0
220
0.0
230
1.0
  2
SOLID
 70
     1
 71
     0
 91
        1
 92
        2
 72
     0
 73
     1
 93
        3
 10
1461.15620696
 20
1790.8854400857
 10
1447.480993048598
 20
1793.62048286798
 10
1447.480993048598
 20
1788.15039730342
 97
        0
 75
     0
 76
     1
 98
        0
  0
HATCH
  5
31E
330
31A
100
AcDbEntity
  8
SLD-0
  6
AUSGEZOGEN
 62
     7
370
    18
100
AcDbHatch
 10
0.0
 20
0.0
 30
0.0
210
0.0
220
0.0
230
1.0
  2
SOLID
 70
     1
 71
     0
 91
        1
 92
        2
 72
     0
 73
     1
 93
        3
 10
1413.15620696
 20
1790.8854400857
 10
1426.831420871402
 20
1788.15039730342
 10
1426.831420871402
 20
1793.62048286798
 97
        0
 75
     0
 76
     1
 98
        0
  0
LINE
  5
31F
330
31A
100
AcDbEntity
  8
SLD-0
  6
AUSGEZOGEN
 62
     7
370
    18
100
AcDbLine
 10
1426.831420871402
 20
1790.8854400857
 30
0.0
 11
1447.480993048598
 21
1790.8854400857
 31
0.0
  0
LINE
  5
320
330
31A
100
AcDbEntity
  8
SLD-0
  6
AUSGEZOGEN
 62
     7
370
    18
100
AcDbLine
 10
1447.480993048598
 20
1790.8854400857
 30
0.0
 11
1451.775524985295
 21
1790.8854400857
 31
0.0
  0
LINE
  5
321
330
31A
100
AcDbEntity
  8
SLD-0
  6
AUSGEZOGEN
 62
     7
370
    18
100
AcDbLine
 10
1413.15620696
 20
1863.9759983685
 30
0.0
 11
1413.15620696
 21
1778.480067466071
 31
0.0
  0
LINE
  5
322
330
31A
100
AcDbEntity
  8
SLD-0
  6
AUSGEZOGEN
 62
     7
370
    18
100
AcDbLine
 10
1461.15620696
 20
1863.9759983685
 30
0.0
 11
1461.15620696
 21
1778.480067466071
 31
0.0
  0
TEXT
  5
323
330
31A
100
AcDbEntity
  8
SLD-0
  6
AUSGEZOGEN
 62
     7
370
    18
100
AcDbText
 10
1424.145378043156
 20
1796.371400775771
 30
0.0
 40
21.709402084351
  1
48
 41
0.820056197844
  7
Arial
 72
     5
 11
1451.775524985295
 21
1796.371400775771
 31
0.0
100
AcDbText
  0
ENDBLK
  5
31C
330
31A
100
AcDbEntity
  8
0
100
AcDbBlockEnd
  0
BLOCK
  5
326
330
325
100
AcDbEntity
  8
0
100
AcDbBlockBegin
  2
*D18
 70
     1
 10
0.0
 20
0.0
 30
0.0
  3
*D18
  1

  0
HATCH
  5
328
330
325
100
AcDbEntity
  8
SLD-0
  6
AUSGEZOGEN
 62
     7
370
    18
100
AcDbHatch
 10
0.0
 20
0.0
 30
0.0
210
0.0
220
0.0
230
1.0
  2
SOLID
 70
     1
 71
     0
 91
        1
 92
        2
 72
     0
 73
     1
 93
        3
 10
1360.4331322522
 20
1862.9759983685
 10
1363.16817503448
 20
1876.651212279902
 10
1357.69808946992
 20
1876.651212279902
 97
        0
 75
     0
 76
     1
 98
        0
  0
HATCH
  5
329
330
325
100
AcDbEntity
  8
SLD-0
  6
AUSGEZOGEN
 62
     7
370
    18
100
AcDbHatch
 10
0.0
 20
0.0
 30
0.0
210
0.0
220
0.0
230
1.0
  2
SOLID
 70
     1
 71
     0
 91
        1
 92
        2
 72
     0
 73
     1
 93
        3
 10
1360.4331322522
 20
1886.9759983685
 10
1357.69808946992
 20
1873.300784457098
 10
1363.16817503448
 20
1873.300784457098
 97
        0
 75
     0
 76
     1
 98
        0
  0
LINE
  5
32A
330
325
100
AcDbEntity
  8
SLD-0
  6
AUSGEZOGEN
 62
     7
370
    18
100
AcDbLine
 10
1360.4331322522
 20
1873.300784457098
 30
0.0
 11
1360.4331322522
 21
1876.651212279902
 31
0.0
  0
LINE
  5
32B
330
325
100
AcDbEntity
  8
SLD-0
  6
AUSGEZOGEN
 62
     7
370
    18
100
AcDbLine
 10
1360.4331322522
 20
1876.651212279902
 30
0.0
 11
1360.4331322522
 21
1888.841430614639
 31
0.0
  0
LINE
  5
32C
330
325
100
AcDbEntity
  8
SLD-0
  6
AUSGEZOGEN
 62
     7
370
    18
100
AcDbLine
 10
1414.15620696
 20
1886.9759983685
 30
0.0
 11
1348.027759632571
 21
1886.9759983685
 31
0.0
  0
LINE
  5
32D
330
325
100
AcDbEntity
  8
SLD-0
  6
AUSGEZOGEN
 62
     7
370
    18
100
AcDbLine
 10
1414.15620696
 20
1862.9759983685
 30
0.0
 11
1348.027759632571
 21
1862.9759983685
 31
0.0
  0
TEXT
  5
32E
330
325
100
AcDbEntity
  8
SLD-0
  6
AUSGEZOGEN
 62
     7
370
    18
100
AcDbText
 10
1357.625892224119
 20
1861.2112836725
 30
0.0
 40
21.709402084351
  1
24
 50
90.0
 41
0.820056197844
  7
Arial
 72
     5
 11
1357.625892224119
 21
1888.841430614639
 31
0.0
100
AcDbText
  0
ENDBLK
  5
327
330
325
100
AcDbEntity
  8
0
100
AcDbBlockEnd
  0
BLOCK
  5
331
330
330
100
AcDbEntity
  8
0
100
AcDbBlockBegin
  2
_D_16_nNn018
 70
     0
 10
0.0
 20
0.0
 30
0.0
  3
_D_16_nNn018
  1

  0
HATCH
  5
333
330
330
100
AcDbEntity
  8
SLD-0
  6
AUSGEZOGEN
 62
     7
370
    18
100
AcDbHatch
 10
0.0
 20
0.0
 30
0.0
210
0.0
220
0.0
230
1.0
  2
SOLID
 70
     1
 71
     0
 91
        1
 92
        2
 72
     0
 73
     1
 93
        3
 10
1413.5349028017
 20
1886.7595678568
 10
1403.0677433565
 20
1903.9842180172
 10
1399.1498959154
 20
1900.8776972257
 97
        0
 75
     0
 76
     1
 98
        0
  0
LINE
  5
334
330
330
100
AcDbEntity
  8
SLD-0
  6
AUSGEZOGEN
 62
     7
370
    18
100
AcDbLine
 10
1413.5349028017
 20
1886.7595678568
 30
0.0
 11
1371.118251774
 21
1940.2541294091
 31
0.0
  0
LINE
  5
335
330
330
100
AcDbEntity
  8
SLD-0
  6
AUSGEZOGEN
 62
     7
370
    18
100
AcDbLine
 10
1414.15620696
 20
1885.9759983685
 30
0.0
 11
1413.5349028017
 21
1886.7595678568
 31
0.0
  0
LINE
  5
336
330
330
100
AcDbEntity
  8
SLD-0
  6
AUSGEZOGEN
 62
     7
370
    18
100
AcDbLine
 10
1371.118251774
 20
1940.2541294091
 30
0.0
 11
1306.0895457152
 21
1940.2541294091
 31
0.0
  0
TEXT
  5
337
330
330
100
AcDbEntity
  8
SLD-0
  6
AUSGEZOGEN
 62
     7
370
    18
100
AcDbText
 10
1306.0895457152
 20
1946.41984600302
 30
0.0
 40
21.709401709402
  1
R1
 41
0.560538116592
  7
Arial
 72
     5
 11
1327.798947424602
 21
1946.41984600302
 31
0.0
100
AcDbText
  0
ENDBLK
  5
332
330
330
100
AcDbEntity
  8
0
100
AcDbBlockEnd
  0
BLOCK
  5
33A
330
339
100
AcDbEntity
  8
0
100
AcDbBlockBegin
  2
A3-NABER_nNn019
 70
     0
 10
0.0
 20
0.0
 30
0.0
  3
A3-NABER_nNn019
  1

  0
INSERT
  5
357
330
339
100
AcDbEntity
  8
0
100
AcDbBlockReference
  2
A3-NABER_001_nNn020
 10
0.0
 20
0.0
 30
0.0
  0
TEXT
  5
358
330
339
100
AcDbEntity
  8
Layer100
  6
AUSGEZOGEN
 62
    18
420
        0
370
    50
100
AcDbText
 10
2477.735091334688
 20
578.342456443567
 30
0.0
 40
9.866410310477
  1
Weitergabe und Vervielfältigung,
 50
0.000002504478
 41
1.085122205146
  7
Arial
 72
     5
 11
2693.691080210397
 21
578.342465883303
 31
0.0
100
AcDbText
  0
TEXT
  5
359
330
339
100
AcDbEntity
  8
Layer100
  6
AUSGEZOGEN
 62
    18
420
        0
370
    50
100
AcDbText
 10
2477.801690294322
 20
562.556199949716
 30
0.0
 40
9.866410310477
  1
sowie Verwertung und Mitteilung
 50
0.000002504478
 41
1.084506693109
  7
Arial
 72
     5
 11
2693.62448263084
 21
562.55620938363
 31
0.0
100
AcDbText
  0
TEXT
  5
35A
330
339
100
AcDbEntity
  8
Layer100
  6
AUSGEZOGEN
 62
    18
420
        0
370
    50
100
AcDbText
 10
2467.974746315127
 20
546.769943023404
 30
0.0
 40
9.866410310477
  1
dieser Zeichnung ist nicht gestattet,
 50
0.000002504478
 41
1.087014938969
  7
Arial
 72
     5
 11
2703.451427990114
 21
546.769953316417
 31
0.0
100
AcDbText
  0
TEXT
  5
35B
330
339
100
AcDbEntity
  8
Layer100
  6
AUSGEZOGEN
 62
    18
420
        0
370
    50
100
AcDbText
 10
2475.966539356652
 20
530.983686875974
 30
0.0
 40
9.866410310477
  1
soweit nicht ausdrücklich erlaubt.
 50
0.000002504478
 41
1.086254882812
  7
Arial
 72
     5
 11
2695.459636328667
 21
530.983696470322
 31
0.0
100
AcDbText
  0
TEXT
  5
35C
330
339
100
AcDbEntity
  8
Layer100
  6
AUSGEZOGEN
 62
    18
420
        0
370
    50
100
AcDbText
 10
2504.337402894466
 20
515.197431619342
 30
0.0
 40
9.866410310477
  1
Alle Rechte vorbehalten!
 50
0.000002504478
 41
1.084802051822
  7
Arial
 72
     5
 11
2667.088774170931
 21
515.19743873343
 31
0.0
100
AcDbText
  0
LINE
  5
35D
330
339
100
AcDbEntity
  8
Layer100
  6
AUSGEZOGEN
 62
    18
420
        0
370
    50
100
AcDbLine
 10
3325.0
 20
606.304923376728
 30
0.0
 11
2044.84
 21
606.304923376728
 31
0.0
  0
INSERT
  5
38E
330
339
100
AcDbEntity
  8
0
100
AcDbBlockReference
  2
Schriftfeld_nNn025
 10
0.0
 20
0.0
 30
0.0
  0
INSERT
  5
39A
330
339
100
AcDbEntity
  8
0
100
AcDbBlockReference
  2
Beschriftung_nNn026
 10
0.0
 20
0.0
 30
0.0
  0
TEXT
  5
39B
330
339
100
AcDbEntity
  8
Layer100
  6
AUSGEZOGEN
 62
    18
420
        0
370
    18
100
AcDbText
 10
2057.228779069399
 20
465.306655739864
 30
0.0
 40
14.799614687777
  1
-
 41
0.967741971819
  7
Arial
 72
     5
 11
2063.888605928951
 21
465.306655739864
 31
0.0
100
AcDbText
  0
TEXT
  5
39C
330
339
100
AcDbEntity
  8
Layer100
  6
AUSGEZOGEN
 62
    18
420
        0
370
    18
100
AcDbText
 10
2112.474051718168
 20
465.557864236222
 30
0.0
 40
14.799614687777
  1
-
 41
0.967741971819
  7
Arial
 72
     5
 11
2119.133878577719
 21
465.557864236222
 31
0.0
100
AcDbText
  0
TEXT
  5
39D
330
339
100
AcDbEntity
  8
Layer100
  6
AUSGEZOGEN
 62
    18
420
        0
370
    18
100
AcDbText
 10
2288.888518162686
 20
465.570116447538
 30
0.0
 40
14.799614687777
  1
-
 41
0.967741971819
  7
Arial
 72
     5
 11
2295.548345022237
 21
465.570116447538
 31
0.0
100
AcDbText
  0
TEXT
  5
39E
330
339
100
AcDbEntity
  8
Layer100
  6
AUSGEZOGEN
 62
    18
420
        0
370
    18
100
AcDbText
 10
2385.857493231503
 20
465.570116447538
 30
0.0
 40
14.799614687777
  1
-
 41
0.967741971819
  7
Arial
 72
     5
 11
2392.517320091054
 21
465.570116447538
 31
0.0
100
AcDbText
  0
TEXT
  5
39F
330
339
100
AcDbEntity
  8
Layer100
  6
AUSGEZOGEN
 62
    18
420
        0
370
    18
100
AcDbText
 10
2434.143748121539
 20
342.99458090271
 30
0.0
 40
9.027487181822
  1
Naber GmbH
 41
0.96475869975
  7
Arial
 72
     5
 11
2505.751997474483
 21
342.99458090271
 31
0.0
100
AcDbText
  0
TEXT
  5
3A0
330
339
100
AcDbEntity
  8
Layer100
  6
AUSGEZOGEN
 62
    18
420
        0
370
    18
100
AcDbText
 10
2434.143748121539
 20
331.258847996805
 30
0.0
 40
9.027487181822
  1
Enschedestr. 24
 41
0.976824042946
  7
Arial
 72
     5
 11
2523.08478430871
 21
331.258847996805
 31
0.0
100
AcDbText
  0
TEXT
  5
3A1
330
339
100
AcDbEntity
  8
Layer100
  6
AUSGEZOGEN
 62
    18
420
        0
370
    18
100
AcDbText
 10
2434.143748121539
 20
319.523115090901
 30
0.0
 40
9.027487181822
  1
48529 Nordhorn
 41
0.972993785506
  7
Arial
 72
     5
 11
2522.736034635689
 21
319.523115090901
 31
0.0
100
AcDbText
  0
TEXT
  5
3A2
330
339
100
AcDbEntity
  8
Layer100
  6
AUSGEZOGEN
 62
    18
420
        0
370
    18
100
AcDbText
 10
2434.143748121539
 20
296.051649279091
 30
0.0
 40
9.027487181822
  1
0049-(0)5921-704-0
 41
0.975798499711
  7
Arial
 72
     5
 11
2543.489969988775
 21
296.051649279091
 31
0.0
100
AcDbText
  0
IMAGE
  5
3A5
330
339
100
AcDbEntity
  8
0
  6
AUSGEZOGEN
 62
    18
420
        0
370
    18
160
               140
310
8C00000001000000840000000600000005000000CF640CA86D09A4407043E964208F724000000000000000000CEA3803E85AA5407043E964208F724000000000000000000CEA3803E85AA54025E7150D168576400000000000000000CF640CA86D09A44025E7150D168576400000000000000000CF640CA86D09A4407043E9
310
64208F72400000000000000000
100
AcDbRasterImage
 90
        0
 10
2564.714172732645
 20
296.945408736406
 30
0.0
 11
0.04462813458125245
 21
0.0
 31
0.0
 12
0.0
 22
0.06720304860732257
 32
0.0
 13
3781.0
 23
943.0
340
3A4
 70
     7
280
     0
281
    50
282
    50
283
     0
360
3A6
 71
     1
 91
        2
 14
-0.5
 24
-0.5
 14
3780.5
 24
942.5
290
     0
  0
TEXT
  5
3A7
330
339
100
AcDbEntity
  8
Layer100
  6
AUSGEZOGEN
 62
    18
420
        0
370
    18
100
AcDbText
 10
2745.516851105174
 20
497.074554729024
 30
0.0
 40
24.666025776191
  1
Edelstahl
 41
0.915248215901
  7
Arial
 72
     5
 11
2875.12300376938
 21
497.074554729024
 31
0.0
100
AcDbText
  0
ENDBLK
  5
33B
330
339
100
AcDbEntity
  8
0
100
AcDbBlockEnd
  0
BLOCK
  5
33D
330
33C
100
AcDbEntity
  8
0
100
AcDbBlockBegin
  2
A3-NABER_001_nNn020
 70
     0
 10
0.0
 20
0.0
 30
0.0
  3
A3-NABER_001_nNn020
  1

  0
INSERT
  5
356
330
33C
100
AcDbEntity
  8
0
100
AcDbBlockReference
  2
A3-NABER_002_nNn021
 10
0.0
 20
0.0
 30
0.0
  0
ENDBLK
  5
33E
330
33C
100
AcDbEntity
  8
0
100
AcDbBlockEnd
  0
BLOCK
  5
340
330
33F
100
AcDbEntity
  8
0
100
AcDbBlockBegin
  2
A3-NABER_002_nNn021
 70
     0
 10
0.0
 20
0.0
 30
0.0
  3
A3-NABER_002_nNn021
  1

  0
INSERT
  5
355
330
33F
100
AcDbEntity
  8
0
100
AcDbBlockReference
  2
A3-NABER_nNn022
 10
0.0
 20
0.0
 30
0.0
  0
ENDBLK
  5
341
330
33F
100
AcDbEntity
  8
0
100
AcDbBlockEnd
  0
BLOCK
  5
343
330
342
100
AcDbEntity
  8
0
100
AcDbBlockBegin
  2
A3-NABER_nNn022
 70
     0
 10
0.0
 20
0.0
 30
0.0
  3
A3-NABER_nNn022
  1

  0
INSERT
  5
350
330
342
100
AcDbEntity
  8
0
100
AcDbBlockReference
  2
A3-Textliste_nNn023
 10
0.0
 20
0.0
 30
0.0
  0
LINE
  5
351
330
342
100
AcDbEntity
  8
SLD-0
  6
AUSGEZOGEN
 62
    18
420
        0
370
    18
100
AcDbLine
 10
3360.0
 20
185.0
 30
0.0
 11
3360.0
 21
2256.3
 31
0.0
  0
LINE
  5
352
330
342
100
AcDbEntity
  8
SLD-0
  6
AUSGEZOGEN
 62
    18
420
        0
370
    18
100
AcDbLine
 10
525.0
 20
185.0
 30
0.0
 11
3360.0
 21
185.0
 31
0.0
  0
LINE
  5
353
330
342
100
AcDbEntity
  8
SLD-0
  6
AUSGEZOGEN
 62
    18
420
        0
370
    18
100
AcDbLine
 10
525.0
 20
2256.3
 30
0.0
 11
3360.0
 21
2256.3
 31
0.0
  0
LINE
  5
354
330
342
100
AcDbEntity
  8
SLD-0
  6
AUSGEZOGEN
 62
    18
420
        0
370
    18
100
AcDbLine
 10
525.0
 20
185.0
 30
0.0
 11
525.0
 21
2256.3
 31
0.0
  0
ENDBLK
  5
344
330
342
100
AcDbEntity
  8
0
100
AcDbBlockEnd
  0
BLOCK
  5
346
330
345
100
AcDbEntity
  8
0
100
AcDbBlockBegin
  2
A3-Textliste_nNn023
 70
     0
 10
0.0
 20
0.0
 30
0.0
  3
A3-Textliste_nNn023
  1

  0
INSERT
  5
34F
330
345
100
AcDbEntity
  8
0
100
AcDbBlockReference
  2
Zeichnungsrahmen_nNn024
 10
0.0
 20
0.0
 30
0.0
  0
ENDBLK
  5
347
330
345
100
AcDbEntity
  8
0
100
AcDbBlockEnd
  0
BLOCK
  5
349
330
348
100
AcDbEntity
  8
0
100
AcDbBlockBegin
  2
Zeichnungsrahmen_nNn024
 70
     0
 10
0.0
 20
0.0
 30
0.0
  3
Zeichnungsrahmen_nNn024
  1

  0
LINE
  5
34B
330
348
100
AcDbEntity
  8
Layer100
  6
AUSGEZOGEN
 62
    18
420
        0
370
    50
100
AcDbLine
 10
3325.0
 20
220.0
 30
0.0
 11
3325.0
 21
2221.3
 31
0.0
  0
LINE
  5
34C
330
348
100
AcDbEntity
  8
Layer100
  6
AUSGEZOGEN
 62
    18
420
        0
370
    50
100
AcDbLine
 10
560.0
 20
220.0
 30
0.0
 11
3325.0
 21
220.0
 31
0.0
  0
LINE
  5
34D
330
348
100
AcDbEntity
  8
Layer100
  6
AUSGEZOGEN
 62
    18
420
        0
370
    50
100
AcDbLine
 10
560.0
 20
220.0
 30
0.0
 11
560.0
 21
2221.3
 31
0.0
  0
LINE
  5
34E
330
348
100
AcDbEntity
  8
Layer100
  6
AUSGEZOGEN
 62
    18
420
        0
370
    50
100
AcDbLine
 10
560.0
 20
2221.3
 30
0.0
 11
3325.0
 21
2221.3
 31
0.0
  0
ENDBLK
  5
34A
330
348
100
AcDbEntity
  8
0
100
AcDbBlockEnd
  0
BLOCK
  5
35F
330
35E
100
AcDbEntity
  8
0
100
AcDbBlockBegin
  2
Schriftfeld_nNn025
 70
     0
 10
0.0
 20
0.0
 30
0.0
  3
Schriftfeld_nNn025
  1

  0
LINE
  5
361
330
35E
100
AcDbEntity
  8
Layer100
  6
AUSGEZOGEN
 62
    18
420
        0
370
    50
100
AcDbLine
 10
2428.07338333454
 20
606.304834653412
 30
0.0
 11
2428.07338333454
 21
219.999911276684
 31
0.0
  0
LINE
  5
362
330
35E
100
AcDbEntity
  8
Layer100
  6
AUSGEZOGEN
 62
    18
420
        0
370
    50
100
AcDbLine
 10
2737.117322035923
 20
606.304875716689
 30
0.0
 11
2737.117322035923
 21
219.999952339961
 31
0.0
  0
LINE
  5
363
330
35E
100
AcDbEntity
  8
Layer100
  6
AUSGEZOGEN
 62
    18
420
        0
370
    18
100
AcDbLine
 10
2100.85038941543
 20
487.441771174501
 30
0.0
 11
2100.85038941543
 21
219.999901144459
 31
0.0
  0
LINE
  5
364
330
35E
100
AcDbEntity
  8
Layer100
  6
AUSGEZOGEN
 62
    18
420
        0
370
    18
100
AcDbLine
 10
2373.536217681355
 20
487.441565790932
 30
0.0
 11
2373.536217681355
 21
219.99969576089
 31
0.0
  0
LINE
  5
365
330
35E
100
AcDbEntity
  8
Layer100
  6
AUSGEZOGEN
 62
    18
420
        0
370
    18
100
AcDbLine
 10
2282.640941592713
 20
219.99969576089
 30
0.0
 11
2282.640941592713
 21
606.304619137617
 31
0.0
  0
TEXT
  5
366
330
35E
100
AcDbEntity
  8
Layer100
  6
AUSGEZOGEN
 62
    18
420
        0
370
    18
100
AcDbText
 10
2743.270233032692
 20
543.461327847898
 30
0.0
 40
11.536708118943
  1
Rohstoff/Raw material
 41
1.084377276038
  7
Arial
 72
     5
 11
2915.034511861575
 21
543.461327847898
 31
0.0
100
AcDbText
  0
TEXT
  5
367
330
35E
100
AcDbEntity
  8
Layer100
  6
AUSGEZOGEN
 62
    18
420
        0
370
    18
100
AcDbText
 10
2743.270233032692
 20
469.171919506219
 30
0.0
 40
11.536708118943
  1
Benennung/Designation
 41
1.081895683695
  7
Arial
 72
     5
 11
2929.207357785696
 21
469.171919506219
 31
0.0
100
AcDbText
  0
TEXT
  5
368
330
35E
100
AcDbEntity
  8
Layer100
  6
AUSGEZOGEN
 62
    18
420
        0
370
    18
100
AcDbText
 10
2742.361280271806
 20
322.078890989696
 30
0.0
 40
11.536708118943
  1
Sachnummer/Part-No.
 41
1.080626575441
  7
Arial
 72
     5
 11
2915.463817242486
 21
322.078890989696
 31
0.0
100
AcDbText
  0
LINE
  5
369
330
35E
100
AcDbEntity
  8
Layer100
  6
AUSGEZOGEN
 62
    18
420
        0
370
    18
100
AcDbLine
 10
2500.789604205454
 20
487.441870030043
 30
0.0
 11
2500.789604205454
 21
398.294580020028
 31
0.0
  0
TEXT
  5
36A
330
35E
100
AcDbEntity
  8
Layer100
  6
AUSGEZOGEN
 62
    18
420
        0
370
    18
100
AcDbText
 10
2433.314939745603
 20
413.45807919021
 30
0.0
 40
11.536708118943
  1
Gepr.
 41
1.076768834145
  7
Arial
 72
     5
 11
2476.68142556471
 21
413.45807919021
 31
0.0
100
AcDbText
  0
TEXT
  5
36B
330
35E
100
AcDbEntity
  8
Layer100
  6
AUSGEZOGEN
 62
    18
420
        0
370
    18
100
AcDbText
 10
2433.314939745603
 20
398.460358635584
 30
0.0
 40
11.536708118943
  1
Check.
 41
1.077923572744
  7
Arial
 72
     5
 11
2487.335575512553
 21
398.460358635584
 31
0.0
100
AcDbText
  0
TEXT
  5
36C
330
35E
100
AcDbEntity
  8
Layer100
  6
AUSGEZOGEN
 62
    18
420
        0
370
    18
100
AcDbText
 10
2506.03109057817
 20
472.895563924768
 30
0.0
 40
11.536708118943
  1
Datum
 41
1.075650693262
  7
Arial
 72
     5
 11
2557.046413880136
 21
472.895563924768
 31
0.0
100
AcDbText
  0
TEXT
  5
36D
330
35E
100
AcDbEntity
  8
Layer100
  6
AUSGEZOGEN
 62
    18
420
        0
370
    18
100
AcDbText
 10
2506.03109057817
 20
457.897843370142
 30
0.0
 40
11.536708118943
  1
Date
 41
1.076492537313
  7
Arial
 72
     5
 11
2542.642833793635
 21
457.897843370142
 31
0.0
100
AcDbText
  0
TEXT
  5
36E
330
35E
100
AcDbEntity
  8
Layer100
  6
AUSGEZOGEN
 62
    18
420
        0
370
    18
100
AcDbText
 10
2615.107893747707
 20
472.891634001564
 30
0.0
 40
11.536708118943
  1
Name
 41
1.072387859253
  7
Arial
 72
     5
 11
2661.168200912587
 21
472.891634001564
 31
0.0
100
AcDbText
  0
TEXT
  5
36F
330
35E
100
AcDbEntity
  8
Layer100
  6
AUSGEZOGEN
 62
    18
420
        0
370
    18
100
AcDbText
 10
2615.107893747707
 20
457.893913446938
 30
0.0
 40
11.536708118943
  1
Name
 41
1.072387859253
  7
Arial
 72
     5
 11
2661.168200912587
 21
457.893913446938
 31
0.0
100
AcDbText
  0
TEXT
  5
370
330
35E
100
AcDbEntity
  8
Layer100
  6
AUSGEZOGEN
 62
    18
420
        0
370
    18
100
AcDbText
 10
2433.299699646919
 20
443.184055053754
 30
0.0
 40
11.536708118943
  1
Bearb.
 41
1.078672178988
  7
Arial
 72
     5
 11
2484.47076850849
 21
443.184055053754
 31
0.0
100
AcDbText
  0
TEXT
  5
371
330
35E
100
AcDbEntity
  8
Layer100
  6
AUSGEZOGEN
 62
    18
420
        0
370
    18
100
AcDbText
 10
2433.299699646919
 20
428.186334499128
 30
0.0
 40
11.536708118943
  1
Drawn
 41
1.075502107612
  7
Arial
 72
     5
 11
2483.340171112834
 21
428.186334499128
 31
0.0
100
AcDbText
  0
TEXT
  5
372
330
35E
100
AcDbEntity
  8
Layer100
  6
AUSGEZOGEN
 62
    18
420
        0
370
    18
100
AcDbText
 10
2052.466134759014
 20
235.165527308193
 30
0.0
 40
11.536708118943
  1
Ausg.
 41
1.076912300364
  7
Arial
 72
     5
 11
2096.807472414172
 21
235.165527308193
 31
0.0
100
AcDbText
  0
TEXT
  5
373
330
35E
100
AcDbEntity
  8
Layer100
  6
AUSGEZOGEN
 62
    18
420
        0
370
    18
100
AcDbText
 10
2052.466134759014
 20
220.167806753567
 30
0.0
 40
11.536708118943
  1
Issue
 41
1.078087529976
  7
Arial
 72
     5
 11
2093.957905508792
 21
220.167806753567
 31
0.0
100
AcDbText
  0
TEXT
  5
374
330
35E
100
AcDbEntity
  8
Layer100
  6
AUSGEZOGEN
 62
    18
420
        0
370
    18
100
AcDbText
 10
2107.003300412199
 20
235.165527308193
 30
0.0
 40
11.536708118943
  1
Änderung
 41
1.077825512227
  7
Arial
 72
     5
 11
2182.257247472065
 21
235.165527308193
 31
0.0
100
AcDbText
  0
TEXT
  5
375
330
35E
100
AcDbEntity
  8
Layer100
  6
AUSGEZOGEN
 62
    18
420
        0
370
    18
100
AcDbText
 10
2107.003300412199
 20
220.167806753567
 30
0.0
 40
11.536708118943
  1
Modification
 41
1.083926413321
  7
Arial
 72
     5
 11
2200.127608348307
 21
220.167806753567
 31
0.0
100
AcDbText
  0
TEXT
  5
376
330
35E
100
AcDbEntity
  8
Layer100
  6
AUSGEZOGEN
 62
    18
420
        0
370
    18
100
AcDbText
 10
2287.884899828596
 20
235.165527308193
 30
0.0
 40
11.536708118943
  1
Datum
 41
1.075650693262
  7
Arial
 72
     5
 11
2338.900223130562
 21
235.165527308193
 31
0.0
100
AcDbText
  0
TEXT
  5
377
330
35E
100
AcDbEntity
  8
Layer100
  6
AUSGEZOGEN
 62
    18
420
        0
370
    18
100
AcDbText
 10
2287.884899828596
 20
220.167806753567
 30
0.0
 40
11.536708118943
  1
Date
 41
1.076492537313
  7
Arial
 72
     5
 11
2324.496643044062
 21
220.167806753567
 31
0.0
100
AcDbText
  0
TEXT
  5
378
330
35E
100
AcDbEntity
  8
Layer100
  6
AUSGEZOGEN
 62
    18
420
        0
370
    18
100
AcDbText
 10
2378.780175917238
 20
235.165527308193
 30
0.0
 40
11.536708118943
  1
Name
 41
1.072387859253
  7
Arial
 72
     5
 11
2424.840483082118
 21
235.165527308193
 31
0.0
100
AcDbText
  0
TEXT
  5
379
330
35E
100
AcDbEntity
  8
Layer100
  6
AUSGEZOGEN
 62
    18
420
        0
370
    18
100
AcDbText
 10
2378.780175917238
 20
220.167806753567
 30
0.0
 40
11.536708118943
  1
Name
 41
1.072387859253
  7
Arial
 72
     5
 11
2424.840483082118
 21
220.167806753567
 31
0.0
100
AcDbText
  0
LINE
  5
37A
330
35E
100
AcDbEntity
  8
Layer100
  6
AUSGEZOGEN
 62
    18
420
        0
370
    18
100
AcDbLine
 10
2609.863935511824
 20
487.441870030043
 30
0.0
 11
2609.863935511824
 21
398.294580020028
 31
0.0
  0
TEXT
  5
37B
330
35E
100
AcDbEntity
  8
Layer100
  6
AUSGEZOGEN
 62
    18
420
        0
370
    18
100
AcDbText
 10
3105.942384626373
 20
588.615304261015
 30
0.0
 40
11.536708118943
  1
Menge
 41
1.074408249356
  7
Arial
 72
     5
 11
3158.832422997667
 21
588.615304261015
 31
0.0
100
AcDbText
  0
TEXT
  5
37C
330
35E
100
AcDbEntity
  8
Layer100
  6
AUSGEZOGEN
 62
    18
420
        0
370
    18
100
AcDbText
 10
3105.942384626373
 20
573.617583706389
 30
0.0
 40
11.536708118943
  1
Quantity
 41
1.081088880339
  7
Arial
 72
     5
 11
3170.772915900773
 21
573.617583706389
 31
0.0
100
AcDbText
  0
TEXT
  5
37D
330
35E
100
AcDbEntity
  8
Layer100
  6
AUSGEZOGEN
 62
    18
420
        0
370
    18
100
AcDbText
 10
2744.179185793578
 20
588.783111014582
 30
0.0
 40
11.536708118943
  1
Maßstab
 41
1.076703499079
  7
Arial
 72
     5
 11
2811.628549810978
 21
588.783111014582
 31
0.0
100
AcDbText
  0
TEXT
  5
37E
330
35E
100
AcDbEntity
  8
Layer100
  6
AUSGEZOGEN
 62
    18
420
        0
370
    18
100
AcDbText
 10
2744.179185793578
 20
573.785390459956
 30
0.0
 40
11.536708118943
  1
Scale
 41
1.076768834145
  7
Arial
 72
     5
 11
2787.545671612685
 21
573.785390459956
 31
0.0
100
AcDbText
  0
TEXT
  5
37F
330
35E
100
AcDbEntity
  8
Layer100
  6
AUSGEZOGEN
 62
    18
420
        0
370
    18
100
AcDbText
 10
2292.429663633029
 20
589.838894516055
 30
0.0
 40
11.536708118943
  1
 Maße in mm
 41
1.079690569745
  7
Arial
 72
     5
 11
2393.871938122894
 21
589.838894516055
 31
0.0
100
AcDbText
  0
TEXT
  5
380
330
35E
100
AcDbEntity
  8
Layer100
  6
AUSGEZOGEN
 62
    18
420
        0
370
    18
100
AcDbText
 10
2292.429663633029
 20
574.841173961429
 30
0.0
 40
11.536708118943
  1
Dimensions in
 41
1.081916714204
  7
Arial
 72
     5
 11
2401.832266724965
 21
574.841173961429
 31
0.0
100
AcDbText
  0
TEXT
  5
381
330
35E
100
AcDbEntity
  8
Layer100
  6
AUSGEZOGEN
 62
    18
420
        0
370
    18
100
AcDbText
 10
2292.429663633029
 20
559.843453406803
 30
0.0
 40
11.536708118943
  1
 millimeters
 41
1.084880260734
  7
Arial
 72
     5
 11
2380.754700991656
 21
559.843453406803
 31
0.0
100
AcDbText
  0
CIRCLE
  5
382
330
35E
100
AcDbEntity
  8
Layer100
  6
AUSGEZOGEN
 62
    18
420
        0
370
    18
100
AcDbCircle
 10
2377.981730456388
 20
517.292199137852
 30
0.0
 40
19.61847309515178
  0
CIRCLE
  5
383
330
35E
100
AcDbEntity
  8
Layer100
  6
AUSGEZOGEN
 62
    18
420
        0
370
    18
100
AcDbCircle
 10
2377.981730456388
 20
517.292199137852
 30
0.0
 40
13.16047183665303
  0
LINE
  5
384
330
35E
100
AcDbEntity
  8
Layer100
  6
AUSGEZOGEN
 62
    18
420
        0
370
    18
100
AcDbLine
 10
2303.40572338202
 20
504.131727301199
 30
0.0
 11
2303.40572338202
 21
530.452670974505
 31
0.0
  0
LINE
  5
385
330
35E
100
AcDbEntity
  8
Layer100
  6
AUSGEZOGEN
 62
    18
420
        0
370
    18
100
AcDbLine
 10
2345.080550864755
 20
497.673726042701
 30
0.0
 11
2345.080550864755
 21
536.910672233003
 31
0.0
  0
LINE
  5
386
330
35E
100
AcDbEntity
  8
Layer100
  6
AUSGEZOGEN
 62
    18
420
        0
370
    18
100
AcDbLine
 10
2303.40572338202
 20
530.452670974505
 30
0.0
 11
2345.080550864755
 21
536.910672233003
 31
0.0
  0
LINE
  5
387
330
35E
100
AcDbEntity
  8
Layer100
  6
AUSGEZOGEN
 62
    18
420
        0
370
    18
100
AcDbLine
 10
2345.080550864755
 20
497.673726042701
 30
0.0
 11
2303.40572338202
 21
504.131727301199
 31
0.0
  0
LINE
  5
388
330
35E
100
AcDbEntity
  8
Layer100
  6
DASHDOT
 62
    18
420
        0
370
    18
100
AcDbLine
 10
2377.981730456388
 20
493.164667468298
 30
0.0
 11
2377.981730456388
 21
538.937688539806
 31
0.0
  0
LINE
  5
389
330
35E
100
AcDbEntity
  8
Layer100
  6
DASHDOT
 62
    18
420
        0
370
    18
100
AcDbLine
 10
2356.139146122212
 20
517.292199137852
 30
0.0
 11
2399.926406124043
 21
517.292199137852
 31
0.0
  0
LINE
  5
38A
330
35E
100
AcDbEntity
  8
Layer100
  6
DASHDOT
 62
    18
420
        0
370
    18
100
AcDbLine
 10
2301.400386129314
 20
517.292199137852
 30
0.0
 11
2346.955998886561
 21
517.292199137852
 31
0.0
  0
LINE
  5
38B
330
35E
100
AcDbEntity
  8
Layer100
  6
AUSGEZOGEN
 62
    18
420
        0
370
    50
100
AcDbLine
 10
2737.117322035923
 20
338.863053346685
 30
0.0
 11
3325.0
 21
338.863053346685
 31
0.0
  0
LINE
  5
38C
330
35E
100
AcDbEntity
  8
Layer100
  6
AUSGEZOGEN
 62
    18
420
        0
370
    50
100
AcDbLine
 10
3100.69842639049
 20
606.304875716689
 30
0.0
 11
3100.69842639049
 21
561.73193728388
 31
0.0
  0
LINE
  5
38D
330
35E
100
AcDbEntity
  8
Layer100
  6
AUSGEZOGEN
 62
    18
420
        0
370
    50
100
AcDbLine
 10
3324.999869059656
 20
561.731278371913
 30
0.0
 11
2737.117322035923
 21
561.733005346295
 31
0.0
  0
ENDBLK
  5
360
330
35E
100
AcDbEntity
  8
0
100
AcDbBlockEnd
  0
BLOCK
  5
390
330
38F
100
AcDbEntity
  8
0
100
AcDbBlockBegin
  2
Beschriftung_nNn026
 70
     0
 10
0.0
 20
0.0
 30
0.0
  3
Beschriftung_nNn026
  1

  0
TEXT
  5
392
330
38F
100
AcDbEntity
  8
Layer100
  6
AUSGEZOGEN
 62
    18
420
        0
370
    18
100
AcDbText
 10
2078.173796093603
 20
536.061520504009
 30
0.0
 40
14.799614687777
  1
Kundenzeichnung
 41
1.032581817144
  7
Arial
 72
     5
 11
2248.917493047992
 21
536.061520504009
 31
0.0
100
AcDbText
  0
TEXT
  5
393
330
38F
100
AcDbEntity
  8
Layer100
  6
AUSGEZOGEN
 62
    18
420
        0
370
    18
100
AcDbText
 10
2829.620745316902
 20
576.589160040057
 30
0.0
 40
14.799614687777
  1
1:10
 41
1.02622317732
  7
Arial
 72
     5
 11
2870.870559180242
 21
576.589160040057
 31
0.0
100
AcDbText
  0
TEXT
  5
394
330
38F
100
AcDbEntity
  8
Layer100
  6
AUSGEZOGEN
 62
    18
420
        0
370
    18
100
AcDbText
 10
3204.109282802106
 20
578.07494820689
 30
0.0
 40
14.799614687777
  1
1
 41
0.974226840702
  7
Arial
 72
     5
 11
3215.297791926152
 21
578.07494820689
 31
0.0
100
AcDbText
  0
TEXT
  5
395
330
38F
100
AcDbEntity
  8
Layer100
  6
AUSGEZOGEN
 62
    18
420
        0
370
    18
100
AcDbText
 10
2744.668621895595
 20
414.259519538161
 30
0.0
 40
24.666025776191
  1
Einbauspüle
 41
0.911214686759
  7
Arial
 72
     5
 11
2917.307123166027
 21
414.259519538161
 31
0.0
100
AcDbText
  0
TEXT
  5
396
330
38F
100
AcDbEntity
  8
Layer100
  6
AUSGEZOGEN
 62
    18
420
        0
370
    18
100
AcDbText
 10
2744.668621895595
 20
365.315909336585
 30
0.0
 40
24.666025776191
  1
Corno Basso PR2
 41
0.90932951502
  7
Arial
 72
     5
 11
2995.229071956219
 21
365.315909336585
 31
0.0
100
AcDbText
  0
TEXT
  5
397
330
38F
100
AcDbEntity
  8
Layer100
  6
AUSGEZOGEN
 62
    18
420
        0
370
    18
100
AcDbText
 10
2744.668621895595
 20
267.428688933432
 30
0.0
 40
24.666025776191
  1
1013144
 41
0.902739323416
  7
Arial
 72
     5
 11
2865.622919292014
 21
267.428688933432
 31
0.0
100
AcDbText
  0
TEXT
  5
398
330
38F
100
AcDbEntity
  8
Layer100
  6
AUSGEZOGEN
 62
    18
420
        0
370
    18
100
AcDbText
 10
2505.124609680451
 20
433.953496024034
 30
0.0
 40
14.799614687777
  1
11.12.23
 41
1.034889233423
  7
Arial
 72
     5
 11
2588.320914716859
 21
433.953496024034
 31
0.0
100
AcDbText
  0
TEXT
  5
399
330
38F
100
AcDbEntity
  8
Layer100
  6
AUSGEZOGEN
 62
    18
420
        0
370
    18
100
AcDbText
 10
2616.016846508594
 20
433.953496024034
 30
0.0
 40
14.799614687777
  1
CM
 41
0.997270426658
  7
Arial
 72
     5
 11
2648.059108903941
 21
433.953496024034
 31
0.0
100
AcDbText
  0
ENDBLK
  5
391
330
38F
100
AcDbEntity
  8
0
100
AcDbBlockEnd
  0
ENDSEC
  0
SECTION
  2
ENTITIES
  0
ARC
  5
65
330
1F
100
AcDbEntity
  8
0
  6
AUSGEZOGEN
 62
     7
370
    35
100
AcDbCircle
 10
1622.15620696
 20
872.1023218963
 30
0.0
 40
10.0
100
AcDbArc
 50
270.0
 51
0.0
  0
LINE
  5
66
330
1F
100
AcDbEntity
  8
0
  6
AUSGEZOGEN
 62
     7
370
    35
100
AcDbLine
 10
1252.15620696
 20
862.1023218963
 30
0.0
 11
1622.15620696
 21
862.1023218963
 31
0.0
  0
ARC
  5
67
330
1F
100
AcDbEntity
  8
0
  6
AUSGEZOGEN
 62
     7
370
    35
100
AcDbCircle
 10
1252.15620696
 20
872.1023218963
 30
0.0
 40
10.0
100
AcDbArc
 50
180.0
 51
270.0
  0
LINE
  5
68
330
1F
100
AcDbEntity
  8
0
  6
AUSGEZOGEN
 62
     7
370
    35
100
AcDbLine
 10
1242.15620696
 20
1362.1023218963
 30
0.0
 11
1242.15620696
 21
872.1023218963
 31
0.0
  0
ARC
  5
69
330
1F
100
AcDbEntity
  8
0
  6
AUSGEZOGEN
 62
     7
370
    35
100
AcDbCircle
 10
1252.15620696
 20
1362.1023218963
 30
0.0
 40
10.0
100
AcDbArc
 50
90.0
 51
180.0
  0
LINE
  5
6A
330
1F
100
AcDbEntity
  8
0
  6
AUSGEZOGEN
 62
     7
370
    35
100
AcDbLine
 10
1267.15620696
 20
1275.1023218963
 30
0.0
 11
1267.15620696
 21
899.1023218963
 31
0.0
  0
ARC
  5
6B
330
1F
100
AcDbEntity
  8
0
  6
AUSGEZOGEN
 62
     7
370
    35
100
AcDbCircle
 10
1279.15620696
 20
899.1023218963
 30
0.0
 40
12.0
100
AcDbArc
 50
180.0
 51
270.0
  0
LINE
  5
6C
330
1F
100
AcDbEntity
  8
0
  6
AUSGEZOGEN
 62
     7
370
    35
100
AcDbLine
 10
1279.15620696
 20
887.1023218963
 30
0.0
 11
1595.15620696
 21
887.1023218963
 31
0.0
  0
LINE
  5
6D
330
1F
100
AcDbEntity
  8
0
  6
AUSGEZOGEN
 62
     7
370
    35
100
AcDbLine
 10
1607.15620696
 20
899.1023218963
 30
0.0
 11
1607.15620696
 21
1275.1023218963
 31
0.0
  0
ARC
  5
6E
330
1F
100
AcDbEntity
  8
0
  6
AUSGEZOGEN
 62
     7
370
    35
100
AcDbCircle
 10
1595.15620696
 20
1275.1023218963
 30
0.0
 40
12.00000000000023
100
AcDbArc
 50
0.0
 51
90.0
  0
LINE
  5
6F
330
1F
100
AcDbEntity
  8
0
  6
AUSGEZOGEN
 62
     7
370
    35
100
AcDbLine
 10
1595.15620696
 20
1287.1023218963
 30
0.0
 11
1279.15620696
 21
1287.1023218963
 31
0.0
  0
ARC
  5
70
330
1F
100
AcDbEntity
  8
0
  6
AUSGEZOGEN
 62
     7
370
    35
100
AcDbCircle
 10
1595.15620696
 20
899.1023218963
 30
0.0
 40
12.0
100
AcDbArc
 50
270.0
 51
0.0
  0
LINE
  5
71
330
1F
100
AcDbEntity
  8
0
  6
AUSGEZOGEN
 62
     7
370
    35
100
AcDbLine
 10
1632.15620696
 20
872.1023218963
 30
0.0
 11
1632.15620696
 21
1362.1023218963
 31
0.0
  0
LINE
  5
72
330
1F
100
AcDbEntity
  8
0
  6
AUSGEZOGEN
 62
     7
370
    35
100
AcDbLine
 10
1622.15620696
 20
1372.1023218963
 30
0.0
 11
1252.15620696
 21
1372.1023218963
 31
0.0
  0
ARC
  5
73
330
1F
100
AcDbEntity
  8
0
  6
AUSGEZOGEN
 62
     7
370
    35
100
AcDbCircle
 10
1279.15620696
 20
1275.1023218963
 30
0.0
 40
12.00000000000023
100
AcDbArc
 50
90.0
 51
180.0
  0
ARC
  5
74
330
1F
100
AcDbEntity
  8
0
  6
AUSGEZOGEN
 62
     7
370
    35
100
AcDbCircle
 10
1622.15620696
 20
1362.1023218963
 30
0.0
 40
10.0
100
AcDbArc
 50
0.0
 51
90.0
  0
CIRCLE
  5
75
330
1F
100
AcDbEntity
  8
0
  6
AUSGEZOGEN
 62
     7
370
    35
100
AcDbCircle
 10
1437.15620696
 20
1332.1023218963
 30
0.0
 40
17.5
  0
CIRCLE
  5
76
330
1F
100
AcDbEntity
  8
0
  6
AUSGEZOGEN
 62
     7
370
    35
100
AcDbCircle
 10
1437.15620696
 20
1167.1023218963
 30
0.0
 40
59.99999999999977
  0
CIRCLE
  5
77
330
1F
100
AcDbEntity
  8
0
  6
AUSGEZOGEN
 62
     7
370
    35
100
AcDbCircle
 10
1437.15620696
 20
1167.1023218963
 30
0.0
 40
55.99999999999977
  0
CIRCLE
  5
78
330
1F
100
AcDbEntity
  8
0
  6
AUSGEZOGEN
 62
     7
370
    35
100
AcDbCircle
 10
1437.15620696
 20
1167.1023218963
 30
0.0
 40
45.0
  0
DIMENSION
  5
82
330
1F
100
AcDbEntity
  8
SLD-0
  6
AUSGEZOGEN
 62
     7
370
    18
100
AcDbDimension
280
     0
  2
*D1
 10
1549.6080132074
 20
1287.1023218963
 30
0.0
 11
1533.99081114967
 21
1229.954438275809
 31
0.0
 70
   160
 71
     5
 42
-1.0
 73
     0
 74
     0
 75
     0
 53
90.0
  3
ISO-25
100
AcDbAlignedDimension
 13
1678.95620696
 23
1167.1023218963
 33
0.0
 14
1595.15620696
 24
1287.1023218963
 34
0.0
 50
90.0
100
AcDbRotatedDimension
1001
ACAD
1000
DSTYLE
1002
{
1070
     3
1000
<>
1070
   340
1005
5F
1070
    44
1040
9.768009936716
1070
   280
1070
     3
1070
    77
1070
     1
1070
   179
1070
     0
1070
   271
1070
     0
1070
   173
1070
     1
1070
    41
1040
13.675213911402
1070
   147
1040
3.101343154907
1070
   140
1040
21.709402084351
1070
   178
1070
     7
1070
   177
1070
     7
1070
   176
1070
     7
1002
}
  0
DIMENSION
  5
8C
330
1F
100
AcDbEntity
  8
SLD-0
  6
AUSGEZOGEN
 62
     7
370
    18
100
AcDbDimension
280
     0
  2
*D2
 10
1607.15620696
 20
775.6878489986
 30
0.0
 11
1437.283996297412
 21
787.467773052534
 31
0.0
 70
   160
 71
     5
 42
-1.0
 73
     0
 74
     0
 75
     0
  3
ISO-25
100
AcDbAlignedDimension
 13
1267.15620696
 23
899.1023218963
 33
0.0
 14
1607.15620696
 24
899.1023218963
 34
0.0
100
AcDbRotatedDimension
1001
ACAD
1000
DSTYLE
1002
{
1070
     3
1000
<>
1070
   340
1005
5F
1070
    44
1040
9.768009936716
1070
   280
1070
     3
1070
    77
1070
     1
1070
   179
1070
     0
1070
   271
1070
     0
1070
   173
1070
     1
1070
    41
1040
13.675213911402
1070
   147
1040
3.101343154907
1070
   140
1040
21.709402084351
1070
   178
1070
     7
1070
   177
1070
     7
1070
   176
1070
     7
1002
}
  0
DIMENSION
  5
96
330
1F
100
AcDbEntity
  8
SLD-0
  6
AUSGEZOGEN
 62
     7
370
    18
100
AcDbDimension
280
     0
  2
*D3
 10
1632.15620696
 20
702.1023218963
 30
0.0
 11
1436.911237205062
 21
718.528861867265
 31
0.0
 70
   160
 71
     5
 42
-1.0
 73
     0
 74
     0
 75
     0
  3
ISO-25
100
AcDbAlignedDimension
 13
1242.15620696
 23
872.1023218963
 33
0.0
 14
1632.15620696
 24
872.1023218963
 34
0.0
100
AcDbRotatedDimension
1001
ACAD
1000
DSTYLE
1002
{
1070
     3
1000
<>
1070
   340
1005
5F
1070
    44
1040
9.768009936716
1070
   280
1070
     3
1070
    77
1070
     1
1070
   179
1070
     0
1070
   271
1070
     0
1070
   173
1070
     1
1070
    41
1040
13.675213911402
1070
   147
1040
3.101343154907
1070
   140
1040
21.709402084351
1070
   178
1070
     7
1070
   177
1070
     7
1070
   176
1070
     7
1002
}
  0
INSERT
  5
9E
330
1F
100
AcDbEntity
  8
0
100
AcDbBlockReference
  2
_D_3_nNn03
 10
0.0
 20
0.0
 30
0.0
  0
DIMENSION
  5
A8
330
1F
100
AcDbEntity
  8
SLD-0
  6
AUSGEZOGEN
 62
     7
370
    18
100
AcDbDimension
280
     0
  2
*D5
 10
1105.1844000709
 20
1287.1023218963
 30
0.0
 11
1090.457612254502
 21
1087.74360118494
 31
0.0
 70
   160
 71
     5
 42
-1.0
 73
     0
 74
     0
 75
     0
 53
90.0
  3
ISO-25
100
AcDbAlignedDimension
 13
1279.15620696
 23
887.1023218963
 33
0.0
 14
1279.15620696
 24
1287.1023218963
 34
0.0
 50
90.0
100
AcDbRotatedDimension
1001
ACAD
1000
DSTYLE
1002
{
1070
     3
1000
<>
1070
   340
1005
5F
1070
    44
1040
9.768009936716
1070
   280
1070
     3
1070
    77
1070
     1
1070
   179
1070
     0
1070
   271
1070
     0
1070
   173
1070
     1
1070
    41
1040
13.675213911402
1070
   147
1040
3.101343154907
1070
   140
1040
21.709402084351
1070
   178
1070
     7
1070
   177
1070
     7
1070
   176
1070
     7
1002
}
  0
DIMENSION
  5
B2
330
1F
100
AcDbEntity
  8
SLD-0
  6
AUSGEZOGEN
 62
     7
370
    18
100
AcDbDimension
280
     0
  2
*D6
 10
1105.1844000709
 20
1372.1023218963
 30
0.0
 11
1088.972443299596
 21
1329.999107887739
 31
0.0
 70
   160
 71
     5
 42
-1.0
 73
     0
 74
     0
 75
     0
 53
90.0
  3
ISO-25
100
AcDbAlignedDimension
 13
1279.15620696
 23
1287.1023218963
 33
0.0
 14
1252.15620696
 24
1372.1023218963
 34
0.0
 50
90.0
100
AcDbRotatedDimension
1001
ACAD
1000
DSTYLE
1002
{
1070
     3
1000
<>
1070
   340
1005
5F
1070
    44
1040
9.768009936716
1070
   280
1070
     3
1070
    77
1070
     1
1070
   179
1070
     0
1070
   271
1070
     0
1070
   173
1070
     1
1070
    41
1040
13.675213911402
1070
   147
1040
3.101343154907
1070
   140
1040
21.709402084351
1070
   178
1070
     7
1070
   177
1070
     7
1070
   176
1070
     7
1002
}
  0
DIMENSION
  5
BC
330
1F
100
AcDbEntity
  8
SLD-0
  6
AUSGEZOGEN
 62
     7
370
    18
100
AcDbDimension
280
     0
  2
*D7
 10
1022.15620696
 20
862.1023218963
 30
0.0
 11
1007.415907248986
 21
1119.672751061088
 31
0.0
 70
   160
 71
     5
 42
-1.0
 73
     0
 74
     0
 75
     0
 53
90.0
  3
ISO-25
100
AcDbAlignedDimension
 13
1252.15620696
 23
1372.1023218963
 33
0.0
 14
1252.15620696
 24
862.1023218963
 34
0.0
 50
-90.0
100
AcDbRotatedDimension
1001
ACAD
1000
DSTYLE
1002
{
1070
     3
1000
<>
1070
   340
1005
5F
1070
    44
1040
9.768009936716
1070
   280
1070
     3
1070
    77
1070
     1
1070
   179
1070
     0
1070
   271
1070
     0
1070
   173
1070
     1
1070
    41
1040
13.675213911402
1070
   147
1040
3.101343154907
1070
   140
1040
21.709402084351
1070
   178
1070
     7
1070
   177
1070
     7
1070
   176
1070
     7
1002
}
  0
DIMENSION
  5
C7
330
1F
100
AcDbEntity
  8
SLD-0
  6
AUSGEZOGEN
 62
     7
370
    18
100
AcDbDimension
280
     0
  2
*D8
 10
1105.1844000709
 20
862.1023218963
 30
0.0
 11
1091.691483390547
 21
875.141888913029
 31
0.0
 70
   160
 71
     5
 42
-1.0
 73
     0
 74
     0
 75
     0
 53
90.0
  3
ISO-25
100
AcDbAlignedDimension
 13
1279.15620696
 23
887.1023218963
 33
0.0
 14
1252.15620696
 24
862.1023218963
 34
0.0
 50
-90.0
100
AcDbRotatedDimension
1001
ACAD
1000
DSTYLE
1002
{
1070
     3
1000
<>
1070
   340
1005
5F
1070
    44
1040
9.768009936716
1070
   280
1070
     3
1070
    77
1070
     1
1070
   179
1070
     0
1070
   271
1070
     0
1070
   173
1070
     1
1070
    41
1040
13.675213911402
1070
   147
1040
3.101343154907
1070
   140
1040
21.709402084351
1070
   178
1070
     7
1070
   177
1070
     7
1070
   176
1070
     7
1002
}
  0
DIMENSION
  5
D1
330
1F
100
AcDbEntity
  8
SLD-0
  6
AUSGEZOGEN
 62
     7
370
    18
100
AcDbDimension
280
     0
  2
*D9
 10
1242.15620696
 20
1458.2744156297
 30
0.0
 11
1339.694433924365
 21
1475.162943106008
 31
0.0
 70
   160
 71
     5
 42
-1.0
 73
     0
 74
     0
 75
     0
  3
ISO-25
100
AcDbAlignedDimension
 13
1437.15620696
 23
1332.1023218963
 33
0.0
 14
1242.15620696
 24
1362.1023218963
 34
0.0
 50
180.0
100
AcDbRotatedDimension
1001
ACAD
1000
DSTYLE
1002
{
1070
     3
1000
<>
1070
   340
1005
5F
1070
    44
1040
9.768009936716
1070
   280
1070
     3
1070
    77
1070
     1
1070
   179
1070
     0
1070
   271
1070
     0
1070
   173
1070
     1
1070
    41
1040
13.675213911402
1070
   147
1040
3.101343154907
1070
   140
1040
21.709402084351
1070
   178
1070
     7
1070
   177
1070
     7
1070
   176
1070
     7
1002
}
  0
INSERT
  5
DA
330
1F
100
AcDbEntity
  8
0
100
AcDbBlockReference
  2
_D_9_nNn09
 10
0.0
 20
0.0
 30
0.0
  0
INSERT
  5
E6
330
1F
100
AcDbEntity
  8
0
100
AcDbBlockReference
  2
_D_10_nNn010
 10
0.0
 20
0.0
 30
0.0
  0
DIMENSION
  5
F1
330
1F
100
AcDbEntity
  8
SLD-0
  6
AUSGEZOGEN
 62
     7
370
    18
100
AcDbDimension
280
     0
  2
*D12
 10
1549.6080132074
 20
1372.1023218963
 30
0.0
 11
1533.99081114967
 21
1353.413817796914
 31
0.0
 70
   160
 71
     5
 42
-1.0
 73
     0
 74
     0
 75
     0
 53
90.0
  3
ISO-25
100
AcDbAlignedDimension
 13
1437.15620696
 23
1332.1023218963
 33
0.0
 14
1622.15620696
 24
1372.1023218963
 34
0.0
 50
90.0
100
AcDbRotatedDimension
1001
ACAD
1000
DSTYLE
1002
{
1070
     3
1000
<>
1070
   340
1005
5F
1070
    44
1040
9.768009936716
1070
   280
1070
     3
1070
    77
1070
     1
1070
   179
1070
     0
1070
   271
1070
     0
1070
   173
1070
     1
1070
    41
1040
13.675213911402
1070
   147
1040
3.101343154907
1070
   140
1040
21.709402084351
1070
   178
1070
     7
1070
   177
1070
     7
1070
   176
1070
     7
1002
}
  0
LINE
  5
F2
330
1F
100
AcDbEntity
  8
0
  6
DASHDOT
 62
     7
370
    18
100
AcDbLine
 10
1678.95620696
 20
1167.1023218963
 30
0.0
 11
1195.35620696
 21
1167.1023218963
 31
0.0
  0
LINE
  5
F3
330
1F
100
AcDbEntity
  8
0
  6
AUSGEZOGEN
 62
     7
370
    18
100
AcDbLine
 10
1658.95620696
 20
1047.1023218963
 30
0.0
 11
1658.95620696
 21
1167.1023218963
 31
0.0
  0
LINE
  5
F4
330
1F
100
AcDbEntity
  8
0
  6
AUSGEZOGEN
 62
     7
370
    18
100
AcDbLine
 10
1658.95620696
 20
1167.1023218963
 30
0.0
 11
1643.95620696
 21
1107.1023218963
 31
0.0
  0
LINE
  5
F5
330
1F
100
AcDbEntity
  8
0
  6
AUSGEZOGEN
 62
     7
370
    18
100
AcDbLine
 10
1643.95620696
 20
1107.1023218963
 30
0.0
 11
1673.95620696
 21
1107.1023218963
 31
0.0
  0
LINE
  5
F6
330
1F
100
AcDbEntity
  8
0
  6
AUSGEZOGEN
 62
     7
370
    18
100
AcDbLine
 10
1673.95620696
 20
1107.1023218963
 30
0.0
 11
1658.95620696
 21
1167.1023218963
 31
0.0
  0
LINE
  5
F7
330
1F
100
AcDbEntity
  8
0
  6
AUSGEZOGEN
 62
     7
370
    18
100
AcDbLine
 10
1215.35620696
 20
1047.1023218963
 30
0.0
 11
1215.35620696
 21
1167.1023218963
 31
0.0
  0
LINE
  5
F8
330
1F
100
AcDbEntity
  8
0
  6
AUSGEZOGEN
 62
     7
370
    18
100
AcDbLine
 10
1215.35620696
 20
1167.1023218963
 30
0.0
 11
1200.35620696
 21
1107.1023218963
 31
0.0
  0
LINE
  5
F9
330
1F
100
AcDbEntity
  8
0
  6
AUSGEZOGEN
 62
     7
370
    18
100
AcDbLine
 10
1200.35620696
 20
1107.1023218963
 30
0.0
 11
1230.35620696
 21
1107.1023218963
 31
0.0
  0
LINE
  5
FA
330
1F
100
AcDbEntity
  8
0
  6
AUSGEZOGEN
 62
     7
370
    18
100
AcDbLine
 10
1230.35620696
 20
1107.1023218963
 30
0.0
 11
1215.35620696
 21
1167.1023218963
 31
0.0
  0
TEXT
  5
FB
330
1F
100
AcDbEntity
  8
0
  6
AUSGEZOGEN
 62
     7
370
    18
100
AcDbText
 10
1684.0040143999
 20
1084.445057126
 30
0.0
 40
63.5
  1
A
 41
0.537056928034
  7
Arial
 72
     5
 11
1715.7540143999
 21
1084.445057126
 31
0.0
100
AcDbText
  0
TEXT
  5
FC
330
1F
100
AcDbEntity
  8
0
  6
AUSGEZOGEN
 62
     7
370
    18
100
AcDbText
 10
1127.6888809206
 20
1084.445057126
 30
0.0
 40
63.5
  1
A
 41
0.537056928034
  7
Arial
 72
     5
 11
1159.4388809206
 21
1084.445057126
 31
0.0
100
AcDbText
  0
LINE
  5
FD
330
1F
100
AcDbEntity
  8
0
  6
AUSGEZOGEN
 62
     7
370
    35
100
AcDbLine
 10
2252.9514311403
 20
1347.2304228963
 30
0.0
 11
2251.9514311403
 21
1347.2304228963
 31
0.0
  0
LINE
  5
FE
330
1F
100
AcDbEntity
  8
0
  6
AUSGEZOGEN
 62
     7
370
    35
100
AcDbLine
 10
2251.9514311403
 20
1340.7304228963
 30
0.0
 11
2252.8324215331
 21
1340.7304228963
 31
0.0
  0
LINE
  5
FF
330
1F
100
AcDbEntity
  8
0
  6
AUSGEZOGEN
 62
     7
370
    35
100
AcDbLine
 10
2251.9514311403
 20
1346.4804228963
 30
0.0
 11
2202.9514311403
 21
1346.4804228963
 31
0.0
  0
LINE
  5
100
330
1F
100
AcDbEntity
  8
0
  6
AUSGEZOGEN
 62
     7
370
    35
100
AcDbLine
 10
2202.9514311403
 20
1341.4804228963
 30
0.0
 11
2251.9514311403
 21
1341.4804228963
 31
0.0
  0
LINE
  5
101
330
1F
100
AcDbEntity
  8
0
  6
AUSGEZOGEN
 62
     7
370
    35
100
AcDbLine
 10
2253.9514311403
 20
872.2543218963
 30
0.0
 11
2252.9514311403
 21
872.2543218963
 31
0.0
  0
LINE
  5
102
330
1F
100
AcDbEntity
  8
0
  6
AUSGEZOGEN
 62
     7
370
    35
100
AcDbLine
 10
2252.9514311403
 20
865.7543218963
 30
0.0
 11
2253.9514311403
 21
865.7543218963
 31
0.0
  0
LINE
  5
103
330
1F
100
AcDbEntity
  8
0
  6
AUSGEZOGEN
 62
     7
370
    35
100
AcDbLine
 10
2252.9514311403
 20
871.5043218963
 30
0.0
 11
2203.9514311403
 21
871.5043218963
 31
0.0
  0
LINE
  5
104
330
1F
100
AcDbEntity
  8
0
  6
AUSGEZOGEN
 62
     7
370
    35
100
AcDbLine
 10
2203.9514311403
 20
866.5043218963
 30
0.0
 11
2252.9514311403
 21
866.5043218963
 31
0.0
  0
LINE
  5
105
330
1F
100
AcDbEntity
  8
0
  6
AUSGEZOGEN
 62
     7
370
    35
100
AcDbLine
 10
2253.9514311403
 20
1245.3523218963
 30
0.0
 11
2252.9514311403
 21
1245.3523218963
 31
0.0
  0
LINE
  5
106
330
1F
100
AcDbEntity
  8
0
  6
AUSGEZOGEN
 62
     7
370
    35
100
AcDbLine
 10
2252.9514311403
 20
1238.8523218963
 30
0.0
 11
2253.9514311403
 21
1238.8523218963
 31
0.0
  0
LINE
  5
107
330
1F
100
AcDbEntity
  8
0
  6
AUSGEZOGEN
 62
     7
370
    35
100
AcDbLine
 10
2252.9514311403
 20
1244.6023218963
 30
0.0
 11
2203.9514311403
 21
1244.6023218963
 31
0.0
  0
LINE
  5
108
330
1F
100
AcDbEntity
  8
0
  6
AUSGEZOGEN
 62
     7
370
    35
100
AcDbLine
 10
2203.9514311403
 20
1239.6023218963
 30
0.0
 11
2252.9514311403
 21
1239.6023218963
 31
0.0
  0
LINE
  5
109
330
1F
100
AcDbEntity
  8
0
  6
AUSGEZOGEN
 62
     7
370
    35
100
AcDbLine
 10
2253.9514311403
 20
920.3523218963
 30
0.0
 11
2252.9514311403
 21
920.3523218963
 31
0.0
  0
LINE
  5
10A
330
1F
100
AcDbEntity
  8
0
  6
AUSGEZOGEN
 62
     7
370
    35
100
AcDbLine
 10
2252.9514311403
 20
913.8523218963
 30
0.0
 11
2253.9514311403
 21
913.8523218963
 31
0.0
  0
LINE
  5
10B
330
1F
100
AcDbEntity
  8
0
  6
AUSGEZOGEN
 62
     7
370
    35
100
AcDbLine
 10
2252.9514311403
 20
919.6023218963
 30
0.0
 11
2203.9514311403
 21
919.6023218963
 31
0.0
  0
LINE
  5
10C
330
1F
100
AcDbEntity
  8
0
  6
AUSGEZOGEN
 62
     7
370
    35
100
AcDbLine
 10
2203.9514311403
 20
914.6023218963
 30
0.0
 11
2252.9514311403
 21
914.6023218963
 31
0.0
  0
LINE
  5
10D
330
1F
100
AcDbEntity
  8
0
  6
AUSGEZOGEN
 62
     7
370
    35
100
AcDbLine
 10
2074.9514311403
 20
1217.4336927462
 30
0.0
 11
2070.9514311403
 21
1213.4336927462
 31
0.0
  0
LINE
  5
10E
330
1F
100
AcDbEntity
  8
0
  6
AUSGEZOGEN
 62
     7
370
    35
100
AcDbLine
 10
2070.9514311403
 20
1100.7709510464
 30
0.0
 11
2074.9514311403
 21
1096.7709510464
 31
0.0
  0
LINE
  5
10F
330
1F
100
AcDbEntity
  8
0
  6
AUSGEZOGEN
 62
     7
370
    35
100
AcDbLine
 10
2242.9264311403
 20
1277.9023218963
 30
0.0
 11
2253.8514311403
 21
1277.9023218963
 31
0.0
  0
LINE
  5
110
330
1F
100
AcDbEntity
  8
0
  6
AUSGEZOGEN
 62
     7
370
    35
100
AcDbLine
 10
2242.9264311403
 20
1278.9023218963
 30
0.0
 11
2253.8514311403
 21
1278.9023218963
 31
0.0
  0
ARC
  5
111
330
1F
100
AcDbEntity
  8
0
  6
AUSGEZOGEN
 62
     7
370
    35
100
AcDbCircle
 10
2253.8514311403
 20
1279.0023218963
 30
0.0
 40
0.1000000000003638
100
AcDbArc
 50
270.0
 51
0.0
  0
ARC
  5
112
330
1F
100
AcDbEntity
  8
0
  6
AUSGEZOGEN
 62
     7
370
    35
100
AcDbCircle
 10
2253.8514311403
 20
1279.0023218963
 30
0.0
 40
1.099999999999909
100
AcDbArc
 50
270.0
 51
0.0
  0
LINE
  5
113
330
1F
100
AcDbEntity
  8
0
  6
AUSGEZOGEN
 62
     7
370
    35
100
AcDbLine
 10
2253.9514311403
 20
1279.0023218963
 30
0.0
 11
2253.9514311403
 21
1340.9365122093
 31
0.0
  0
LINE
  5
114
330
1F
100
AcDbEntity
  8
0
  6
AUSGEZOGEN
 62
     7
370
    35
100
AcDbLine
 10
2253.9514311403
 20
1340.9365122093
 30
0.0
 11
2253.9514311403
 21
1343.0578325528
 31
0.0
  0
LINE
  5
115
330
1F
100
AcDbEntity
  8
0
  6
AUSGEZOGEN
 62
     7
370
    35
100
AcDbLine
 10
2239.9264311403
 20
1277.9023218963
 30
0.0
 11
2239.9264311403
 21
1278.9023218963
 31
0.0
  0
LINE
  5
116
330
1F
100
AcDbEntity
  8
0
  6
AUSGEZOGEN
 62
     7
370
    35
100
AcDbLine
 10
2239.9264311403
 20
1277.9023218963
 30
0.0
 11
2242.9264311403
 21
1277.9023218963
 31
0.0
  0
LINE
  5
117
330
1F
100
AcDbEntity
  8
0
  6
AUSGEZOGEN
 62
     7
370
    35
100
AcDbLine
 10
2239.9264311403
 20
1278.9023218963
 30
0.0
 11
2242.9264311403
 21
1278.9023218963
 31
0.0
  0
LINE
  5
118
330
1F
100
AcDbEntity
  8
0
  6
AUSGEZOGEN
 62
     7
370
    35
100
AcDbLine
 10
2254.9514311403
 20
1350.1791528963
 30
0.0
 11
2253.9514311403
 21
1350.1791528963
 31
0.0
  0
LINE
  5
119
330
1F
100
AcDbEntity
  8
0
  6
AUSGEZOGEN
 62
     7
370
    35
100
AcDbLine
 10
2253.9514311403
 20
1343.0578325528
 30
0.0
 11
2253.9514311403
 21
1350.1791528963
 31
0.0
  0
LINE
  5
11A
330
1F
100
AcDbEntity
  8
0
  6
AUSGEZOGEN
 62
     7
370
    35
100
AcDbLine
 10
2246.4264311403
 20
1351.5559598963
 30
0.0
 11
2246.4264311403
 21
1350.5559598963
 31
0.0
  0
LINE
  5
11B
330
1F
100
AcDbEntity
  8
0
  6
AUSGEZOGEN
 62
     7
370
    35
100
AcDbLine
 10
2249.4264311403
 20
1351.5559598963
 30
0.0
 11
2246.4264311403
 21
1351.5559598963
 31
0.0
  0
LINE
  5
11C
330
1F
100
AcDbEntity
  8
0
  6
AUSGEZOGEN
 62
     7
370
    35
100
AcDbLine
 10
2249.4264311403
 20
1350.5559598963
 30
0.0
 11
2246.4264311403
 21
1350.5559598963
 31
0.0
  0
LINE
  5
11D
330
1F
100
AcDbEntity
  8
0
  6
AUSGEZOGEN
 62
     7
370
    35
100
AcDbLine
 10
2253.8514311403
 20
1351.5559598963
 30
0.0
 11
2249.4264311403
 21
1351.5559598963
 31
0.0
  0
LINE
  5
11E
330
1F
100
AcDbEntity
  8
0
  6
AUSGEZOGEN
 62
     7
370
    35
100
AcDbLine
 10
2253.8514311403
 20
1350.5559598963
 30
0.0
 11
2249.4264311403
 21
1350.5559598963
 31
0.0
  0
ARC
  5
11F
330
1F
100
AcDbEntity
  8
0
  6
AUSGEZOGEN
 62
     7
370
    35
100
AcDbCircle
 10
2253.8514311403
 20
1350.4559598963
 30
0.0
 40
1.100000000000136
100
AcDbArc
 50
0.0
 51
90.0
  0
ARC
  5
120
330
1F
100
AcDbEntity
  8
0
  6
AUSGEZOGEN
 62
     7
370
    35
100
AcDbCircle
 10
2253.8514311403
 20
1350.4559598963
 30
0.0
 40
0.1000000000001364
100
AcDbArc
 50
0.0000000001
 51
90.0
  0
LINE
  5
121
330
1F
100
AcDbEntity
  8
0
  6
AUSGEZOGEN
 62
     7
370
    35
100
AcDbLine
 10
2253.9514311403
 20
1350.1791528963
 30
0.0
 11
2253.9514311403
 21
1350.4559598963
 31
0.0
  0
LINE
  5
122
330
1F
100
AcDbEntity
  8
0
  6
AUSGEZOGEN
 62
     7
370
    35
100
AcDbLine
 10
2074.9514311403
 20
1056.3023218963
 30
0.0
 11
2073.1514311403
 21
1056.3023218963
 31
0.0
  0
LINE
  5
123
330
1F
100
AcDbEntity
  8
0
  6
AUSGEZOGEN
 62
     7
370
    35
100
AcDbLine
 10
2074.9514311403
 20
956.3023218963
 30
0.0
 11
2073.1514311403
 21
956.3023218963
 31
0.0
  0
LINE
  5
124
330
1F
100
AcDbEntity
  8
0
  6
AUSGEZOGEN
 62
     7
370
    35
100
AcDbLine
 10
2073.1514311403
 20
1056.3023218963
 30
0.0
 11
2073.1514311403
 21
956.3023218963
 31
0.0
  0
LINE
  5
125
330
1F
100
AcDbEntity
  8
0
  6
AUSGEZOGEN
 62
     7
370
    35
100
AcDbLine
 10
2254.9514311403
 20
1267.1023218963
 30
0.0
 11
2253.9514311403
 21
1267.1023218963
 31
0.0
  0
LINE
  5
126
330
1F
100
AcDbEntity
  8
0
  6
AUSGEZOGEN
 62
     7
370
    35
100
AcDbLine
 10
2253.9514311403
 20
1265.1023218963
 30
0.0
 11
2253.9514311403
 21
1267.1023218963
 31
0.0
  0
LINE
  5
127
330
1F
100
AcDbEntity
  8
0
  6
AUSGEZOGEN
 62
     7
370
    35
100
AcDbLine
 10
2253.9514311403
 20
1219.1023218963
 30
0.0
 11
2253.9514311403
 21
1265.1023218963
 31
0.0
  0
LINE
  5
128
330
1F
100
AcDbEntity
  8
0
  6
AUSGEZOGEN
 62
     7
370
    35
100
AcDbLine
 10
2254.9514311403
 20
1217.1023218963
 30
0.0
 11
2253.9514311403
 21
1217.1023218963
 31
0.0
  0
LINE
  5
129
330
1F
100
AcDbEntity
  8
0
  6
AUSGEZOGEN
 62
     7
370
    35
100
AcDbLine
 10
2253.9514311403
 20
1217.1023218963
 30
0.0
 11
2253.9514311403
 21
1219.1023218963
 31
0.0
  0
LINE
  5
12A
330
1F
100
AcDbEntity
  8
0
  6
AUSGEZOGEN
 62
     7
370
    35
100
AcDbLine
 10
2253.9514311403
 20
1217.1023218963
 30
0.0
 11
2252.9514311403
 21
1217.1023218963
 31
0.0
  0
LINE
  5
12B
330
1F
100
AcDbEntity
  8
0
  6
AUSGEZOGEN
 62
     7
370
    35
100
AcDbLine
 10
2252.9514311403
 20
1267.1023218963
 30
0.0
 11
2253.9514311403
 21
1267.1023218963
 31
0.0
  0
LINE
  5
12C
330
1F
100
AcDbEntity
  8
0
  6
AUSGEZOGEN
 62
     7
370
    35
100
AcDbLine
 10
2246.8414311403
 20
1217.1023218963
 30
0.0
 11
2252.9514311403
 21
1217.1023218963
 31
0.0
  0
ARC
  5
12D
330
1F
100
AcDbEntity
  8
0
  6
AUSGEZOGEN
 62
     7
370
    35
100
AcDbCircle
 10
2246.8414311403
 20
1219.1023218963
 30
0.0
 40
2.000000000000455
100
AcDbArc
 50
179.9999999999
 51
270.0
  0
LINE
  5
12E
330
1F
100
AcDbEntity
  8
0
  6
AUSGEZOGEN
 62
     7
370
    35
100
AcDbLine
 10
2244.8414311403
 20
1225.6023218963
 30
0.0
 11
2244.8414311403
 21
1219.1023218963
 31
0.0
  0
ARC
  5
12F
330
1F
100
AcDbEntity
  8
0
  6
AUSGEZOGEN
 62
     7
370
    35
100
AcDbCircle
 10
2240.8414311403
 20
1225.6023218963
 30
0.0
 40
4.0
100
AcDbArc
 50
0.0
 51
90.0
  0
LINE
  5
130
330
1F
100
AcDbEntity
  8
0
  6
AUSGEZOGEN
 62
     7
370
    35
100
AcDbLine
 10
2206.8414311403
 20
1229.6023218963
 30
0.0
 11
2240.8414311403
 21
1229.6023218963
 31
0.0
  0
ARC
  5
131
330
1F
100
AcDbEntity
  8
0
  6
AUSGEZOGEN
 62
     7
370
    35
100
AcDbCircle
 10
2206.8414311403
 20
1231.6023218963
 30
0.0
 40
2.000000000000227
100
AcDbArc
 50
180.0
 51
270.0
  0
LINE
  5
132
330
1F
100
AcDbEntity
  8
0
  6
AUSGEZOGEN
 62
     7
370
    35
100
AcDbLine
 10
2204.8414311403
 20
1252.6023218963
 30
0.0
 11
2204.8414311403
 21
1244.6023218963
 31
0.0
  0
LINE
  5
133
330
1F
100
AcDbEntity
  8
0
  6
AUSGEZOGEN
 62
     7
370
    35
100
AcDbLine
 10
2204.8414311403
 20
1239.6023218963
 30
0.0
 11
2204.8414311403
 21
1231.6023218963
 31
0.0
  0
ARC
  5
134
330
1F
100
AcDbEntity
  8
0
  6
AUSGEZOGEN
 62
     7
370
    35
100
AcDbCircle
 10
2206.8414311403
 20
1252.6023218963
 30
0.0
 40
2.0
100
AcDbArc
 50
90.0
 51
180.0
  0
LINE
  5
135
330
1F
100
AcDbEntity
  8
0
  6
AUSGEZOGEN
 62
     7
370
    35
100
AcDbLine
 10
2240.8414311403
 20
1254.6023218963
 30
0.0
 11
2206.8414311403
 21
1254.6023218963
 31
0.0
  0
ARC
  5
136
330
1F
100
AcDbEntity
  8
0
  6
AUSGEZOGEN
 62
     7
370
    35
100
AcDbCircle
 10
2240.8414311403
 20
1258.6023218963
 30
0.0
 40
4.000000000000227
100
AcDbArc
 50
270.0
 51
0.0
  0
LINE
  5
137
330
1F
100
AcDbEntity
  8
0
  6
AUSGEZOGEN
 62
     7
370
    35
100
AcDbLine
 10
2244.8414311403
 20
1265.1023218963
 30
0.0
 11
2244.8414311403
 21
1258.6023218963
 31
0.0
  0
ARC
  5
138
330
1F
100
AcDbEntity
  8
0
  6
AUSGEZOGEN
 62
     7
370
    35
100
AcDbCircle
 10
2246.8414311403
 20
1265.1023218963
 30
0.0
 40
2.000000000000455
100
AcDbArc
 50
90.0
 51
180.0
  0
LINE
  5
139
330
1F
100
AcDbEntity
  8
0
  6
AUSGEZOGEN
 62
     7
370
    35
100
AcDbLine
 10
2252.9514311403
 20
1267.1023218963
 30
0.0
 11
2246.8414311403
 21
1267.1023218963
 31
0.0
  0
LINE
  5
13A
330
1F
100
AcDbEntity
  8
0
  6
AUSGEZOGEN
 62
     7
370
    35
100
AcDbLine
 10
2254.9514311403
 20
865.3043218963
 30
0.0
 11
2253.9514311403
 21
865.3043218963
 31
0.0
  0
LINE
  5
13B
330
1F
100
AcDbEntity
  8
0
  6
AUSGEZOGEN
 62
     7
370
    35
100
AcDbLine
 10
2253.9514311403
 20
865.3043218963
 30
0.0
 11
2253.9514311403
 21
867.3043218963
 31
0.0
  0
LINE
  5
13C
330
1F
100
AcDbEntity
  8
0
  6
AUSGEZOGEN
 62
     7
370
    35
100
AcDbLine
 10
2252.9514311403
 20
875.3023218963
 30
0.0
 11
2246.8414311403
 21
875.3023218963
 31
0.0
  0
LINE
  5
13D
330
1F
100
AcDbEntity
  8
0
  6
AUSGEZOGEN
 62
     7
370
    35
100
AcDbLine
 10
2244.8414311403
 20
876.3023218963
 30
0.0
 11
2244.8414311403
 21
875.3023218963
 31
0.0
  0
LINE
  5
13E
330
1F
100
AcDbEntity
  8
0
  6
AUSGEZOGEN
 62
     7
370
    35
100
AcDbLine
 10
2246.8414311403
 20
875.3023218963
 30
0.0
 11
2244.8414311403
 21
875.3023218963
 31
0.0
  0
LINE
  5
13F
330
1F
100
AcDbEntity
  8
0
  6
AUSGEZOGEN
 62
     7
370
    35
100
AcDbLine
 10
2253.9514311403
 20
867.3043218963
 30
0.0
 11
2253.9514311403
 21
874.3023218963
 31
0.0
  0
ARC
  5
140
330
1F
100
AcDbEntity
  8
0
  6
AUSGEZOGEN
 62
     7
370
    35
100
AcDbCircle
 10
2252.9514311403
 20
874.3023218963
 30
0.0
 40
1.0
100
AcDbArc
 50
0.0
 51
90.0
  0
ARC
  5
141
330
1F
100
AcDbEntity
  8
0
  6
AUSGEZOGEN
 62
     7
370
    35
100
AcDbCircle
 10
2252.9514311403
 20
874.3023218963
 30
0.0
 40
2.0
100
AcDbArc
 50
0.0
 51
90.0
  0
LINE
  5
142
330
1F
100
AcDbEntity
  8
0
  6
AUSGEZOGEN
 62
     7
370
    35
100
AcDbLine
 10
2244.8414311403
 20
875.3023218963
 30
0.0
 11
2240.8414311403
 21
875.3023218963
 31
0.0
  0
LINE
  5
143
330
1F
100
AcDbEntity
  8
0
  6
AUSGEZOGEN
 62
     7
370
    35
100
AcDbLine
 10
2204.8414311403
 20
876.3023218963
 30
0.0
 11
2204.8414311403
 21
875.3023218963
 31
0.0
  0
LINE
  5
144
330
1F
100
AcDbEntity
  8
0
  6
AUSGEZOGEN
 62
     7
370
    35
100
AcDbLine
 10
2206.8414311403
 20
875.3023218963
 30
0.0
 11
2204.8414311403
 21
875.3023218963
 31
0.0
  0
LINE
  5
145
330
1F
100
AcDbEntity
  8
0
  6
AUSGEZOGEN
 62
     7
370
    35
100
AcDbLine
 10
2240.8414311403
 20
875.3023218963
 30
0.0
 11
2206.8414311403
 21
875.3023218963
 31
0.0
  0
LINE
  5
146
330
1F
100
AcDbEntity
  8
0
  6
AUSGEZOGEN
 62
     7
370
    35
100
AcDbLine
 10
2253.9514311403
 20
894.1023218963
 30
0.0
 11
2253.9514311403
 21
940.1023218963
 31
0.0
  0
LINE
  5
147
330
1F
100
AcDbEntity
  8
0
  6
AUSGEZOGEN
 62
     7
370
    35
100
AcDbLine
 10
2254.9514311403
 20
942.1023218963
 30
0.0
 11
2253.9514311403
 21
942.1023218963
 31
0.0
  0
LINE
  5
148
330
1F
100
AcDbEntity
  8
0
  6
AUSGEZOGEN
 62
     7
370
    35
100
AcDbLine
 10
2253.9514311403
 20
940.1023218963
 30
0.0
 11
2253.9514311403
 21
942.1023218963
 31
0.0
  0
LINE
  5
149
330
1F
100
AcDbEntity
  8
0
  6
AUSGEZOGEN
 62
     7
370
    35
100
AcDbLine
 10
2254.9514311403
 20
892.1023218963
 30
0.0
 11
2253.9514311403
 21
892.1023218963
 31
0.0
  0
LINE
  5
14A
330
1F
100
AcDbEntity
  8
0
  6
AUSGEZOGEN
 62
     7
370
    35
100
AcDbLine
 10
2253.9514311403
 20
892.1023218963
 30
0.0
 11
2253.9514311403
 21
894.1023218963
 31
0.0
  0
LINE
  5
14B
330
1F
100
AcDbEntity
  8
0
  6
AUSGEZOGEN
 62
     7
370
    35
100
AcDbLine
 10
2253.9514311403
 20
892.1023218963
 30
0.0
 11
2252.9514311403
 21
892.1023218963
 31
0.0
  0
LINE
  5
14C
330
1F
100
AcDbEntity
  8
0
  6
AUSGEZOGEN
 62
     7
370
    35
100
AcDbLine
 10
2252.9514311403
 20
942.1023218963
 30
0.0
 11
2253.9514311403
 21
942.1023218963
 31
0.0
  0
LINE
  5
14D
330
1F
100
AcDbEntity
  8
0
  6
AUSGEZOGEN
 62
     7
370
    35
100
AcDbLine
 10
2246.8414311403
 20
892.1023218963
 30
0.0
 11
2252.9514311403
 21
892.1023218963
 31
0.0
  0
ARC
  5
14E
330
1F
100
AcDbEntity
  8
0
  6
AUSGEZOGEN
 62
     7
370
    35
100
AcDbCircle
 10
2246.8414311403
 20
894.1023218963
 30
0.0
 40
2.000000000000455
100
AcDbArc
 50
179.9999999999
 51
270.0
  0
LINE
  5
14F
330
1F
100
AcDbEntity
  8
0
  6
AUSGEZOGEN
 62
     7
370
    35
100
AcDbLine
 10
2244.8414311403
 20
900.6023218963
 30
0.0
 11
2244.8414311403
 21
894.1023218963
 31
0.0
  0
ARC
  5
150
330
1F
100
AcDbEntity
  8
0
  6
AUSGEZOGEN
 62
     7
370
    35
100
AcDbCircle
 10
2240.8414311403
 20
900.6023218963
 30
0.0
 40
4.000000000000114
100
AcDbArc
 50
0.0
 51
90.0
  0
LINE
  5
151
330
1F
100
AcDbEntity
  8
0
  6
AUSGEZOGEN
 62
     7
370
    35
100
AcDbLine
 10
2206.8414311403
 20
904.6023218963
 30
0.0
 11
2240.8414311403
 21
904.6023218963
 31
0.0
  0
ARC
  5
152
330
1F
100
AcDbEntity
  8
0
  6
AUSGEZOGEN
 62
     7
370
    35
100
AcDbCircle
 10
2206.8414311403
 20
906.6023218963
 30
0.0
 40
2.000000000000114
100
AcDbArc
 50
180.0
 51
270.0
  0
LINE
  5
153
330
1F
100
AcDbEntity
  8
0
  6
AUSGEZOGEN
 62
     7
370
    35
100
AcDbLine
 10
2204.8414311403
 20
927.6023218963
 30
0.0
 11
2204.8414311403
 21
919.6023218963
 31
0.0
  0
LINE
  5
154
330
1F
100
AcDbEntity
  8
0
  6
AUSGEZOGEN
 62
     7
370
    35
100
AcDbLine
 10
2204.8414311403
 20
914.6023218963
 30
0.0
 11
2204.8414311403
 21
906.6023218963
 31
0.0
  0
ARC
  5
155
330
1F
100
AcDbEntity
  8
0
  6
AUSGEZOGEN
 62
     7
370
    35
100
AcDbCircle
 10
2206.8414311403
 20
927.6023218963
 30
0.0
 40
2.000000000000114
100
AcDbArc
 50
90.0
 51
180.0
  0
LINE
  5
156
330
1F
100
AcDbEntity
  8
0
  6
AUSGEZOGEN
 62
     7
370
    35
100
AcDbLine
 10
2240.8414311403
 20
929.6023218963
 30
0.0
 11
2206.8414311403
 21
929.6023218963
 31
0.0
  0
ARC
  5
157
330
1F
100
AcDbEntity
  8
0
  6
AUSGEZOGEN
 62
     7
370
    35
100
AcDbCircle
 10
2240.8414311403
 20
933.6023218963
 30
0.0
 40
4.0
100
AcDbArc
 50
270.0
 51
0.0
  0
LINE
  5
158
330
1F
100
AcDbEntity
  8
0
  6
AUSGEZOGEN
 62
     7
370
    35
100
AcDbLine
 10
2244.8414311403
 20
940.1023218963
 30
0.0
 11
2244.8414311403
 21
933.6023218963
 31
0.0
  0
ARC
  5
159
330
1F
100
AcDbEntity
  8
0
  6
AUSGEZOGEN
 62
     7
370
    35
100
AcDbCircle
 10
2246.8414311403
 20
940.1023218963
 30
0.0
 40
2.000000000000455
100
AcDbArc
 50
90.0
 51
180.0
  0
LINE
  5
15A
330
1F
100
AcDbEntity
  8
0
  6
AUSGEZOGEN
 62
     7
370
    35
100
AcDbLine
 10
2252.9514311403
 20
942.1023218963
 30
0.0
 11
2246.8414311403
 21
942.1023218963
 31
0.0
  0
LINE
  5
15B
330
1F
100
AcDbEntity
  8
0
  6
AUSGEZOGEN
 62
     7
370
    35
100
AcDbLine
 10
2252.9514311403
 20
1347.8688970923
 30
0.0
 11
2252.9514311403
 21
1347.2304228963
 31
0.0
  0
LINE
  5
15C
330
1F
100
AcDbEntity
  8
0
  6
AUSGEZOGEN
 62
     7
370
    35
100
AcDbLine
 10
2251.9514311403
 20
1341.7749124231
 30
0.0
 11
2251.9514311403
 21
1340.7304228963
 31
0.0
  0
LINE
  5
15D
330
1F
100
AcDbEntity
  8
0
  6
AUSGEZOGEN
 62
     7
370
    35
100
AcDbLine
 10
2251.9514311403
 20
1347.2304228963
 30
0.0
 11
2251.9514311403
 21
1341.7749124231
 31
0.0
  0
LINE
  5
15E
330
1F
100
AcDbEntity
  8
0
  6
AUSGEZOGEN
 62
     7
370
    35
100
AcDbLine
 10
2202.9514311403
 20
1341.4804228963
 30
0.0
 11
2202.9514311403
 21
1346.4804228963
 31
0.0
  0
LINE
  5
15F
330
1F
100
AcDbEntity
  8
0
  6
AUSGEZOGEN
 62
     7
370
    35
100
AcDbLine
 10
2252.9514311403
 20
872.2543218963
 30
0.0
 11
2252.9514311403
 21
865.7543218963
 31
0.0
  0
LINE
  5
160
330
1F
100
AcDbEntity
  8
0
  6
AUSGEZOGEN
 62
     7
370
    35
100
AcDbLine
 10
2203.9514311403
 20
866.5043218963
 30
0.0
 11
2203.9514311403
 21
871.5043218963
 31
0.0
  0
LINE
  5
161
330
1F
100
AcDbEntity
  8
0
  6
AUSGEZOGEN
 62
     7
370
    35
100
AcDbLine
 10
2252.9514311403
 20
1245.3523218963
 30
0.0
 11
2252.9514311403
 21
1238.8523218963
 31
0.0
  0
LINE
  5
162
330
1F
100
AcDbEntity
  8
0
  6
AUSGEZOGEN
 62
     7
370
    35
100
AcDbLine
 10
2203.9514311403
 20
1242.1023218963
 30
0.0
 11
2203.9514311403
 21
1244.6023218963
 31
0.0
  0
LINE
  5
163
330
1F
100
AcDbEntity
  8
0
  6
AUSGEZOGEN
 62
     7
370
    35
100
AcDbLine
 10
2203.9514311403
 20
1239.6023218963
 30
0.0
 11
2203.9514311403
 21
1242.1023218963
 31
0.0
  0
LINE
  5
164
330
1F
100
AcDbEntity
  8
0
  6
AUSGEZOGEN
 62
     7
370
    35
100
AcDbLine
 10
2252.9514311403
 20
920.3523218963
 30
0.0
 11
2252.9514311403
 21
913.8523218963
 31
0.0
  0
LINE
  5
165
330
1F
100
AcDbEntity
  8
0
  6
AUSGEZOGEN
 62
     7
370
    35
100
AcDbLine
 10
2203.9514311403
 20
917.1023218963
 30
0.0
 11
2203.9514311403
 21
919.6023218963
 31
0.0
  0
LINE
  5
166
330
1F
100
AcDbEntity
  8
0
  6
AUSGEZOGEN
 62
     7
370
    35
100
AcDbLine
 10
2203.9514311403
 20
914.6023218963
 30
0.0
 11
2203.9514311403
 21
917.1023218963
 31
0.0
  0
LINE
  5
167
330
1F
100
AcDbEntity
  8
0
  6
AUSGEZOGEN
 62
     7
370
    35
100
AcDbLine
 10
2166.8733311403
 20
1279.9023218963
 30
0.0
 11
2166.8733311403
 21
1284.3993678963
 31
0.0
  0
ARC
  5
168
330
1F
100
AcDbEntity
  8
0
  6
AUSGEZOGEN
 62
     7
370
    35
100
AcDbCircle
 10
2176.8733311403
 20
1284.3993758566
 30
0.0
 40
9.999999999999993
100
AcDbArc
 50
142.000041543
 51
180.0000456093
  0
LINE
  5
169
330
1F
100
AcDbEntity
  8
0
  6
AUSGEZOGEN
 62
     7
370
    35
100
AcDbLine
 10
2168.9932191403
 20
1290.5559848963
 30
0.0
 11
2203.2815801403
 21
1334.4430688963
 31
0.0
  0
LINE
  5
16A
330
1F
100
AcDbEntity
  8
0
  6
AUSGEZOGEN
 62
     7
370
    35
100
AcDbLine
 10
2250.3733311403
 20
1335.5585238963
 30
0.0
 11
2250.3733311403
 21
1334.9804228963
 31
0.0
  0
LINE
  5
16B
330
1F
100
AcDbEntity
  8
0
  6
AUSGEZOGEN
 62
     7
370
    35
100
AcDbLine
 10
2250.3733311403
 20
1334.9804228963
 30
0.0
 11
2251.9514311403
 21
1334.9804228963
 31
0.0
  0
LINE
  5
16C
330
1F
100
AcDbEntity
  8
0
  6
AUSGEZOGEN
 62
     7
370
    35
100
AcDbLine
 10
2251.9514311403
 20
1281.9804228963
 30
0.0
 11
2238.3733311403
 21
1281.9804228963
 31
0.0
  0
ARC
  5
16D
330
1F
100
AcDbEntity
  8
0
  6
AUSGEZOGEN
 62
     7
370
    35
100
AcDbCircle
 10
2238.3733311403
 20
1280.9804228963
 30
0.0
 40
1.000000000000227
100
AcDbArc
 50
90.0
 51
179.9999999999
  0
LINE
  5
16E
330
1F
100
AcDbEntity
  8
0
  6
AUSGEZOGEN
 62
     7
370
    35
100
AcDbLine
 10
2237.3733311403
 20
1280.9804228963
 30
0.0
 11
2237.3733311403
 21
1279.9023218963
 31
0.0
  0
ARC
  5
16F
330
1F
100
AcDbEntity
  8
0
  6
AUSGEZOGEN
 62
     7
370
    35
100
AcDbCircle
 10
2206.4336230776
 20
1331.9804228963
 30
0.0
 40
3.99999999999983
100
AcDbArc
 50
116.552485371
 51
141.999998206
  0
LINE
  5
170
330
1F
100
AcDbEntity
  8
0
  6
AUSGEZOGEN
 62
     7
370
    35
100
AcDbLine
 10
2206.6733341403
 20
1336.187361427
 30
0.0
 11
2206.4336181403
 21
1336.187361427
 31
0.0
  0
LWPOLYLINE
  5
171
330
1F
100
AcDbEntity
  8
0
  6
AUSGEZOGEN
 62
     7
370
    35
100
AcDbPolyline
 90
        8
 70
     0
 43
0.0
 10
2206.873331140322
 20
1336.466904755662
 10
2206.86829441914
 20
1336.435028943925
 10
2206.860187066652
 20
1336.403810818927
 10
2206.844102900062
 20
1336.369076568356
 10
2206.822472875429
 20
1336.336235315173
 10
2206.789411723693
 20
1336.295983382606
 10
2206.752730401636
 20
1336.25833155906
 10
2206.673334140321
 20
1336.187361427004
  0
LINE
  5
172
330
1F
100
AcDbEntity
  8
0
  6
AUSGEZOGEN
 62
     7
370
    35
100
AcDbLine
 10
2206.8733311403
 20
1337.5585238963
 30
0.0
 11
2206.8733311403
 21
1336.4669047557
 31
0.0
  0
LINE
  5
173
330
1F
100
AcDbEntity
  8
0
  6
AUSGEZOGEN
 62
     7
370
    35
100
AcDbLine
 10
2250.3733311403
 20
1337.5585238963
 30
0.0
 11
2206.8733311403
 21
1337.5585238963
 31
0.0
  0
LINE
  5
174
330
1F
100
AcDbEntity
  8
0
  6
AUSGEZOGEN
 62
     7
370
    35
100
AcDbLine
 10
2250.3733311403
 20
1335.5585238963
 30
0.0
 11
2250.3733311403
 21
1337.5585238963
 31
0.0
  0
LWPOLYLINE
  5
175
330
1F
100
AcDbEntity
  8
0
  6
AUSGEZOGEN
 62
     7
370
    35
100
AcDbPolyline
 90
       14
 70
     0
 43
0.0
 10
2206.433618140321
 20
1336.187361427004
 10
2206.213956383722
 20
1336.153817720357
 10
2205.995814542573
 20
1336.115794256198
 10
2205.887788563871
 20
1336.093702690829
 10
2205.780712532326
 20
1336.068811277015
 10
2205.674776437369
 20
1336.040560045068
 10
2205.570170268432
 20
1336.008389025298
 10
2205.450075682184
 20
1335.965470568843
 10
2205.331788086151
 20
1335.917226238518
 10
2205.215049338874
 20
1335.864416873448
 10
2205.099601298892
 20
1335.807803312755
 10
2204.985185824747
 20
1335.748146395565
 10
2204.871544774979
 20
1335.686206961002
 10
2204.64555338274
 20
1335.558523896254
  0
LINE
  5
176
330
1F
100
AcDbEntity
  8
0
  6
AUSGEZOGEN
 62
     7
370
    35
100
AcDbLine
 10
2166.8733311403
 20
1279.9023218963
 30
0.0
 11
2166.8733311403
 21
1277.9023218963
 31
0.0
  0
LINE
  5
177
330
1F
100
AcDbEntity
  8
0
  6
AUSGEZOGEN
 62
     7
370
    35
100
AcDbLine
 10
2237.3733311403
 20
1277.9023218963
 30
0.0
 11
2237.3733311403
 21
1279.9023218963
 31
0.0
  0
LINE
  5
178
330
1F
100
AcDbEntity
  8
0
  6
AUSGEZOGEN
 62
     7
370
    35
100
AcDbLine
 10
2253.7134119258
 20
1334.9804228963
 30
0.0
 11
2251.9514311403
 21
1334.9804228963
 31
0.0
  0
LINE
  5
179
330
1F
100
AcDbEntity
  8
0
  6
AUSGEZOGEN
 62
     7
370
    35
100
AcDbLine
 10
2253.7134119258
 20
1345.9804228963
 30
0.0
 11
2253.7134119258
 21
1334.9804228963
 31
0.0
  0
LWPOLYLINE
  5
17A
330
1F
100
AcDbEntity
  8
0
  6
AUSGEZOGEN
 62
     7
370
    35
100
AcDbPolyline
 90
       11
 70
     0
 43
0.0
 10
2253.951431140321
 20
1347.845354527709
 10
2253.933330096932
 20
1347.616122415625
 10
2253.919829036729
 20
1347.498127232376
 10
2253.900987330315
 20
1347.376077096481
 10
2253.829986568334
 20
1347.02343548042
 10
2253.809408793867
 20
1346.903699902579
 10
2253.79123339706
 20
1346.779707926667
 10
2253.775117181105
 20
1346.65206760955
 10
2253.760716949193
 20
1346.521387008095
 10
2253.735691650262
 20
1346.253337179645
 10
2253.713411925799
 20
1345.980422896254
  0
LINE
  5
17B
330
1F
100
AcDbEntity
  8
0
  6
AUSGEZOGEN
 62
     7
370
    35
100
AcDbLine
 10
2251.9514311403
 20
1281.9804228963
 30
0.0
 11
2253.9514311403
 21
1281.9804228963
 31
0.0
  0
LWPOLYLINE
  5
17C
330
1F
100
AcDbEntity
  8
0
  6
AUSGEZOGEN
 62
     7
370
    35
100
AcDbPolyline
 90
        5
 70
     0
 43
0.0
 10
2252.951431140321
 20
1347.845354527709
 10
2252.920098472268
 20
1347.439782606157
 10
2252.890708854328
 20
1347.023435480421
 10
2252.860214356068
 20
1346.50942027215
 10
2252.83242153306
 20
1345.980422896254
  0
LINE
  5
17D
330
1F
100
AcDbEntity
  8
0
  6
AUSGEZOGEN
 62
     7
370
    35
100
AcDbLine
 10
2252.8324215331
 20
1345.9804228963
 30
0.0
 11
2252.8324215331
 21
1334.9804228963
 31
0.0
  0
LINE
  5
17E
330
1F
100
AcDbEntity
  8
0
  6
AUSGEZOGEN
 62
     7
370
    35
100
AcDbLine
 10
2252.8324215331
 20
1345.9804228963
 30
0.0
 11
2253.7134119258
 21
1345.9804228963
 31
0.0
  0
LINE
  5
17F
330
1F
100
AcDbEntity
  8
0
  6
AUSGEZOGEN
 62
     7
370
    35
100
AcDbLine
 10
2253.9514311403
 20
1347.8453545277
 30
0.0
 11
2252.9514311403
 21
1347.8453545277
 31
0.0
  0
LINE
  5
180
330
1F
100
AcDbEntity
  8
0
  6
AUSGEZOGEN
 62
     7
370
    35
100
AcDbLine
 10
2253.9514311403
 20
1348.9804228963
 30
0.0
 11
2252.9514311403
 21
1348.9804228963
 31
0.0
  0
LINE
  5
181
330
1F
100
AcDbEntity
  8
0
  6
AUSGEZOGEN
 62
     7
370
    35
100
AcDbLine
 10
2252.9514311403
 20
1347.8453545277
 30
0.0
 11
2252.9514311403
 21
1348.9804228963
 31
0.0
  0
LINE
  5
182
330
1F
100
AcDbEntity
  8
0
  6
AUSGEZOGEN
 62
     7
370
    35
100
AcDbLine
 10
2254.9514311403
 20
1362.1023218963
 30
0.0
 11
2255.7514311403
 21
1362.1023218963
 31
0.0
  0
LINE
  5
183
330
1F
100
AcDbEntity
  8
0
  6
AUSGEZOGEN
 62
     7
370
    35
100
AcDbLine
 10
2255.7514311403
 20
1362.1023218963
 30
0.0
 11
2255.7514311403
 21
1352.1023218963
 31
0.0
  0
LINE
  5
184
330
1F
100
AcDbEntity
  8
0
  6
AUSGEZOGEN
 62
     7
370
    35
100
AcDbLine
 10
2254.9514311403
 20
1352.1023218963
 30
0.0
 11
2254.9514311403
 21
1362.1023218963
 31
0.0
  0
LINE
  5
185
330
1F
100
AcDbEntity
  8
0
  6
AUSGEZOGEN
 62
     7
370
    35
100
AcDbLine
 10
2254.9514311403
 20
1352.1023218963
 30
0.0
 11
2254.9514311403
 21
862.1023218963
 31
0.0
  0
LINE
  5
186
330
1F
100
AcDbEntity
  8
0
  6
AUSGEZOGEN
 62
     7
370
    35
100
AcDbLine
 10
2255.7514311403
 20
1352.1023218963
 30
0.0
 11
2255.7514311403
 21
862.1023218963
 31
0.0
  0
LINE
  5
187
330
1F
100
AcDbEntity
  8
0
  6
AUSGEZOGEN
 62
     7
370
    35
100
AcDbLine
 10
2255.7514311403
 20
852.1023218963
 30
0.0
 11
2254.9514311403
 21
852.1023218963
 31
0.0
  0
LINE
  5
188
330
1F
100
AcDbEntity
  8
0
  6
AUSGEZOGEN
 62
     7
370
    35
100
AcDbLine
 10
2255.7514311403
 20
862.1023218963
 30
0.0
 11
2255.7514311403
 21
852.1023218963
 31
0.0
  0
LINE
  5
189
330
1F
100
AcDbEntity
  8
0
  6
AUSGEZOGEN
 62
     7
370
    35
100
AcDbLine
 10
2254.9514311403
 20
852.1023218963
 30
0.0
 11
2254.9514311403
 21
862.1023218963
 31
0.0
  0
LINE
  5
18A
330
1F
100
AcDbEntity
  8
0
  6
AUSGEZOGEN
 62
     7
370
    35
100
AcDbLine
 10
2074.9514311403
 20
1265.1023218963
 30
0.0
 11
2074.9514311403
 21
889.1023218963
 31
0.0
  0
ARC
  5
18B
330
1F
100
AcDbEntity
  8
0
  6
AUSGEZOGEN
 62
     7
370
    35
100
AcDbCircle
 10
2087.7514311403
 20
1265.1023218963
 30
0.0
 40
12.80000000000018
100
AcDbArc
 50
90.0
 51
180.0
  0
ARC
  5
18C
330
1F
100
AcDbEntity
  8
0
  6
AUSGEZOGEN
 62
     7
370
    35
100
AcDbCircle
 10
2087.7514311403
 20
889.1023218963
 30
0.0
 40
12.80000000000018
100
AcDbArc
 50
180.0
 51
270.0
  0
LINE
  5
18D
330
1F
100
AcDbEntity
  8
0
  6
AUSGEZOGEN
 62
     7
370
    35
100
AcDbLine
 10
2254.9514311403
 20
1277.9023218963
 30
0.0
 11
2253.8514311403
 21
1277.9023218963
 31
0.0
  0
LINE
  5
18E
330
1F
100
AcDbEntity
  8
0
  6
AUSGEZOGEN
 62
     7
370
    35
100
AcDbLine
 10
2239.9264311403
 20
1277.9023218963
 30
0.0
 11
2087.7514311403
 21
1277.9023218963
 31
0.0
  0
LINE
  5
18F
330
1F
100
AcDbEntity
  8
0
  6
AUSGEZOGEN
 62
     7
370
    35
100
AcDbLine
 10
2087.7514311403
 20
876.3023218963
 30
0.0
 11
2254.9514311403
 21
876.3023218963
 31
0.0
  0
LINE
  5
190
330
1F
100
AcDbEntity
  8
0
  6
AUSGEZOGEN
 62
     7
370
    35
100
AcDbLine
 10
2070.9514311403
 20
1213.4336927462
 30
0.0
 11
2070.9514311403
 21
1100.7709510464
 31
0.0
  0
DIMENSION
  5
19A
330
1F
100
AcDbEntity
  8
SLD-0
  6
AUSGEZOGEN
 62
     7
370
    18
100
AcDbDimension
280
     0
  2
*D13
 10
2255.7514311403
 20
1435.1370819849
 30
0.0
 11
2156.681968432655
 21
1449.016465173415
 31
0.0
 70
   160
 71
     5
 42
-1.0
 73
     0
 74
     0
 75
     0
  3
ISO-25
100
AcDbAlignedDimension
 13
2074.9514311403
 23
1265.1023218963
 33
0.0
 14
2255.7514311403
 24
1362.1023218963
 34
0.0
100
AcDbRotatedDimension
1001
ACAD
1000
DSTYLE
1002
{
1070
     3
1000
<>
1070
   340
1005
5F
1070
    44
1040
9.768009936716
1070
   280
1070
     3
1070
    77
1070
     1
1070
   179
1070
     0
1070
   271
1070
     0
1070
   173
1070
     1
1070
    41
1040
13.675213911402
1070
   147
1040
3.101343154907
1070
   140
1040
21.709402084351
1070
   178
1070
     7
1070
   177
1070
     7
1070
   176
1070
     7
1002
}
  0
LINE
  5
19B
330
1F
100
AcDbEntity
  8
0
  6
AUSGEZOGEN
 62
     7
370
    35
100
AcDbLine
 10
2619.877757231355
 20
1277.9023218963
 30
0.0
 11
2619.877757231355
 21
1278.9023218963
 31
0.0
  0
LINE
  5
19C
330
1F
100
AcDbEntity
  8
0
  6
AUSGEZOGEN
 62
     7
370
    35
100
AcDbLine
 10
2619.877757231355
 20
1278.9023218963
 30
0.0
 11
2622.877757231355
 21
1278.9023218963
 31
0.0
  0
LINE
  5
19D
330
1F
100
AcDbEntity
  8
0
  6
AUSGEZOGEN
 62
     7
370
    35
100
AcDbLine
 10
2619.877757231355
 20
1277.9023218963
 30
0.0
 11
2622.877757231355
 21
1277.9023218963
 31
0.0
  0
LINE
  5
19E
330
1F
100
AcDbEntity
  8
0
  6
AUSGEZOGEN
 62
     7
370
    35
100
AcDbLine
 10
2622.877757231355
 20
1278.9023218963
 30
0.0
 11
2694.617706423855
 21
1278.9023218963
 31
0.0
  0
LINE
  5
19F
330
1F
100
AcDbEntity
  8
0
  6
AUSGEZOGEN
 62
     7
370
    35
100
AcDbLine
 10
2709.377757231355
 20
1278.9023218963
 30
0.0
 11
2761.377757231355
 21
1278.9023218963
 31
0.0
  0
LINE
  5
1A0
330
1F
100
AcDbEntity
  8
0
  6
AUSGEZOGEN
 62
     7
370
    35
100
AcDbLine
 10
2622.877757231355
 20
1277.9023218963
 30
0.0
 11
2643.877757231355
 21
1277.9023218963
 31
0.0
  0
LINE
  5
1A1
330
1F
100
AcDbEntity
  8
0
  6
AUSGEZOGEN
 62
     7
370
    35
100
AcDbLine
 10
2764.377757231355
 20
1277.9023218963
 30
0.0
 11
2764.377757231355
 21
1278.9023218963
 31
0.0
  0
LINE
  5
1A2
330
1F
100
AcDbEntity
  8
0
  6
AUSGEZOGEN
 62
     7
370
    35
100
AcDbLine
 10
2761.377757231355
 20
1278.9023218963
 30
0.0
 11
2764.377757231355
 21
1278.9023218963
 31
0.0
  0
LINE
  5
1A3
330
1F
100
AcDbEntity
  8
0
  6
AUSGEZOGEN
 62
     7
370
    35
100
AcDbLine
 10
2839.377757231355
 20
1277.9023218963
 30
0.0
 11
2839.377757231355
 21
1278.9023218963
 31
0.0
  0
LINE
  5
1A4
330
1F
100
AcDbEntity
  8
0
  6
AUSGEZOGEN
 62
     7
370
    35
100
AcDbLine
 10
2839.377757231355
 20
1278.9023218963
 30
0.0
 11
2842.377757231355
 21
1278.9023218963
 31
0.0
  0
LINE
  5
1A5
330
1F
100
AcDbEntity
  8
0
  6
AUSGEZOGEN
 62
     7
370
    35
100
AcDbLine
 10
2842.377757231355
 20
1278.9023218963
 30
0.0
 11
2894.377757231355
 21
1278.9023218963
 31
0.0
  0
LINE
  5
1A6
330
1F
100
AcDbEntity
  8
0
  6
AUSGEZOGEN
 62
     7
370
    35
100
AcDbLine
 10
2909.137808038955
 20
1278.9023218963
 30
0.0
 11
2980.877757231355
 21
1278.9023218963
 31
0.0
  0
LINE
  5
1A7
330
1F
100
AcDbEntity
  8
0
  6
AUSGEZOGEN
 62
     7
370
    35
100
AcDbLine
 10
2959.877757231355
 20
1277.9023218963
 30
0.0
 11
2980.877757231355
 21
1277.9023218963
 31
0.0
  0
LINE
  5
1A8
330
1F
100
AcDbEntity
  8
0
  6
AUSGEZOGEN
 62
     7
370
    35
100
AcDbLine
 10
2983.877757231355
 20
1277.9023218963
 30
0.0
 11
2983.877757231355
 21
1278.9023218963
 31
0.0
  0
LINE
  5
1A9
330
1F
100
AcDbEntity
  8
0
  6
AUSGEZOGEN
 62
     7
370
    35
100
AcDbLine
 10
2980.877757231355
 20
1278.9023218963
 30
0.0
 11
2983.877757231355
 21
1278.9023218963
 31
0.0
  0
LINE
  5
1AA
330
1F
100
AcDbEntity
  8
0
  6
AUSGEZOGEN
 62
     7
370
    35
100
AcDbLine
 10
2980.877757231355
 20
1277.9023218963
 30
0.0
 11
2983.877757231355
 21
1277.9023218963
 31
0.0
  0
LINE
  5
1AB
330
1F
100
AcDbEntity
  8
0
  6
AUSGEZOGEN
 62
     7
370
    35
100
AcDbLine
 10
2764.377757231355
 20
1278.9023218963
 30
0.0
 11
2767.377757231355
 21
1278.9023218963
 31
0.0
  0
LINE
  5
1AC
330
1F
100
AcDbEntity
  8
0
  6
AUSGEZOGEN
 62
     7
370
    35
100
AcDbLine
 10
2836.377757231355
 20
1278.9023218963
 30
0.0
 11
2839.377757231355
 21
1278.9023218963
 31
0.0
  0
LINE
  5
1AD
330
1F
100
AcDbEntity
  8
0
  6
AUSGEZOGEN
 62
     7
370
    35
100
AcDbLine
 10
2972.877757231355
 20
1350.5559598963
 30
0.0
 11
2630.877757231355
 21
1350.5559598963
 31
0.0
  0
LINE
  5
1AE
330
1F
100
AcDbEntity
  8
0
  6
AUSGEZOGEN
 62
     7
370
    35
100
AcDbLine
 10
2972.877757231355
 20
1351.5559598963
 30
0.0
 11
2630.877757231355
 21
1351.5559598963
 31
0.0
  0
LINE
  5
1AF
330
1F
100
AcDbEntity
  8
0
  6
AUSGEZOGEN
 62
     7
370
    35
100
AcDbLine
 10
2627.877757231355
 20
1351.5559598963
 30
0.0
 11
2627.877757231355
 21
1350.5559598963
 31
0.0
  0
LINE
  5
1B0
330
1F
100
AcDbEntity
  8
0
  6
AUSGEZOGEN
 62
     7
370
    35
100
AcDbLine
 10
2630.877757231355
 20
1350.5559598963
 30
0.0
 11
2627.877757231355
 21
1350.5559598963
 31
0.0
  0
LINE
  5
1B1
330
1F
100
AcDbEntity
  8
0
  6
AUSGEZOGEN
 62
     7
370
    35
100
AcDbLine
 10
2630.877757231355
 20
1351.5559598963
 30
0.0
 11
2627.877757231355
 21
1351.5559598963
 31
0.0
  0
LINE
  5
1B2
330
1F
100
AcDbEntity
  8
0
  6
AUSGEZOGEN
 62
     7
370
    35
100
AcDbLine
 10
2975.877757231355
 20
1351.5559598963
 30
0.0
 11
2975.877757231355
 21
1350.5559598963
 31
0.0
  0
LINE
  5
1B3
330
1F
100
AcDbEntity
  8
0
  6
AUSGEZOGEN
 62
     7
370
    35
100
AcDbLine
 10
2975.877757231355
 20
1350.5559598963
 30
0.0
 11
2972.877757231355
 21
1350.5559598963
 31
0.0
  0
LINE
  5
1B4
330
1F
100
AcDbEntity
  8
0
  6
AUSGEZOGEN
 62
     7
370
    35
100
AcDbLine
 10
2975.877757231355
 20
1351.5559598963
 30
0.0
 11
2972.877757231355
 21
1351.5559598963
 31
0.0
  0
LINE
  5
1B5
330
1F
100
AcDbEntity
  8
0
  6
AUSGEZOGEN
 62
     7
370
    35
100
AcDbLine
 10
2767.377757231355
 20
1278.9023218963
 30
0.0
 11
2836.377757231355
 21
1278.9023218963
 31
0.0
  0
LINE
  5
1B6
330
1F
100
AcDbEntity
  8
0
  6
AUSGEZOGEN
 62
     7
370
    35
100
AcDbLine
 10
2975.877757231355
 20
1350.5559598963
 30
0.0
 11
2975.877757231355
 21
1350.4559598963
 31
0.0
  0
LINE
  5
1B7
330
1F
100
AcDbEntity
  8
0
  6
AUSGEZOGEN
 62
     7
370
    35
100
AcDbLine
 10
2627.877757231355
 20
1350.4559598963
 30
0.0
 11
2627.877757231355
 21
1350.5559598963
 31
0.0
  0
LINE
  5
1B8
330
1F
100
AcDbEntity
  8
0
  6
AUSGEZOGEN
 62
     7
370
    35
100
AcDbLine
 10
2983.877757231355
 20
1279.0023218963
 30
0.0
 11
2983.877757231355
 21
1278.9023218963
 31
0.0
  0
LINE
  5
1B9
330
1F
100
AcDbEntity
  8
0
  6
AUSGEZOGEN
 62
     7
370
    35
100
AcDbLine
 10
2619.877757231355
 20
1278.9023218963
 30
0.0
 11
2619.877757231355
 21
1279.0023218963
 31
0.0
  0
LINE
  5
1BA
330
1F
100
AcDbEntity
  8
0
  6
AUSGEZOGEN
 62
     7
370
    35
100
AcDbLine
 10
2982.999077574955
 20
1343.0578325528
 30
0.0
 11
2975.877757231355
 21
1350.1791528963
 31
0.0
  0
ARC
  5
1BB
330
1F
100
AcDbEntity
  8
0
  6
AUSGEZOGEN
 62
     7
370
    35
100
AcDbCircle
 10
2980.877757231355
 20
1340.9365122093
 30
0.0
 40
2.999999999996817
100
AcDbArc
 50
0.0
 51
45.0
  0
LINE
  5
1BC
330
1F
100
AcDbEntity
  8
0
  6
AUSGEZOGEN
 62
     7
370
    35
100
AcDbLine
 10
2983.877757231355
 20
1279.0023218963
 30
0.0
 11
2983.877757231355
 21
1340.9365122093
 31
0.0
  0
LINE
  5
1BD
330
1F
100
AcDbEntity
  8
0
  6
AUSGEZOGEN
 62
     7
370
    35
100
AcDbLine
 10
2619.877757231455
 20
1340.9365122093
 30
0.0
 11
2619.877757231355
 21
1279.0023218963
 31
0.0
  0
ARC
  5
1BE
330
1F
100
AcDbEntity
  8
0
  6
AUSGEZOGEN
 62
     7
370
    35
100
AcDbCircle
 10
2622.877757231355
 20
1340.9365122093
 30
0.0
 40
2.999999999946795
100
AcDbArc
 50
135.0
 51
180.0
  0
LINE
  5
1BF
330
1F
100
AcDbEntity
  8
0
  6
AUSGEZOGEN
 62
     7
370
    35
100
AcDbLine
 10
2627.877757231355
 20
1350.1791528963
 30
0.0
 11
2620.756436887955
 21
1343.0578325528
 31
0.0
  0
LINE
  5
1C0
330
1F
100
AcDbEntity
  8
0
  6
AUSGEZOGEN
 62
     7
370
    35
100
AcDbLine
 10
2627.877757231355
 20
1350.4559598963
 30
0.0
 11
2627.877757231355
 21
1350.1791528963
 31
0.0
  0
LINE
  5
1C1
330
1F
100
AcDbEntity
  8
0
  6
AUSGEZOGEN
 62
     7
370
    35
100
AcDbLine
 10
2975.877757231355
 20
1350.1791528963
 30
0.0
 11
2975.877757231355
 21
1350.4559598963
 31
0.0
  0
CIRCLE
  5
1C2
330
1F
100
AcDbEntity
  8
0
  6
AUSGEZOGEN
 62
     7
370
    35
100
AcDbCircle
 10
2801.877757231355
 20
1321.7791288963
 30
0.0
 40
19.50000000000045
  0
LINE
  5
1C3
330
1F
100
AcDbEntity
  8
0
  6
AUSGEZOGEN
 62
     7
370
    35
100
AcDbLine
 10
2882.077757231355
 20
956.3023218963
 30
0.0
 11
2722.077757231355
 21
956.3023218963
 31
0.0
  0
LINE
  5
1C4
330
1F
100
AcDbEntity
  8
0
  6
AUSGEZOGEN
 62
     7
370
    35
100
AcDbLine
 10
2882.077757231355
 20
1056.3023218963
 30
0.0
 11
2882.077757231355
 21
956.3023218963
 31
0.0
  0
LINE
  5
1C5
330
1F
100
AcDbEntity
  8
0
  6
AUSGEZOGEN
 62
     7
370
    35
100
AcDbLine
 10
2722.077757231355
 20
956.3023218963
 30
0.0
 11
2722.077757231355
 21
1056.3023218963
 31
0.0
  0
LINE
  5
1C6
330
1F
100
AcDbEntity
  8
0
  6
AUSGEZOGEN
 62
     7
370
    35
100
AcDbLine
 10
2722.077757231355
 20
1056.3023218963
 30
0.0
 11
2882.077757231355
 21
1056.3023218963
 31
0.0
  0
LINE
  5
1C7
330
1F
100
AcDbEntity
  8
0
  6
AUSGEZOGEN
 62
     7
370
    35
100
AcDbLine
 10
2972.677757231354
 20
1254.6023218963
 30
0.0
 11
2973.677757231354
 21
1254.6023218963
 31
0.0
  0
LINE
  5
1C8
330
1F
100
AcDbEntity
  8
0
  6
AUSGEZOGEN
 62
     7
370
    35
100
AcDbLine
 10
2973.677757231354
 20
1254.6023218963
 30
0.0
 11
2973.677757231354
 21
1252.6023218963
 31
0.0
  0
LINE
  5
1C9
330
1F
100
AcDbEntity
  8
0
  6
AUSGEZOGEN
 62
     7
370
    35
100
AcDbLine
 10
2973.677757231354
 20
1252.6023218963
 30
0.0
 11
2973.677757231354
 21
1231.6023218963
 31
0.0
  0
LINE
  5
1CA
330
1F
100
AcDbEntity
  8
0
  6
AUSGEZOGEN
 62
     7
370
    35
100
AcDbLine
 10
2972.677757231354
 20
1229.6023218963
 30
0.0
 11
2973.677757231354
 21
1229.6023218963
 31
0.0
  0
LINE
  5
1CB
330
1F
100
AcDbEntity
  8
0
  6
AUSGEZOGEN
 62
     7
370
    35
100
AcDbLine
 10
2973.677757231354
 20
1231.6023218963
 30
0.0
 11
2973.677757231354
 21
1229.6023218963
 31
0.0
  0
LINE
  5
1CC
330
1F
100
AcDbEntity
  8
0
  6
AUSGEZOGEN
 62
     7
370
    35
100
AcDbLine
 10
2973.677757231354
 20
1258.6023218963
 30
0.0
 11
2973.677757231354
 21
1254.6023218963
 31
0.0
  0
LINE
  5
1CD
330
1F
100
AcDbEntity
  8
0
  6
AUSGEZOGEN
 62
     7
370
    35
100
AcDbLine
 10
2973.677757231354
 20
1229.6023218963
 30
0.0
 11
2973.677757231354
 21
1225.6023218963
 31
0.0
  0
LINE
  5
1CE
330
1F
100
AcDbEntity
  8
0
  6
AUSGEZOGEN
 62
     7
370
    35
100
AcDbLine
 10
2973.677757231354
 20
1265.1023218963
 30
0.0
 11
2973.677757231354
 21
1258.6023218963
 31
0.0
  0
LINE
  5
1CF
330
1F
100
AcDbEntity
  8
0
  6
AUSGEZOGEN
 62
     7
370
    35
100
AcDbLine
 10
2972.677757231354
 20
1267.1023218963
 30
0.0
 11
2973.677757231354
 21
1267.1023218963
 31
0.0
  0
LINE
  5
1D0
330
1F
100
AcDbEntity
  8
0
  6
AUSGEZOGEN
 62
     7
370
    35
100
AcDbLine
 10
2972.677757231354
 20
1267.1023218963
 30
0.0
 11
2972.677757231354
 21
1265.1023218963
 31
0.0
  0
LINE
  5
1D1
330
1F
100
AcDbEntity
  8
0
  6
AUSGEZOGEN
 62
     7
370
    35
100
AcDbLine
 10
2973.677757231354
 20
1267.1023218963
 30
0.0
 11
2973.677757231354
 21
1265.1023218963
 31
0.0
  0
LINE
  5
1D2
330
1F
100
AcDbEntity
  8
0
  6
AUSGEZOGEN
 62
     7
370
    35
100
AcDbLine
 10
2972.677757231354
 20
1217.1023218963
 30
0.0
 11
2973.677757231354
 21
1217.1023218963
 31
0.0
  0
LINE
  5
1D3
330
1F
100
AcDbEntity
  8
0
  6
AUSGEZOGEN
 62
     7
370
    35
100
AcDbLine
 10
2973.677757231354
 20
1219.1023218963
 30
0.0
 11
2973.677757231354
 21
1217.1023218963
 31
0.0
  0
LINE
  5
1D4
330
1F
100
AcDbEntity
  8
0
  6
AUSGEZOGEN
 62
     7
370
    35
100
AcDbLine
 10
2973.677757231354
 20
1225.6023218963
 30
0.0
 11
2973.677757231354
 21
1219.1023218963
 31
0.0
  0
LINE
  5
1D5
330
1F
100
AcDbEntity
  8
0
  6
AUSGEZOGEN
 62
     7
370
    35
100
AcDbLine
 10
2974.677757231354
 20
1217.1023218963
 30
0.0
 11
2973.677757231354
 21
1217.1023218963
 31
0.0
  0
LINE
  5
1D6
330
1F
100
AcDbEntity
  8
0
  6
AUSGEZOGEN
 62
     7
370
    35
100
AcDbLine
 10
2973.677757231354
 20
1267.1023218963
 30
0.0
 11
2974.677757231354
 21
1267.1023218963
 31
0.0
  0
ARC
  5
1D7
330
1F
100
AcDbEntity
  8
0
  6
AUSGEZOGEN
 62
     7
370
    35
100
AcDbCircle
 10
2981.675757231355
 20
1265.1023218963
 30
0.0
 40
2.0
100
AcDbArc
 50
0.0
 51
90.0
  0
LINE
  5
1D8
330
1F
100
AcDbEntity
  8
0
  6
AUSGEZOGEN
 62
     7
370
    35
100
AcDbLine
 10
2983.675757231355
 20
1219.1023218963
 30
0.0
 11
2983.675757231355
 21
1265.1023218963
 31
0.0
  0
ARC
  5
1D9
330
1F
100
AcDbEntity
  8
0
  6
AUSGEZOGEN
 62
     7
370
    35
100
AcDbCircle
 10
2981.675757231355
 20
1219.1023218963
 30
0.0
 40
2.0
100
AcDbArc
 50
270.0
 51
0.0
  0
LINE
  5
1DA
330
1F
100
AcDbEntity
  8
0
  6
AUSGEZOGEN
 62
     7
370
    35
100
AcDbLine
 10
2974.677757231354
 20
1217.1023218963
 30
0.0
 11
2981.675757231355
 21
1217.1023218963
 31
0.0
  0
LINE
  5
1DB
330
1F
100
AcDbEntity
  8
0
  6
AUSGEZOGEN
 62
     7
370
    35
100
AcDbLine
 10
2981.675757231355
 20
1267.1023218963
 30
0.0
 11
2974.677757231354
 21
1267.1023218963
 31
0.0
  0
LINE
  5
1DC
330
1F
100
AcDbEntity
  8
0
  6
AUSGEZOGEN
 62
     7
370
    35
100
AcDbLine
 10
2631.077757231355
 20
1229.6023218963
 30
0.0
 11
2630.077757231355
 21
1229.6023218963
 31
0.0
  0
LINE
  5
1DD
330
1F
100
AcDbEntity
  8
0
  6
AUSGEZOGEN
 62
     7
370
    35
100
AcDbLine
 10
2630.077757231355
 20
1229.6023218963
 30
0.0
 11
2630.077757231355
 21
1231.6023218963
 31
0.0
  0
LINE
  5
1DE
330
1F
100
AcDbEntity
  8
0
  6
AUSGEZOGEN
 62
     7
370
    35
100
AcDbLine
 10
2631.077757231355
 20
1254.6023218963
 30
0.0
 11
2630.077757231355
 21
1254.6023218963
 31
0.0
  0
LINE
  5
1DF
330
1F
100
AcDbEntity
  8
0
  6
AUSGEZOGEN
 62
     7
370
    35
100
AcDbLine
 10
2630.077757231355
 20
1252.6023218963
 30
0.0
 11
2630.077757231355
 21
1254.6023218963
 31
0.0
  0
LINE
  5
1E0
330
1F
100
AcDbEntity
  8
0
  6
AUSGEZOGEN
 62
     7
370
    35
100
AcDbLine
 10
2630.077757231355
 20
1231.6023218963
 30
0.0
 11
2630.077757231355
 21
1252.6023218963
 31
0.0
  0
LINE
  5
1E1
330
1F
100
AcDbEntity
  8
0
  6
AUSGEZOGEN
 62
     7
370
    35
100
AcDbLine
 10
2630.077757231355
 20
1225.6023218963
 30
0.0
 11
2630.077757231355
 21
1229.6023218963
 31
0.0
  0
LINE
  5
1E2
330
1F
100
AcDbEntity
  8
0
  6
AUSGEZOGEN
 62
     7
370
    35
100
AcDbLine
 10
2630.077757231355
 20
1254.6023218963
 30
0.0
 11
2630.077757231355
 21
1258.6023218963
 31
0.0
  0
LINE
  5
1E3
330
1F
100
AcDbEntity
  8
0
  6
AUSGEZOGEN
 62
     7
370
    35
100
AcDbLine
 10
2631.077757231355
 20
1217.1023218963
 30
0.0
 11
2630.077757231355
 21
1217.1023218963
 31
0.0
  0
LINE
  5
1E4
330
1F
100
AcDbEntity
  8
0
  6
AUSGEZOGEN
 62
     7
370
    35
100
AcDbLine
 10
2630.077757231355
 20
1217.1023218963
 30
0.0
 11
2630.077757231355
 21
1219.1023218963
 31
0.0
  0
LINE
  5
1E5
330
1F
100
AcDbEntity
  8
0
  6
AUSGEZOGEN
 62
     7
370
    35
100
AcDbLine
 10
2630.077757231355
 20
1219.1023218963
 30
0.0
 11
2630.077757231355
 21
1225.6023218963
 31
0.0
  0
LINE
  5
1E6
330
1F
100
AcDbEntity
  8
0
  6
AUSGEZOGEN
 62
     7
370
    35
100
AcDbLine
 10
2631.077757231355
 20
1267.1023218963
 30
0.0
 11
2630.077757231355
 21
1267.1023218963
 31
0.0
  0
LINE
  5
1E7
330
1F
100
AcDbEntity
  8
0
  6
AUSGEZOGEN
 62
     7
370
    35
100
AcDbLine
 10
2631.077757231355
 20
1265.1023218963
 30
0.0
 11
2631.077757231355
 21
1267.1023218963
 31
0.0
  0
LINE
  5
1E8
330
1F
100
AcDbEntity
  8
0
  6
AUSGEZOGEN
 62
     7
370
    35
100
AcDbLine
 10
2630.077757231355
 20
1265.1023218963
 30
0.0
 11
2630.077757231355
 21
1267.1023218963
 31
0.0
  0
LINE
  5
1E9
330
1F
100
AcDbEntity
  8
0
  6
AUSGEZOGEN
 62
     7
370
    35
100
AcDbLine
 10
2630.077757231355
 20
1258.6023218963
 30
0.0
 11
2630.077757231355
 21
1265.1023218963
 31
0.0
  0
LINE
  5
1EA
330
1F
100
AcDbEntity
  8
0
  6
AUSGEZOGEN
 62
     7
370
    35
100
AcDbLine
 10
2629.077757231355
 20
1267.1023218963
 30
0.0
 11
2630.077757231355
 21
1267.1023218963
 31
0.0
  0
LINE
  5
1EB
330
1F
100
AcDbEntity
  8
0
  6
AUSGEZOGEN
 62
     7
370
    35
100
AcDbLine
 10
2630.077757231355
 20
1217.1023218963
 30
0.0
 11
2629.077757231355
 21
1217.1023218963
 31
0.0
  0
ARC
  5
1EC
330
1F
100
AcDbEntity
  8
0
  6
AUSGEZOGEN
 62
     7
370
    35
100
AcDbCircle
 10
2622.079757231355
 20
1219.1023218963
 30
0.0
 40
2.0
100
AcDbArc
 50
180.0
 51
270.0
  0
LINE
  5
1ED
330
1F
100
AcDbEntity
  8
0
  6
AUSGEZOGEN
 62
     7
370
    35
100
AcDbLine
 10
2620.079757231355
 20
1265.1023218963
 30
0.0
 11
2620.079757231355
 21
1219.1023218963
 31
0.0
  0
ARC
  5
1EE
330
1F
100
AcDbEntity
  8
0
  6
AUSGEZOGEN
 62
     7
370
    35
100
AcDbCircle
 10
2622.079757231355
 20
1265.1023218963
 30
0.0
 40
2.0
100
AcDbArc
 50
90.0
 51
180.0
  0
LINE
  5
1EF
330
1F
100
AcDbEntity
  8
0
  6
AUSGEZOGEN
 62
     7
370
    35
100
AcDbLine
 10
2629.077757231355
 20
1267.1023218963
 30
0.0
 11
2622.079757231355
 21
1267.1023218963
 31
0.0
  0
LINE
  5
1F0
330
1F
100
AcDbEntity
  8
0
  6
AUSGEZOGEN
 62
     7
370
    35
100
AcDbLine
 10
2622.079757231355
 20
1217.1023218963
 30
0.0
 11
2629.077757231355
 21
1217.1023218963
 31
0.0
  0
LINE
  5
1F1
330
1F
100
AcDbEntity
  8
0
  6
AUSGEZOGEN
 62
     7
370
    35
100
AcDbLine
 10
2789.177757231354
 20
876.3023218963
 30
0.0
 11
2789.177757231354
 21
875.3023218963
 31
0.0
  0
LINE
  5
1F2
330
1F
100
AcDbEntity
  8
0
  6
AUSGEZOGEN
 62
     7
370
    35
100
AcDbLine
 10
2791.177757231354
 20
875.3023218963
 30
0.0
 11
2789.177757231354
 21
875.3023218963
 31
0.0
  0
LINE
  5
1F3
330
1F
100
AcDbEntity
  8
0
  6
AUSGEZOGEN
 62
     7
370
    35
100
AcDbLine
 10
2812.177757231354
 20
875.3023218963
 30
0.0
 11
2791.177757231354
 21
875.3023218963
 31
0.0
  0
LINE
  5
1F4
330
1F
100
AcDbEntity
  8
0
  6
AUSGEZOGEN
 62
     7
370
    35
100
AcDbLine
 10
2814.177757231354
 20
876.3023218963
 30
0.0
 11
2814.177757231354
 21
875.3023218963
 31
0.0
  0
LINE
  5
1F5
330
1F
100
AcDbEntity
  8
0
  6
AUSGEZOGEN
 62
     7
370
    35
100
AcDbLine
 10
2814.177757231354
 20
875.3023218963
 30
0.0
 11
2812.177757231354
 21
875.3023218963
 31
0.0
  0
LINE
  5
1F6
330
1F
100
AcDbEntity
  8
0
  6
AUSGEZOGEN
 62
     7
370
    35
100
AcDbLine
 10
2789.177757231354
 20
875.3023218963
 30
0.0
 11
2785.177757231354
 21
875.3023218963
 31
0.0
  0
LINE
  5
1F7
330
1F
100
AcDbEntity
  8
0
  6
AUSGEZOGEN
 62
     7
370
    35
100
AcDbLine
 10
2818.177757231354
 20
875.3023218963
 30
0.0
 11
2814.177757231354
 21
875.3023218963
 31
0.0
  0
LINE
  5
1F8
330
1F
100
AcDbEntity
  8
0
  6
AUSGEZOGEN
 62
     7
370
    35
100
AcDbLine
 10
2776.677757231354
 20
876.3023218963
 30
0.0
 11
2776.677757231354
 21
875.3023218963
 31
0.0
  0
LINE
  5
1F9
330
1F
100
AcDbEntity
  8
0
  6
AUSGEZOGEN
 62
     7
370
    35
100
AcDbLine
 10
2778.677757231354
 20
875.3023218963
 30
0.0
 11
2776.677757231354
 21
875.3023218963
 31
0.0
  0
LINE
  5
1FA
330
1F
100
AcDbEntity
  8
0
  6
AUSGEZOGEN
 62
     7
370
    35
100
AcDbLine
 10
2785.177757231354
 20
875.3023218963
 30
0.0
 11
2778.677757231354
 21
875.3023218963
 31
0.0
  0
LINE
  5
1FB
330
1F
100
AcDbEntity
  8
0
  6
AUSGEZOGEN
 62
     7
370
    35
100
AcDbLine
 10
2824.677757231354
 20
875.3023218963
 30
0.0
 11
2818.177757231354
 21
875.3023218963
 31
0.0
  0
LINE
  5
1FC
330
1F
100
AcDbEntity
  8
0
  6
AUSGEZOGEN
 62
     7
370
    35
100
AcDbLine
 10
2826.677757231354
 20
876.3023218963
 30
0.0
 11
2826.677757231354
 21
875.3023218963
 31
0.0
  0
LINE
  5
1FD
330
1F
100
AcDbEntity
  8
0
  6
AUSGEZOGEN
 62
     7
370
    35
100
AcDbLine
 10
2826.677757231354
 20
875.3023218963
 30
0.0
 11
2824.677757231354
 21
875.3023218963
 31
0.0
  0
LINE
  5
1FE
330
1F
100
AcDbEntity
  8
0
  6
AUSGEZOGEN
 62
     7
370
    35
100
AcDbLine
 10
2826.677757231354
 20
875.3023218963
 30
0.0
 11
2826.677757231354
 21
874.3023218963
 31
0.0
  0
LINE
  5
1FF
330
1F
100
AcDbEntity
  8
0
  6
AUSGEZOGEN
 62
     7
370
    35
100
AcDbLine
 10
2776.677757231354
 20
874.3023218963
 30
0.0
 11
2776.677757231354
 21
875.3023218963
 31
0.0
  0
ARC
  5
200
330
1F
100
AcDbEntity
  8
0
  6
AUSGEZOGEN
 62
     7
370
    35
100
AcDbCircle
 10
2824.677757231354
 20
867.3043218963
 30
0.0
 40
2.0
100
AcDbArc
 50
270.0
 51
0.0
  0
LINE
  5
201
330
1F
100
AcDbEntity
  8
0
  6
AUSGEZOGEN
 62
     7
370
    35
100
AcDbLine
 10
2778.677757231354
 20
865.3043218963
 30
0.0
 11
2824.677757231354
 21
865.3043218963
 31
0.0
  0
ARC
  5
202
330
1F
100
AcDbEntity
  8
0
  6
AUSGEZOGEN
 62
     7
370
    35
100
AcDbCircle
 10
2778.677757231354
 20
867.3043218963
 30
0.0
 40
2.000000000000455
100
AcDbArc
 50
180.0
 51
270.0
  0
LINE
  5
203
330
1F
100
AcDbEntity
  8
0
  6
AUSGEZOGEN
 62
     7
370
    35
100
AcDbLine
 10
2776.677757231354
 20
874.3023218963
 30
0.0
 11
2776.677757231354
 21
867.3043218963
 31
0.0
  0
LINE
  5
204
330
1F
100
AcDbEntity
  8
0
  6
AUSGEZOGEN
 62
     7
370
    35
100
AcDbLine
 10
2826.677757231354
 20
867.3043218963
 30
0.0
 11
2826.677757231354
 21
874.3023218963
 31
0.0
  0
LINE
  5
205
330
1F
100
AcDbEntity
  8
0
  6
AUSGEZOGEN
 62
     7
370
    35
100
AcDbLine
 10
2631.077757231355
 20
929.6023218963
 30
0.0
 11
2630.077757231355
 21
929.6023218963
 31
0.0
  0
LINE
  5
206
330
1F
100
AcDbEntity
  8
0
  6
AUSGEZOGEN
 62
     7
370
    35
100
AcDbLine
 10
2630.077757231355
 20
927.6023218963
 30
0.0
 11
2630.077757231355
 21
929.6023218963
 31
0.0
  0
LINE
  5
207
330
1F
100
AcDbEntity
  8
0
  6
AUSGEZOGEN
 62
     7
370
    35
100
AcDbLine
 10
2631.077757231355
 20
904.6023218963
 30
0.0
 11
2630.077757231355
 21
904.6023218963
 31
0.0
  0
LINE
  5
208
330
1F
100
AcDbEntity
  8
0
  6
AUSGEZOGEN
 62
     7
370
    35
100
AcDbLine
 10
2630.077757231355
 20
904.6023218963
 30
0.0
 11
2630.077757231355
 21
906.6023218963
 31
0.0
  0
LINE
  5
209
330
1F
100
AcDbEntity
  8
0
  6
AUSGEZOGEN
 62
     7
370
    35
100
AcDbLine
 10
2630.077757231355
 20
906.6023218963
 30
0.0
 11
2630.077757231355
 21
927.6023218963
 31
0.0
  0
LINE
  5
20A
330
1F
100
AcDbEntity
  8
0
  6
AUSGEZOGEN
 62
     7
370
    35
100
AcDbLine
 10
2630.077757231355
 20
900.6023218963
 30
0.0
 11
2630.077757231355
 21
904.6023218963
 31
0.0
  0
LINE
  5
20B
330
1F
100
AcDbEntity
  8
0
  6
AUSGEZOGEN
 62
     7
370
    35
100
AcDbLine
 10
2630.077757231355
 20
929.6023218963
 30
0.0
 11
2630.077757231355
 21
933.6023218963
 31
0.0
  0
LINE
  5
20C
330
1F
100
AcDbEntity
  8
0
  6
AUSGEZOGEN
 62
     7
370
    35
100
AcDbLine
 10
2630.077757231355
 20
894.1023218963
 30
0.0
 11
2630.077757231355
 21
900.6023218963
 31
0.0
  0
LINE
  5
20D
330
1F
100
AcDbEntity
  8
0
  6
AUSGEZOGEN
 62
     7
370
    35
100
AcDbLine
 10
2631.077757231355
 20
892.1023218963
 30
0.0
 11
2630.077757231355
 21
892.1023218963
 31
0.0
  0
LINE
  5
20E
330
1F
100
AcDbEntity
  8
0
  6
AUSGEZOGEN
 62
     7
370
    35
100
AcDbLine
 10
2630.077757231355
 20
892.1023218963
 30
0.0
 11
2630.077757231355
 21
894.1023218963
 31
0.0
  0
LINE
  5
20F
330
1F
100
AcDbEntity
  8
0
  6
AUSGEZOGEN
 62
     7
370
    35
100
AcDbLine
 10
2631.077757231355
 20
942.1023218963
 30
0.0
 11
2630.077757231355
 21
942.1023218963
 31
0.0
  0
LINE
  5
210
330
1F
100
AcDbEntity
  8
0
  6
AUSGEZOGEN
 62
     7
370
    35
100
AcDbLine
 10
2630.077757231355
 20
940.1023218963
 30
0.0
 11
2630.077757231355
 21
942.1023218963
 31
0.0
  0
LINE
  5
211
330
1F
100
AcDbEntity
  8
0
  6
AUSGEZOGEN
 62
     7
370
    35
100
AcDbLine
 10
2630.077757231355
 20
933.6023218963
 30
0.0
 11
2630.077757231355
 21
940.1023218963
 31
0.0
  0
LINE
  5
212
330
1F
100
AcDbEntity
  8
0
  6
AUSGEZOGEN
 62
     7
370
    35
100
AcDbLine
 10
2629.077757231355
 20
942.1023218963
 30
0.0
 11
2630.077757231355
 21
942.1023218963
 31
0.0
  0
LINE
  5
213
330
1F
100
AcDbEntity
  8
0
  6
AUSGEZOGEN
 62
     7
370
    35
100
AcDbLine
 10
2630.077757231355
 20
892.1023218963
 30
0.0
 11
2629.077757231355
 21
892.1023218963
 31
0.0
  0
ARC
  5
214
330
1F
100
AcDbEntity
  8
0
  6
AUSGEZOGEN
 62
     7
370
    35
100
AcDbCircle
 10
2622.079757231355
 20
894.1023218963
 30
0.0
 40
2.0
100
AcDbArc
 50
180.0
 51
270.0
  0
LINE
  5
215
330
1F
100
AcDbEntity
  8
0
  6
AUSGEZOGEN
 62
     7
370
    35
100
AcDbLine
 10
2620.079757231355
 20
940.1023218963
 30
0.0
 11
2620.079757231355
 21
894.1023218963
 31
0.0
  0
ARC
  5
216
330
1F
100
AcDbEntity
  8
0
  6
AUSGEZOGEN
 62
     7
370
    35
100
AcDbCircle
 10
2622.079757231355
 20
940.1023218963
 30
0.0
 40
2.000000000000114
100
AcDbArc
 50
90.0
 51
180.0
  0
LINE
  5
217
330
1F
100
AcDbEntity
  8
0
  6
AUSGEZOGEN
 62
     7
370
    35
100
AcDbLine
 10
2629.077757231355
 20
942.1023218963
 30
0.0
 11
2622.079757231355
 21
942.1023218963
 31
0.0
  0
LINE
  5
218
330
1F
100
AcDbEntity
  8
0
  6
AUSGEZOGEN
 62
     7
370
    35
100
AcDbLine
 10
2622.079757231355
 20
892.1023218963
 30
0.0
 11
2629.077757231355
 21
892.1023218963
 31
0.0
  0
LINE
  5
219
330
1F
100
AcDbEntity
  8
0
  6
AUSGEZOGEN
 62
     7
370
    35
100
AcDbLine
 10
2973.677757231354
 20
927.6023218963
 30
0.0
 11
2973.677757231354
 21
906.6023218963
 31
0.0
  0
LINE
  5
21A
330
1F
100
AcDbEntity
  8
0
  6
AUSGEZOGEN
 62
     7
370
    35
100
AcDbLine
 10
2972.677757231354
 20
904.6023218963
 30
0.0
 11
2973.677757231354
 21
904.6023218963
 31
0.0
  0
LINE
  5
21B
330
1F
100
AcDbEntity
  8
0
  6
AUSGEZOGEN
 62
     7
370
    35
100
AcDbLine
 10
2973.677757231354
 20
906.6023218963
 30
0.0
 11
2973.677757231354
 21
904.6023218963
 31
0.0
  0
LINE
  5
21C
330
1F
100
AcDbEntity
  8
0
  6
AUSGEZOGEN
 62
     7
370
    35
100
AcDbLine
 10
2972.677757231354
 20
929.6023218963
 30
0.0
 11
2973.677757231354
 21
929.6023218963
 31
0.0
  0
LINE
  5
21D
330
1F
100
AcDbEntity
  8
0
  6
AUSGEZOGEN
 62
     7
370
    35
100
AcDbLine
 10
2973.677757231354
 20
929.6023218963
 30
0.0
 11
2973.677757231354
 21
927.6023218963
 31
0.0
  0
LINE
  5
21E
330
1F
100
AcDbEntity
  8
0
  6
AUSGEZOGEN
 62
     7
370
    35
100
AcDbLine
 10
2973.677757231354
 20
933.6023218963
 30
0.0
 11
2973.677757231354
 21
929.6023218963
 31
0.0
  0
LINE
  5
21F
330
1F
100
AcDbEntity
  8
0
  6
AUSGEZOGEN
 62
     7
370
    35
100
AcDbLine
 10
2973.677757231354
 20
904.6023218963
 30
0.0
 11
2973.677757231354
 21
900.6023218963
 31
0.0
  0
LINE
  5
220
330
1F
100
AcDbEntity
  8
0
  6
AUSGEZOGEN
 62
     7
370
    35
100
AcDbLine
 10
2973.677757231354
 20
940.1023218963
 30
0.0
 11
2973.677757231354
 21
933.6023218963
 31
0.0
  0
LINE
  5
221
330
1F
100
AcDbEntity
  8
0
  6
AUSGEZOGEN
 62
     7
370
    35
100
AcDbLine
 10
2972.677757231354
 20
942.1023218963
 30
0.0
 11
2973.677757231354
 21
942.1023218963
 31
0.0
  0
LINE
  5
222
330
1F
100
AcDbEntity
  8
0
  6
AUSGEZOGEN
 62
     7
370
    35
100
AcDbLine
 10
2973.677757231354
 20
942.1023218963
 30
0.0
 11
2973.677757231354
 21
940.1023218963
 31
0.0
  0
LINE
  5
223
330
1F
100
AcDbEntity
  8
0
  6
AUSGEZOGEN
 62
     7
370
    35
100
AcDbLine
 10
2972.677757231354
 20
892.1023218963
 30
0.0
 11
2973.677757231354
 21
892.1023218963
 31
0.0
  0
LINE
  5
224
330
1F
100
AcDbEntity
  8
0
  6
AUSGEZOGEN
 62
     7
370
    35
100
AcDbLine
 10
2973.677757231354
 20
894.1023218963
 30
0.0
 11
2973.677757231354
 21
892.1023218963
 31
0.0
  0
LINE
  5
225
330
1F
100
AcDbEntity
  8
0
  6
AUSGEZOGEN
 62
     7
370
    35
100
AcDbLine
 10
2973.677757231354
 20
900.6023218963
 30
0.0
 11
2973.677757231354
 21
894.1023218963
 31
0.0
  0
LINE
  5
226
330
1F
100
AcDbEntity
  8
0
  6
AUSGEZOGEN
 62
     7
370
    35
100
AcDbLine
 10
2974.677757231354
 20
892.1023218963
 30
0.0
 11
2973.677757231354
 21
892.1023218963
 31
0.0
  0
LINE
  5
227
330
1F
100
AcDbEntity
  8
0
  6
AUSGEZOGEN
 62
     7
370
    35
100
AcDbLine
 10
2973.677757231354
 20
942.1023218963
 30
0.0
 11
2974.677757231354
 21
942.1023218963
 31
0.0
  0
ARC
  5
228
330
1F
100
AcDbEntity
  8
0
  6
AUSGEZOGEN
 62
     7
370
    35
100
AcDbCircle
 10
2981.675757231355
 20
940.1023218963
 30
0.0
 40
2.0
100
AcDbArc
 50
0.0
 51
90.0
  0
LINE
  5
229
330
1F
100
AcDbEntity
  8
0
  6
AUSGEZOGEN
 62
     7
370
    35
100
AcDbLine
 10
2983.675757231355
 20
894.1023218963
 30
0.0
 11
2983.675757231355
 21
940.1023218963
 31
0.0
  0
ARC
  5
22A
330
1F
100
AcDbEntity
  8
0
  6
AUSGEZOGEN
 62
     7
370
    35
100
AcDbCircle
 10
2981.675757231355
 20
894.1023218963
 30
0.0
 40
2.000000000000114
100
AcDbArc
 50
270.0
 51
0.0
  0
LINE
  5
22B
330
1F
100
AcDbEntity
  8
0
  6
AUSGEZOGEN
 62
     7
370
    35
100
AcDbLine
 10
2974.677757231354
 20
892.1023218963
 30
0.0
 11
2981.675757231355
 21
892.1023218963
 31
0.0
  0
LINE
  5
22C
330
1F
100
AcDbEntity
  8
0
  6
AUSGEZOGEN
 62
     7
370
    35
100
AcDbLine
 10
2981.675757231355
 20
942.1023218963
 30
0.0
 11
2974.677757231354
 21
942.1023218963
 31
0.0
  0
LINE
  5
22D
330
1F
100
AcDbEntity
  8
0
  6
AUSGEZOGEN
 62
     7
370
    35
100
AcDbLine
 10
2695.349757231354
 20
1284.3993678963
 30
0.0
 11
2695.349757231354
 21
1290.5559848963
 31
0.0
  0
LINE
  5
22E
330
1F
100
AcDbEntity
  8
0
  6
AUSGEZOGEN
 62
     7
370
    35
100
AcDbLine
 10
2694.349757231354
 20
1284.3993678963
 30
0.0
 11
2694.349757231354
 21
1290.5559848963
 31
0.0
  0
LINE
  5
22F
330
1F
100
AcDbEntity
  8
0
  6
AUSGEZOGEN
 62
     7
370
    35
100
AcDbLine
 10
2706.377757231355
 20
1278.9023218963
 30
0.0
 11
2696.349757231354
 21
1278.9023218963
 31
0.0
  0
LINE
  5
230
330
1F
100
AcDbEntity
  8
0
  6
AUSGEZOGEN
 62
     7
370
    35
100
AcDbLine
 10
2695.349757231354
 20
1279.9023218963
 30
0.0
 11
2695.349757231354
 21
1284.3993678963
 31
0.0
  0
LINE
  5
231
330
1F
100
AcDbEntity
  8
0
  6
AUSGEZOGEN
 62
     7
370
    35
100
AcDbLine
 10
2694.349757231354
 20
1279.9023218963
 30
0.0
 11
2694.349757231354
 21
1284.3993678963
 31
0.0
  0
ARC
  5
232
330
1F
100
AcDbEntity
  8
0
  6
AUSGEZOGEN
 62
     7
370
    35
100
AcDbCircle
 10
2696.349757231354
 20
1279.9023218963
 30
0.0
 40
1.000000000000227
100
AcDbArc
 50
180.0
 51
270.0
  0
ARC
  5
233
330
1F
100
AcDbEntity
  8
0
  6
AUSGEZOGEN
 62
     7
370
    35
100
AcDbCircle
 10
2696.349757231354
 20
1279.9023218963
 30
0.0
 40
2.0
100
AcDbArc
 50
180.0
 51
270.0
  0
LINE
  5
234
330
1F
100
AcDbEntity
  8
0
  6
AUSGEZOGEN
 62
     7
370
    35
100
AcDbLine
 10
2709.377757231355
 20
1278.9023218963
 30
0.0
 11
2709.377757231355
 21
1277.9023218963
 31
0.0
  0
LINE
  5
235
330
1F
100
AcDbEntity
  8
0
  6
AUSGEZOGEN
 62
     7
370
    35
100
AcDbLine
 10
2709.377757231355
 20
1278.9023218963
 30
0.0
 11
2706.377757231355
 21
1278.9023218963
 31
0.0
  0
LINE
  5
236
330
1F
100
AcDbEntity
  8
0
  6
AUSGEZOGEN
 62
     7
370
    35
100
AcDbLine
 10
2695.349757231354
 20
1290.5559848963
 30
0.0
 11
2695.349757231354
 21
1334.4430688963
 31
0.0
  0
LINE
  5
237
330
1F
100
AcDbEntity
  8
0
  6
AUSGEZOGEN
 62
     7
370
    35
100
AcDbLine
 10
2694.349757231354
 20
1290.5559848963
 30
0.0
 11
2694.349757231354
 21
1334.4430688963
 31
0.0
  0
LINE
  5
238
330
1F
100
AcDbEntity
  8
0
  6
AUSGEZOGEN
 62
     7
370
    35
100
AcDbLine
 10
2695.349757231354
 20
1335.5585238963
 30
0.0
 11
2694.349757231354
 21
1335.5585238963
 31
0.0
  0
LINE
  5
239
330
1F
100
AcDbEntity
  8
0
  6
AUSGEZOGEN
 62
     7
370
    35
100
AcDbLine
 10
2695.349757231354
 20
1334.4430688963
 30
0.0
 11
2695.349757231354
 21
1335.5585238963
 31
0.0
  0
LINE
  5
23A
330
1F
100
AcDbEntity
  8
0
  6
AUSGEZOGEN
 62
     7
370
    35
100
AcDbLine
 10
2694.349757231354
 20
1334.4430688963
 30
0.0
 11
2694.349757231354
 21
1335.5585238963
 31
0.0
  0
LINE
  5
23B
330
1F
100
AcDbEntity
  8
0
  6
AUSGEZOGEN
 62
     7
370
    35
100
AcDbLine
 10
2695.400472848355
 20
1335.8729426616
 30
0.0
 11
2695.349757231354
 21
1335.5585238963
 31
0.0
  0
LWPOLYLINE
  5
23C
330
1F
100
AcDbEntity
  8
0
  6
AUSGEZOGEN
 62
     7
370
    35
100
AcDbPolyline
 90
        7
 70
     0
 43
0.0
 10
2694.451188465216
 20
1336.187361427004
 10
2694.425993815584
 20
1336.11655390914
 10
2694.413734179533
 20
1336.070650159642
 10
2694.401879769999
 20
1336.012146421464
 10
2694.388152174493
 20
1335.920411876601
 10
2694.375021974006
 20
1335.81010211479
 10
2694.349757231398
 20
1335.558523896254
  0
LINE
  5
23D
330
1F
100
AcDbEntity
  8
0
  6
AUSGEZOGEN
 62
     7
370
    35
100
AcDbLine
 10
2694.451188465255
 20
1336.187361427
 30
0.0
 11
2695.400472848355
 21
1335.8729426616
 31
0.0
  0
LINE
  5
23E
330
1F
100
AcDbEntity
  8
0
  6
AUSGEZOGEN
 62
     7
370
    35
100
AcDbLine
 10
2694.567947978355
 20
1336.4669047557
 30
0.0
 11
2695.458852604855
 21
1336.012714326
 31
0.0
  0
LWPOLYLINE
  5
23F
330
1F
100
AcDbEntity
  8
0
  6
AUSGEZOGEN
 62
     7
370
    35
100
AcDbPolyline
 90
        5
 70
     0
 43
0.0
 10
2694.567947978346
 20
1336.466904755662
 10
2694.529417587613
 20
1336.386994524139
 10
2694.497700817405
 20
1336.313432526085
 10
2694.47190010159
 20
1336.246748132992
 10
2694.451188465216
 20
1336.187361427004
  0
LWPOLYLINE
  5
240
330
1F
100
AcDbEntity
  8
0
  6
AUSGEZOGEN
 62
     7
370
    35
100
AcDbPolyline
 90
        5
 70
     0
 43
0.0
 10
2695.458852604871
 20
1336.012714325958
 10
2695.448764906959
 20
1335.992358924005
 10
2695.439587409505
 20
1335.972759210197
 10
2695.423729024401
 20
1335.935978211169
 10
2695.400472848307
 20
1335.872942661629
  0
ARC
  5
241
330
1F
100
AcDbEntity
  8
0
  6
AUSGEZOGEN
 62
     7
370
    35
100
AcDbCircle
 10
2696.349757231354
 20
1335.5585238963
 30
0.0
 40
2.0000000000001
100
AcDbArc
 50
90.0
 51
152.9871428571
  0
ARC
  5
242
330
1F
100
AcDbEntity
  8
0
  6
AUSGEZOGEN
 62
     7
370
    35
100
AcDbCircle
 10
2696.349757231354
 20
1335.5585238963
 30
0.0
 40
1.000000000000201
100
AcDbArc
 50
90.0
 51
152.9871428572
  0
LINE
  5
243
330
1F
100
AcDbEntity
  8
0
  6
AUSGEZOGEN
 62
     7
370
    35
100
AcDbLine
 10
2696.349757231354
 20
1337.5585238963
 30
0.0
 11
2716.377757231355
 21
1337.5585238963
 31
0.0
  0
LINE
  5
244
330
1F
100
AcDbEntity
  8
0
  6
AUSGEZOGEN
 62
     7
370
    35
100
AcDbLine
 10
2696.349757231354
 20
1336.5585238963
 30
0.0
 11
2716.377757231355
 21
1336.5585238963
 31
0.0
  0
LINE
  5
245
330
1F
100
AcDbEntity
  8
0
  6
AUSGEZOGEN
 62
     7
370
    35
100
AcDbLine
 10
2719.377757231355
 20
1336.5585238963
 30
0.0
 11
2719.377757231355
 21
1337.5585238963
 31
0.0
  0
LINE
  5
246
330
1F
100
AcDbEntity
  8
0
  6
AUSGEZOGEN
 62
     7
370
    35
100
AcDbLine
 10
2716.377757231355
 20
1337.5585238963
 30
0.0
 11
2719.377757231355
 21
1337.5585238963
 31
0.0
  0
LINE
  5
247
330
1F
100
AcDbEntity
  8
0
  6
AUSGEZOGEN
 62
     7
370
    35
100
AcDbLine
 10
2716.377757231355
 20
1336.5585238963
 30
0.0
 11
2719.377757231355
 21
1336.5585238963
 31
0.0
  0
LWPOLYLINE
  5
248
330
1F
100
AcDbEntity
  8
0
  6
AUSGEZOGEN
 62
     7
370
    35
100
AcDbPolyline
 90
       16
 70
     0
 43
0.0
 10
2696.349757231397
 20
1347.845354527709
 10
2696.165672690453
 20
1347.632999844988
 10
2696.076202832606
 20
1347.525566776348
 10
2695.989819869909
 20
1347.416626834971
 10
2695.907552767412
 20
1347.305677729946
 10
2695.830430490166
 20
1347.192217170361
 10
2695.75948200322
 20
1347.075742865303
 10
2695.726644482689
 20
1347.016218592312
 10
2695.695736271626
 20
1346.95575252386
 10
2695.643803940031
 20
1346.841354544461
 10
2695.598032173639
 20
1346.723949275441
 10
2695.557540891707
 20
1346.603966329603
 10
2695.521450013492
 20
1346.481835319751
 10
2695.48887945825
 20
1346.357985858687
 10
2695.458949145238
 20
1346.232847559214
 10
2695.403488922931
 20
1345.980422896254
  0
LINE
  5
249
330
1F
100
AcDbEntity
  8
0
  6
AUSGEZOGEN
 62
     7
370
    35
100
AcDbLine
 10
2695.403488922955
 20
1345.9804228963
 30
0.0
 11
2695.403488922955
 21
1337.3205046817
 31
0.0
  0
LINE
  5
24A
330
1F
100
AcDbEntity
  8
0
  6
AUSGEZOGEN
 62
     7
370
    35
100
AcDbLine
 10
2695.403488922955
 20
1335.8811176909
 30
0.0
 11
2695.403488922955
 21
1334.9804228963
 31
0.0
  0
LINE
  5
24B
330
1F
100
AcDbEntity
  8
0
  6
AUSGEZOGEN
 62
     7
370
    35
100
AcDbLine
 10
2695.876623077155
 20
1345.9804228963
 30
0.0
 11
2695.876623077155
 21
1337.5017542151
 31
0.0
  0
LINE
  5
24C
330
1F
100
AcDbEntity
  8
0
  6
AUSGEZOGEN
 62
     7
370
    35
100
AcDbLine
 10
2695.876623077155
 20
1336.439514289
 30
0.0
 11
2695.876623077155
 21
1334.9804228963
 31
0.0
  0
LWPOLYLINE
  5
24D
330
1F
100
AcDbEntity
  8
0
  6
AUSGEZOGEN
 62
     7
370
    35
100
AcDbPolyline
 90
       13
 70
     0
 43
0.0
 10
2696.349757231397
 20
1347.845354527709
 10
2696.257288321852
 20
1347.625672235016
 10
2696.169105928138
 20
1347.404902659016
 10
2696.127961710913
 20
1347.293770363741
 10
2696.089496566081
 20
1347.1819585164
 10
2696.054246308121
 20
1347.069331206577
 10
2696.022746751511
 20
1346.95575252386
 10
2695.994320468467
 20
1346.836413633663
 10
2695.969958514924
 20
1346.716043818164
 10
2695.94908027238
 20
1346.594790352407
 10
2695.931105122337
 20
1346.472800511435
 10
2695.90154162575
 20
1346.227200804017
 10
2695.876623077163
 20
1345.980422896254
  0
LINE
  5
24E
330
1F
100
AcDbEntity
  8
0
  6
AUSGEZOGEN
 62
     7
370
    35
100
AcDbLine
 10
2695.876623077155
 20
1334.9804228963
 30
0.0
 11
2695.349757231354
 21
1334.9804228963
 31
0.0
  0
LINE
  5
24F
330
1F
100
AcDbEntity
  8
0
  6
AUSGEZOGEN
 62
     7
370
    35
100
AcDbLine
 10
2695.349757231354
 20
1281.9804228963
 30
0.0
 11
2696.349757231354
 21
1281.9804228963
 31
0.0
  0
LINE
  5
250
330
1F
100
AcDbEntity
  8
0
  6
AUSGEZOGEN
 62
     7
370
    35
100
AcDbLine
 10
2695.403488922955
 20
1345.9804228963
 30
0.0
 11
2695.876623077155
 21
1345.9804228963
 31
0.0
  0
ARC
  5
251
330
1F
100
AcDbEntity
  8
0
  6
AUSGEZOGEN
 62
     7
370
    35
100
AcDbCircle
 10
2698.699657231355
 20
1345.9804228963
 30
0.0
 40
3.000000000000057
100
AcDbArc
 50
90.0
 51
141.563721283
  0
LINE
  5
252
330
1F
100
AcDbEntity
  8
0
  6
AUSGEZOGEN
 62
     7
370
    35
100
AcDbLine
 10
2698.699657231355
 20
1348.9804228963
 30
0.0
 11
2716.377757231355
 21
1348.9804228963
 31
0.0
  0
ARC
  5
253
330
1F
100
AcDbEntity
  8
0
  6
AUSGEZOGEN
 62
     7
370
    35
100
AcDbCircle
 10
2716.377757231355
 20
1345.9804228963
 30
0.0
 40
3.0
100
AcDbArc
 50
0.0
 51
90.0
  0
LINE
  5
254
330
1F
100
AcDbEntity
  8
0
  6
AUSGEZOGEN
 62
     7
370
    35
100
AcDbLine
 10
2719.377757231355
 20
1345.9804228963
 30
0.0
 11
2719.377757231355
 21
1337.5585238963
 31
0.0
  0
LINE
  5
255
330
1F
100
AcDbEntity
  8
0
  6
AUSGEZOGEN
 62
     7
370
    35
100
AcDbLine
 10
2719.377757231355
 20
1336.5585238963
 30
0.0
 11
2719.377757231355
 21
1284.9804228963
 31
0.0
  0
ARC
  5
256
330
1F
100
AcDbEntity
  8
0
  6
AUSGEZOGEN
 62
     7
370
    35
100
AcDbCircle
 10
2716.377757231355
 20
1284.9804228963
 30
0.0
 40
3.000000000000455
100
AcDbArc
 50
270.0
 51
0.0
  0
LINE
  5
257
330
1F
100
AcDbEntity
  8
0
  6
AUSGEZOGEN
 62
     7
370
    35
100
AcDbLine
 10
2716.377757231355
 20
1281.9804228963
 30
0.0
 11
2696.349757231354
 21
1281.9804228963
 31
0.0
  0
CIRCLE
  5
258
330
1F
100
AcDbEntity
  8
0
  6
AUSGEZOGEN
 62
     7
370
    35
100
AcDbCircle
 10
2896.877757231355
 20
1343.9804228963
 30
0.0
 40
2.500000000000144
  0
CIRCLE
  5
259
330
1F
100
AcDbEntity
  8
0
  6
AUSGEZOGEN
 62
     7
370
    35
100
AcDbCircle
 10
2896.877757231355
 20
1343.9804228963
 30
0.0
 40
3.249999999999807
  0
CIRCLE
  5
25A
330
1F
100
AcDbEntity
  8
0
  6
AUSGEZOGEN
 62
     7
370
    35
100
AcDbCircle
 10
2801.677757231354
 20
869.0043218963
 30
0.0
 40
2.5
  0
CIRCLE
  5
25B
330
1F
100
AcDbEntity
  8
0
  6
AUSGEZOGEN
 62
     7
370
    35
100
AcDbCircle
 10
2801.677757231354
 20
869.0043218963
 30
0.0
 40
3.249999999999886
  0
CIRCLE
  5
25C
330
1F
100
AcDbEntity
  8
0
  6
AUSGEZOGEN
 62
     7
370
    35
100
AcDbCircle
 10
2623.779757231355
 20
1242.1023218963
 30
0.0
 40
2.5
  0
CIRCLE
  5
25D
330
1F
100
AcDbEntity
  8
0
  6
AUSGEZOGEN
 62
     7
370
    35
100
AcDbCircle
 10
2623.779757231355
 20
1242.1023218963
 30
0.0
 40
3.25
  0
CIRCLE
  5
25E
330
1F
100
AcDbEntity
  8
0
  6
AUSGEZOGEN
 62
     7
370
    35
100
AcDbCircle
 10
2706.877757231355
 20
1343.9804228963
 30
0.0
 40
2.499999999999836
  0
CIRCLE
  5
25F
330
1F
100
AcDbEntity
  8
0
  6
AUSGEZOGEN
 62
     7
370
    35
100
AcDbCircle
 10
2706.877757231355
 20
1343.9804228963
 30
0.0
 40
3.250000000000141
  0
CIRCLE
  5
260
330
1F
100
AcDbEntity
  8
0
  6
AUSGEZOGEN
 62
     7
370
    35
100
AcDbCircle
 10
2979.975757231355
 20
1242.1023218963
 30
0.0
 40
2.500000000000455
  0
CIRCLE
  5
261
330
1F
100
AcDbEntity
  8
0
  6
AUSGEZOGEN
 62
     7
370
    35
100
AcDbCircle
 10
2979.975757231355
 20
1242.1023218963
 30
0.0
 40
3.25
  0
CIRCLE
  5
262
330
1F
100
AcDbEntity
  8
0
  6
AUSGEZOGEN
 62
     7
370
    35
100
AcDbCircle
 10
2623.779757231355
 20
917.1023218963
 30
0.0
 40
2.5
  0
CIRCLE
  5
263
330
1F
100
AcDbEntity
  8
0
  6
AUSGEZOGEN
 62
     7
370
    35
100
AcDbCircle
 10
2623.779757231355
 20
917.1023218963
 30
0.0
 40
3.25
  0
CIRCLE
  5
264
330
1F
100
AcDbEntity
  8
0
  6
AUSGEZOGEN
 62
     7
370
    35
100
AcDbCircle
 10
2979.975757231355
 20
917.1023218963
 30
0.0
 40
2.5
  0
CIRCLE
  5
265
330
1F
100
AcDbEntity
  8
0
  6
AUSGEZOGEN
 62
     7
370
    35
100
AcDbCircle
 10
2979.975757231355
 20
917.1023218963
 30
0.0
 40
3.25
  0
LINE
  5
266
330
1F
100
AcDbEntity
  8
0
  6
AUSGEZOGEN
 62
     7
370
    35
100
AcDbLine
 10
2909.405757231355
 20
1284.3993678963
 30
0.0
 11
2909.405757231355
 21
1290.5559848963
 31
0.0
  0
LINE
  5
267
330
1F
100
AcDbEntity
  8
0
  6
AUSGEZOGEN
 62
     7
370
    35
100
AcDbLine
 10
2908.405757231355
 20
1284.3993678963
 30
0.0
 11
2908.405757231355
 21
1290.5559848963
 31
0.0
  0
LINE
  5
268
330
1F
100
AcDbEntity
  8
0
  6
AUSGEZOGEN
 62
     7
370
    35
100
AcDbLine
 10
2897.377757231355
 20
1278.9023218963
 30
0.0
 11
2907.405757231355
 21
1278.9023218963
 31
0.0
  0
ARC
  5
269
330
1F
100
AcDbEntity
  8
0
  6
AUSGEZOGEN
 62
     7
370
    35
100
AcDbCircle
 10
2907.405757231355
 20
1279.9023218963
 30
0.0
 40
2.000000000000455
100
AcDbArc
 50
270.0
 51
0.0
  0
ARC
  5
26A
330
1F
100
AcDbEntity
  8
0
  6
AUSGEZOGEN
 62
     7
370
    35
100
AcDbCircle
 10
2907.405757231355
 20
1279.9023218963
 30
0.0
 40
1.0
100
AcDbArc
 50
270.0
 51
0.0
  0
LINE
  5
26B
330
1F
100
AcDbEntity
  8
0
  6
AUSGEZOGEN
 62
     7
370
    35
100
AcDbLine
 10
2909.405757231355
 20
1279.9023218963
 30
0.0
 11
2909.405757231355
 21
1284.3993678963
 31
0.0
  0
LINE
  5
26C
330
1F
100
AcDbEntity
  8
0
  6
AUSGEZOGEN
 62
     7
370
    35
100
AcDbLine
 10
2908.405757231355
 20
1279.9023218963
 30
0.0
 11
2908.405757231355
 21
1284.3993678963
 31
0.0
  0
LINE
  5
26D
330
1F
100
AcDbEntity
  8
0
  6
AUSGEZOGEN
 62
     7
370
    35
100
AcDbLine
 10
2894.377757231355
 20
1277.9023218963
 30
0.0
 11
2894.377757231355
 21
1278.9023218963
 31
0.0
  0
LINE
  5
26E
330
1F
100
AcDbEntity
  8
0
  6
AUSGEZOGEN
 62
     7
370
    35
100
AcDbLine
 10
2894.377757231355
 20
1278.9023218963
 30
0.0
 11
2897.377757231355
 21
1278.9023218963
 31
0.0
  0
LINE
  5
26F
330
1F
100
AcDbEntity
  8
0
  6
AUSGEZOGEN
 62
     7
370
    35
100
AcDbLine
 10
2909.405757231355
 20
1290.5559848963
 30
0.0
 11
2909.405757231355
 21
1334.4430688963
 31
0.0
  0
LINE
  5
270
330
1F
100
AcDbEntity
  8
0
  6
AUSGEZOGEN
 62
     7
370
    35
100
AcDbLine
 10
2908.405757231355
 20
1290.5559848963
 30
0.0
 11
2908.405757231355
 21
1334.4430688963
 31
0.0
  0
LINE
  5
271
330
1F
100
AcDbEntity
  8
0
  6
AUSGEZOGEN
 62
     7
370
    35
100
AcDbLine
 10
2908.405757231355
 20
1335.5585238963
 30
0.0
 11
2909.405757231355
 21
1335.5585238963
 31
0.0
  0
LINE
  5
272
330
1F
100
AcDbEntity
  8
0
  6
AUSGEZOGEN
 62
     7
370
    35
100
AcDbLine
 10
2909.405757231355
 20
1334.4430688963
 30
0.0
 11
2909.405757231355
 21
1335.5585238963
 31
0.0
  0
LINE
  5
273
330
1F
100
AcDbEntity
  8
0
  6
AUSGEZOGEN
 62
     7
370
    35
100
AcDbLine
 10
2908.405757231355
 20
1334.4430688963
 30
0.0
 11
2908.405757231355
 21
1335.5585238963
 31
0.0
  0
LWPOLYLINE
  5
274
330
1F
100
AcDbEntity
  8
0
  6
AUSGEZOGEN
 62
     7
370
    35
100
AcDbPolyline
 90
        7
 70
     0
 43
0.0
 10
2909.304325997579
 20
1336.187361427004
 10
2909.329953733461
 20
1336.115794256198
 10
2909.342431485365
 20
1336.068811277015
 10
2909.354505898022
 20
1336.008389025298
 10
2909.367958091553
 20
1335.917226238518
 10
2909.380862262067
 20
1335.807803312755
 10
2909.405757231397
 20
1335.558523896254
  0
LINE
  5
275
330
1F
100
AcDbEntity
  8
0
  6
AUSGEZOGEN
 62
     7
370
    35
100
AcDbLine
 10
2908.355041614455
 20
1335.8729426616
 30
0.0
 11
2909.304325997555
 21
1336.187361427
 31
0.0
  0
LINE
  5
276
330
1F
100
AcDbEntity
  8
0
  6
AUSGEZOGEN
 62
     7
370
    35
100
AcDbLine
 10
2908.355041614455
 20
1335.8729426616
 30
0.0
 11
2908.405757231355
 21
1335.5585238963
 31
0.0
  0
LINE
  5
277
330
1F
100
AcDbEntity
  8
0
  6
AUSGEZOGEN
 62
     7
370
    35
100
AcDbLine
 10
2908.296661857955
 20
1336.012714326
 30
0.0
 11
2909.187566484455
 21
1336.4669047557
 31
0.0
  0
LWPOLYLINE
  5
278
330
1F
100
AcDbEntity
  8
0
  6
AUSGEZOGEN
 62
     7
370
    35
100
AcDbPolyline
 90
        5
 70
     0
 43
0.0
 10
2909.187566484449
 20
1336.466904755662
 10
2909.218349303088
 20
1336.403810818927
 10
2909.248354569093
 20
1336.336235315173
 10
2909.278988392503
 20
1336.25833155906
 10
2909.304325997579
 20
1336.187361427004
  0
LWPOLYLINE
  5
279
330
1F
100
AcDbEntity
  8
0
  6
AUSGEZOGEN
 62
     7
370
    35
100
AcDbPolyline
 90
        5
 70
     0
 43
0.0
 10
2908.296661857923
 20
1336.012714325958
 10
2908.304393596146
 20
1335.997218190668
 10
2908.312053267243
 20
1335.981167357591
 10
2908.327055900244
 20
1335.947379605713
 10
2908.355041614488
 20
1335.872942661629
  0
ARC
  5
27A
330
1F
100
AcDbEntity
  8
0
  6
AUSGEZOGEN
 62
     7
370
    35
100
AcDbCircle
 10
2907.405757231355
 20
1335.5585238963
 30
0.0
 40
2.0
100
AcDbArc
 50
27.0128571429
 51
90.0
  0
ARC
  5
27B
330
1F
100
AcDbEntity
  8
0
  6
AUSGEZOGEN
 62
     7
370
    35
100
AcDbCircle
 10
2907.405757231355
 20
1335.5585238963
 30
0.0
 40
1.000000000000201
100
AcDbArc
 50
27.0128571428
 51
90.0
  0
LINE
  5
27C
330
1F
100
AcDbEntity
  8
0
  6
AUSGEZOGEN
 62
     7
370
    35
100
AcDbLine
 10
2884.377757231355
 20
1337.5585238963
 30
0.0
 11
2884.377757231355
 21
1336.5585238963
 31
0.0
  0
LINE
  5
27D
330
1F
100
AcDbEntity
  8
0
  6
AUSGEZOGEN
 62
     7
370
    35
100
AcDbLine
 10
2887.377757231355
 20
1337.5585238963
 30
0.0
 11
2884.377757231355
 21
1337.5585238963
 31
0.0
  0
LINE
  5
27E
330
1F
100
AcDbEntity
  8
0
  6
AUSGEZOGEN
 62
     7
370
    35
100
AcDbLine
 10
2887.377757231355
 20
1336.5585238963
 30
0.0
 11
2884.377757231355
 21
1336.5585238963
 31
0.0
  0
LINE
  5
27F
330
1F
100
AcDbEntity
  8
0
  6
AUSGEZOGEN
 62
     7
370
    35
100
AcDbLine
 10
2907.405757231355
 20
1337.5585238963
 30
0.0
 11
2887.377757231355
 21
1337.5585238963
 31
0.0
  0
LINE
  5
280
330
1F
100
AcDbEntity
  8
0
  6
AUSGEZOGEN
 62
     7
370
    35
100
AcDbLine
 10
2907.405757231355
 20
1336.5585238963
 30
0.0
 11
2887.377757231355
 21
1336.5585238963
 31
0.0
  0
LINE
  5
281
330
1F
100
AcDbEntity
  8
0
  6
AUSGEZOGEN
 62
     7
370
    35
100
AcDbLine
 10
2908.405757231355
 20
1281.9804228963
 30
0.0
 11
2907.405757231355
 21
1281.9804228963
 31
0.0
  0
LWPOLYLINE
  5
282
330
1F
100
AcDbEntity
  8
0
  6
AUSGEZOGEN
 62
     7
370
    35
100
AcDbPolyline
 90
       14
 70
     0
 43
0.0
 10
2907.405757231397
 20
1347.845354527709
 10
2907.504072872092
 20
1347.643242017194
 10
2907.597378051119
 20
1347.439782606157
 10
2907.640585948237
 20
1347.337126906528
 10
2907.68066230681
 20
1347.233629394073
 10
2907.716980819133
 20
1347.129121706226
 10
2907.748915177496
 20
1347.023435480421
 10
2907.780401851968
 20
1346.89715559386
 10
2907.805792667059
 20
1346.769237032715
 10
2907.825958459821
 20
1346.639913893356
 10
2907.84177006731
 20
1346.50942027215
 10
2907.854098326582
 20
1346.377990265468
 10
2907.863814074688
 20
1346.245857969679
 10
2907.87889138563
 20
1345.980422896254
  0
LINE
  5
283
330
1F
100
AcDbEntity
  8
0
  6
AUSGEZOGEN
 62
     7
370
    35
100
AcDbLine
 10
2907.878891385655
 20
1345.9804228963
 30
0.0
 11
2907.878891385655
 21
1337.5017542151
 31
0.0
  0
LINE
  5
284
330
1F
100
AcDbEntity
  8
0
  6
AUSGEZOGEN
 62
     7
370
    35
100
AcDbLine
 10
2907.878891385655
 20
1336.439514289
 30
0.0
 11
2907.878891385655
 21
1334.9804228963
 31
0.0
  0
LINE
  5
285
330
1F
100
AcDbEntity
  8
0
  6
AUSGEZOGEN
 62
     7
370
    35
100
AcDbLine
 10
2907.878891385655
 20
1334.9804228963
 30
0.0
 11
2908.405757231355
 21
1334.9804228963
 31
0.0
  0
LINE
  5
286
330
1F
100
AcDbEntity
  8
0
  6
AUSGEZOGEN
 62
     7
370
    35
100
AcDbLine
 10
2908.352025539855
 20
1345.9804228963
 30
0.0
 11
2908.352025539855
 21
1337.3205046817
 31
0.0
  0
LINE
  5
287
330
1F
100
AcDbEntity
  8
0
  6
AUSGEZOGEN
 62
     7
370
    35
100
AcDbLine
 10
2908.352025539855
 20
1335.8809648753
 30
0.0
 11
2908.352025539855
 21
1334.9804228963
 31
0.0
  0
LWPOLYLINE
  5
288
330
1F
100
AcDbEntity
  8
0
  6
AUSGEZOGEN
 62
     7
370
    35
100
AcDbPolyline
 90
       19
 70
     0
 43
0.0
 10
2907.405757231397
 20
1347.845354527709
 10
2907.521449665372
 20
1347.731414297108
 10
2907.635500387833
 20
1347.616122415625
 10
2907.746267687265
 20
1347.498127232376
 10
2907.852109852156
 20
1347.376077096481
 10
2907.918939883886
 20
1347.29195790756
 10
2907.981870366348
 20
1347.205264002481
 10
2908.039911409574
 20
1347.115816240386
 10
2908.092073123595
 20
1347.02343548042
 10
2908.121321975289
 20
1346.964137744813
 10
2908.148054344595
 20
1346.903699902579
 10
2908.172437997004
 20
1346.842197960829
 10
2908.194640698009
 20
1346.779707926667
 10
2908.214830213102
 20
1346.716305807205
 10
2908.233174307777
 20
1346.65206760955
 10
2908.264997297839
 20
1346.521387008095
 10
2908.291451792139
 20
1346.388274179171
 10
2908.313879914616
 20
1346.253337179645
 10
2908.352025539863
 20
1345.980422896254
  0
LINE
  5
289
330
1F
100
AcDbEntity
  8
0
  6
AUSGEZOGEN
 62
     7
370
    35
100
AcDbLine
 10
2907.878891385655
 20
1345.9804228963
 30
0.0
 11
2908.352025539855
 21
1345.9804228963
 31
0.0
  0
LINE
  5
28A
330
1F
100
AcDbEntity
  8
0
  6
AUSGEZOGEN
 62
     7
370
    35
100
AcDbLine
 10
2887.377757231355
 20
1281.9804228963
 30
0.0
 11
2907.405757231355
 21
1281.9804228963
 31
0.0
  0
ARC
  5
28B
330
1F
100
AcDbEntity
  8
0
  6
AUSGEZOGEN
 62
     7
370
    35
100
AcDbCircle
 10
2887.377757231355
 20
1284.9804228963
 30
0.0
 40
3.0
100
AcDbArc
 50
180.0
 51
270.0
  0
LINE
  5
28C
330
1F
100
AcDbEntity
  8
0
  6
AUSGEZOGEN
 62
     7
370
    35
100
AcDbLine
 10
2884.377757231355
 20
1345.9804228963
 30
0.0
 11
2884.377757231355
 21
1337.5585238963
 31
0.0
  0
LINE
  5
28D
330
1F
100
AcDbEntity
  8
0
  6
AUSGEZOGEN
 62
     7
370
    35
100
AcDbLine
 10
2884.377757231355
 20
1336.5585238963
 30
0.0
 11
2884.377757231355
 21
1284.9804228963
 31
0.0
  0
ARC
  5
28E
330
1F
100
AcDbEntity
  8
0
  6
AUSGEZOGEN
 62
     7
370
    35
100
AcDbCircle
 10
2887.377757231355
 20
1345.9804228963
 30
0.0
 40
3.0
100
AcDbArc
 50
90.0
 51
180.0
  0
LINE
  5
28F
330
1F
100
AcDbEntity
  8
0
  6
AUSGEZOGEN
 62
     7
370
    35
100
AcDbLine
 10
2905.055857231355
 20
1348.9804228963
 30
0.0
 11
2887.377757231355
 21
1348.9804228963
 31
0.0
  0
ARC
  5
290
330
1F
100
AcDbEntity
  8
0
  6
AUSGEZOGEN
 62
     7
370
    35
100
AcDbCircle
 10
2905.055857231355
 20
1345.9804228963
 30
0.0
 40
2.999999999999842
100
AcDbArc
 50
38.436278717
 51
90.0
  0
CIRCLE
  5
291
330
1F
100
AcDbEntity
  8
0
  6
AUSGEZOGEN
 62
     7
370
    35
100
AcDbCircle
 10
2801.877757231355
 20
1157.1023218963
 30
0.0
 40
60.33137084989812
  0
CIRCLE
  5
292
330
1F
100
AcDbEntity
  8
0
  6
AUSGEZOGEN
 62
     7
370
    35
100
AcDbCircle
 10
2801.877757231355
 20
1157.1023218963
 30
0.0
 40
56.33137084989812
  0
CIRCLE
  5
293
330
1F
100
AcDbEntity
  8
0
  6
AUSGEZOGEN
 62
     7
370
    35
100
AcDbCircle
 10
2801.877757231355
 20
1157.1023218963
 30
0.0
 40
45.0
  0
ARC
  5
294
330
1F
100
AcDbEntity
  8
0
  6
AUSGEZOGEN
 62
     7
370
    35
100
AcDbCircle
 10
2643.877757231355
 20
1265.1023218963
 30
0.0
 40
12.80000000000018
100
AcDbArc
 50
90.0
 51
180.0
  0
LINE
  5
295
330
1F
100
AcDbEntity
  8
0
  6
AUSGEZOGEN
 62
     7
370
    35
100
AcDbLine
 10
2631.077757231355
 20
1265.1023218963
 30
0.0
 11
2631.077757231355
 21
889.1023218963
 31
0.0
  0
ARC
  5
296
330
1F
100
AcDbEntity
  8
0
  6
AUSGEZOGEN
 62
     7
370
    35
100
AcDbCircle
 10
2643.877757231355
 20
889.1023218963
 30
0.0
 40
12.79999999999995
100
AcDbArc
 50
180.0
 51
270.0
  0
LINE
  5
297
330
1F
100
AcDbEntity
  8
0
  6
AUSGEZOGEN
 62
     7
370
    35
100
AcDbLine
 10
2959.877757231355
 20
1277.9023218963
 30
0.0
 11
2643.877757231355
 21
1277.9023218963
 31
0.0
  0
LINE
  5
298
330
1F
100
AcDbEntity
  8
0
  6
AUSGEZOGEN
 62
     7
370
    35
100
AcDbLine
 10
2643.877757231355
 20
876.3023218963
 30
0.0
 11
2959.877757231355
 21
876.3023218963
 31
0.0
  0
ARC
  5
299
330
1F
100
AcDbEntity
  8
0
  6
AUSGEZOGEN
 62
     7
370
    35
100
AcDbCircle
 10
2959.877757231355
 20
1265.1023218963
 30
0.0
 40
12.80000000000018
100
AcDbArc
 50
0.0
 51
90.0
  0
ARC
  5
29A
330
1F
100
AcDbEntity
  8
0
  6
AUSGEZOGEN
 62
     7
370
    35
100
AcDbCircle
 10
2959.877757231355
 20
889.1023218963
 30
0.0
 40
12.80000000000018
100
AcDbArc
 50
270.0
 51
0.0
  0
LINE
  5
29B
330
1F
100
AcDbEntity
  8
0
  6
AUSGEZOGEN
 62
     7
370
    35
100
AcDbLine
 10
2972.677757231354
 20
889.1023218963
 30
0.0
 11
2972.677757231354
 21
1265.1023218963
 31
0.0
  0
ARC
  5
29C
330
1F
100
AcDbEntity
  8
0
  6
AUSGEZOGEN
 62
     7
370
    35
100
AcDbCircle
 10
2986.877757231355
 20
862.1023218963
 30
0.0
 40
10.00000000000045
100
AcDbArc
 50
270.0
 51
0.0
  0
LINE
  5
29D
330
1F
100
AcDbEntity
  8
0
  6
AUSGEZOGEN
 62
     7
370
    35
100
AcDbLine
 10
2986.877757231355
 20
852.1023218963
 30
0.0
 11
2616.877757231355
 21
852.1023218963
 31
0.0
  0
ARC
  5
29E
330
1F
100
AcDbEntity
  8
0
  6
AUSGEZOGEN
 62
     7
370
    35
100
AcDbCircle
 10
2616.877757231355
 20
862.1023218963
 30
0.0
 40
10.0
100
AcDbArc
 50
180.0
 51
270.0
  0
LINE
  5
29F
330
1F
100
AcDbEntity
  8
0
  6
AUSGEZOGEN
 62
     7
370
    35
100
AcDbLine
 10
2606.877757231355
 20
862.1023218963
 30
0.0
 11
2606.877757231355
 21
1352.1023218963
 31
0.0
  0
ARC
  5
2A0
330
1F
100
AcDbEntity
  8
0
  6
AUSGEZOGEN
 62
     7
370
    35
100
AcDbCircle
 10
2616.877757231355
 20
1352.1023218963
 30
0.0
 40
10.0
100
AcDbArc
 50
90.0
 51
180.0
  0
LINE
  5
2A1
330
1F
100
AcDbEntity
  8
0
  6
AUSGEZOGEN
 62
     7
370
    35
100
AcDbLine
 10
2616.877757231355
 20
1362.1023218963
 30
0.0
 11
2986.877757231355
 21
1362.1023218963
 31
0.0
  0
ARC
  5
2A2
330
1F
100
AcDbEntity
  8
0
  6
AUSGEZOGEN
 62
     7
370
    35
100
AcDbCircle
 10
2986.877757231355
 20
1352.1023218963
 30
0.0
 40
10.0
100
AcDbArc
 50
0.0
 51
90.0
  0
LINE
  5
2A3
330
1F
100
AcDbEntity
  8
0
  6
AUSGEZOGEN
 62
     7
370
    35
100
AcDbLine
 10
2996.877757231355
 20
1352.1023218963
 30
0.0
 11
2996.877757231355
 21
862.1023218963
 31
0.0
  0
CIRCLE
  5
2A4
330
1F
100
AcDbEntity
  8
0
  6
AUSGEZOGEN
 62
     7
370
    35
100
AcDbCircle
 10
2801.877757231355
 20
1322.1023218963
 30
0.0
 40
17.5
  0
HATCH
  5
2A5
330
1F
100
AcDbEntity
  8
0
  6
AUSGEZOGEN
 62
     7
370
    18
100
AcDbHatch
 10
0.0
 20
0.0
 30
0.0
210
0.0
220
0.0
230
1.0
  2
SOLID
 70
     1
 71
     0
 91
        1
 92
        2
 72
     0
 73
     1
 93
        4
 10
2881.977757231398
 20
956.2023218962563
 10
2881.977757231398
 20
1056.202321896256
 10
2721.977757231398
 20
1056.202321896256
 10
2721.977757231398
 20
956.2023218962573
 97
        0
 75
     0
 76
     1
 98
        0
  0
LINE
  5
2A6
330
1F
100
AcDbEntity
  8
0
  6
AUSGEZOGEN
 62
     7
370
    35
100
AcDbLine
 10
1255.80820696
 20
1904.1759983685
 30
0.0
 11
1255.80820696
 21
1903.1759983685
 31
0.0
  0
LINE
  5
2A7
330
1F
100
AcDbEntity
  8
0
  6
AUSGEZOGEN
 62
     7
370
    35
100
AcDbLine
 10
1262.30820696
 20
1903.1759983685
 30
0.0
 11
1262.30820696
 21
1904.1759983685
 31
0.0
  0
LINE
  5
2A8
330
1F
100
AcDbEntity
  8
0
  6
AUSGEZOGEN
 62
     7
370
    35
100
AcDbLine
 10
1256.55820696
 20
1903.1759983685
 30
0.0
 11
1256.55820696
 21
1854.1759983685
 31
0.0
  0
LINE
  5
2A9
330
1F
100
AcDbEntity
  8
0
  6
AUSGEZOGEN
 62
     7
370
    35
100
AcDbLine
 10
1261.55820696
 20
1854.1759983685
 30
0.0
 11
1261.55820696
 21
1903.1759983685
 31
0.0
  0
LINE
  5
2AA
330
1F
100
AcDbEntity
  8
0
  6
AUSGEZOGEN
 62
     7
370
    35
100
AcDbLine
 10
1612.00420696
 20
1904.1759983685
 30
0.0
 11
1612.00420696
 21
1903.1759983685
 31
0.0
  0
LINE
  5
2AB
330
1F
100
AcDbEntity
  8
0
  6
AUSGEZOGEN
 62
     7
370
    35
100
AcDbLine
 10
1618.50420696
 20
1903.1759983685
 30
0.0
 11
1618.50420696
 21
1904.1759983685
 31
0.0
  0
LINE
  5
2AC
330
1F
100
AcDbEntity
  8
0
  6
AUSGEZOGEN
 62
     7
370
    35
100
AcDbLine
 10
1612.75420696
 20
1903.1759983685
 30
0.0
 11
1612.75420696
 21
1854.1759983685
 31
0.0
  0
LINE
  5
2AD
330
1F
100
AcDbEntity
  8
0
  6
AUSGEZOGEN
 62
     7
370
    35
100
AcDbLine
 10
1617.75420696
 20
1854.1759983685
 30
0.0
 11
1617.75420696
 21
1903.1759983685
 31
0.0
  0
LINE
  5
2AE
330
1F
100
AcDbEntity
  8
0
  6
AUSGEZOGEN
 62
     7
370
    35
100
AcDbLine
 10
1607.95620696
 20
1905.1759983685
 30
0.0
 11
1632.15620696
 21
1905.1759983685
 31
0.0
  0
LINE
  5
2AF
330
1F
100
AcDbEntity
  8
0
  6
AUSGEZOGEN
 62
     7
370
    35
100
AcDbLine
 10
1607.95620696
 20
1905.1759983685
 30
0.0
 11
1607.95620696
 21
1737.9759983685
 31
0.0
  0
ARC
  5
2B0
330
1F
100
AcDbEntity
  8
0
  6
AUSGEZOGEN
 62
     7
370
    35
100
AcDbCircle
 10
1595.15620696
 20
1737.9759983685
 30
0.0
 40
12.79999999999995
100
AcDbArc
 50
270.0
 51
0.0
  0
LINE
  5
2B1
330
1F
100
AcDbEntity
  8
0
  6
AUSGEZOGEN
 62
     7
370
    35
100
AcDbLine
 10
1497.4875778099
 20
1725.1759983685
 30
0.0
 11
1595.15620696
 21
1725.1759983685
 31
0.0
  0
LINE
  5
2B2
330
1F
100
AcDbEntity
  8
0
  6
AUSGEZOGEN
 62
     7
370
    35
100
AcDbLine
 10
1497.4875778099
 20
1725.1759983685
 30
0.0
 11
1493.4875778099
 21
1721.1759983685
 31
0.0
  0
LINE
  5
2B3
330
1F
100
AcDbEntity
  8
0
  6
AUSGEZOGEN
 62
     7
370
    35
100
AcDbLine
 10
1482.15620696
 20
1721.1759983685
 30
0.0
 11
1493.4875778099
 21
1721.1759983685
 31
0.0
  0
LINE
  5
2B4
330
1F
100
AcDbEntity
  8
0
  6
AUSGEZOGEN
 62
     7
370
    35
100
AcDbLine
 10
1482.15620696
 20
1721.9759983685
 30
0.0
 11
1482.15620696
 21
1721.1759983685
 31
0.0
  0
LINE
  5
2B5
330
1F
100
AcDbEntity
  8
0
  6
AUSGEZOGEN
 62
     7
370
    35
100
AcDbLine
 10
1482.15620696
 20
1721.9759983685
 30
0.0
 11
1493.15620696
 21
1721.9759983685
 31
0.0
  0
LINE
  5
2B6
330
1F
100
AcDbEntity
  8
0
  6
AUSGEZOGEN
 62
     7
370
    35
100
AcDbLine
 10
1497.15620696
 20
1725.9759983685
 30
0.0
 11
1493.15620696
 21
1721.9759983685
 31
0.0
  0
LINE
  5
2B7
330
1F
100
AcDbEntity
  8
0
  6
AUSGEZOGEN
 62
     7
370
    35
100
AcDbLine
 10
1497.15620696
 20
1725.9759983685
 30
0.0
 11
1595.15620696
 21
1725.9759983685
 31
0.0
  0
ARC
  5
2B8
330
1F
100
AcDbEntity
  8
0
  6
AUSGEZOGEN
 62
     7
370
    35
100
AcDbCircle
 10
1595.15620696
 20
1737.9759983685
 30
0.0
 40
11.99999999999977
100
AcDbArc
 50
270.0
 51
0.0
  0
LINE
  5
2B9
330
1F
100
AcDbEntity
  8
0
  6
AUSGEZOGEN
 62
     7
370
    35
100
AcDbLine
 10
1607.15620696
 20
1905.9759983685
 30
0.0
 11
1607.15620696
 21
1737.9759983685
 31
0.0
  0
LINE
  5
2BA
330
1F
100
AcDbEntity
  8
0
  6
AUSGEZOGEN
 62
     7
370
    35
100
AcDbLine
 10
1607.15620696
 20
1905.9759983685
 30
0.0
 11
1632.15620696
 21
1905.9759983685
 31
0.0
  0
LINE
  5
2BB
330
1F
100
AcDbEntity
  8
0
  6
AUSGEZOGEN
 62
     7
370
    35
100
AcDbLine
 10
1632.15620696
 20
1905.9759983685
 30
0.0
 11
1632.15620696
 21
1905.1759983685
 31
0.0
  0
LINE
  5
2BC
330
1F
100
AcDbEntity
  8
0
  6
AUSGEZOGEN
 62
     7
370
    35
100
AcDbLine
 10
1381.15620696
 20
1721.9759983685
 30
0.0
 11
1377.15620696
 21
1725.9759983685
 31
0.0
  0
LINE
  5
2BD
330
1F
100
AcDbEntity
  8
0
  6
AUSGEZOGEN
 62
     7
370
    35
100
AcDbLine
 10
1497.15620696
 20
1725.9759983685
 30
0.0
 11
1377.15620696
 21
1725.9759983685
 31
0.0
  0
LINE
  5
2BE
330
1F
100
AcDbEntity
  8
0
  6
AUSGEZOGEN
 62
     7
370
    35
100
AcDbLine
 10
1380.8248361101
 20
1721.1759983685
 30
0.0
 11
1376.8248361101
 21
1725.1759983685
 31
0.0
  0
LINE
  5
2BF
330
1F
100
AcDbEntity
  8
0
  6
AUSGEZOGEN
 62
     7
370
    35
100
AcDbLine
 10
1392.15620696
 20
1721.1759983685
 30
0.0
 11
1392.15620696
 21
1721.9759983685
 31
0.0
  0
LINE
  5
2C0
330
1F
100
AcDbEntity
  8
0
  6
AUSGEZOGEN
 62
     7
370
    35
100
AcDbLine
 10
1482.15620696
 20
1721.1759983685
 30
0.0
 11
1392.15620696
 21
1721.1759983685
 31
0.0
  0
LINE
  5
2C1
330
1F
100
AcDbEntity
  8
0
  6
AUSGEZOGEN
 62
     7
370
    35
100
AcDbLine
 10
1482.15620696
 20
1721.9759983685
 30
0.0
 11
1392.15620696
 21
1721.9759983685
 31
0.0
  0
LINE
  5
2C2
330
1F
100
AcDbEntity
  8
0
  6
AUSGEZOGEN
 62
     7
370
    35
100
AcDbLine
 10
1266.35620696
 20
1737.9759983685
 30
0.0
 11
1266.35620696
 21
1905.1759983685
 31
0.0
  0
LINE
  5
2C3
330
1F
100
AcDbEntity
  8
0
  6
AUSGEZOGEN
 62
     7
370
    35
100
AcDbLine
 10
1380.8248361101
 20
1721.1759983685
 30
0.0
 11
1392.15620696
 21
1721.1759983685
 31
0.0
  0
ARC
  5
2C4
330
1F
100
AcDbEntity
  8
0
  6
AUSGEZOGEN
 62
     7
370
    35
100
AcDbCircle
 10
1279.15620696
 20
1737.9759983685
 30
0.0
 40
12.79999999999995
100
AcDbArc
 50
180.0
 51
270.0
  0
LINE
  5
2C5
330
1F
100
AcDbEntity
  8
0
  6
AUSGEZOGEN
 62
     7
370
    35
100
AcDbLine
 10
1279.15620696
 20
1725.1759983685
 30
0.0
 11
1376.8248361101
 21
1725.1759983685
 31
0.0
  0
LINE
  5
2C6
330
1F
100
AcDbEntity
  8
0
  6
AUSGEZOGEN
 62
     7
370
    35
100
AcDbLine
 10
1267.15620696
 20
1737.9759983685
 30
0.0
 11
1267.15620696
 21
1905.9759983685
 31
0.0
  0
LINE
  5
2C7
330
1F
100
AcDbEntity
  8
0
  6
AUSGEZOGEN
 62
     7
370
    35
100
AcDbLine
 10
1242.15620696
 20
1905.1759983685
 30
0.0
 11
1266.35620696
 21
1905.1759983685
 31
0.0
  0
LINE
  5
2C8
330
1F
100
AcDbEntity
  8
0
  6
AUSGEZOGEN
 62
     7
370
    35
100
AcDbLine
 10
1381.15620696
 20
1721.9759983685
 30
0.0
 11
1392.15620696
 21
1721.9759983685
 31
0.0
  0
ARC
  5
2C9
330
1F
100
AcDbEntity
  8
0
  6
AUSGEZOGEN
 62
     7
370
    35
100
AcDbCircle
 10
1279.15620696
 20
1737.9759983685
 30
0.0
 40
11.99999999999977
100
AcDbArc
 50
180.0
 51
270.0
  0
LINE
  5
2CA
330
1F
100
AcDbEntity
  8
0
  6
AUSGEZOGEN
 62
     7
370
    35
100
AcDbLine
 10
1279.15620696
 20
1725.9759983685
 30
0.0
 11
1377.15620696
 21
1725.9759983685
 31
0.0
  0
LINE
  5
2CB
330
1F
100
AcDbEntity
  8
0
  6
AUSGEZOGEN
 62
     7
370
    35
100
AcDbLine
 10
1242.15620696
 20
1905.1759983685
 30
0.0
 11
1242.15620696
 21
1905.9759983685
 31
0.0
  0
LINE
  5
2CC
330
1F
100
AcDbEntity
  8
0
  6
AUSGEZOGEN
 62
     7
370
    35
100
AcDbLine
 10
1242.15620696
 20
1905.9759983685
 30
0.0
 11
1267.15620696
 21
1905.9759983685
 31
0.0
  0
LINE
  5
2CD
330
1F
100
AcDbEntity
  8
0
  6
AUSGEZOGEN
 62
     7
370
    35
100
AcDbLine
 10
1595.15620696
 20
1905.9759983685
 30
0.0
 11
1607.15620696
 21
1905.9759983685
 31
0.0
  0
LINE
  5
2CE
330
1F
100
AcDbEntity
  8
0
  6
AUSGEZOGEN
 62
     7
370
    35
100
AcDbLine
 10
1267.15620696
 20
1905.9759983685
 30
0.0
 11
1279.15620696
 21
1905.9759983685
 31
0.0
  0
ARC
  5
2CF
330
1F
100
AcDbEntity
  8
0
  6
AUSGEZOGEN
 62
     7
370
    35
100
AcDbCircle
 10
1414.15620696
 20
1885.9759983685
 30
0.0
 40
1.0
100
AcDbArc
 50
90.0
 51
180.0
  0
LINE
  5
2D0
330
1F
100
AcDbEntity
  8
0
  6
AUSGEZOGEN
 62
     7
370
    35
100
AcDbLine
 10
1413.15620696
 20
1885.9759983685
 30
0.0
 11
1413.15620696
 21
1863.9759983685
 31
0.0
  0
ARC
  5
2D1
330
1F
100
AcDbEntity
  8
0
  6
AUSGEZOGEN
 62
     7
370
    35
100
AcDbCircle
 10
1414.15620696
 20
1863.9759983685
 30
0.0
 40
1.0
100
AcDbArc
 50
180.0
 51
270.0
  0
ARC
  5
2D2
330
1F
100
AcDbEntity
  8
0
  6
AUSGEZOGEN
 62
     7
370
    35
100
AcDbCircle
 10
1460.15620696
 20
1863.9759983685
 30
0.0
 40
1.000000000000227
100
AcDbArc
 50
270.0
 51
0.0
  0
LINE
  5
2D3
330
1F
100
AcDbEntity
  8
0
  6
AUSGEZOGEN
 62
     7
370
    35
100
AcDbLine
 10
1460.15620696
 20
1886.9759983685
 30
0.0
 11
1414.15620696
 21
1886.9759983685
 31
0.0
  0
LINE
  5
2D4
330
1F
100
AcDbEntity
  8
0
  6
AUSGEZOGEN
 62
     7
370
    35
100
AcDbLine
 10
1461.15620696
 20
1863.9759983685
 30
0.0
 11
1461.15620696
 21
1885.9759983685
 31
0.0
  0
ARC
  5
2D5
330
1F
100
AcDbEntity
  8
0
  6
AUSGEZOGEN
 62
     7
370
    35
100
AcDbCircle
 10
1460.15620696
 20
1885.9759983685
 30
0.0
 40
1.000000000000227
100
AcDbArc
 50
0.0
 51
90.0
  0
LINE
  5
2D6
330
1F
100
AcDbEntity
  8
0
  6
AUSGEZOGEN
 62
     7
370
    35
100
AcDbLine
 10
1414.15620696
 20
1862.9759983685
 30
0.0
 11
1460.15620696
 21
1862.9759983685
 31
0.0
  0
LINE
  5
2D7
330
1F
100
AcDbEntity
  8
0
  6
AUSGEZOGEN
 62
     7
370
    35
100
AcDbLine
 10
1595.15620696
 20
1905.9759983685
 30
0.0
 11
1279.15620696
 21
1905.9759983685
 31
0.0
  0
LINE
  5
2D8
330
1F
100
AcDbEntity
  8
0
  6
AUSGEZOGEN
 62
     7
370
    35
100
AcDbLine
 10
1619.15620696
 20
1904.0759983685
 30
0.0
 11
1619.15620696
 21
1893.1509983685
 31
0.0
  0
ARC
  5
2D9
330
1F
100
AcDbEntity
  8
0
  6
AUSGEZOGEN
 62
     7
370
    35
100
AcDbCircle
 10
1616.15620696
 20
1893.1509983685
 30
0.0
 40
3.000000000000068
100
AcDbArc
 50
302.1858084439
 51
0.0
  0
LINE
  5
2DA
330
1F
100
AcDbEntity
  8
0
  6
AUSGEZOGEN
 62
     7
370
    35
100
AcDbLine
 10
1612.75420696
 20
1890.1509983685
 30
0.0
 11
1608.95620696
 21
1890.1509983685
 31
0.0
  0
LINE
  5
2DB
330
1F
100
AcDbEntity
  8
0
  6
AUSGEZOGEN
 62
     7
370
    35
100
AcDbLine
 10
1265.35620696
 20
1890.1509983685
 30
0.0
 11
1261.55820696
 21
1890.1509983685
 31
0.0
  0
ARC
  5
2DC
330
1F
100
AcDbEntity
  8
0
  6
AUSGEZOGEN
 62
     7
370
    35
100
AcDbCircle
 10
1258.15620696
 20
1893.1509983685
 30
0.0
 40
2.999999999999876
100
AcDbArc
 50
180.0
 51
237.8141915561
  0
LINE
  5
2DD
330
1F
100
AcDbEntity
  8
0
  6
AUSGEZOGEN
 62
     7
370
    35
100
AcDbLine
 10
1255.15620696
 20
1893.1509983685
 30
0.0
 11
1255.15620696
 21
1904.0759983685
 31
0.0
  0
LINE
  5
2DE
330
1F
100
AcDbEntity
  8
0
  6
AUSGEZOGEN
 62
     7
370
    35
100
AcDbLine
 10
1255.15620696
 20
1905.1759983685
 30
0.0
 11
1255.15620696
 21
1904.0759983685
 31
0.0
  0
LINE
  5
2DF
330
1F
100
AcDbEntity
  8
0
  6
AUSGEZOGEN
 62
     7
370
    35
100
AcDbLine
 10
1619.15620696
 20
1904.0759983685
 30
0.0
 11
1619.15620696
 21
1905.1759983685
 31
0.0
  0
LINE
  5
2E0
330
1F
100
AcDbEntity
  8
0
  6
AUSGEZOGEN
 62
     7
370
    35
100
AcDbLine
 10
1618.95420696
 20
1905.1759983685
 30
0.0
 11
1618.95420696
 21
1904.1759983685
 31
0.0
  0
LINE
  5
2E1
330
1F
100
AcDbEntity
  8
0
  6
AUSGEZOGEN
 62
     7
370
    35
100
AcDbLine
 10
1618.95420696
 20
1904.1759983685
 30
0.0
 11
1616.95420696
 21
1904.1759983685
 31
0.0
  0
ARC
  5
2E2
330
1F
100
AcDbEntity
  8
0
  6
AUSGEZOGEN
 62
     7
370
    35
100
AcDbCircle
 10
1609.95620696
 20
1903.1759983685
 30
0.0
 40
1.000000000000227
100
AcDbArc
 50
90.0
 51
180.0
  0
ARC
  5
2E3
330
1F
100
AcDbEntity
  8
0
  6
AUSGEZOGEN
 62
     7
370
    35
100
AcDbCircle
 10
1609.95620696
 20
1903.1759983685
 30
0.0
 40
2.000000000000227
100
AcDbArc
 50
90.0
 51
180.0
  0
LINE
  5
2E4
330
1F
100
AcDbEntity
  8
0
  6
AUSGEZOGEN
 62
     7
370
    35
100
AcDbLine
 10
1608.95620696
 20
1903.1759983685
 30
0.0
 11
1608.95620696
 21
1897.0659983685
 31
0.0
  0
LINE
  5
2E5
330
1F
100
AcDbEntity
  8
0
  6
AUSGEZOGEN
 62
     7
370
    35
100
AcDbLine
 10
1616.95420696
 20
1904.1759983685
 30
0.0
 11
1609.95620696
 21
1904.1759983685
 31
0.0
  0
LINE
  5
2E6
330
1F
100
AcDbEntity
  8
0
  6
AUSGEZOGEN
 62
     7
370
    35
100
AcDbLine
 10
1607.95620696
 20
1895.0659983685
 30
0.0
 11
1608.95620696
 21
1895.0659983685
 31
0.0
  0
LINE
  5
2E7
330
1F
100
AcDbEntity
  8
0
  6
AUSGEZOGEN
 62
     7
370
    35
100
AcDbLine
 10
1608.95620696
 20
1897.0659983685
 30
0.0
 11
1608.95620696
 21
1895.0659983685
 31
0.0
  0
LINE
  5
2E8
330
1F
100
AcDbEntity
  8
0
  6
AUSGEZOGEN
 62
     7
370
    35
100
AcDbLine
 10
1608.95620696
 20
1895.0659983685
 30
0.0
 11
1608.95620696
 21
1891.0659983685
 31
0.0
  0
LINE
  5
2E9
330
1F
100
AcDbEntity
  8
0
  6
AUSGEZOGEN
 62
     7
370
    35
100
AcDbLine
 10
1607.95620696
 20
1855.0659983685
 30
0.0
 11
1608.95620696
 21
1855.0659983685
 31
0.0
  0
LINE
  5
2EA
330
1F
100
AcDbEntity
  8
0
  6
AUSGEZOGEN
 62
     7
370
    35
100
AcDbLine
 10
1608.95620696
 20
1857.0659983685
 30
0.0
 11
1608.95620696
 21
1855.0659983685
 31
0.0
  0
LINE
  5
2EB
330
1F
100
AcDbEntity
  8
0
  6
AUSGEZOGEN
 62
     7
370
    35
100
AcDbLine
 10
1608.95620696
 20
1891.0659983685
 30
0.0
 11
1608.95620696
 21
1857.0659983685
 31
0.0
  0
LINE
  5
2EC
330
1F
100
AcDbEntity
  8
0
  6
AUSGEZOGEN
 62
     7
370
    35
100
AcDbLine
 10
1255.35820696
 20
1905.1759983685
 30
0.0
 11
1255.35820696
 21
1904.1759983685
 31
0.0
  0
LINE
  5
2ED
330
1F
100
AcDbEntity
  8
0
  6
AUSGEZOGEN
 62
     7
370
    35
100
AcDbLine
 10
1257.35820696
 20
1904.1759983685
 30
0.0
 11
1255.35820696
 21
1904.1759983685
 31
0.0
  0
ARC
  5
2EE
330
1F
100
AcDbEntity
  8
0
  6
AUSGEZOGEN
 62
     7
370
    35
100
AcDbCircle
 10
1264.35620696
 20
1903.1759983685
 30
0.0
 40
2.000000000000227
100
AcDbArc
 50
0.0
 51
90.0
  0
ARC
  5
2EF
330
1F
100
AcDbEntity
  8
0
  6
AUSGEZOGEN
 62
     7
370
    35
100
AcDbCircle
 10
1264.35620696
 20
1903.1759983685
 30
0.0
 40
1.000000000000227
100
AcDbArc
 50
0.0
 51
90.0
  0
LINE
  5
2F0
330
1F
100
AcDbEntity
  8
0
  6
AUSGEZOGEN
 62
     7
370
    35
100
AcDbLine
 10
1265.35620696
 20
1897.0659983685
 30
0.0
 11
1265.35620696
 21
1903.1759983685
 31
0.0
  0
LINE
  5
2F1
330
1F
100
AcDbEntity
  8
0
  6
AUSGEZOGEN
 62
     7
370
    35
100
AcDbLine
 10
1266.35620696
 20
1895.0659983685
 30
0.0
 11
1265.35620696
 21
1895.0659983685
 31
0.0
  0
LINE
  5
2F2
330
1F
100
AcDbEntity
  8
0
  6
AUSGEZOGEN
 62
     7
370
    35
100
AcDbLine
 10
1265.35620696
 20
1895.0659983685
 30
0.0
 11
1265.35620696
 21
1897.0659983685
 31
0.0
  0
LINE
  5
2F3
330
1F
100
AcDbEntity
  8
0
  6
AUSGEZOGEN
 62
     7
370
    35
100
AcDbLine
 10
1264.35620696
 20
1904.1759983685
 30
0.0
 11
1257.35820696
 21
1904.1759983685
 31
0.0
  0
LINE
  5
2F4
330
1F
100
AcDbEntity
  8
0
  6
AUSGEZOGEN
 62
     7
370
    35
100
AcDbLine
 10
1265.35620696
 20
1891.0659983685
 30
0.0
 11
1265.35620696
 21
1895.0659983685
 31
0.0
  0
LINE
  5
2F5
330
1F
100
AcDbEntity
  8
0
  6
AUSGEZOGEN
 62
     7
370
    35
100
AcDbLine
 10
1266.35620696
 20
1855.0659983685
 30
0.0
 11
1265.35620696
 21
1855.0659983685
 31
0.0
  0
LINE
  5
2F6
330
1F
100
AcDbEntity
  8
0
  6
AUSGEZOGEN
 62
     7
370
    35
100
AcDbLine
 10
1265.35620696
 20
1855.0659983685
 30
0.0
 11
1265.35620696
 21
1857.0659983685
 31
0.0
  0
LINE
  5
2F7
330
1F
100
AcDbEntity
  8
0
  6
AUSGEZOGEN
 62
     7
370
    35
100
AcDbLine
 10
1265.35620696
 20
1857.0659983685
 30
0.0
 11
1265.35620696
 21
1891.0659983685
 31
0.0
  0
LINE
  5
2F8
330
1F
100
AcDbEntity
  8
0
  6
AUSGEZOGEN
 62
     7
370
    35
100
AcDbLine
 10
1255.80820696
 20
1903.1759983685
 30
0.0
 11
1262.30820696
 21
1903.1759983685
 31
0.0
  0
LINE
  5
2F9
330
1F
100
AcDbEntity
  8
0
  6
AUSGEZOGEN
 62
     7
370
    35
100
AcDbLine
 10
1261.55820696
 20
1854.1759983685
 30
0.0
 11
1256.55820696
 21
1854.1759983685
 31
0.0
  0
LINE
  5
2FA
330
1F
100
AcDbEntity
  8
0
  6
AUSGEZOGEN
 62
     7
370
    35
100
AcDbLine
 10
1612.00420696
 20
1903.1759983685
 30
0.0
 11
1618.50420696
 21
1903.1759983685
 31
0.0
  0
LINE
  5
2FB
330
1F
100
AcDbEntity
  8
0
  6
AUSGEZOGEN
 62
     7
370
    35
100
AcDbLine
 10
1617.75420696
 20
1854.1759983685
 30
0.0
 11
1612.75420696
 21
1854.1759983685
 31
0.0
  0
INSERT
  5
304
330
1F
100
AcDbEntity
  8
0
100
AcDbBlockReference
  2
*X14
 10
0.0
 20
0.0
 30
0.0
  0
INSERT
  5
30E
330
1F
100
AcDbEntity
  8
0
100
AcDbBlockReference
  2
*X15
 10
0.0
 20
0.0
 30
0.0
  0
DIMENSION
  5
319
330
1F
100
AcDbEntity
  8
SLD-0
  6
AUSGEZOGEN
 62
     7
370
    18
100
AcDbDimension
280
     0
  2
*D16
 10
1502.9885129398
 20
1905.9759983685
 30
0.0
 11
1488.666424263541
 21
1889.432171262056
 31
0.0
 70
   160
 71
     5
 42
-1.0
 73
     0
 74
     0
 75
     0
 53
90.0
  3
ISO-25
100
AcDbAlignedDimension
 13
1461.15620696
 23
1874.9759983685
 33
0.0
 14
1632.15620696
 24
1905.9759983685
 34
0.0
 50
90.0
100
AcDbRotatedDimension
1001
ACAD
1000
DSTYLE
1002
{
1070
     3
1000
<>
1070
   340
1005
5F
1070
    44
1040
9.768009936716
1070
   280
1070
     3
1070
    77
1070
     1
1070
   179
1070
     0
1070
   271
1070
     0
1070
   173
1070
     1
1070
    41
1040
13.675213911402
1070
   147
1040
3.101343154907
1070
   140
1040
21.709402084351
1070
   178
1070
     7
1070
   177
1070
     7
1070
   176
1070
     7
1002
}
  0
DIMENSION
  5
324
330
1F
100
AcDbEntity
  8
SLD-0
  6
AUSGEZOGEN
 62
     7
370
    18
100
AcDbDimension
280
     0
  2
*D17
 10
1461.15620696
 20
1790.8854400857
 30
0.0
 11
1437.960451514225
 21
1807.226101817947
 31
0.0
 70
   160
 71
     5
 42
-1.0
 73
     0
 74
     0
 75
     0
  3
ISO-25
100
AcDbAlignedDimension
 13
1413.15620696
 23
1863.9759983685
 33
0.0
 14
1461.15620696
 24
1863.9759983685
 34
0.0
100
AcDbRotatedDimension
1001
ACAD
1000
DSTYLE
1002
{
1070
     3
1000
<>
1070
   340
1005
5F
1070
    44
1040
9.768009936716
1070
   280
1070
     3
1070
    77
1070
     1
1070
   179
1070
     0
1070
   271
1070
     0
1070
   173
1070
     1
1070
    41
1040
13.675213911402
1070
   147
1040
3.101343154907
1070
   140
1040
21.709402084351
1070
   178
1070
     7
1070
   177
1070
     7
1070
   176
1070
     7
1002
}
  0
DIMENSION
  5
32F
330
1F
100
AcDbEntity
  8
SLD-0
  6
AUSGEZOGEN
 62
     7
370
    18
100
AcDbDimension
280
     0
  2
*D18
 10
1360.4331322522
 20
1862.9759983685
 30
0.0
 11
1346.771191181944
 21
1875.026357143569
 31
0.0
 70
   160
 71
     5
 42
-1.0
 73
     0
 74
     0
 75
     0
 53
90.0
  3
ISO-25
100
AcDbAlignedDimension
 13
1414.15620696
 23
1886.9759983685
 33
0.0
 14
1414.15620696
 24
1862.9759983685
 34
0.0
 50
-90.0
100
AcDbRotatedDimension
1001
ACAD
1000
DSTYLE
1002
{
1070
     3
1000
<>
1070
   340
1005
5F
1070
    44
1040
9.768009936716
1070
   280
1070
     3
1070
    77
1070
     1
1070
   179
1070
     0
1070
   271
1070
     0
1070
   173
1070
     1
1070
    41
1040
13.675213911402
1070
   147
1040
3.101343154907
1070
   140
1040
21.709402084351
1070
   178
1070
     7
1070
   177
1070
     7
1070
   176
1070
     7
1002
}
  0
INSERT
  5
338
330
1F
100
AcDbEntity
  8
0
100
AcDbBlockReference
  2
_D_16_nNn018
 10
0.0
 20
0.0
 30
0.0
  0
INSERT
  5
3A8
330
1F
100
AcDbEntity
  8
0
100
AcDbBlockReference
  2
A3-NABER_nNn019
 10
0.0
 20
0.0
 30
0.0
  0
LINE
  5
3A9
330
1F
100
AcDbEntity
  8
Layer100
  6
AUSGEZOGEN
 62
    18
420
        0
370
    50
100
AcDbLine
 10
2044.84
 20
219.996243607848
 30
0.0
 11
2044.84
 21
606.304923376728
 31
0.0
  0
LINE
  5
3AA
330
1F
100
AcDbEntity
  8
Layer100
  6
AUSGEZOGEN
 62
    18
420
        0
370
    50
100
AcDbLine
 10
2044.84
 20
249.715763336671
 30
0.0
 11
3325.0
 21
249.715763336671
 31
0.0
  0
LINE
  5
3AB
330
1F
100
AcDbEntity
  8
Layer100
  6
AUSGEZOGEN
 62
    18
420
        0
370
    18
100
AcDbLine
 10
2044.84
 20
279.431526673343
 30
0.0
 11
2428.07338333454
 21
279.431526673343
 31
0.0
  0
LINE
  5
3AC
330
1F
100
AcDbEntity
  8
Layer100
  6
AUSGEZOGEN
 62
    18
420
        0
370
    18
100
AcDbLine
 10
2044.84
 20
309.147290010014
 30
0.0
 11
2428.07338333454
 21
309.147290010014
 31
0.0
  0
LINE
  5
3AD
330
1F
100
AcDbEntity
  8
Layer100
  6
AUSGEZOGEN
 62
    18
420
        0
370
    18
100
AcDbLine
 10
2044.84
 20
338.863053346685
 30
0.0
 11
2428.07338333454
 21
338.863053346685
 31
0.0
  0
LINE
  5
3AE
330
1F
100
AcDbEntity
  8
Layer100
  6
AUSGEZOGEN
 62
    18
420
        0
370
    18
100
AcDbLine
 10
2044.84
 20
368.578816683357
 30
0.0
 11
2428.07338333454
 21
368.578816683357
 31
0.0
  0
LINE
  5
3AF
330
1F
100
AcDbEntity
  8
Layer100
  6
AUSGEZOGEN
 62
    18
420
        0
370
    18
100
AcDbLine
 10
2044.84
 20
398.294580020028
 30
0.0
 11
2737.117322035923
 21
398.294580020028
 31
0.0
  0
LINE
  5
3B0
330
1F
100
AcDbEntity
  8
Layer100
  6
AUSGEZOGEN
 62
    18
420
        0
370
    18
100
AcDbLine
 10
2044.84
 20
428.0103433567
 30
0.0
 11
2737.117322035923
 21
428.0103433567
 31
0.0
  0
LINE
  5
3B1
330
1F
100
AcDbEntity
  8
Layer100
  6
AUSGEZOGEN
 62
    18
420
        0
370
    18
100
AcDbLine
 10
2044.84
 20
457.726106693371
 30
0.0
 11
2737.117322035923
 21
457.726106693371
 31
0.0
  0
LINE
  5
3B2
330
1F
100
AcDbEntity
  8
Layer100
  6
AUSGEZOGEN
 62
    18
420
        0
370
    50
100
AcDbLine
 10
2044.84
 20
487.441870030043
 30
0.0
 11
3325.0
 21
487.441870030043
 31
0.0
  0
WIPEOUT
  5
3B3
330
1F
100
AcDbEntity
  8
ASSI
  6
AUSGEZOGEN
 62
    18
420
        0
370
    18
160
               128
310
80000000020000000C00000014000000010000006C00000007000000040000000B23D0B0BF2A99404FFBC42C6CF59E40000000000000000067B2C2B0ED3D9A404FFBC42C6CF59E40000000000000000067B2C2B0ED3D9A40822EF8DB5C809F4000000000000000000B23D0B0BF2A9940822EF8DB5C809F4000000000000000
310
00
100
AcDbWipeout
 90
        0
 10
1610.6871979257
 20
1981.355639531935
 30
0.0
 11
68.79492167472836
 21
0.0
 31
0.0
 12
0.0
 22
68.79492167472836
 32
0.0
 13
1.0
 23
1.0
340
0
 70
     7
280
     1
281
    50
282
    50
283
     0
360
0
 71
     2
 91
        5
 14
-0.5
 24
0.5
 14
0.5
 24
0.5
 14
0.5
 24
-0.004907084555
 14
-0.5
 24
-0.004907084555
 14
-0.5
 24
0.5
290
     0
  0
TEXT
  5
3B4
330
1F
100
AcDbEntity
  8
ASSI
  6
AUSGEZOGEN
 62
    18
420
        0
370
    18
100
AcDbText
 10
1610.6871979257
 20
1987.868460157241
 30
0.0
 40
21.709402084351
  1
A - A
 41
1.021237473632
  7
Arial
 72
     5
 11
1679.482119600428
 21
1987.868460157241
 31
0.0
100
AcDbText
  0
ENDSEC
  0
SECTION
  2
OBJECTS
  0
DICTIONARY
  5
C
330
0
100
AcDbDictionary
281
     1
  3
ACAD_DETAILVIEWSTYLE
350
3ED
  3
ACAD_GROUP
350
D
  3
ACAD_IMAGE_DICT
350
3A3
  3
ACAD_LAYOUT
350
1A
  3
ACAD_MATERIAL
350
43
  3
ACAD_MLEADERSTYLE
350
5B
  3
ACAD_MLINESTYLE
350
17
  3
ACAD_PLOTSETTINGS
350
19
  3
ACAD_PLOTSTYLENAME
350
E
  3
ACAD_SCALELIST
350
47
  3
ACAD_SECTIONVIEWSTYLE
350
3EE
  3
ACAD_TABLESTYLE
350
59
  3
ACAD_VISUALSTYLE
350
2A
  3
ACAD_WIPEOUT_VARS
350
3EA
  3
ACDB_RECOMPOSE_DATA
350
3E9
  3
AcDbVariableDictionary
350
3B5
  0
SUN
  5
5D
330
29
100
AcDbSun
 90
        1
290
     0
 63
     7
421
 16777215
 40
1.0
291
     1
 91
  2455826
 92
 54000000
292
     0
 70
     2
 71
   256
280
     1
  0
IMAGEDEF_REACTOR
  5
3A6
330
3A5
100
AcDbRasterImageDefReactor
 90
        2
330
3A5
  0
DICTIONARY
  5
3ED
102
{ACAD_REACTORS
330
C
102
}
330
C
100
AcDbDictionary
281
     1
  0
DICTIONARY
  5
D
102
{ACAD_REACTORS
330
C
102
}
330
C
100
AcDbDictionary
281
     1
  0
DICTIONARY
  5
3A3
102
{ACAD_REACTORS
330
C
102
}
330
C
100
AcDbDictionary
281
     1
  3
NABER.JPG
350
3A4
  0
DICTIONARY
  5
1A
102
{ACAD_REACTORS
330
C
102
}
330
C
100
AcDbDictionary
281
     1
  3
Layout1
350
1E
  3
Layout2
350
26
  3
Model
350
22
  0
DICTIONARY
  5
43
102
{ACAD_REACTORS
330
C
102
}
330
C
100
AcDbDictionary
281
     1
  3
ByBlock
350
45
  3
ByLayer
350
44
  3
Global
350
46
  0
DICTIONARY
  5
5B
102
{ACAD_REACTORS
330
C
102
}
330
C
100
AcDbDictionary
281
     1
  3
Standard
350
5C
  0
DICTIONARY
  5
17
102
{ACAD_REACTORS
330
C
102
}
330
C
100
AcDbDictionary
281
     1
  3
Standard
350
18
  0
DICTIONARY
  5
19
102
{ACAD_REACTORS
330
C
102
}
330
C
100
AcDbDictionary
281
     1
  0
ACDBDICTIONARYWDFLT
  5
E
102
{ACAD_REACTORS
330
C
102
}
330
C
100
AcDbDictionary
281
     1
  3
Normal
350
F
100
AcDbDictionaryWithDefault
340
F
  0
DICTIONARY
  5
47
102
{ACAD_REACTORS
330
C
102
}
330
C
100
AcDbDictionary
281
     1
  3
A0
350
48
  3
A1
350
49
  3
A2
350
4A
  3
A3
350
4B
  3
A4
350
4C
  3
A5
350
4D
  3
A6
350
4E
  3
A7
350
4F
  3
A8
350
50
  3
A9
350
51
  3
B0
350
52
  3
B1
350
53
  3
B2
350
54
  3
B3
350
55
  3
B4
350
56
  3
B5
350
57
  3
B6
350
58
  0
DICTIONARY
  5
3EE
102
{ACAD_REACTORS
330
C
102
}
330
C
100
AcDbDictionary
281
     1
  0
DICTIONARY
  5
59
102
{ACAD_REACTORS
330
C
102
}
330
C
100
AcDbDictionary
281
     1
  3
Standard
350
5A
  0
DICTIONARY
  5
2A
102
{ACAD_REACTORS
330
C
102
}
330
C
100
AcDbDictionary
281
     1
  3
2dWireframe
350
2F
  3
Basic
350
32
  3
Brighten
350
36
  3
ColorChange
350
3A
  3
Conceptual
350
34
  3
Dim
350
35
  3
EdgeColorOff
350
3D
  3
Facepattern
350
39
  3
Flat
350
2B
  3
FlatWithEdges
350
2C
  3
Gouraud
350
2D
  3
GouraudWithEdges
350
2E
  3
Hidden
350
31
  3
JitterOff
350
3B
  3
Linepattern
350
38
  3
OverhangOff
350
3C
  3
Realistic
350
33
  3
Shaded
350
42
  3
Shaded with edges
350
41
  3
Shades of Gray
350
3E
  3
Sketchy
350
3F
  3
Thicken
350
37
  3
Wireframe
350
30
  3
X-Ray
350
40
  0
WIPEOUTVARIABLES
  5
3EA
102
{ACAD_REACTORS
330
C
102
}
330
C
100
AcDbWipeoutVariables
 70
     0
  0
XRECORD
  5
3E9
102
{ACAD_REACTORS
330
C
102
}
330
C
100
AcDbXrecord
280
     1
 90
        1
330
5A
  0
DICTIONARY
  5
3B5
102
{ACAD_REACTORS
330
C
102
}
330
C
100
AcDbDictionary
281
     1
  3
CANNOSCALE
350
3B6
  3
CENTEREXE
350
3F0
  3
CENTERLTYPEFILE
350
3F1
  3
CMLEADERSTYLE
350
3EC
  3
CTABLESTYLE
350
3EB
  3
WIPEOUTFRAME
350
3EF
  0
IMAGEDEF
  5
3A4
102
{ACAD_REACTORS
330
3A3
330
3A6
102
}
330
3A3
100
AcDbRasterImageDef
 90
        0
  1
NABER.JPG
 10
3781.0
 20
943.0
 11
0.0002644802962179318
 21
0.0002644802962179318
280
     1
281
     0
  0
LAYOUT
  5
1E
102
{ACAD_REACTORS
330
1A
102
}
330
1A
100
AcDbPlotSettings
  1

  2
none_device
  4

  6

 40
0.0
 41
0.0
 42
0.0
 43
0.0
 44
0.0
 45
0.0
 46
0.0
 47
0.0
 48
0.0
 49
0.0
140
0.0
141
0.0
142
1.0
143
1.0
 70
   688
 72
     1
 73
     0
 74
     5
  7

 75
    16
 76
     0
 77
     2
 78
   300
147
1.0
148
0.0
149
0.0
100
AcDbLayout
  1
Layout1
 70
     1
 71
     1
 10
0.0
 20
0.0
 11
420.0
 21
297.0
 12
0.0
 22
0.0
 32
0.0
 14
1.000000000000E+20
 24
1.000000000000E+20
 34
1.000000000000E+20
 15
-1.000000000000E+20
 25
-1.000000000000E+20
 35
-1.000000000000E+20
146
0.0
 13
0.0
 23
0.0
 33
0.0
 16
1.0
 26
0.0
 36
0.0
 17
0.0
 27
1.0
 37
0.0
 76
     0
330
1B
  0
LAYOUT
  5
26
102
{ACAD_REACTORS
330
1A
102
}
330
1A
100
AcDbPlotSettings
  1

  2
none_device
  4

  6

 40
0.0
 41
0.0
 42
0.0
 43
0.0
 44
0.0
 45
0.0
 46
0.0
 47
0.0
 48
0.0
 49
0.0
140
0.0
141
0.0
142
1.0
143
1.0
 70
   688
 72
     1
 73
     0
 74
     5
  7

 75
    16
 76
     0
 77
     2
 78
   300
147
1.0
148
0.0
149
0.0
100
AcDbLayout
  1
Layout2
 70
     1
 71
     2
 10
0.0
 20
0.0
 11
0.0
 21
0.0
 12
0.0
 22
0.0
 32
0.0
 14
0.0
 24
0.0
 34
0.0
 15
0.0
 25
0.0
 35
0.0
146
0.0
 13
0.0
 23
0.0
 33
0.0
 16
1.0
 26
0.0
 36
0.0
 17
0.0
 27
1.0
 37
0.0
 76
     0
330
23
  0
LAYOUT
  5
22
102
{ACAD_REACTORS
330
1A
102
}
330
1A
100
AcDbPlotSettings
  1

  2
none_device
  4
Letter_(8.50_x_11.00_Inches)
  6

 40
6.35
 41
6.35
 42
6.35000508
 43
6.35000508
 44
215.9
 45
279.4
 46
0.0
 47
0.0
 48
0.0
 49
0.0
140
0.0
141
0.0
142
1.0
143
1.0
 70
  1712
 72
     1
 73
     0
 74
     0
  7

 75
     0
 76
     0
 77
     2
 78
   300
147
1.0
148
0.0
149
0.0
100
AcDbLayout
  1
Model
 70
     1
 71
     0
 10
0.0
 20
0.0
 11
420.0
 21
297.0
 12
0.0
 22
0.0
 32
0.0
 14
-951.767588369205
 24
81.435
 34
0.0
 15
4836.767588369205
 25
2359.865
 35
0.0
146
0.0
 13
0.0
 23
0.0
 33
0.0
 16
1.0
 26
0.0
 36
0.0
 17
0.0
 27
1.0
 37
0.0
 76
     0
330
1F
331
29
  0
MATERIAL
  5
45
102
{ACAD_REACTORS
330
43
102
}
330
43
100
AcDbMaterial
  1
ByBlock
 72
     1
 94
      127
  0
MATERIAL
  5
44
102
{ACAD_REACTORS
330
43
102
}
330
43
100
AcDbMaterial
  1
ByLayer
 72
     1
 94
      127
  0
MATERIAL
  5
46
102
{ACAD_REACTORS
330
43
102
}
330
43
100
AcDbMaterial
  1
Global
 72
     1
 94
      127
  0
MLEADERSTYLE
  5
5C
102
{ACAD_REACTORS
330
5B
102
}
330
5B
100
AcDbMLeaderStyle
179
     2
170
     2
171
     1
172
     0
 90
        2
 40
0.0
 41
0.0
173
     1
 91
-1056964608
340
14
 92
       -2
290
     1
 42
2.0
291
     1
 43
8.0
  3
Standard
341
0
 44
4.0
300

342
11
174
     1
178
     6
175
     1
176
     0
 93
-1056964608
 45
4.0
292
     0
297
     0
 46
4.0
343
0
 94
-1056964608
 47
1.0
 49
1.0
140
1.0
293
     1
141
0.0
294
     1
177
     0
142
1.0
295
     0
296
     0
143
3.75
271
     0
272
     9
273
     9
  0
MLINESTYLE
  5
18
102
{ACAD_REACTORS
330
17
102
}
330
17
100
AcDbMlineStyle
  2
Standard
 70
     0
  3

 62
   256
 51
90.0
 52
90.0
 71
     2
 49
0.5
 62
   256
  6
BYLAYER
 49
-0.5
 62
   256
  6
BYLAYER
  0
ACDBPLACEHOLDER
  5
F
102
{ACAD_REACTORS
330
E
102
}
330
E
  0
SCALE
  5
48
102
{ACAD_REACTORS
330
47
102
}
330
47
100
AcDbScale
 70
     0
300
1:1
140
1.0
141
1.0
290
     1
  0
SCALE
  5
49
102
{ACAD_REACTORS
330
47
102
}
330
47
100
AcDbScale
 70
     0
300
1:2
140
1.0
141
2.0
290
     0
  0
SCALE
  5
4A
102
{ACAD_REACTORS
330
47
102
}
330
47
100
AcDbScale
 70
     0
300
1:4
140
1.0
141
4.0
290
     0
  0
SCALE
  5
4B
102
{ACAD_REACTORS
330
47
102
}
330
47
100
AcDbScale
 70
     0
300
1:5
140
1.0
141
5.0
290
     0
  0
SCALE
  5
4C
102
{ACAD_REACTORS
330
47
102
}
330
47
100
AcDbScale
 70
     0
300
1:8
140
1.0
141
8.0
290
     0
  0
SCALE
  5
4D
102
{ACAD_REACTORS
330
47
102
}
330
47
100
AcDbScale
 70
     0
300
1:10
140
1.0
141
10.0
290
     0
  0
SCALE
  5
4E
102
{ACAD_REACTORS
330
47
102
}
330
47
100
AcDbScale
 70
     0
300
1:16
140
1.0
141
16.0
290
     0
  0
SCALE
  5
4F
102
{ACAD_REACTORS
330
47
102
}
330
47
100
AcDbScale
 70
     0
300
1:20
140
1.0
141
20.0
290
     0
  0
SCALE
  5
50
102
{ACAD_REACTORS
330
47
102
}
330
47
100
AcDbScale
 70
     0
300
1:30
140
1.0
141
30.0
290
     0
  0
SCALE
  5
51
102
{ACAD_REACTORS
330
47
102
}
330
47
100
AcDbScale
 70
     0
300
1:40
140
1.0
141
40.0
290
     0
  0
SCALE
  5
52
102
{ACAD_REACTORS
330
47
102
}
330
47
100
AcDbScale
 70
     0
300
1:50
140
1.0
141
50.0
290
     0
  0
SCALE
  5
53
102
{ACAD_REACTORS
330
47
102
}
330
47
100
AcDbScale
 70
     0
300
1:100
140
1.0
141
100.0
290
     0
  0
SCALE
  5
54
102
{ACAD_REACTORS
330
47
102
}
330
47
100
AcDbScale
 70
     0
300
2:1
140
2.0
141
1.0
290
     0
  0
SCALE
  5
55
102
{ACAD_REACTORS
330
47
102
}
330
47
100
AcDbScale
 70
     0
300
4:1
140
4.0
141
1.0
290
     0
  0
SCALE
  5
56
102
{ACAD_REACTORS
330
47
102
}
330
47
100
AcDbScale
 70
     0
300
8:1
140
8.0
141
1.0
290
     0
  0
SCALE
  5
57
102
{ACAD_REACTORS
330
47
102
}
330
47
100
AcDbScale
 70
     0
300
10:1
140
10.0
141
1.0
290
     0
  0
SCALE
  5
58
102
{ACAD_REACTORS
330
47
102
}
330
47
100
AcDbScale
 70
     0
300
100:1
140
100.0
141
1.0
290
     0
  0
TABLESTYLE
  5
5A
102
{ACAD_REACTORS
330
59
102
}
102
{ACAD_XDICTIONARY
360
3E7
102
}
330
59
100
AcDbTableStyle
  3
Standard
 70
     0
 71
     0
 40
0.06
 41
0.06
280
     0
281
     0
  7
Standard
140
4.5
170
     2
 62
     0
 63
   257
283
     0
 90
        4
 91
        0
  1

274
    -2
284
     1
 64
     0
275
    -2
285
     1
 65
     0
276
    -2
286
     1
 66
     0
277
    -2
287
     1
 67
     0
278
    -2
288
     1
 68
     0
279
    -2
289
     1
 69
     0
  7
Standard
140
6.0
170
     5
 62
     0
 63
   257
283
     0
 90
        4
 91
        0
  1

274
    -2
284
     1
 64
     0
275
    -2
285
     1
 65
     0
276
    -2
286
     1
 66
     0
277
    -2
287
     1
 67
     0
278
    -2
288
     1
 68
     0
279
    -2
289
     1
 69
     0
  7
Standard
140
4.5
170
     5
 62
     0
 63
   257
283
     0
 90
        4
 91
        0
  1

274
    -2
284
     1
 64
     0
275
    -2
285
     1
 65
     0
276
    -2
286
     1
 66
     0
277
    -2
287
     1
 67
     0
278
    -2
288
     1
 68
     0
279
    -2
289
     1
 69
     0
  0
VISUALSTYLE
  5
2F
102
{ACAD_REACTORS
330
2A
102
}
102
{ACAD_XDICTIONARY
360
3BF
102
}
330
2A
100
AcDbVisualStyle
  2
2dWireframe
 70
     4
177
     2
291
     0
 71
     0
176
     1
 72
     2
176
     1
 73
     0
176
     1
 90
        0
176
     1
 40
0.6
176
     1
 41
30.0
176
     1
 62
     5
 63
     7
421
 16777215
176
     1
 74
     1
176
     1
 91
        4
176
     1
 64
     7
176
     1
 65
   257
176
     1
 75
     1
176
     1
175
     1
176
     1
 42
1.0
176
     1
 92
        0
176
     1
 66
   257
176
     1
 43
1.0
176
     1
 76
     1
176
     1
 77
     6
176
     1
 78
     2
176
     1
 67
     7
176
     1
 79
     5
176
     1
170
     0
176
     1
171
     0
176
     1
290
     0
176
     1
 93
        1
176
     1
 44
0.0
176
     1
173
     0
176
     1
  0
VISUALSTYLE
  5
32
102
{ACAD_REACTORS
330
2A
102
}
102
{ACAD_XDICTIONARY
360
3C5
102
}
330
2A
100
AcDbVisualStyle
  2
Basic
 70
     7
177
     2
291
     1
 71
     1
176
     1
 72
     0
176
     1
 73
     1
176
     1
 90
        0
176
     1
 40
0.6
176
     1
 41
30.0
176
     1
 62
     5
 63
     7
421
 16777215
176
     1
 74
     0
176
     1
 91
        4
176
     1
 64
     7
176
     1
 65
   257
176
     1
 75
     1
176
     1
175
     1
176
     1
 42
1.0
176
     1
 92
        8
176
     1
 66
     7
176
     1
 43
1.0
176
     1
 76
     1
176
     1
 77
     6
176
     1
 78
     2
176
     1
 67
     7
176
     1
 79
     5
176
     1
170
     0
176
     1
171
     0
176
     1
290
     0
176
     1
 93
        1
176
     1
 44
0.0
176
     1
173
     0
176
     1
  0
VISUALSTYLE
  5
36
102
{ACAD_REACTORS
330
2A
102
}
102
{ACAD_XDICTIONARY
360
3CD
102
}
330
2A
100
AcDbVisualStyle
  2
Brighten
 70
    12
177
     2
291
     1
 71
     2
176
     1
 72
     2
176
     1
 73
     0
176
     1
 90
        0
176
     1
 40
0.6
176
     1
 41
30.0
176
     1
 62
     5
 63
     7
421
 16777215
176
     1
 74
     1
176
     1
 91
        4
176
     1
 64
     7
176
     1
 65
   257
176
     1
 75
     1
176
     1
175
     1
176
     1
 42
1.0
176
     1
 92
        8
176
     1
 66
     7
176
     1
 43
1.0
176
     1
 76
     1
176
     1
 77
     6
176
     1
 78
     2
176
     1
 67
     7
176
     1
 79
     5
176
     1
170
     0
176
     1
171
     0
176
     1
290
     0
176
     1
 93
        1
176
     1
 44
50.0
176
     1
173
     0
176
     1
  0
VISUALSTYLE
  5
3A
102
{ACAD_REACTORS
330
2A
102
}
102
{ACAD_XDICTIONARY
360
3D5
102
}
330
2A
100
AcDbVisualStyle
  2
ColorChange
 70
    16
177
     2
291
     1
 71
     2
176
     1
 72
     2
176
     1
 73
     3
176
     1
 90
        0
176
     1
 40
0.6
176
     1
 41
30.0
176
     1
 62
     5
 63
     8
421
  8421504
176
     1
 74
     1
176
     1
 91
        4
176
     1
 64
     7
176
     1
 65
   257
176
     1
 75
     1
176
     1
175
     1
176
     1
 42
1.0
176
     1
 92
        8
176
     1
 66
     8
424
  8421504
176
     1
 43
1.0
176
     1
 76
     1
176
     1
 77
     6
176
     1
 78
     2
176
     1
 67
     7
176
     1
 79
     5
176
     1
170
     0
176
     1
171
     0
176
     1
290
     0
176
     1
 93
        1
176
     1
 44
0.0
176
     1
173
     0
176
     1
  0
VISUALSTYLE
  5
34
102
{ACAD_REACTORS
330
2A
102
}
102
{ACAD_XDICTIONARY
360
3C9
102
}
330
2A
100
AcDbVisualStyle
  2
Conceptual
 70
     9
177
     2
291
     0
 71
     3
176
     1
 72
     2
176
     1
 73
     0
176
     1
 90
        0
176
     1
 40
0.6
176
     1
 41
30.0
176
     1
 62
     5
 63
     7
421
 16777215
176
     1
 74
     2
176
     1
 91
        2
176
     1
 64
     7
176
     1
 65
   257
176
     1
 75
     1
176
     1
175
     1
176
     1
 42
179.0
176
     1
 92
        8
176
     1
 66
     7
176
     1
 43
1.0
176
     1
 76
     1
176
     1
 77
     6
176
     1
 78
     2
176
     1
 67
     7
176
     1
 79
     3
176
     1
170
     0
176
     1
171
     0
176
     1
290
     0
176
     1
 93
        1
176
     1
 44
0.0
176
     1
173
     0
176
     1
  0
VISUALSTYLE
  5
35
102
{ACAD_REACTORS
330
2A
102
}
102
{ACAD_XDICTIONARY
360
3CB
102
}
330
2A
100
AcDbVisualStyle
  2
Dim
 70
    11
177
     2
291
     1
 71
     2
176
     1
 72
     2
176
     1
 73
     0
176
     1
 90
        0
176
     1
 40
0.6
176
     1
 41
30.0
176
     1
 62
     5
 63
     7
421
 16777215
176
     1
 74
     1
176
     1
 91
        4
176
     1
 64
     7
176
     1
 65
   257
176
     1
 75
     1
176
     1
175
     1
176
     1
 42
1.0
176
     1
 92
        8
176
     1
 66
     7
176
     1
 43
1.0
176
     1
 76
     1
176
     1
 77
     6
176
     1
 78
     2
176
     1
 67
     7
176
     1
 79
     5
176
     1
170
     0
176
     1
171
     0
176
     1
290
     0
176
     1
 93
        1
176
     1
 44
-50.0
176
     1
173
     0
176
     1
  0
VISUALSTYLE
  5
3D
102
{ACAD_REACTORS
330
2A
102
}
102
{ACAD_XDICTIONARY
360
3DB
102
}
330
2A
100
AcDbVisualStyle
  2
EdgeColorOff
 70
    22
177
     2
291
     1
 71
     2
176
     0
 72
     2
176
     0
 73
     0
176
     0
 90
        0
176
     0
 40
0.6
176
     0
 41
30.0
176
     0
 62
     5
 63
     7
421
 16777215
176
     0
 74
     1
176
     0
 91
        4
176
     0
 64
     7
176
     0
 65
   257
176
     0
 75
     1
176
     0
175
     1
176
     0
 42
1.0
176
     0
 92
        8
176
     2
 66
     7
176
     0
 43
1.0
176
     0
 76
     1
176
     0
 77
     6
176
     0
 78
     2
176
     0
 67
     7
176
     0
 79
     5
176
     0
170
     0
176
     0
171
     0
176
     0
290
     0
176
     0
 93
        1
176
     0
 44
0.0
176
     0
173
     0
176
     0
  0
VISUALSTYLE
  5
39
102
{ACAD_REACTORS
330
2A
102
}
102
{ACAD_XDICTIONARY
360
3D3
102
}
330
2A
100
AcDbVisualStyle
  2
Facepattern
 70
    15
177
     2
291
     1
 71
     2
176
     1
 72
     2
176
     1
 73
     0
176
     1
 90
        0
176
     1
 40
0.6
176
     1
 41
30.0
176
     1
 62
     5
 63
     7
421
 16777215
176
     1
 74
     1
176
     1
 91
        4
176
     1
 64
     7
176
     1
 65
   257
176
     1
 75
     1
176
     1
175
     1
176
     1
 42
1.0
176
     1
 92
        8
176
     1
 66
     7
176
     1
 43
1.0
176
     1
 76
     1
176
     1
 77
     6
176
     1
 78
     2
176
     1
 67
     7
176
     1
 79
     5
176
     1
170
     0
176
     1
171
     0
176
     1
290
     0
176
     1
 93
        1
176
     1
 44
0.0
176
     1
173
     0
176
     1
  0
VISUALSTYLE
  5
2B
102
{ACAD_REACTORS
330
2A
102
}
102
{ACAD_XDICTIONARY
360
3B7
102
}
330
2A
100
AcDbVisualStyle
  2
Flat
 70
     0
177
     2
291
     1
 71
     2
176
     1
 72
     1
176
     1
 73
     1
176
     1
 90
        2
176
     1
 40
0.6
176
     1
 41
30.0
176
     1
 62
     5
 63
     7
421
 16777215
176
     1
 74
     0
176
     1
 91
        0
176
     1
 64
     7
176
     1
 65
   257
176
     1
 75
     1
176
     1
175
     1
176
     1
 42
1.0
176
     1
 92
        8
176
     1
 66
     7
176
     1
 43
1.0
176
     1
 76
     1
176
     1
 77
     6
176
     1
 78
     2
176
     1
 67
     7
176
     1
 79
     5
176
     1
170
     0
176
     1
171
     0
176
     1
290
     0
176
     1
 93
       13
176
     1
 44
0.0
176
     1
173
     0
176
     1
  0
VISUALSTYLE
  5
2C
102
{ACAD_REACTORS
330
2A
102
}
102
{ACAD_XDICTIONARY
360
3B9
102
}
330
2A
100
AcDbVisualStyle
  2
FlatWithEdges
 70
     1
177
     2
291
     1
 71
     2
176
     1
 72
     1
176
     1
 73
     1
176
     1
 90
        2
176
     1
 40
0.6
176
     1
 41
30.0
176
     1
 62
     5
 63
     7
421
 16777215
176
     1
 74
     1
176
     1
 91
        0
176
     1
 64
     7
176
     1
 65
   257
176
     1
 75
     1
176
     1
175
     1
176
     1
 42
1.0
176
     1
 92
        0
176
     1
 66
   257
176
     1
 43
1.0
176
     1
 76
     1
176
     1
 77
     6
176
     1
 78
     2
176
     1
 67
     7
176
     1
 79
     5
176
     1
170
     0
176
     1
171
     0
176
     1
290
     0
176
     1
 93
       13
176
     1
 44
0.0
176
     1
173
     0
176
     1
  0
VISUALSTYLE
  5
2D
102
{ACAD_REACTORS
330
2A
102
}
102
{ACAD_XDICTIONARY
360
3BB
102
}
330
2A
100
AcDbVisualStyle
  2
Gouraud
 70
     2
177
     2
291
     1
 71
     2
176
     1
 72
     2
176
     1
 73
     1
176
     1
 90
        2
176
     1
 40
0.6
176
     1
 41
30.0
176
     1
 62
     5
 63
     7
421
 16777215
176
     1
 74
     0
176
     1
 91
        0
176
     1
 64
     7
176
     1
 65
   257
176
     1
 75
     1
176
     1
175
     1
176
     1
 42
1.0
176
     1
 92
        0
176
     1
 66
     7
176
     1
 43
1.0
176
     1
 76
     1
176
     1
 77
     6
176
     1
 78
     2
176
     1
 67
     7
176
     1
 79
     5
176
     1
170
     0
176
     1
171
     0
176
     1
290
     0
176
     1
 93
       13
176
     1
 44
0.0
176
     1
173
     0
176
     1
  0
VISUALSTYLE
  5
2E
102
{ACAD_REACTORS
330
2A
102
}
102
{ACAD_XDICTIONARY
360
3BD
102
}
330
2A
100
AcDbVisualStyle
  2
GouraudWithEdges
 70
     3
177
     2
291
     1
 71
     2
176
     1
 72
     2
176
     1
 73
     1
176
     1
 90
        2
176
     1
 40
0.6
176
     1
 41
30.0
176
     1
 62
     5
 63
     7
421
 16777215
176
     1
 74
     1
176
     1
 91
        0
176
     1
 64
     7
176
     1
 65
   257
176
     1
 75
     1
176
     1
175
     1
176
     1
 42
1.0
176
     1
 92
        0
176
     1
 66
   257
176
     1
 43
1.0
176
     1
 76
     1
176
     1
 77
     6
176
     1
 78
     2
176
     1
 67
     7
176
     1
 79
     5
176
     1
170
     0
176
     1
171
     0
176
     1
290
     0
176
     1
 93
       13
176
     1
 44
0.0
176
     1
173
     0
176
     1
  0
VISUALSTYLE
  5
31
102
{ACAD_REACTORS
330
2A
102
}
102
{ACAD_XDICTIONARY
360
3C3
102
}
330
2A
100
AcDbVisualStyle
  2
Hidden
 70
     6
177
     2
291
     0
 71
     1
176
     1
 72
     2
176
     1
 73
     2
176
     1
 90
        0
176
     1
 40
0.6
176
     1
 41
30.0
176
     1
 62
     5
 63
     7
421
 16777215
176
     1
 74
     2
176
     1
 91
        2
176
     1
 64
     7
176
     1
 65
   257
176
     1
 75
     2
176
     1
175
     1
176
     1
 42
40.0
176
     1
 92
        0
176
     1
 66
   257
176
     1
 43
1.0
176
     1
 76
     1
176
     1
 77
     6
176
     1
 78
     2
176
     1
 67
     7
176
     1
 79
     3
176
     1
170
     0
176
     1
171
     0
176
     1
290
     0
176
     1
 93
        1
176
     1
 44
0.0
176
     1
173
     0
176
     1
  0
VISUALSTYLE
  5
3B
102
{ACAD_REACTORS
330
2A
102
}
102
{ACAD_XDICTIONARY
360
3D7
102
}
330
2A
100
AcDbVisualStyle
  2
JitterOff
 70
    20
177
     2
291
     1
 71
     2
176
     0
 72
     2
176
     0
 73
     0
176
     0
 90
        0
176
     0
 40
0.6
176
     0
 41
30.0
176
     0
 62
     5
 63
     7
421
 16777215
176
     0
 74
     1
176
     0
 91
        4
176
     0
 64
     7
176
     0
 65
   257
176
     0
 75
     1
176
     0
175
     1
176
     0
 42
1.0
176
     0
 92
       10
176
     2
 66
     7
176
     0
 43
1.0
176
     0
 76
     1
176
     0
 77
     6
176
     0
 78
     2
176
     0
 67
     7
176
     0
 79
     5
176
     0
170
     0
176
     0
171
     0
176
     0
290
     0
176
     0
 93
        1
176
     0
 44
0.0
176
     0
173
     0
176
     0
  0
VISUALSTYLE
  5
38
102
{ACAD_REACTORS
330
2A
102
}
102
{ACAD_XDICTIONARY
360
3D1
102
}
330
2A
100
AcDbVisualStyle
  2
Linepattern
 70
    14
177
     2
291
     1
 71
     2
176
     1
 72
     2
176
     1
 73
     0
176
     1
 90
        0
176
     1
 40
0.6
176
     1
 41
30.0
176
     1
 62
     5
 63
     7
421
 16777215
176
     1
 74
     1
176
     1
 91
        4
176
     1
 64
     7
176
     1
 65
   257
176
     1
 75
     7
176
     1
175
     7
176
     1
 42
1.0
176
     1
 92
        8
176
     1
 66
     7
176
     1
 43
1.0
176
     1
 76
     1
176
     1
 77
     6
176
     1
 78
     2
176
     1
 67
     7
176
     1
 79
     5
176
     1
170
     0
176
     1
171
     0
176
     1
290
     0
176
     1
 93
        1
176
     1
 44
0.0
176
     1
173
     0
176
     1
  0
VISUALSTYLE
  5
3C
102
{ACAD_REACTORS
330
2A
102
}
102
{ACAD_XDICTIONARY
360
3D9
102
}
330
2A
100
AcDbVisualStyle
  2
OverhangOff
 70
    21
177
     2
291
     1
 71
     2
176
     0
 72
     2
176
     0
 73
     0
176
     0
 90
        0
176
     0
 40
0.6
176
     0
 41
30.0
176
     0
 62
     5
 63
     7
421
 16777215
176
     0
 74
     1
176
     0
 91
        4
176
     0
 64
     7
176
     0
 65
   257
176
     0
 75
     1
176
     0
175
     1
176
     0
 42
1.0
176
     0
 92
        9
176
     2
 66
     7
176
     0
 43
1.0
176
     0
 76
     1
176
     0
 77
     6
176
     0
 78
     2
176
     0
 67
     7
176
     0
 79
     5
176
     0
170
     0
176
     0
171
     0
176
     0
290
     0
176
     0
 93
        1
176
     0
 44
0.0
176
     0
173
     0
176
     0
  0
VISUALSTYLE
  5
33
102
{ACAD_REACTORS
330
2A
102
}
102
{ACAD_XDICTIONARY
360
3C7
102
}
330
2A
100
AcDbVisualStyle
  2
Realistic
 70
     8
177
     2
291
     0
 71
     2
176
     1
 72
     3
176
     1
 73
     0
176
     1
 90
        2
176
     1
 40
0.6
176
     1
 41
30.0
176
     1
 62
     5
 63
     7
421
 16777215
176
     1
 74
     0
176
     1
 91
        0
176
     1
 64
     7
176
     1
 65
   257
176
     1
 75
     1
176
     1
175
     1
176
     1
 42
1.0
176
     1
 92
        8
176
     1
 66
   257
176
     1
 43
1.0
176
     1
 76
     1
176
     1
 77
     6
176
     1
 78
     2
176
     1
 67
     7
176
     1
 79
     3
176
     1
170
     0
176
     1
171
     0
176
     1
290
     0
176
     1
 93
       13
176
     1
 44
0.0
176
     1
173
     0
176
     1
  0
VISUALSTYLE
  5
42
102
{ACAD_REACTORS
330
2A
102
}
102
{ACAD_XDICTIONARY
360
3E5
102
}
330
2A
100
AcDbVisualStyle
  2
Shaded
 70
    27
177
     2
291
     0
 71
     2
176
     1
 72
     2
176
     1
 73
     1
176
     1
 90
        2
176
     1
 40
0.6
176
     1
 41
30.0
176
     1
 62
     5
 63
     7
421
 16777215
176
     1
 74
     0
176
     1
 91
        4
176
     1
 64
     7
176
     1
 65
   257
176
     1
 75
     1
176
     1
175
     1
176
     1
 42
1.0
176
     1
 92
        8
176
     1
 66
   257
176
     1
 43
1.0
176
     1
 76
     1
176
     1
 77
     6
176
     1
 78
     2
176
     1
 67
     8
425
  7895160
176
     1
 79
     3
176
     1
170
     0
176
     1
171
     0
176
     1
290
     0
176
     1
 93
        5
176
     1
 44
0.0
176
     1
173
     0
176
     1
  0
VISUALSTYLE
  5
41
102
{ACAD_REACTORS
330
2A
102
}
102
{ACAD_XDICTIONARY
360
3E3
102
}
330
2A
100
AcDbVisualStyle
  2
Shaded with edges
 70
    26
177
     2
291
     0
 71
     2
176
     1
 72
     2
176
     1
 73
     1
176
     1
 90
        2
176
     1
 40
0.6
176
     1
 41
30.0
176
     1
 62
     5
 63
     7
421
 16777215
176
     1
 74
     1
176
     1
 91
       10
176
     1
 64
     7
176
     1
 65
   257
176
     1
 75
     2
176
     1
175
     1
176
     1
 42
1.0
176
     1
 92
        8
176
     1
 66
   257
176
     1
 43
1.0
176
     1
 76
     1
176
     1
 77
     6
176
     1
 78
     2
176
     1
 67
     7
176
     1
 79
     3
176
     1
170
     0
176
     1
171
     0
176
     1
290
     0
176
     1
 93
        5
176
     1
 44
0.0
176
     1
173
     0
176
     1
  0
VISUALSTYLE
  5
3E
102
{ACAD_REACTORS
330
2A
102
}
102
{ACAD_XDICTIONARY
360
3DD
102
}
330
2A
100
AcDbVisualStyle
  2
Shades of Gray
 70
    23
177
     2
291
     0
 71
     2
176
     1
 72
     2
176
     1
 73
     3
176
     1
 90
        0
176
     1
 40
0.6
176
     1
 41
30.0
176
     1
 62
     5
 63
     7
421
 16777215
176
     1
 74
     2
176
     1
 91
        2
176
     1
 64
     7
176
     1
 65
     7
176
     1
 75
     1
176
     1
175
     1
176
     1
 42
40.0
176
     1
 92
        8
176
     1
 66
     7
176
     1
 43
1.0
176
     1
 76
     1
176
     1
 77
     6
176
     1
 78
     2
176
     1
 67
     7
176
     1
 79
     3
176
     1
170
     0
176
     1
171
     0
176
     1
290
     0
176
     1
 93
        1
176
     1
 44
0.0
176
     1
173
     0
176
     1
  0
VISUALSTYLE
  5
3F
102
{ACAD_REACTORS
330
2A
102
}
102
{ACAD_XDICTIONARY
360
3DF
102
}
330
2A
100
AcDbVisualStyle
  2
Sketchy
 70
    24
177
     2
291
     0
 71
     1
176
     1
 72
     2
176
     1
 73
     2
176
     1
 90
        0
176
     1
 40
0.6
176
     1
 41
30.0
176
     1
 62
     5
 63
     7
421
 16777215
176
     1
 74
     2
176
     1
 91
        2
176
     1
 64
     7
176
     1
 65
     7
176
     1
 75
     1
176
     1
175
     1
176
     1
 42
40.0
176
     1
 92
       11
176
     1
 66
     7
176
     1
 43
1.0
176
     1
 76
     1
176
     1
 77
     6
176
     1
 78
     2
176
     1
 67
     7
176
     1
 79
     6
176
     1
170
     0
176
     1
171
     0
176
     1
290
     0
176
     1
 93
        1
176
     1
 44
0.0
176
     1
173
     0
176
     1
  0
VISUALSTYLE
  5
37
102
{ACAD_REACTORS
330
2A
102
}
102
{ACAD_XDICTIONARY
360
3CF
102
}
330
2A
100
AcDbVisualStyle
  2
Thicken
 70
    13
177
     2
291
     1
 71
     2
176
     1
 72
     2
176
     1
 73
     0
176
     1
 90
        0
176
     1
 40
0.6
176
     1
 41
30.0
176
     1
 62
     5
 63
     7
421
 16777215
176
     1
 74
     1
176
     1
 91
        4
176
     1
 64
     7
176
     1
 65
   257
176
     1
 75
     1
176
     1
175
     1
176
     1
 42
1.0
176
     1
 92
       12
176
     1
 66
     7
176
     1
 43
1.0
176
     1
 76
     1
176
     1
 77
     6
176
     1
 78
     2
176
     1
 67
     7
176
     1
 79
     5
176
     1
170
     0
176
     1
171
     0
176
     1
290
     0
176
     1
 93
        1
176
     1
 44
0.0
176
     1
173
     0
176
     1
  0
VISUALSTYLE
  5
30
102
{ACAD_REACTORS
330
2A
102
}
102
{ACAD_XDICTIONARY
360
3C1
102
}
330
2A
100
AcDbVisualStyle
  2
Wireframe
 70
     5
177
     2
291
     0
 71
     0
176
     1
 72
     2
176
     1
 73
     0
176
     1
 90
        0
176
     1
 40
0.6
176
     1
 41
30.0
176
     1
 62
     5
 63
     7
421
 16777215
176
     1
 74
     1
176
     1
 91
        4
176
     1
 64
     7
176
     1
 65
   257
176
     1
 75
     1
176
     1
175
     1
176
     1
 42
1.0
176
     1
 92
        0
176
     1
 66
   257
176
     1
 43
1.0
176
     1
 76
     1
176
     1
 77
     6
176
     1
 78
     2
176
     1
 67
     7
176
     1
 79
     3
176
     1
170
     0
176
     1
171
     0
176
     1
290
     0
176
     1
 93
        1
176
     1
 44
0.0
176
     1
173
     0
176
     1
  0
VISUALSTYLE
  5
40
102
{ACAD_REACTORS
330
2A
102
}
102
{ACAD_XDICTIONARY
360
3E1
102
}
330
2A
100
AcDbVisualStyle
  2
X-Ray
 70
    25
177
     2
291
     0
 71
     2
176
     1
 72
     2
176
     1
 73
     1
176
     1
 90
        1
176
     1
 40
0.5
176
     1
 41
30.0
176
     1
 62
     5
 63
     7
421
 16777215
176
     1
 74
     1
176
     1
 91
        0
176
     1
 64
     7
176
     1
 65
   257
176
     1
 75
     1
176
     1
175
     1
176
     1
 42
1.0
176
     1
 92
        8
176
     1
 66
     7
176
     1
 43
1.0
176
     1
 76
     1
176
     1
 77
     6
176
     1
 78
     2
176
     1
 67
     7
176
     1
 79
     3
176
     1
170
     0
176
     1
171
     0
176
     1
290
     0
176
     1
 93
       13
176
     1
 44
0.0
176
     1
173
     0
176
     1
  0
DICTIONARYVAR
  5
3B6
102
{ACAD_REACTORS
330
3B5
102
}
330
3B5
100
DictionaryVariables
280
     0
  1
1:1
  0
DICTIONARYVAR
  5
3F0
102
{ACAD_REACTORS
330
3B5
102
}
330
3B5
100
DictionaryVariables
280
     0
  1
3.500000
  0
DICTIONARYVAR
  5
3F1
102
{ACAD_REACTORS
330
3B5
102
}
330
3B5
100
DictionaryVariables
280
     0
  1
acadiso.lin
  0
DICTIONARYVAR
  5
3EC
102
{ACAD_REACTORS
330
3B5
102
}
330
3B5
100
DictionaryVariables
280
     0
  1
Standard
  0
DICTIONARYVAR
  5
3EB
102
{ACAD_REACTORS
330
3B5
102
}
330
3B5
100
DictionaryVariables
280
     0
  1
Standard
  0
DICTIONARYVAR
  5
3EF
102
{ACAD_REACTORS
330
3B5
102
}
330
3B5
100
DictionaryVariables
280
     0
  1
0
  0
DICTIONARY
  5
3E7
330
5A
100
AcDbDictionary
280
     1
281
     1
  3
ACAD_ROUNDTRIP_2008_TABLESTYLE_CELLSTYLEMAP
360
3E8
  0
DICTIONARY
  5
3BF
330
2F
100
AcDbDictionary
280
     1
281
     1
  3
ACAD_XREC_ROUNDTRIP
360
3C0
  0
DICTIONARY
  5
3C5
330
32
100
AcDbDictionary
280
     1
281
     1
  3
ACAD_XREC_ROUNDTRIP
360
3C6
  0
DICTIONARY
  5
3CD
330
36
100
AcDbDictionary
280
     1
281
     1
  3
ACAD_XREC_ROUNDTRIP
360
3CE
  0
DICTIONARY
  5
3D5
330
3A
100
AcDbDictionary
280
     1
281
     1
  3
ACAD_XREC_ROUNDTRIP
360
3D6
  0
DICTIONARY
  5
3C9
330
34
100
AcDbDictionary
280
     1
281
     1
  3
ACAD_XREC_ROUNDTRIP
360
3CA
  0
DICTIONARY
  5
3CB
330
35
100
AcDbDictionary
280
     1
281
     1
  3
ACAD_XREC_ROUNDTRIP
360
3CC
  0
DICTIONARY
  5
3DB
330
3D
100
AcDbDictionary
280
     1
281
     1
  3
ACAD_XREC_ROUNDTRIP
360
3DC
  0
DICTIONARY
  5
3D3
330
39
100
AcDbDictionary
280
     1
281
     1
  3
ACAD_XREC_ROUNDTRIP
360
3D4
  0
DICTIONARY
  5
3B7
330
2B
100
AcDbDictionary
280
     1
281
     1
  3
ACAD_XREC_ROUNDTRIP
360
3B8
  0
DICTIONARY
  5
3B9
330
2C
100
AcDbDictionary
280
     1
281
     1
  3
ACAD_XREC_ROUNDTRIP
360
3BA
  0
DICTIONARY
  5
3BB
330
2D
100
AcDbDictionary
280
     1
281
     1
  3
ACAD_XREC_ROUNDTRIP
360
3BC
  0
DICTIONARY
  5
3BD
330
2E
100
AcDbDictionary
280
     1
281
     1
  3
ACAD_XREC_ROUNDTRIP
360
3BE
  0
DICTIONARY
  5
3C3
330
31
100
AcDbDictionary
280
     1
281
     1
  3
ACAD_XREC_ROUNDTRIP
360
3C4
  0
DICTIONARY
  5
3D7
330
3B
100
AcDbDictionary
280
     1
281
     1
  3
ACAD_XREC_ROUNDTRIP
360
3D8
  0
DICTIONARY
  5
3D1
330
38
100
AcDbDictionary
280
     1
281
     1
  3
ACAD_XREC_ROUNDTRIP
360
3D2
  0
DICTIONARY
  5
3D9
330
3C
100
AcDbDictionary
280
     1
281
     1
  3
ACAD_XREC_ROUNDTRIP
360
3DA
  0
DICTIONARY
  5
3C7
330
33
100
AcDbDictionary
280
     1
281
     1
  3
ACAD_XREC_ROUNDTRIP
360
3C8
  0
DICTIONARY
  5
3E5
330
42
100
AcDbDictionary
280
     1
281
     1
  3
ACAD_XREC_ROUNDTRIP
360
3E6
  0
DICTIONARY
  5
3E3
330
41
100
AcDbDictionary
280
     1
281
     1
  3
ACAD_XREC_ROUNDTRIP
360
3E4
  0
DICTIONARY
  5
3DD
330
3E
100
AcDbDictionary
280
     1
281
     1
  3
ACAD_XREC_ROUNDTRIP
360
3DE
  0
DICTIONARY
  5
3DF
330
3F
100
AcDbDictionary
280
     1
281
     1
  3
ACAD_XREC_ROUNDTRIP
360
3E0
  0
DICTIONARY
  5
3CF
330
37
100
AcDbDictionary
280
     1
281
     1
  3
ACAD_XREC_ROUNDTRIP
360
3D0
  0
DICTIONARY
  5
3C1
330
30
100
AcDbDictionary
280
     1
281
     1
  3
ACAD_XREC_ROUNDTRIP
360
3C2
  0
DICTIONARY
  5
3E1
330
40
100
AcDbDictionary
280
     1
281
     1
  3
ACAD_XREC_ROUNDTRIP
360
3E2
  0
CELLSTYLEMAP
  5
3E8
102
{ACAD_REACTORS
330
3E7
102
}
330
3E7
100
AcDbCellStyleMap
 90
        3
300
CELLSTYLE
  1
TABLEFORMAT_BEGIN
 90
        5
170
     1
 91
        0
 92
    32768
 62
   257
 93
        1
300
CONTENTFORMAT
  1
CONTENTFORMAT_BEGIN
 90
        0
 91
        0
 92
        4
 93
        0
300

 40
0.0
140
1.0
 94
        5
 62
     0
340
11
144
6.0
309
CONTENTFORMAT_END
171
     1
301
MARGIN
  1
CELLMARGIN_BEGIN
 40
1.5
 40
1.5
 40
1.5
 40
1.5
 40
1.5
 40
1.5
309
CELLMARGIN_END
 94
        6
 95
        1
302
GRIDFORMAT
  1
GRIDFORMAT_BEGIN
 90
        0
 91
        1
 62
     0
 92
       -2
340
14
 93
        0
 40
0.045
309
GRIDFORMAT_END
 95
        2
302
GRIDFORMAT
  1
GRIDFORMAT_BEGIN
 90
        0
 91
        1
 62
     0
 92
       -2
340
14
 93
        0
 40
0.045
309
GRIDFORMAT_END
 95
        4
302
GRIDFORMAT
  1
GRIDFORMAT_BEGIN
 90
        0
 91
        1
 62
     0
 92
       -2
340
14
 93
        0
 40
0.045
309
GRIDFORMAT_END
 95
        8
302
GRIDFORMAT
  1
GRIDFORMAT_BEGIN
 90
        0
 91
        1
 62
     0
 92
       -2
340
14
 93
        0
 40
0.045
309
GRIDFORMAT_END
 95
       16
302
GRIDFORMAT
  1
GRIDFORMAT_BEGIN
 90
        0
 91
        1
 62
     0
 92
       -2
340
14
 93
        0
 40
0.045
309
GRIDFORMAT_END
 95
       32
302
GRIDFORMAT
  1
GRIDFORMAT_BEGIN
 90
        0
 91
        1
 62
     0
 92
       -2
340
14
 93
        0
 40
0.045
309
GRIDFORMAT_END
309
TABLEFORMAT_END
  1
CELLSTYLE_BEGIN
 90
        1
 91
        1
300
_TITLE
309
CELLSTYLE_END
300
CELLSTYLE
  1
TABLEFORMAT_BEGIN
 90
        5
170
     1
 91
        0
 92
        0
 62
   257
 93
        1
300
CONTENTFORMAT
  1
CONTENTFORMAT_BEGIN
 90
        0
 91
        0
 92
        4
 93
        0
300

 40
0.0
140
1.0
 94
        5
 62
     0
340
11
144
4.5
309
CONTENTFORMAT_END
171
     1
301
MARGIN
  1
CELLMARGIN_BEGIN
 40
1.5
 40
1.5
 40
1.5
 40
1.5
 40
1.5
 40
1.5
309
CELLMARGIN_END
 94
        6
 95
        1
302
GRIDFORMAT
  1
GRIDFORMAT_BEGIN
 90
        0
 91
        1
 62
     0
 92
       -2
340
14
 93
        0
 40
0.045
309
GRIDFORMAT_END
 95
        2
302
GRIDFORMAT
  1
GRIDFORMAT_BEGIN
 90
        0
 91
        1
 62
     0
 92
       -2
340
14
 93
        0
 40
0.045
309
GRIDFORMAT_END
 95
        4
302
GRIDFORMAT
  1
GRIDFORMAT_BEGIN
 90
        0
 91
        1
 62
     0
 92
       -2
340
14
 93
        0
 40
0.045
309
GRIDFORMAT_END
 95
        8
302
GRIDFORMAT
  1
GRIDFORMAT_BEGIN
 90
        0
 91
        1
 62
     0
 92
       -2
340
14
 93
        0
 40
0.045
309
GRIDFORMAT_END
 95
       16
302
GRIDFORMAT
  1
GRIDFORMAT_BEGIN
 90
        0
 91
        1
 62
     0
 92
       -2
340
14
 93
        0
 40
0.045
309
GRIDFORMAT_END
 95
       32
302
GRIDFORMAT
  1
GRIDFORMAT_BEGIN
 90
        0
 91
        1
 62
     0
 92
       -2
340
14
 93
        0
 40
0.045
309
GRIDFORMAT_END
309
TABLEFORMAT_END
  1
CELLSTYLE_BEGIN
 90
        2
 91
        1
300
_HEADER
309
CELLSTYLE_END
300
CELLSTYLE
  1
TABLEFORMAT_BEGIN
 90
        5
170
     1
 91
        0
 92
        0
 62
   257
 93
        1
300
CONTENTFORMAT
  1
CONTENTFORMAT_BEGIN
 90
        0
 91
        0
 92
        4
 93
        0
300

 40
0.0
140
1.0
 94
        2
 62
     0
340
11
144
4.5
309
CONTENTFORMAT_END
171
     1
301
MARGIN
  1
CELLMARGIN_BEGIN
 40
1.5
 40
1.5
 40
1.5
 40
1.5
 40
1.5
 40
1.5
309
CELLMARGIN_END
 94
        6
 95
        1
302
GRIDFORMAT
  1
GRIDFORMAT_BEGIN
 90
        0
 91
        1
 62
     0
 92
       -2
340
14
 93
        0
 40
0.045
309
GRIDFORMAT_END
 95
        2
302
GRIDFORMAT
  1
GRIDFORMAT_BEGIN
 90
        0
 91
        1
 62
     0
 92
       -2
340
14
 93
        0
 40
0.045
309
GRIDFORMAT_END
 95
        4
302
GRIDFORMAT
  1
GRIDFORMAT_BEGIN
 90
        0
 91
        1
 62
     0
 92
       -2
340
14
 93
        0
 40
0.045
309
GRIDFORMAT_END
 95
        8
302
GRIDFORMAT
  1
GRIDFORMAT_BEGIN
 90
        0
 91
        1
 62
     0
 92
       -2
340
14
 93
        0
 40
0.045
309
GRIDFORMAT_END
 95
       16
302
GRIDFORMAT
  1
GRIDFORMAT_BEGIN
 90
        0
 91
        1
 62
     0
 92
       -2
340
14
 93
        0
 40
0.045
309
GRIDFORMAT_END
 95
       32
302
GRIDFORMAT
  1
GRIDFORMAT_BEGIN
 90
        0
 91
        1
 62
     0
 92
       -2
340
14
 93
        0
 40
0.045
309
GRIDFORMAT_END
309
TABLEFORMAT_END
  1
CELLSTYLE_BEGIN
 90
        3
 91
        2
300
_DATA
309
CELLSTYLE_END
  0
XRECORD
  5
3C0
102
{ACAD_REACTORS
330
3BF
102
}
330
3BF
100
AcDbXrecord
280
     1
102
RTVSPost2010Prop28
280
     1
102
RTVSPost2010PropOp28
 70
     1
102
RTVSPost2010Prop29
280
     1
102
RTVSPost2010PropOp29
 70
     1
102
RTVSPost2010Prop30
280
     0
102
RTVSPost2010PropOp30
 70
     1
102
RTVSPost2010Prop31
280
     0
102
RTVSPost2010PropOp31
 70
     1
102
RTVSPost2010Prop32
280
     0
102
RTVSPost2010PropOp32
 70
     1
102
RTVSPost2010Prop33
280
     0
102
RTVSPost2010PropOp33
 70
     1
102
RTVSPost2010Prop34
280
     0
102
RTVSPost2010PropOp34
 70
     1
102
RTVSPost2010Prop35
280
     0
102
RTVSPost2010PropOp35
 70
     1
102
RTVSPost2010Prop36
280
     0
102
RTVSPost2010PropOp36
 70
     1
102
RTVSPost2010Prop37
 90
       50
102
RTVSPost2010PropOp37
 70
     1
102
RTVSPost2010Prop38
140
0.0
102
RTVSPost2010PropOp38
 70
     1
102
RTVSPost2010Prop39
140
1.0
102
RTVSPost2010PropOp39
 70
     1
102
RTVSPost2010Prop40
 90
        0
102
RTVSPost2010PropOp40
 70
     1
102
RTVSPost2010Prop41ColorIndex
 90
       18
102
RTVSPost2010Prop41ColorRGB
 90
        0
102
RTVSPost2010PropOp41
 70
     1
102
RTVSPost2010Prop42
 90
       50
102
RTVSPost2010PropOp42
 70
     1
102
RTVSPost2010Prop43
 90
        3
102
RTVSPost2010PropOp43
 70
     1
102
RTVSPost2010Prop44ColorIndex
 90
        5
102
RTVSPost2010Prop44ColorRGB
 90
      255
102
RTVSPost2010PropOp44
 70
     1
102
RTVSPost2010Prop45
280
     0
102
RTVSPost2010PropOp45
 70
     1
102
RTVSPost2010Prop46
 90
       50
102
RTVSPost2010PropOp46
 70
     1
102
RTVSPost2010Prop47
 90
       50
102
RTVSPost2010PropOp47
 70
     1
102
RTVSPost2010Prop48
 90
       50
102
RTVSPost2010PropOp48
 70
     1
102
RTVSPost2010Prop49
280
     0
102
RTVSPost2010PropOp49
 70
     1
102
RTVSPost2010Prop50
 90
       50
102
RTVSPost2010PropOp50
 70
     1
102
RTVSPost2010Prop51ColorIndex
 90
      256
102
RTVSPost2010Prop51ColorRGB
 90
-16777216
102
RTVSPost2010PropOp51
 70
     0
102
RTVSPost2010Prop52
140
1.0
102
RTVSPost2010PropOp52
 70
     0
102
RTVSPost2010Prop53
 90
        2
102
RTVSPost2010PropOp53
 70
     1
102
RTVSPost2010Prop54
  1
strokes_ogs.tif
102
RTVSPost2010PropOp54
 70
     1
102
RTVSPost2010Prop55
280
     0
102
RTVSPost2010PropOp55
 70
     1
102
RTVSPost2010Prop56
140
1.0
102
RTVSPost2010PropOp56
 70
     1
102
RTVSPost2010Prop57
140
1.0
102
RTVSPost2010PropOp57
 70
     1
  0
XRECORD
  5
3C6
102
{ACAD_REACTORS
330
3C5
102
}
330
3C5
100
AcDbXrecord
280
     1
102
RTVSPost2010Prop28
280
     0
102
RTVSPost2010PropOp28
 70
     1
102
RTVSPost2010Prop29
280
     1
102
RTVSPost2010PropOp29
 70
     1
102
RTVSPost2010Prop30
280
     1
102
RTVSPost2010PropOp30
 70
     1
102
RTVSPost2010Prop31
280
     0
102
RTVSPost2010PropOp31
 70
     1
102
RTVSPost2010Prop32
280
     0
102
RTVSPost2010PropOp32
 70
     1
102
RTVSPost2010Prop33
280
     0
102
RTVSPost2010PropOp33
 70
     1
102
RTVSPost2010Prop34
280
     0
102
RTVSPost2010PropOp34
 70
     1
102
RTVSPost2010Prop35
280
     0
102
RTVSPost2010PropOp35
 70
     1
102
RTVSPost2010Prop36
280
     0
102
RTVSPost2010PropOp36
 70
     1
102
RTVSPost2010Prop37
 90
       50
102
RTVSPost2010PropOp37
 70
     1
102
RTVSPost2010Prop38
140
0.0
102
RTVSPost2010PropOp38
 70
     1
102
RTVSPost2010Prop39
140
1.0
102
RTVSPost2010PropOp39
 70
     1
102
RTVSPost2010Prop40
 90
        0
102
RTVSPost2010PropOp40
 70
     1
102
RTVSPost2010Prop41ColorIndex
 90
       18
102
RTVSPost2010Prop41ColorRGB
 90
        0
102
RTVSPost2010PropOp41
 70
     1
102
RTVSPost2010Prop42
 90
       50
102
RTVSPost2010PropOp42
 70
     1
102
RTVSPost2010Prop43
 90
        3
102
RTVSPost2010PropOp43
 70
     1
102
RTVSPost2010Prop44ColorIndex
 90
        5
102
RTVSPost2010Prop44ColorRGB
 90
      255
102
RTVSPost2010PropOp44
 70
     1
102
RTVSPost2010Prop45
280
     0
102
RTVSPost2010PropOp45
 70
     1
102
RTVSPost2010Prop46
 90
       50
102
RTVSPost2010PropOp46
 70
     1
102
RTVSPost2010Prop47
 90
       50
102
RTVSPost2010PropOp47
 70
     1
102
RTVSPost2010Prop48
 90
       50
102
RTVSPost2010PropOp48
 70
     1
102
RTVSPost2010Prop49
280
     0
102
RTVSPost2010PropOp49
 70
     1
102
RTVSPost2010Prop50
 90
       50
102
RTVSPost2010PropOp50
 70
     1
102
RTVSPost2010Prop51ColorIndex
 90
      256
102
RTVSPost2010Prop51ColorRGB
 90
-16777216
102
RTVSPost2010PropOp51
 70
     0
102
RTVSPost2010Prop52
140
1.0
102
RTVSPost2010PropOp52
 70
     0
102
RTVSPost2010Prop53
 90
        2
102
RTVSPost2010PropOp53
 70
     1
102
RTVSPost2010Prop54
  1
strokes_ogs.tif
102
RTVSPost2010PropOp54
 70
     1
102
RTVSPost2010Prop55
280
     0
102
RTVSPost2010PropOp55
 70
     1
102
RTVSPost2010Prop56
140
1.0
102
RTVSPost2010PropOp56
 70
     1
102
RTVSPost2010Prop57
140
1.0
102
RTVSPost2010PropOp57
 70
     1
  0
XRECORD
  5
3CE
102
{ACAD_REACTORS
330
3CD
102
}
330
3CD
100
AcDbXrecord
280
     1
102
RTVSPost2010Prop28
280
     0
102
RTVSPost2010PropOp28
 70
     1
102
RTVSPost2010Prop29
280
     1
102
RTVSPost2010PropOp29
 70
     1
102
RTVSPost2010Prop30
280
     1
102
RTVSPost2010PropOp30
 70
     1
102
RTVSPost2010Prop31
280
     0
102
RTVSPost2010PropOp31
 70
     1
102
RTVSPost2010Prop32
280
     0
102
RTVSPost2010PropOp32
 70
     1
102
RTVSPost2010Prop33
280
     0
102
RTVSPost2010PropOp33
 70
     1
102
RTVSPost2010Prop34
280
     0
102
RTVSPost2010PropOp34
 70
     1
102
RTVSPost2010Prop35
280
     0
102
RTVSPost2010PropOp35
 70
     1
102
RTVSPost2010Prop36
280
     0
102
RTVSPost2010PropOp36
 70
     1
102
RTVSPost2010Prop37
 90
       50
102
RTVSPost2010PropOp37
 70
     1
102
RTVSPost2010Prop38
140
0.0
102
RTVSPost2010PropOp38
 70
     1
102
RTVSPost2010Prop39
140
1.0
102
RTVSPost2010PropOp39
 70
     1
102
RTVSPost2010Prop40
 90
        0
102
RTVSPost2010PropOp40
 70
     1
102
RTVSPost2010Prop41ColorIndex
 90
       18
102
RTVSPost2010Prop41ColorRGB
 90
        0
102
RTVSPost2010PropOp41
 70
     1
102
RTVSPost2010Prop42
 90
       50
102
RTVSPost2010PropOp42
 70
     1
102
RTVSPost2010Prop43
 90
        3
102
RTVSPost2010PropOp43
 70
     1
102
RTVSPost2010Prop44ColorIndex
 90
        5
102
RTVSPost2010Prop44ColorRGB
 90
      255
102
RTVSPost2010PropOp44
 70
     1
102
RTVSPost2010Prop45
280
     0
102
RTVSPost2010PropOp45
 70
     1
102
RTVSPost2010Prop46
 90
       50
102
RTVSPost2010PropOp46
 70
     1
102
RTVSPost2010Prop47
 90
       50
102
RTVSPost2010PropOp47
 70
     1
102
RTVSPost2010Prop48
 90
       50
102
RTVSPost2010PropOp48
 70
     1
102
RTVSPost2010Prop49
280
     0
102
RTVSPost2010PropOp49
 70
     1
102
RTVSPost2010Prop50
 90
       50
102
RTVSPost2010PropOp50
 70
     1
102
RTVSPost2010Prop51ColorIndex
 90
      256
102
RTVSPost2010Prop51ColorRGB
 90
-16777216
102
RTVSPost2010PropOp51
 70
     0
102
RTVSPost2010Prop52
140
1.0
102
RTVSPost2010PropOp52
 70
     0
102
RTVSPost2010Prop53
 90
        2
102
RTVSPost2010PropOp53
 70
     1
102
RTVSPost2010Prop54
  1
strokes_ogs.tif
102
RTVSPost2010PropOp54
 70
     1
102
RTVSPost2010Prop55
280
     0
102
RTVSPost2010PropOp55
 70
     1
102
RTVSPost2010Prop56
140
1.0
102
RTVSPost2010PropOp56
 70
     1
102
RTVSPost2010Prop57
140
1.0
102
RTVSPost2010PropOp57
 70
     1
  0
XRECORD
  5
3D6
102
{ACAD_REACTORS
330
3D5
102
}
330
3D5
100
AcDbXrecord
280
     1
102
RTVSPost2010Prop28
280
     0
102
RTVSPost2010PropOp28
 70
     1
102
RTVSPost2010Prop29
280
     1
102
RTVSPost2010PropOp29
 70
     1
102
RTVSPost2010Prop30
280
     1
102
RTVSPost2010PropOp30
 70
     1
102
RTVSPost2010Prop31
280
     0
102
RTVSPost2010PropOp31
 70
     1
102
RTVSPost2010Prop32
280
     0
102
RTVSPost2010PropOp32
 70
     1
102
RTVSPost2010Prop33
280
     0
102
RTVSPost2010PropOp33
 70
     1
102
RTVSPost2010Prop34
280
     0
102
RTVSPost2010PropOp34
 70
     1
102
RTVSPost2010Prop35
280
     0
102
RTVSPost2010PropOp35
 70
     1
102
RTVSPost2010Prop36
280
     0
102
RTVSPost2010PropOp36
 70
     1
102
RTVSPost2010Prop37
 90
       50
102
RTVSPost2010PropOp37
 70
     1
102
RTVSPost2010Prop38
140
0.0
102
RTVSPost2010PropOp38
 70
     1
102
RTVSPost2010Prop39
140
1.0
102
RTVSPost2010PropOp39
 70
     1
102
RTVSPost2010Prop40
 90
        0
102
RTVSPost2010PropOp40
 70
     1
102
RTVSPost2010Prop41ColorIndex
 90
       18
102
RTVSPost2010Prop41ColorRGB
 90
        0
102
RTVSPost2010PropOp41
 70
     1
102
RTVSPost2010Prop42
 90
       50
102
RTVSPost2010PropOp42
 70
     1
102
RTVSPost2010Prop43
 90
        3
102
RTVSPost2010PropOp43
 70
     1
102
RTVSPost2010Prop44ColorIndex
 90
        5
102
RTVSPost2010Prop44ColorRGB
 90
      255
102
RTVSPost2010PropOp44
 70
     1
102
RTVSPost2010Prop45
280
     0
102
RTVSPost2010PropOp45
 70
     1
102
RTVSPost2010Prop46
 90
       50
102
RTVSPost2010PropOp46
 70
     1
102
RTVSPost2010Prop47
 90
       50
102
RTVSPost2010PropOp47
 70
     1
102
RTVSPost2010Prop48
 90
       50
102
RTVSPost2010PropOp48
 70
     1
102
RTVSPost2010Prop49
280
     0
102
RTVSPost2010PropOp49
 70
     1
102
RTVSPost2010Prop50
 90
       50
102
RTVSPost2010PropOp50
 70
     1
102
RTVSPost2010Prop51ColorIndex
 90
      256
102
RTVSPost2010Prop51ColorRGB
 90
-16777216
102
RTVSPost2010PropOp51
 70
     0
102
RTVSPost2010Prop52
140
1.0
102
RTVSPost2010PropOp52
 70
     0
102
RTVSPost2010Prop53
 90
        2
102
RTVSPost2010PropOp53
 70
     1
102
RTVSPost2010Prop54
  1
strokes_ogs.tif
102
RTVSPost2010PropOp54
 70
     1
102
RTVSPost2010Prop55
280
     0
102
RTVSPost2010PropOp55
 70
     1
102
RTVSPost2010Prop56
140
1.0
102
RTVSPost2010PropOp56
 70
     1
102
RTVSPost2010Prop57
140
1.0
102
RTVSPost2010PropOp57
 70
     1
  0
XRECORD
  5
3CA
102
{ACAD_REACTORS
330
3C9
102
}
330
3C9
100
AcDbXrecord
280
     1
102
RTVSPost2010Prop28
280
     0
102
RTVSPost2010PropOp28
 70
     1
102
RTVSPost2010Prop29
280
     1
102
RTVSPost2010PropOp29
 70
     1
102
RTVSPost2010Prop30
280
     1
102
RTVSPost2010PropOp30
 70
     1
102
RTVSPost2010Prop31
280
     0
102
RTVSPost2010PropOp31
 70
     1
102
RTVSPost2010Prop32
280
     0
102
RTVSPost2010PropOp32
 70
     1
102
RTVSPost2010Prop33
280
     0
102
RTVSPost2010PropOp33
 70
     1
102
RTVSPost2010Prop34
280
     0
102
RTVSPost2010PropOp34
 70
     1
102
RTVSPost2010Prop35
280
     0
102
RTVSPost2010PropOp35
 70
     1
102
RTVSPost2010Prop36
280
     0
102
RTVSPost2010PropOp36
 70
     1
102
RTVSPost2010Prop37
 90
       50
102
RTVSPost2010PropOp37
 70
     1
102
RTVSPost2010Prop38
140
0.0
102
RTVSPost2010PropOp38
 70
     1
102
RTVSPost2010Prop39
140
1.0
102
RTVSPost2010PropOp39
 70
     1
102
RTVSPost2010Prop40
 90
        0
102
RTVSPost2010PropOp40
 70
     1
102
RTVSPost2010Prop41ColorIndex
 90
       18
102
RTVSPost2010Prop41ColorRGB
 90
        0
102
RTVSPost2010PropOp41
 70
     1
102
RTVSPost2010Prop42
 90
       50
102
RTVSPost2010PropOp42
 70
     1
102
RTVSPost2010Prop43
 90
        3
102
RTVSPost2010PropOp43
 70
     1
102
RTVSPost2010Prop44ColorIndex
 90
        5
102
RTVSPost2010Prop44ColorRGB
 90
      255
102
RTVSPost2010PropOp44
 70
     1
102
RTVSPost2010Prop45
280
     0
102
RTVSPost2010PropOp45
 70
     1
102
RTVSPost2010Prop46
 90
       50
102
RTVSPost2010PropOp46
 70
     1
102
RTVSPost2010Prop47
 90
       50
102
RTVSPost2010PropOp47
 70
     1
102
RTVSPost2010Prop48
 90
       50
102
RTVSPost2010PropOp48
 70
     1
102
RTVSPost2010Prop49
280
     0
102
RTVSPost2010PropOp49
 70
     1
102
RTVSPost2010Prop50
 90
       50
102
RTVSPost2010PropOp50
 70
     1
102
RTVSPost2010Prop51ColorIndex
 90
      256
102
RTVSPost2010Prop51ColorRGB
 90
-16777216
102
RTVSPost2010PropOp51
 70
     0
102
RTVSPost2010Prop52
140
1.0
102
RTVSPost2010PropOp52
 70
     0
102
RTVSPost2010Prop53
 90
        2
102
RTVSPost2010PropOp53
 70
     1
102
RTVSPost2010Prop54
  1
strokes_ogs.tif
102
RTVSPost2010PropOp54
 70
     1
102
RTVSPost2010Prop55
280
     0
102
RTVSPost2010PropOp55
 70
     1
102
RTVSPost2010Prop56
140
1.0
102
RTVSPost2010PropOp56
 70
     1
102
RTVSPost2010Prop57
140
1.0
102
RTVSPost2010PropOp57
 70
     1
  0
XRECORD
  5
3CC
102
{ACAD_REACTORS
330
3CB
102
}
330
3CB
100
AcDbXrecord
280
     1
102
RTVSPost2010Prop28
280
     0
102
RTVSPost2010PropOp28
 70
     1
102
RTVSPost2010Prop29
280
     1
102
RTVSPost2010PropOp29
 70
     1
102
RTVSPost2010Prop30
280
     1
102
RTVSPost2010PropOp30
 70
     1
102
RTVSPost2010Prop31
280
     0
102
RTVSPost2010PropOp31
 70
     1
102
RTVSPost2010Prop32
280
     0
102
RTVSPost2010PropOp32
 70
     1
102
RTVSPost2010Prop33
280
     0
102
RTVSPost2010PropOp33
 70
     1
102
RTVSPost2010Prop34
280
     0
102
RTVSPost2010PropOp34
 70
     1
102
RTVSPost2010Prop35
280
     0
102
RTVSPost2010PropOp35
 70
     1
102
RTVSPost2010Prop36
280
     0
102
RTVSPost2010PropOp36
 70
     1
102
RTVSPost2010Prop37
 90
       50
102
RTVSPost2010PropOp37
 70
     1
102
RTVSPost2010Prop38
140
0.0
102
RTVSPost2010PropOp38
 70
     1
102
RTVSPost2010Prop39
140
1.0
102
RTVSPost2010PropOp39
 70
     1
102
RTVSPost2010Prop40
 90
        0
102
RTVSPost2010PropOp40
 70
     1
102
RTVSPost2010Prop41ColorIndex
 90
       18
102
RTVSPost2010Prop41ColorRGB
 90
        0
102
RTVSPost2010PropOp41
 70
     1
102
RTVSPost2010Prop42
 90
       50
102
RTVSPost2010PropOp42
 70
     1
102
RTVSPost2010Prop43
 90
        3
102
RTVSPost2010PropOp43
 70
     1
102
RTVSPost2010Prop44ColorIndex
 90
        5
102
RTVSPost2010Prop44ColorRGB
 90
      255
102
RTVSPost2010PropOp44
 70
     1
102
RTVSPost2010Prop45
280
     0
102
RTVSPost2010PropOp45
 70
     1
102
RTVSPost2010Prop46
 90
       50
102
RTVSPost2010PropOp46
 70
     1
102
RTVSPost2010Prop47
 90
       50
102
RTVSPost2010PropOp47
 70
     1
102
RTVSPost2010Prop48
 90
       50
102
RTVSPost2010PropOp48
 70
     1
102
RTVSPost2010Prop49
280
     0
102
RTVSPost2010PropOp49
 70
     1
102
RTVSPost2010Prop50
 90
       50
102
RTVSPost2010PropOp50
 70
     1
102
RTVSPost2010Prop51ColorIndex
 90
      256
102
RTVSPost2010Prop51ColorRGB
 90
-16777216
102
RTVSPost2010PropOp51
 70
     0
102
RTVSPost2010Prop52
140
1.0
102
RTVSPost2010PropOp52
 70
     0
102
RTVSPost2010Prop53
 90
        2
102
RTVSPost2010PropOp53
 70
     1
102
RTVSPost2010Prop54
  1
strokes_ogs.tif
102
RTVSPost2010PropOp54
 70
     1
102
RTVSPost2010Prop55
280
     0
102
RTVSPost2010PropOp55
 70
     1
102
RTVSPost2010Prop56
140
1.0
102
RTVSPost2010PropOp56
 70
     1
102
RTVSPost2010Prop57
140
1.0
102
RTVSPost2010PropOp57
 70
     1
  0
XRECORD
  5
3DC
102
{ACAD_REACTORS
330
3DB
102
}
330
3DB
100
AcDbXrecord
280
     1
102
RTVSPost2010Prop28
280
     0
102
RTVSPost2010PropOp28
 70
     0
102
RTVSPost2010Prop29
280
     1
102
RTVSPost2010PropOp29
 70
     0
102
RTVSPost2010Prop30
280
     1
102
RTVSPost2010PropOp30
 70
     0
102
RTVSPost2010Prop31
280
     0
102
RTVSPost2010PropOp31
 70
     0
102
RTVSPost2010Prop32
280
     0
102
RTVSPost2010PropOp32
 70
     0
102
RTVSPost2010Prop33
280
     0
102
RTVSPost2010PropOp33
 70
     0
102
RTVSPost2010Prop34
280
     0
102
RTVSPost2010PropOp34
 70
     0
102
RTVSPost2010Prop35
280
     0
102
RTVSPost2010PropOp35
 70
     0
102
RTVSPost2010Prop36
280
     0
102
RTVSPost2010PropOp36
 70
     0
102
RTVSPost2010Prop37
 90
       50
102
RTVSPost2010PropOp37
 70
     0
102
RTVSPost2010Prop38
140
0.0
102
RTVSPost2010PropOp38
 70
     0
102
RTVSPost2010Prop39
140
1.0
102
RTVSPost2010PropOp39
 70
     0
102
RTVSPost2010Prop40
 90
        0
102
RTVSPost2010PropOp40
 70
     0
102
RTVSPost2010Prop41ColorIndex
 90
       18
102
RTVSPost2010Prop41ColorRGB
 90
        0
102
RTVSPost2010PropOp41
 70
     0
102
RTVSPost2010Prop42
 90
       50
102
RTVSPost2010PropOp42
 70
     0
102
RTVSPost2010Prop43
 90
        3
102
RTVSPost2010PropOp43
 70
     0
102
RTVSPost2010Prop44ColorIndex
 90
        5
102
RTVSPost2010Prop44ColorRGB
 90
      255
102
RTVSPost2010PropOp44
 70
     0
102
RTVSPost2010Prop45
280
     0
102
RTVSPost2010PropOp45
 70
     0
102
RTVSPost2010Prop46
 90
       50
102
RTVSPost2010PropOp46
 70
     0
102
RTVSPost2010Prop47
 90
       50
102
RTVSPost2010PropOp47
 70
     0
102
RTVSPost2010Prop48
 90
       50
102
RTVSPost2010PropOp48
 70
     0
102
RTVSPost2010Prop49
280
     0
102
RTVSPost2010PropOp49
 70
     0
102
RTVSPost2010Prop50
 90
       50
102
RTVSPost2010PropOp50
 70
     0
102
RTVSPost2010Prop51ColorIndex
 90
      256
102
RTVSPost2010Prop51ColorRGB
 90
-16777216
102
RTVSPost2010PropOp51
 70
     0
102
RTVSPost2010Prop52
140
1.0
102
RTVSPost2010PropOp52
 70
     0
102
RTVSPost2010Prop53
 90
        2
102
RTVSPost2010PropOp53
 70
     0
102
RTVSPost2010Prop54
  1
strokes_ogs.tif
102
RTVSPost2010PropOp54
 70
     0
102
RTVSPost2010Prop55
280
     0
102
RTVSPost2010PropOp55
 70
     0
102
RTVSPost2010Prop56
140
1.0
102
RTVSPost2010PropOp56
 70
     0
102
RTVSPost2010Prop57
140
1.0
102
RTVSPost2010PropOp57
 70
     0
  0
XRECORD
  5
3D4
102
{ACAD_REACTORS
330
3D3
102
}
330
3D3
100
AcDbXrecord
280
     1
102
RTVSPost2010Prop28
280
     0
102
RTVSPost2010PropOp28
 70
     1
102
RTVSPost2010Prop29
280
     1
102
RTVSPost2010PropOp29
 70
     1
102
RTVSPost2010Prop30
280
     1
102
RTVSPost2010PropOp30
 70
     1
102
RTVSPost2010Prop31
280
     0
102
RTVSPost2010PropOp31
 70
     1
102
RTVSPost2010Prop32
280
     0
102
RTVSPost2010PropOp32
 70
     1
102
RTVSPost2010Prop33
280
     0
102
RTVSPost2010PropOp33
 70
     1
102
RTVSPost2010Prop34
280
     0
102
RTVSPost2010PropOp34
 70
     1
102
RTVSPost2010Prop35
280
     0
102
RTVSPost2010PropOp35
 70
     1
102
RTVSPost2010Prop36
280
     0
102
RTVSPost2010PropOp36
 70
     1
102
RTVSPost2010Prop37
 90
       50
102
RTVSPost2010PropOp37
 70
     1
102
RTVSPost2010Prop38
140
0.0
102
RTVSPost2010PropOp38
 70
     1
102
RTVSPost2010Prop39
140
1.0
102
RTVSPost2010PropOp39
 70
     1
102
RTVSPost2010Prop40
 90
        0
102
RTVSPost2010PropOp40
 70
     1
102
RTVSPost2010Prop41ColorIndex
 90
       18
102
RTVSPost2010Prop41ColorRGB
 90
        0
102
RTVSPost2010PropOp41
 70
     1
102
RTVSPost2010Prop42
 90
       50
102
RTVSPost2010PropOp42
 70
     1
102
RTVSPost2010Prop43
 90
        3
102
RTVSPost2010PropOp43
 70
     1
102
RTVSPost2010Prop44ColorIndex
 90
        5
102
RTVSPost2010Prop44ColorRGB
 90
      255
102
RTVSPost2010PropOp44
 70
     1
102
RTVSPost2010Prop45
280
     0
102
RTVSPost2010PropOp45
 70
     1
102
RTVSPost2010Prop46
 90
       50
102
RTVSPost2010PropOp46
 70
     1
102
RTVSPost2010Prop47
 90
       50
102
RTVSPost2010PropOp47
 70
     1
102
RTVSPost2010Prop48
 90
       50
102
RTVSPost2010PropOp48
 70
     1
102
RTVSPost2010Prop49
280
     0
102
RTVSPost2010PropOp49
 70
     1
102
RTVSPost2010Prop50
 90
       50
102
RTVSPost2010PropOp50
 70
     1
102
RTVSPost2010Prop51ColorIndex
 90
      256
102
RTVSPost2010Prop51ColorRGB
 90
-16777216
102
RTVSPost2010PropOp51
 70
     0
102
RTVSPost2010Prop52
140
1.0
102
RTVSPost2010PropOp52
 70
     0
102
RTVSPost2010Prop53
 90
        2
102
RTVSPost2010PropOp53
 70
     1
102
RTVSPost2010Prop54
  1
strokes_ogs.tif
102
RTVSPost2010PropOp54
 70
     1
102
RTVSPost2010Prop55
280
     0
102
RTVSPost2010PropOp55
 70
     1
102
RTVSPost2010Prop56
140
1.0
102
RTVSPost2010PropOp56
 70
     1
102
RTVSPost2010Prop57
140
1.0
102
RTVSPost2010PropOp57
 70
     1
  0
XRECORD
  5
3B8
102
{ACAD_REACTORS
330
3B7
102
}
330
3B7
100
AcDbXrecord
280
     1
102
RTVSPost2010Prop28
280
     0
102
RTVSPost2010PropOp28
 70
     1
102
RTVSPost2010Prop29
280
     1
102
RTVSPost2010PropOp29
 70
     1
102
RTVSPost2010Prop30
280
     1
102
RTVSPost2010PropOp30
 70
     1
102
RTVSPost2010Prop31
280
     0
102
RTVSPost2010PropOp31
 70
     1
102
RTVSPost2010Prop32
280
     0
102
RTVSPost2010PropOp32
 70
     1
102
RTVSPost2010Prop33
280
     0
102
RTVSPost2010PropOp33
 70
     1
102
RTVSPost2010Prop34
280
     0
102
RTVSPost2010PropOp34
 70
     1
102
RTVSPost2010Prop35
280
     0
102
RTVSPost2010PropOp35
 70
     1
102
RTVSPost2010Prop36
280
     0
102
RTVSPost2010PropOp36
 70
     1
102
RTVSPost2010Prop37
 90
       50
102
RTVSPost2010PropOp37
 70
     1
102
RTVSPost2010Prop38
140
0.0
102
RTVSPost2010PropOp38
 70
     1
102
RTVSPost2010Prop39
140
1.0
102
RTVSPost2010PropOp39
 70
     1
102
RTVSPost2010Prop40
 90
        0
102
RTVSPost2010PropOp40
 70
     1
102
RTVSPost2010Prop41ColorIndex
 90
       18
102
RTVSPost2010Prop41ColorRGB
 90
        0
102
RTVSPost2010PropOp41
 70
     1
102
RTVSPost2010Prop42
 90
       50
102
RTVSPost2010PropOp42
 70
     1
102
RTVSPost2010Prop43
 90
        3
102
RTVSPost2010PropOp43
 70
     1
102
RTVSPost2010Prop44ColorIndex
 90
        5
102
RTVSPost2010Prop44ColorRGB
 90
      255
102
RTVSPost2010PropOp44
 70
     1
102
RTVSPost2010Prop45
280
     0
102
RTVSPost2010PropOp45
 70
     1
102
RTVSPost2010Prop46
 90
       50
102
RTVSPost2010PropOp46
 70
     1
102
RTVSPost2010Prop47
 90
       50
102
RTVSPost2010PropOp47
 70
     1
102
RTVSPost2010Prop48
 90
       50
102
RTVSPost2010PropOp48
 70
     1
102
RTVSPost2010Prop49
280
     0
102
RTVSPost2010PropOp49
 70
     1
102
RTVSPost2010Prop50
 90
       50
102
RTVSPost2010PropOp50
 70
     1
102
RTVSPost2010Prop51ColorIndex
 90
      256
102
RTVSPost2010Prop51ColorRGB
 90
-16777216
102
RTVSPost2010PropOp51
 70
     0
102
RTVSPost2010Prop52
140
1.0
102
RTVSPost2010PropOp52
 70
     0
102
RTVSPost2010Prop53
 90
        2
102
RTVSPost2010PropOp53
 70
     1
102
RTVSPost2010Prop54
  1
strokes_ogs.tif
102
RTVSPost2010PropOp54
 70
     1
102
RTVSPost2010Prop55
280
     0
102
RTVSPost2010PropOp55
 70
     1
102
RTVSPost2010Prop56
140
1.0
102
RTVSPost2010PropOp56
 70
     1
102
RTVSPost2010Prop57
140
1.0
102
RTVSPost2010PropOp57
 70
     1
  0
XRECORD
  5
3BA
102
{ACAD_REACTORS
330
3B9
102
}
330
3B9
100
AcDbXrecord
280
     1
102
RTVSPost2010Prop28
280
     0
102
RTVSPost2010PropOp28
 70
     1
102
RTVSPost2010Prop29
280
     1
102
RTVSPost2010PropOp29
 70
     1
102
RTVSPost2010Prop30
280
     1
102
RTVSPost2010PropOp30
 70
     1
102
RTVSPost2010Prop31
280
     0
102
RTVSPost2010PropOp31
 70
     1
102
RTVSPost2010Prop32
280
     0
102
RTVSPost2010PropOp32
 70
     1
102
RTVSPost2010Prop33
280
     0
102
RTVSPost2010PropOp33
 70
     1
102
RTVSPost2010Prop34
280
     0
102
RTVSPost2010PropOp34
 70
     1
102
RTVSPost2010Prop35
280
     0
102
RTVSPost2010PropOp35
 70
     1
102
RTVSPost2010Prop36
280
     0
102
RTVSPost2010PropOp36
 70
     1
102
RTVSPost2010Prop37
 90
       50
102
RTVSPost2010PropOp37
 70
     1
102
RTVSPost2010Prop38
140
0.0
102
RTVSPost2010PropOp38
 70
     1
102
RTVSPost2010Prop39
140
1.0
102
RTVSPost2010PropOp39
 70
     1
102
RTVSPost2010Prop40
 90
        0
102
RTVSPost2010PropOp40
 70
     1
102
RTVSPost2010Prop41ColorIndex
 90
       18
102
RTVSPost2010Prop41ColorRGB
 90
        0
102
RTVSPost2010PropOp41
 70
     1
102
RTVSPost2010Prop42
 90
       50
102
RTVSPost2010PropOp42
 70
     1
102
RTVSPost2010Prop43
 90
        3
102
RTVSPost2010PropOp43
 70
     1
102
RTVSPost2010Prop44ColorIndex
 90
        5
102
RTVSPost2010Prop44ColorRGB
 90
      255
102
RTVSPost2010PropOp44
 70
     1
102
RTVSPost2010Prop45
280
     0
102
RTVSPost2010PropOp45
 70
     1
102
RTVSPost2010Prop46
 90
       50
102
RTVSPost2010PropOp46
 70
     1
102
RTVSPost2010Prop47
 90
       50
102
RTVSPost2010PropOp47
 70
     1
102
RTVSPost2010Prop48
 90
       50
102
RTVSPost2010PropOp48
 70
     1
102
RTVSPost2010Prop49
280
     0
102
RTVSPost2010PropOp49
 70
     1
102
RTVSPost2010Prop50
 90
       50
102
RTVSPost2010PropOp50
 70
     1
102
RTVSPost2010Prop51ColorIndex
 90
      256
102
RTVSPost2010Prop51ColorRGB
 90
-16777216
102
RTVSPost2010PropOp51
 70
     0
102
RTVSPost2010Prop52
140
1.0
102
RTVSPost2010PropOp52
 70
     0
102
RTVSPost2010Prop53
 90
        2
102
RTVSPost2010PropOp53
 70
     1
102
RTVSPost2010Prop54
  1
strokes_ogs.tif
102
RTVSPost2010PropOp54
 70
     1
102
RTVSPost2010Prop55
280
     0
102
RTVSPost2010PropOp55
 70
     1
102
RTVSPost2010Prop56
140
1.0
102
RTVSPost2010PropOp56
 70
     1
102
RTVSPost2010Prop57
140
1.0
102
RTVSPost2010PropOp57
 70
     1
  0
XRECORD
  5
3BC
102
{ACAD_REACTORS
330
3BB
102
}
330
3BB
100
AcDbXrecord
280
     1
102
RTVSPost2010Prop28
280
     0
102
RTVSPost2010PropOp28
 70
     1
102
RTVSPost2010Prop29
280
     1
102
RTVSPost2010PropOp29
 70
     1
102
RTVSPost2010Prop30
280
     1
102
RTVSPost2010PropOp30
 70
     1
102
RTVSPost2010Prop31
280
     0
102
RTVSPost2010PropOp31
 70
     1
102
RTVSPost2010Prop32
280
     0
102
RTVSPost2010PropOp32
 70
     1
102
RTVSPost2010Prop33
280
     0
102
RTVSPost2010PropOp33
 70
     1
102
RTVSPost2010Prop34
280
     0
102
RTVSPost2010PropOp34
 70
     1
102
RTVSPost2010Prop35
280
     0
102
RTVSPost2010PropOp35
 70
     1
102
RTVSPost2010Prop36
280
     0
102
RTVSPost2010PropOp36
 70
     1
102
RTVSPost2010Prop37
 90
       50
102
RTVSPost2010PropOp37
 70
     1
102
RTVSPost2010Prop38
140
0.0
102
RTVSPost2010PropOp38
 70
     1
102
RTVSPost2010Prop39
140
1.0
102
RTVSPost2010PropOp39
 70
     1
102
RTVSPost2010Prop40
 90
        0
102
RTVSPost2010PropOp40
 70
     1
102
RTVSPost2010Prop41ColorIndex
 90
       18
102
RTVSPost2010Prop41ColorRGB
 90
        0
102
RTVSPost2010PropOp41
 70
     1
102
RTVSPost2010Prop42
 90
       50
102
RTVSPost2010PropOp42
 70
     1
102
RTVSPost2010Prop43
 90
        3
102
RTVSPost2010PropOp43
 70
     1
102
RTVSPost2010Prop44ColorIndex
 90
        5
102
RTVSPost2010Prop44ColorRGB
 90
      255
102
RTVSPost2010PropOp44
 70
     1
102
RTVSPost2010Prop45
280
     0
102
RTVSPost2010PropOp45
 70
     1
102
RTVSPost2010Prop46
 90
       50
102
RTVSPost2010PropOp46
 70
     1
102
RTVSPost2010Prop47
 90
       50
102
RTVSPost2010PropOp47
 70
     1
102
RTVSPost2010Prop48
 90
       50
102
RTVSPost2010PropOp48
 70
     1
102
RTVSPost2010Prop49
280
     0
102
RTVSPost2010PropOp49
 70
     1
102
RTVSPost2010Prop50
 90
       50
102
RTVSPost2010PropOp50
 70
     1
102
RTVSPost2010Prop51ColorIndex
 90
      256
102
RTVSPost2010Prop51ColorRGB
 90
-16777216
102
RTVSPost2010PropOp51
 70
     0
102
RTVSPost2010Prop52
140
1.0
102
RTVSPost2010PropOp52
 70
     0
102
RTVSPost2010Prop53
 90
        2
102
RTVSPost2010PropOp53
 70
     1
102
RTVSPost2010Prop54
  1
strokes_ogs.tif
102
RTVSPost2010PropOp54
 70
     1
102
RTVSPost2010Prop55
280
     0
102
RTVSPost2010PropOp55
 70
     1
102
RTVSPost2010Prop56
140
1.0
102
RTVSPost2010PropOp56
 70
     1
102
RTVSPost2010Prop57
140
1.0
102
RTVSPost2010PropOp57
 70
     1
  0
XRECORD
  5
3BE
102
{ACAD_REACTORS
330
3BD
102
}
330
3BD
100
AcDbXrecord
280
     1
102
RTVSPost2010Prop28
280
     0
102
RTVSPost2010PropOp28
 70
     1
102
RTVSPost2010Prop29
280
     1
102
RTVSPost2010PropOp29
 70
     1
102
RTVSPost2010Prop30
280
     1
102
RTVSPost2010PropOp30
 70
     1
102
RTVSPost2010Prop31
280
     0
102
RTVSPost2010PropOp31
 70
     1
102
RTVSPost2010Prop32
280
     0
102
RTVSPost2010PropOp32
 70
     1
102
RTVSPost2010Prop33
280
     0
102
RTVSPost2010PropOp33
 70
     1
102
RTVSPost2010Prop34
280
     0
102
RTVSPost2010PropOp34
 70
     1
102
RTVSPost2010Prop35
280
     0
102
RTVSPost2010PropOp35
 70
     1
102
RTVSPost2010Prop36
280
     0
102
RTVSPost2010PropOp36
 70
     1
102
RTVSPost2010Prop37
 90
       50
102
RTVSPost2010PropOp37
 70
     1
102
RTVSPost2010Prop38
140
0.0
102
RTVSPost2010PropOp38
 70
     1
102
RTVSPost2010Prop39
140
1.0
102
RTVSPost2010PropOp39
 70
     1
102
RTVSPost2010Prop40
 90
        0
102
RTVSPost2010PropOp40
 70
     1
102
RTVSPost2010Prop41ColorIndex
 90
       18
102
RTVSPost2010Prop41ColorRGB
 90
        0
102
RTVSPost2010PropOp41
 70
     1
102
RTVSPost2010Prop42
 90
       50
102
RTVSPost2010PropOp42
 70
     1
102
RTVSPost2010Prop43
 90
        3
102
RTVSPost2010PropOp43
 70
     1
102
RTVSPost2010Prop44ColorIndex
 90
        5
102
RTVSPost2010Prop44ColorRGB
 90
      255
102
RTVSPost2010PropOp44
 70
     1
102
RTVSPost2010Prop45
280
     0
102
RTVSPost2010PropOp45
 70
     1
102
RTVSPost2010Prop46
 90
       50
102
RTVSPost2010PropOp46
 70
     1
102
RTVSPost2010Prop47
 90
       50
102
RTVSPost2010PropOp47
 70
     1
102
RTVSPost2010Prop48
 90
       50
102
RTVSPost2010PropOp48
 70
     1
102
RTVSPost2010Prop49
280
     0
102
RTVSPost2010PropOp49
 70
     1
102
RTVSPost2010Prop50
 90
       50
102
RTVSPost2010PropOp50
 70
     1
102
RTVSPost2010Prop51ColorIndex
 90
      256
102
RTVSPost2010Prop51ColorRGB
 90
-16777216
102
RTVSPost2010PropOp51
 70
     0
102
RTVSPost2010Prop52
140
1.0
102
RTVSPost2010PropOp52
 70
     0
102
RTVSPost2010Prop53
 90
        2
102
RTVSPost2010PropOp53
 70
     1
102
RTVSPost2010Prop54
  1
strokes_ogs.tif
102
RTVSPost2010PropOp54
 70
     1
102
RTVSPost2010Prop55
280
     0
102
RTVSPost2010PropOp55
 70
     1
102
RTVSPost2010Prop56
140
1.0
102
RTVSPost2010PropOp56
 70
     1
102
RTVSPost2010Prop57
140
1.0
102
RTVSPost2010PropOp57
 70
     1
  0
XRECORD
  5
3C4
102
{ACAD_REACTORS
330
3C3
102
}
330
3C3
100
AcDbXrecord
280
     1
102
RTVSPost2010Prop28
280
     0
102
RTVSPost2010PropOp28
 70
     1
102
RTVSPost2010Prop29
280
     1
102
RTVSPost2010PropOp29
 70
     1
102
RTVSPost2010Prop30
280
     1
102
RTVSPost2010PropOp30
 70
     1
102
RTVSPost2010Prop31
280
     0
102
RTVSPost2010PropOp31
 70
     1
102
RTVSPost2010Prop32
280
     0
102
RTVSPost2010PropOp32
 70
     1
102
RTVSPost2010Prop33
280
     0
102
RTVSPost2010PropOp33
 70
     1
102
RTVSPost2010Prop34
280
     0
102
RTVSPost2010PropOp34
 70
     1
102
RTVSPost2010Prop35
280
     0
102
RTVSPost2010PropOp35
 70
     1
102
RTVSPost2010Prop36
280
     0
102
RTVSPost2010PropOp36
 70
     1
102
RTVSPost2010Prop37
 90
       50
102
RTVSPost2010PropOp37
 70
     1
102
RTVSPost2010Prop38
140
0.0
102
RTVSPost2010PropOp38
 70
     1
102
RTVSPost2010Prop39
140
1.0
102
RTVSPost2010PropOp39
 70
     1
102
RTVSPost2010Prop40
 90
        0
102
RTVSPost2010PropOp40
 70
     1
102
RTVSPost2010Prop41ColorIndex
 90
       18
102
RTVSPost2010Prop41ColorRGB
 90
        0
102
RTVSPost2010PropOp41
 70
     1
102
RTVSPost2010Prop42
 90
       50
102
RTVSPost2010PropOp42
 70
     1
102
RTVSPost2010Prop43
 90
        3
102
RTVSPost2010PropOp43
 70
     1
102
RTVSPost2010Prop44ColorIndex
 90
        5
102
RTVSPost2010Prop44ColorRGB
 90
      255
102
RTVSPost2010PropOp44
 70
     1
102
RTVSPost2010Prop45
280
     0
102
RTVSPost2010PropOp45
 70
     1
102
RTVSPost2010Prop46
 90
       50
102
RTVSPost2010PropOp46
 70
     1
102
RTVSPost2010Prop47
 90
       50
102
RTVSPost2010PropOp47
 70
     1
102
RTVSPost2010Prop48
 90
       50
102
RTVSPost2010PropOp48
 70
     1
102
RTVSPost2010Prop49
280
     0
102
RTVSPost2010PropOp49
 70
     1
102
RTVSPost2010Prop50
 90
       50
102
RTVSPost2010PropOp50
 70
     1
102
RTVSPost2010Prop51ColorIndex
 90
      256
102
RTVSPost2010Prop51ColorRGB
 90
-16777216
102
RTVSPost2010PropOp51
 70
     0
102
RTVSPost2010Prop52
140
1.0
102
RTVSPost2010PropOp52
 70
     0
102
RTVSPost2010Prop53
 90
        2
102
RTVSPost2010PropOp53
 70
     1
102
RTVSPost2010Prop54
  1
strokes_ogs.tif
102
RTVSPost2010PropOp54
 70
     1
102
RTVSPost2010Prop55
280
     0
102
RTVSPost2010PropOp55
 70
     1
102
RTVSPost2010Prop56
140
1.0
102
RTVSPost2010PropOp56
 70
     1
102
RTVSPost2010Prop57
140
1.0
102
RTVSPost2010PropOp57
 70
     1
  0
XRECORD
  5
3D8
102
{ACAD_REACTORS
330
3D7
102
}
330
3D7
100
AcDbXrecord
280
     1
102
RTVSPost2010Prop28
280
     0
102
RTVSPost2010PropOp28
 70
     0
102
RTVSPost2010Prop29
280
     1
102
RTVSPost2010PropOp29
 70
     0
102
RTVSPost2010Prop30
280
     1
102
RTVSPost2010PropOp30
 70
     0
102
RTVSPost2010Prop31
280
     0
102
RTVSPost2010PropOp31
 70
     0
102
RTVSPost2010Prop32
280
     0
102
RTVSPost2010PropOp32
 70
     0
102
RTVSPost2010Prop33
280
     0
102
RTVSPost2010PropOp33
 70
     0
102
RTVSPost2010Prop34
280
     0
102
RTVSPost2010PropOp34
 70
     0
102
RTVSPost2010Prop35
280
     0
102
RTVSPost2010PropOp35
 70
     0
102
RTVSPost2010Prop36
280
     0
102
RTVSPost2010PropOp36
 70
     0
102
RTVSPost2010Prop37
 90
       50
102
RTVSPost2010PropOp37
 70
     0
102
RTVSPost2010Prop38
140
0.0
102
RTVSPost2010PropOp38
 70
     0
102
RTVSPost2010Prop39
140
1.0
102
RTVSPost2010PropOp39
 70
     0
102
RTVSPost2010Prop40
 90
        0
102
RTVSPost2010PropOp40
 70
     0
102
RTVSPost2010Prop41ColorIndex
 90
       18
102
RTVSPost2010Prop41ColorRGB
 90
        0
102
RTVSPost2010PropOp41
 70
     0
102
RTVSPost2010Prop42
 90
       50
102
RTVSPost2010PropOp42
 70
     0
102
RTVSPost2010Prop43
 90
        3
102
RTVSPost2010PropOp43
 70
     0
102
RTVSPost2010Prop44ColorIndex
 90
        5
102
RTVSPost2010Prop44ColorRGB
 90
      255
102
RTVSPost2010PropOp44
 70
     0
102
RTVSPost2010Prop45
280
     0
102
RTVSPost2010PropOp45
 70
     0
102
RTVSPost2010Prop46
 90
       50
102
RTVSPost2010PropOp46
 70
     0
102
RTVSPost2010Prop47
 90
       50
102
RTVSPost2010PropOp47
 70
     0
102
RTVSPost2010Prop48
 90
       50
102
RTVSPost2010PropOp48
 70
     0
102
RTVSPost2010Prop49
280
     0
102
RTVSPost2010PropOp49
 70
     0
102
RTVSPost2010Prop50
 90
       50
102
RTVSPost2010PropOp50
 70
     0
102
RTVSPost2010Prop51ColorIndex
 90
      256
102
RTVSPost2010Prop51ColorRGB
 90
-16777216
102
RTVSPost2010PropOp51
 70
     0
102
RTVSPost2010Prop52
140
1.0
102
RTVSPost2010PropOp52
 70
     0
102
RTVSPost2010Prop53
 90
        2
102
RTVSPost2010PropOp53
 70
     0
102
RTVSPost2010Prop54
  1
strokes_ogs.tif
102
RTVSPost2010PropOp54
 70
     0
102
RTVSPost2010Prop55
280
     0
102
RTVSPost2010PropOp55
 70
     0
102
RTVSPost2010Prop56
140
1.0
102
RTVSPost2010PropOp56
 70
     0
102
RTVSPost2010Prop57
140
1.0
102
RTVSPost2010PropOp57
 70
     0
  0
XRECORD
  5
3D2
102
{ACAD_REACTORS
330
3D1
102
}
330
3D1
100
AcDbXrecord
280
     1
102
RTVSPost2010Prop28
280
     0
102
RTVSPost2010PropOp28
 70
     1
102
RTVSPost2010Prop29
280
     1
102
RTVSPost2010PropOp29
 70
     1
102
RTVSPost2010Prop30
280
     1
102
RTVSPost2010PropOp30
 70
     1
102
RTVSPost2010Prop31
280
     0
102
RTVSPost2010PropOp31
 70
     1
102
RTVSPost2010Prop32
280
     0
102
RTVSPost2010PropOp32
 70
     1
102
RTVSPost2010Prop33
280
     0
102
RTVSPost2010PropOp33
 70
     1
102
RTVSPost2010Prop34
280
     0
102
RTVSPost2010PropOp34
 70
     1
102
RTVSPost2010Prop35
280
     0
102
RTVSPost2010PropOp35
 70
     1
102
RTVSPost2010Prop36
280
     0
102
RTVSPost2010PropOp36
 70
     1
102
RTVSPost2010Prop37
 90
       50
102
RTVSPost2010PropOp37
 70
     1
102
RTVSPost2010Prop38
140
0.0
102
RTVSPost2010PropOp38
 70
     1
102
RTVSPost2010Prop39
140
1.0
102
RTVSPost2010PropOp39
 70
     1
102
RTVSPost2010Prop40
 90
        0
102
RTVSPost2010PropOp40
 70
     1
102
RTVSPost2010Prop41ColorIndex
 90
       18
102
RTVSPost2010Prop41ColorRGB
 90
        0
102
RTVSPost2010PropOp41
 70
     1
102
RTVSPost2010Prop42
 90
       50
102
RTVSPost2010PropOp42
 70
     1
102
RTVSPost2010Prop43
 90
        3
102
RTVSPost2010PropOp43
 70
     1
102
RTVSPost2010Prop44ColorIndex
 90
        5
102
RTVSPost2010Prop44ColorRGB
 90
      255
102
RTVSPost2010PropOp44
 70
     1
102
RTVSPost2010Prop45
280
     0
102
RTVSPost2010PropOp45
 70
     1
102
RTVSPost2010Prop46
 90
       50
102
RTVSPost2010PropOp46
 70
     1
102
RTVSPost2010Prop47
 90
       50
102
RTVSPost2010PropOp47
 70
     1
102
RTVSPost2010Prop48
 90
       50
102
RTVSPost2010PropOp48
 70
     1
102
RTVSPost2010Prop49
280
     0
102
RTVSPost2010PropOp49
 70
     1
102
RTVSPost2010Prop50
 90
       50
102
RTVSPost2010PropOp50
 70
     1
102
RTVSPost2010Prop51ColorIndex
 90
      256
102
RTVSPost2010Prop51ColorRGB
 90
-16777216
102
RTVSPost2010PropOp51
 70
     0
102
RTVSPost2010Prop52
140
1.0
102
RTVSPost2010PropOp52
 70
     0
102
RTVSPost2010Prop53
 90
        2
102
RTVSPost2010PropOp53
 70
     1
102
RTVSPost2010Prop54
  1
strokes_ogs.tif
102
RTVSPost2010PropOp54
 70
     1
102
RTVSPost2010Prop55
280
     0
102
RTVSPost2010PropOp55
 70
     1
102
RTVSPost2010Prop56
140
1.0
102
RTVSPost2010PropOp56
 70
     1
102
RTVSPost2010Prop57
140
1.0
102
RTVSPost2010PropOp57
 70
     1
  0
XRECORD
  5
3DA
102
{ACAD_REACTORS
330
3D9
102
}
330
3D9
100
AcDbXrecord
280
     1
102
RTVSPost2010Prop28
280
     0
102
RTVSPost2010PropOp28
 70
     0
102
RTVSPost2010Prop29
280
     1
102
RTVSPost2010PropOp29
 70
     0
102
RTVSPost2010Prop30
280
     1
102
RTVSPost2010PropOp30
 70
     0
102
RTVSPost2010Prop31
280
     0
102
RTVSPost2010PropOp31
 70
     0
102
RTVSPost2010Prop32
280
     0
102
RTVSPost2010PropOp32
 70
     0
102
RTVSPost2010Prop33
280
     0
102
RTVSPost2010PropOp33
 70
     0
102
RTVSPost2010Prop34
280
     0
102
RTVSPost2010PropOp34
 70
     0
102
RTVSPost2010Prop35
280
     0
102
RTVSPost2010PropOp35
 70
     0
102
RTVSPost2010Prop36
280
     0
102
RTVSPost2010PropOp36
 70
     0
102
RTVSPost2010Prop37
 90
       50
102
RTVSPost2010PropOp37
 70
     0
102
RTVSPost2010Prop38
140
0.0
102
RTVSPost2010PropOp38
 70
     0
102
RTVSPost2010Prop39
140
1.0
102
RTVSPost2010PropOp39
 70
     0
102
RTVSPost2010Prop40
 90
        0
102
RTVSPost2010PropOp40
 70
     0
102
RTVSPost2010Prop41ColorIndex
 90
       18
102
RTVSPost2010Prop41ColorRGB
 90
        0
102
RTVSPost2010PropOp41
 70
     0
102
RTVSPost2010Prop42
 90
       50
102
RTVSPost2010PropOp42
 70
     0
102
RTVSPost2010Prop43
 90
        3
102
RTVSPost2010PropOp43
 70
     0
102
RTVSPost2010Prop44ColorIndex
 90
        5
102
RTVSPost2010Prop44ColorRGB
 90
      255
102
RTVSPost2010PropOp44
 70
     0
102
RTVSPost2010Prop45
280
     0
102
RTVSPost2010PropOp45
 70
     0
102
RTVSPost2010Prop46
 90
       50
102
RTVSPost2010PropOp46
 70
     0
102
RTVSPost2010Prop47
 90
       50
102
RTVSPost2010PropOp47
 70
     0
102
RTVSPost2010Prop48
 90
       50
102
RTVSPost2010PropOp48
 70
     0
102
RTVSPost2010Prop49
280
     0
102
RTVSPost2010PropOp49
 70
     0
102
RTVSPost2010Prop50
 90
       50
102
RTVSPost2010PropOp50
 70
     0
102
RTVSPost2010Prop51ColorIndex
 90
      256
102
RTVSPost2010Prop51ColorRGB
 90
-16777216
102
RTVSPost2010PropOp51
 70
     0
102
RTVSPost2010Prop52
140
1.0
102
RTVSPost2010PropOp52
 70
     0
102
RTVSPost2010Prop53
 90
        2
102
RTVSPost2010PropOp53
 70
     0
102
RTVSPost2010Prop54
  1
strokes_ogs.tif
102
RTVSPost2010PropOp54
 70
     0
102
RTVSPost2010Prop55
280
     0
102
RTVSPost2010PropOp55
 70
     0
102
RTVSPost2010Prop56
140
1.0
102
RTVSPost2010PropOp56
 70
     0
102
RTVSPost2010Prop57
140
1.0
102
RTVSPost2010PropOp57
 70
     0
  0
XRECORD
  5
3C8
102
{ACAD_REACTORS
330
3C7
102
}
330
3C7
100
AcDbXrecord
280
     1
102
RTVSPost2010Prop28
280
     0
102
RTVSPost2010PropOp28
 70
     1
102
RTVSPost2010Prop29
280
     1
102
RTVSPost2010PropOp29
 70
     1
102
RTVSPost2010Prop30
280
     1
102
RTVSPost2010PropOp30
 70
     1
102
RTVSPost2010Prop31
280
     0
102
RTVSPost2010PropOp31
 70
     1
102
RTVSPost2010Prop32
280
     0
102
RTVSPost2010PropOp32
 70
     1
102
RTVSPost2010Prop33
280
     0
102
RTVSPost2010PropOp33
 70
     1
102
RTVSPost2010Prop34
280
     0
102
RTVSPost2010PropOp34
 70
     1
102
RTVSPost2010Prop35
280
     0
102
RTVSPost2010PropOp35
 70
     1
102
RTVSPost2010Prop36
280
     0
102
RTVSPost2010PropOp36
 70
     1
102
RTVSPost2010Prop37
 90
       50
102
RTVSPost2010PropOp37
 70
     1
102
RTVSPost2010Prop38
140
0.0
102
RTVSPost2010PropOp38
 70
     1
102
RTVSPost2010Prop39
140
1.0
102
RTVSPost2010PropOp39
 70
     1
102
RTVSPost2010Prop40
 90
        0
102
RTVSPost2010PropOp40
 70
     1
102
RTVSPost2010Prop41ColorIndex
 90
       18
102
RTVSPost2010Prop41ColorRGB
 90
        0
102
RTVSPost2010PropOp41
 70
     1
102
RTVSPost2010Prop42
 90
       50
102
RTVSPost2010PropOp42
 70
     1
102
RTVSPost2010Prop43
 90
        3
102
RTVSPost2010PropOp43
 70
     1
102
RTVSPost2010Prop44ColorIndex
 90
        5
102
RTVSPost2010Prop44ColorRGB
 90
      255
102
RTVSPost2010PropOp44
 70
     1
102
RTVSPost2010Prop45
280
     0
102
RTVSPost2010PropOp45
 70
     1
102
RTVSPost2010Prop46
 90
       50
102
RTVSPost2010PropOp46
 70
     1
102
RTVSPost2010Prop47
 90
       50
102
RTVSPost2010PropOp47
 70
     1
102
RTVSPost2010Prop48
 90
       50
102
RTVSPost2010PropOp48
 70
     1
102
RTVSPost2010Prop49
280
     0
102
RTVSPost2010PropOp49
 70
     1
102
RTVSPost2010Prop50
 90
       50
102
RTVSPost2010PropOp50
 70
     1
102
RTVSPost2010Prop51ColorIndex
 90
      256
102
RTVSPost2010Prop51ColorRGB
 90
-16777216
102
RTVSPost2010PropOp51
 70
     0
102
RTVSPost2010Prop52
140
1.0
102
RTVSPost2010PropOp52
 70
     0
102
RTVSPost2010Prop53
 90
        2
102
RTVSPost2010PropOp53
 70
     1
102
RTVSPost2010Prop54
  1
strokes_ogs.tif
102
RTVSPost2010PropOp54
 70
     1
102
RTVSPost2010Prop55
280
     0
102
RTVSPost2010PropOp55
 70
     1
102
RTVSPost2010Prop56
140
1.0
102
RTVSPost2010PropOp56
 70
     1
102
RTVSPost2010Prop57
140
1.0
102
RTVSPost2010PropOp57
 70
     1
  0
XRECORD
  5
3E6
102
{ACAD_REACTORS
330
3E5
102
}
330
3E5
100
AcDbXrecord
280
     1
102
RTVSPost2010Prop28
280
     0
102
RTVSPost2010PropOp28
 70
     1
102
RTVSPost2010Prop29
280
     1
102
RTVSPost2010PropOp29
 70
     1
102
RTVSPost2010Prop30
280
     1
102
RTVSPost2010PropOp30
 70
     1
102
RTVSPost2010Prop31
280
     0
102
RTVSPost2010PropOp31
 70
     1
102
RTVSPost2010Prop32
280
     0
102
RTVSPost2010PropOp32
 70
     1
102
RTVSPost2010Prop33
280
     0
102
RTVSPost2010PropOp33
 70
     1
102
RTVSPost2010Prop34
280
     0
102
RTVSPost2010PropOp34
 70
     1
102
RTVSPost2010Prop35
280
     0
102
RTVSPost2010PropOp35
 70
     1
102
RTVSPost2010Prop36
280
     0
102
RTVSPost2010PropOp36
 70
     1
102
RTVSPost2010Prop37
 90
       50
102
RTVSPost2010PropOp37
 70
     1
102
RTVSPost2010Prop38
140
0.0
102
RTVSPost2010PropOp38
 70
     1
102
RTVSPost2010Prop39
140
1.0
102
RTVSPost2010PropOp39
 70
     1
102
RTVSPost2010Prop40
 90
        0
102
RTVSPost2010PropOp40
 70
     1
102
RTVSPost2010Prop41ColorIndex
 90
       18
102
RTVSPost2010Prop41ColorRGB
 90
        0
102
RTVSPost2010PropOp41
 70
     1
102
RTVSPost2010Prop42
 90
       50
102
RTVSPost2010PropOp42
 70
     1
102
RTVSPost2010Prop43
 90
        3
102
RTVSPost2010PropOp43
 70
     1
102
RTVSPost2010Prop44ColorIndex
 90
        5
102
RTVSPost2010Prop44ColorRGB
 90
      255
102
RTVSPost2010PropOp44
 70
     1
102
RTVSPost2010Prop45
280
     0
102
RTVSPost2010PropOp45
 70
     1
102
RTVSPost2010Prop46
 90
       50
102
RTVSPost2010PropOp46
 70
     1
102
RTVSPost2010Prop47
 90
       50
102
RTVSPost2010PropOp47
 70
     1
102
RTVSPost2010Prop48
 90
       50
102
RTVSPost2010PropOp48
 70
     1
102
RTVSPost2010Prop49
280
     0
102
RTVSPost2010PropOp49
 70
     1
102
RTVSPost2010Prop50
 90
       50
102
RTVSPost2010PropOp50
 70
     1
102
RTVSPost2010Prop51ColorIndex
 90
      256
102
RTVSPost2010Prop51ColorRGB
 90
-16777216
102
RTVSPost2010PropOp51
 70
     0
102
RTVSPost2010Prop52
140
1.0
102
RTVSPost2010PropOp52
 70
     0
102
RTVSPost2010Prop53
 90
        2
102
RTVSPost2010PropOp53
 70
     1
102
RTVSPost2010Prop54
  1
strokes_ogs.tif
102
RTVSPost2010PropOp54
 70
     1
102
RTVSPost2010Prop55
280
     0
102
RTVSPost2010PropOp55
 70
     1
102
RTVSPost2010Prop56
140
1.0
102
RTVSPost2010PropOp56
 70
     1
102
RTVSPost2010Prop57
140
1.0
102
RTVSPost2010PropOp57
 70
     1
  0
XRECORD
  5
3E4
102
{ACAD_REACTORS
330
3E3
102
}
330
3E3
100
AcDbXrecord
280
     1
102
RTVSPost2010Prop28
280
     0
102
RTVSPost2010PropOp28
 70
     1
102
RTVSPost2010Prop29
280
     1
102
RTVSPost2010PropOp29
 70
     1
102
RTVSPost2010Prop30
280
     1
102
RTVSPost2010PropOp30
 70
     1
102
RTVSPost2010Prop31
280
     0
102
RTVSPost2010PropOp31
 70
     1
102
RTVSPost2010Prop32
280
     0
102
RTVSPost2010PropOp32
 70
     1
102
RTVSPost2010Prop33
280
     0
102
RTVSPost2010PropOp33
 70
     1
102
RTVSPost2010Prop34
280
     0
102
RTVSPost2010PropOp34
 70
     1
102
RTVSPost2010Prop35
280
     0
102
RTVSPost2010PropOp35
 70
     1
102
RTVSPost2010Prop36
280
     0
102
RTVSPost2010PropOp36
 70
     1
102
RTVSPost2010Prop37
 90
       50
102
RTVSPost2010PropOp37
 70
     1
102
RTVSPost2010Prop38
140
0.0
102
RTVSPost2010PropOp38
 70
     1
102
RTVSPost2010Prop39
140
1.0
102
RTVSPost2010PropOp39
 70
     1
102
RTVSPost2010Prop40
 90
        0
102
RTVSPost2010PropOp40
 70
     1
102
RTVSPost2010Prop41ColorIndex
 90
       18
102
RTVSPost2010Prop41ColorRGB
 90
        0
102
RTVSPost2010PropOp41
 70
     1
102
RTVSPost2010Prop42
 90
       50
102
RTVSPost2010PropOp42
 70
     1
102
RTVSPost2010Prop43
 90
        3
102
RTVSPost2010PropOp43
 70
     1
102
RTVSPost2010Prop44ColorIndex
 90
        5
102
RTVSPost2010Prop44ColorRGB
 90
      255
102
RTVSPost2010PropOp44
 70
     1
102
RTVSPost2010Prop45
280
     0
102
RTVSPost2010PropOp45
 70
     1
102
RTVSPost2010Prop46
 90
       50
102
RTVSPost2010PropOp46
 70
     1
102
RTVSPost2010Prop47
 90
       50
102
RTVSPost2010PropOp47
 70
     1
102
RTVSPost2010Prop48
 90
       50
102
RTVSPost2010PropOp48
 70
     1
102
RTVSPost2010Prop49
280
     0
102
RTVSPost2010PropOp49
 70
     1
102
RTVSPost2010Prop50
 90
       50
102
RTVSPost2010PropOp50
 70
     1
102
RTVSPost2010Prop51ColorIndex
 90
      256
102
RTVSPost2010Prop51ColorRGB
 90
-16777216
102
RTVSPost2010PropOp51
 70
     0
102
RTVSPost2010Prop52
140
1.0
102
RTVSPost2010PropOp52
 70
     0
102
RTVSPost2010Prop53
 90
        2
102
RTVSPost2010PropOp53
 70
     1
102
RTVSPost2010Prop54
  1
strokes_ogs.tif
102
RTVSPost2010PropOp54
 70
     1
102
RTVSPost2010Prop55
280
     0
102
RTVSPost2010PropOp55
 70
     1
102
RTVSPost2010Prop56
140
1.0
102
RTVSPost2010PropOp56
 70
     1
102
RTVSPost2010Prop57
140
1.0
102
RTVSPost2010PropOp57
 70
     1
  0
XRECORD
  5
3DE
102
{ACAD_REACTORS
330
3DD
102
}
330
3DD
100
AcDbXrecord
280
     1
102
RTVSPost2010Prop28
280
     0
102
RTVSPost2010PropOp28
 70
     1
102
RTVSPost2010Prop29
280
     1
102
RTVSPost2010PropOp29
 70
     1
102
RTVSPost2010Prop30
280
     1
102
RTVSPost2010PropOp30
 70
     1
102
RTVSPost2010Prop31
280
     0
102
RTVSPost2010PropOp31
 70
     1
102
RTVSPost2010Prop32
280
     0
102
RTVSPost2010PropOp32
 70
     1
102
RTVSPost2010Prop33
280
     0
102
RTVSPost2010PropOp33
 70
     1
102
RTVSPost2010Prop34
280
     0
102
RTVSPost2010PropOp34
 70
     1
102
RTVSPost2010Prop35
280
     0
102
RTVSPost2010PropOp35
 70
     1
102
RTVSPost2010Prop36
280
     0
102
RTVSPost2010PropOp36
 70
     1
102
RTVSPost2010Prop37
 90
       50
102
RTVSPost2010PropOp37
 70
     1
102
RTVSPost2010Prop38
140
0.0
102
RTVSPost2010PropOp38
 70
     1
102
RTVSPost2010Prop39
140
1.0
102
RTVSPost2010PropOp39
 70
     1
102
RTVSPost2010Prop40
 90
        0
102
RTVSPost2010PropOp40
 70
     1
102
RTVSPost2010Prop41ColorIndex
 90
       18
102
RTVSPost2010Prop41ColorRGB
 90
        0
102
RTVSPost2010PropOp41
 70
     1
102
RTVSPost2010Prop42
 90
       50
102
RTVSPost2010PropOp42
 70
     1
102
RTVSPost2010Prop43
 90
        3
102
RTVSPost2010PropOp43
 70
     1
102
RTVSPost2010Prop44ColorIndex
 90
        5
102
RTVSPost2010Prop44ColorRGB
 90
      255
102
RTVSPost2010PropOp44
 70
     1
102
RTVSPost2010Prop45
280
     0
102
RTVSPost2010PropOp45
 70
     1
102
RTVSPost2010Prop46
 90
       50
102
RTVSPost2010PropOp46
 70
     1
102
RTVSPost2010Prop47
 90
       50
102
RTVSPost2010PropOp47
 70
     1
102
RTVSPost2010Prop48
 90
       50
102
RTVSPost2010PropOp48
 70
     1
102
RTVSPost2010Prop49
280
     0
102
RTVSPost2010PropOp49
 70
     1
102
RTVSPost2010Prop50
 90
       50
102
RTVSPost2010PropOp50
 70
     1
102
RTVSPost2010Prop51ColorIndex
 90
      256
102
RTVSPost2010Prop51ColorRGB
 90
-16777216
102
RTVSPost2010PropOp51
 70
     0
102
RTVSPost2010Prop52
140
1.0
102
RTVSPost2010PropOp52
 70
     0
102
RTVSPost2010Prop53
 90
        2
102
RTVSPost2010PropOp53
 70
     1
102
RTVSPost2010Prop54
  1
strokes_ogs.tif
102
RTVSPost2010PropOp54
 70
     1
102
RTVSPost2010Prop55
280
     0
102
RTVSPost2010PropOp55
 70
     1
102
RTVSPost2010Prop56
140
1.0
102
RTVSPost2010PropOp56
 70
     1
102
RTVSPost2010Prop57
140
1.0
102
RTVSPost2010PropOp57
 70
     1
  0
XRECORD
  5
3E0
102
{ACAD_REACTORS
330
3DF
102
}
330
3DF
100
AcDbXrecord
280
     1
102
RTVSPost2010Prop28
280
     0
102
RTVSPost2010PropOp28
 70
     1
102
RTVSPost2010Prop29
280
     1
102
RTVSPost2010PropOp29
 70
     1
102
RTVSPost2010Prop30
280
     1
102
RTVSPost2010PropOp30
 70
     1
102
RTVSPost2010Prop31
280
     0
102
RTVSPost2010PropOp31
 70
     1
102
RTVSPost2010Prop32
280
     0
102
RTVSPost2010PropOp32
 70
     1
102
RTVSPost2010Prop33
280
     0
102
RTVSPost2010PropOp33
 70
     1
102
RTVSPost2010Prop34
280
     0
102
RTVSPost2010PropOp34
 70
     1
102
RTVSPost2010Prop35
280
     0
102
RTVSPost2010PropOp35
 70
     1
102
RTVSPost2010Prop36
280
     0
102
RTVSPost2010PropOp36
 70
     1
102
RTVSPost2010Prop37
 90
       50
102
RTVSPost2010PropOp37
 70
     1
102
RTVSPost2010Prop38
140
0.0
102
RTVSPost2010PropOp38
 70
     1
102
RTVSPost2010Prop39
140
1.0
102
RTVSPost2010PropOp39
 70
     1
102
RTVSPost2010Prop40
 90
        0
102
RTVSPost2010PropOp40
 70
     1
102
RTVSPost2010Prop41ColorIndex
 90
       18
102
RTVSPost2010Prop41ColorRGB
 90
        0
102
RTVSPost2010PropOp41
 70
     1
102
RTVSPost2010Prop42
 90
       50
102
RTVSPost2010PropOp42
 70
     1
102
RTVSPost2010Prop43
 90
        3
102
RTVSPost2010PropOp43
 70
     1
102
RTVSPost2010Prop44ColorIndex
 90
        5
102
RTVSPost2010Prop44ColorRGB
 90
      255
102
RTVSPost2010PropOp44
 70
     1
102
RTVSPost2010Prop45
280
     0
102
RTVSPost2010PropOp45
 70
     1
102
RTVSPost2010Prop46
 90
       50
102
RTVSPost2010PropOp46
 70
     1
102
RTVSPost2010Prop47
 90
       50
102
RTVSPost2010PropOp47
 70
     1
102
RTVSPost2010Prop48
 90
       50
102
RTVSPost2010PropOp48
 70
     1
102
RTVSPost2010Prop49
280
     0
102
RTVSPost2010PropOp49
 70
     1
102
RTVSPost2010Prop50
 90
       50
102
RTVSPost2010PropOp50
 70
     1
102
RTVSPost2010Prop51ColorIndex
 90
      256
102
RTVSPost2010Prop51ColorRGB
 90
-16777216
102
RTVSPost2010PropOp51
 70
     0
102
RTVSPost2010Prop52
140
1.0
102
RTVSPost2010PropOp52
 70
     0
102
RTVSPost2010Prop53
 90
        2
102
RTVSPost2010PropOp53
 70
     1
102
RTVSPost2010Prop54
  1
strokes_ogs.tif
102
RTVSPost2010PropOp54
 70
     1
102
RTVSPost2010Prop55
280
     0
102
RTVSPost2010PropOp55
 70
     1
102
RTVSPost2010Prop56
140
1.0
102
RTVSPost2010PropOp56
 70
     1
102
RTVSPost2010Prop57
140
1.0
102
RTVSPost2010PropOp57
 70
     1
  0
XRECORD
  5
3D0
102
{ACAD_REACTORS
330
3CF
102
}
330
3CF
100
AcDbXrecord
280
     1
102
RTVSPost2010Prop28
280
     0
102
RTVSPost2010PropOp28
 70
     1
102
RTVSPost2010Prop29
280
     1
102
RTVSPost2010PropOp29
 70
     1
102
RTVSPost2010Prop30
280
     1
102
RTVSPost2010PropOp30
 70
     1
102
RTVSPost2010Prop31
280
     0
102
RTVSPost2010PropOp31
 70
     1
102
RTVSPost2010Prop32
280
     0
102
RTVSPost2010PropOp32
 70
     1
102
RTVSPost2010Prop33
280
     0
102
RTVSPost2010PropOp33
 70
     1
102
RTVSPost2010Prop34
280
     0
102
RTVSPost2010PropOp34
 70
     1
102
RTVSPost2010Prop35
280
     0
102
RTVSPost2010PropOp35
 70
     1
102
RTVSPost2010Prop36
280
     0
102
RTVSPost2010PropOp36
 70
     1
102
RTVSPost2010Prop37
 90
       50
102
RTVSPost2010PropOp37
 70
     1
102
RTVSPost2010Prop38
140
0.0
102
RTVSPost2010PropOp38
 70
     1
102
RTVSPost2010Prop39
140
1.0
102
RTVSPost2010PropOp39
 70
     1
102
RTVSPost2010Prop40
 90
        0
102
RTVSPost2010PropOp40
 70
     1
102
RTVSPost2010Prop41ColorIndex
 90
       18
102
RTVSPost2010Prop41ColorRGB
 90
        0
102
RTVSPost2010PropOp41
 70
     1
102
RTVSPost2010Prop42
 90
       50
102
RTVSPost2010PropOp42
 70
     1
102
RTVSPost2010Prop43
 90
        3
102
RTVSPost2010PropOp43
 70
     1
102
RTVSPost2010Prop44ColorIndex
 90
        5
102
RTVSPost2010Prop44ColorRGB
 90
      255
102
RTVSPost2010PropOp44
 70
     1
102
RTVSPost2010Prop45
280
     0
102
RTVSPost2010PropOp45
 70
     1
102
RTVSPost2010Prop46
 90
       50
102
RTVSPost2010PropOp46
 70
     1
102
RTVSPost2010Prop47
 90
       50
102
RTVSPost2010PropOp47
 70
     1
102
RTVSPost2010Prop48
 90
       50
102
RTVSPost2010PropOp48
 70
     1
102
RTVSPost2010Prop49
280
     0
102
RTVSPost2010PropOp49
 70
     1
102
RTVSPost2010Prop50
 90
       50
102
RTVSPost2010PropOp50
 70
     1
102
RTVSPost2010Prop51ColorIndex
 90
      256
102
RTVSPost2010Prop51ColorRGB
 90
-16777216
102
RTVSPost2010PropOp51
 70
     0
102
RTVSPost2010Prop52
140
1.0
102
RTVSPost2010PropOp52
 70
     0
102
RTVSPost2010Prop53
 90
        2
102
RTVSPost2010PropOp53
 70
     1
102
RTVSPost2010Prop54
  1
strokes_ogs.tif
102
RTVSPost2010PropOp54
 70
     1
102
RTVSPost2010Prop55
280
     0
102
RTVSPost2010PropOp55
 70
     1
102
RTVSPost2010Prop56
140
1.0
102
RTVSPost2010PropOp56
 70
     1
102
RTVSPost2010Prop57
140
1.0
102
RTVSPost2010PropOp57
 70
     1
  0
XRECORD
  5
3C2
102
{ACAD_REACTORS
330
3C1
102
}
330
3C1
100
AcDbXrecord
280
     1
102
RTVSPost2010Prop28
280
     0
102
RTVSPost2010PropOp28
 70
     1
102
RTVSPost2010Prop29
280
     1
102
RTVSPost2010PropOp29
 70
     1
102
RTVSPost2010Prop30
280
     1
102
RTVSPost2010PropOp30
 70
     1
102
RTVSPost2010Prop31
280
     0
102
RTVSPost2010PropOp31
 70
     1
102
RTVSPost2010Prop32
280
     0
102
RTVSPost2010PropOp32
 70
     1
102
RTVSPost2010Prop33
280
     0
102
RTVSPost2010PropOp33
 70
     1
102
RTVSPost2010Prop34
280
     0
102
RTVSPost2010PropOp34
 70
     1
102
RTVSPost2010Prop35
280
     0
102
RTVSPost2010PropOp35
 70
     1
102
RTVSPost2010Prop36
280
     0
102
RTVSPost2010PropOp36
 70
     1
102
RTVSPost2010Prop37
 90
       50
102
RTVSPost2010PropOp37
 70
     1
102
RTVSPost2010Prop38
140
0.0
102
RTVSPost2010PropOp38
 70
     1
102
RTVSPost2010Prop39
140
1.0
102
RTVSPost2010PropOp39
 70
     1
102
RTVSPost2010Prop40
 90
        0
102
RTVSPost2010PropOp40
 70
     1
102
RTVSPost2010Prop41ColorIndex
 90
       18
102
RTVSPost2010Prop41ColorRGB
 90
        0
102
RTVSPost2010PropOp41
 70
     1
102
RTVSPost2010Prop42
 90
       50
102
RTVSPost2010PropOp42
 70
     1
102
RTVSPost2010Prop43
 90
        3
102
RTVSPost2010PropOp43
 70
     1
102
RTVSPost2010Prop44ColorIndex
 90
        5
102
RTVSPost2010Prop44ColorRGB
 90
      255
102
RTVSPost2010PropOp44
 70
     1
102
RTVSPost2010Prop45
280
     0
102
RTVSPost2010PropOp45
 70
     1
102
RTVSPost2010Prop46
 90
       50
102
RTVSPost2010PropOp46
 70
     1
102
RTVSPost2010Prop47
 90
       50
102
RTVSPost2010PropOp47
 70
     1
102
RTVSPost2010Prop48
 90
       50
102
RTVSPost2010PropOp48
 70
     1
102
RTVSPost2010Prop49
280
     0
102
RTVSPost2010PropOp49
 70
     1
102
RTVSPost2010Prop50
 90
       50
102
RTVSPost2010PropOp50
 70
     1
102
RTVSPost2010Prop51ColorIndex
 90
      256
102
RTVSPost2010Prop51ColorRGB
 90
-16777216
102
RTVSPost2010PropOp51
 70
     0
102
RTVSPost2010Prop52
140
1.0
102
RTVSPost2010PropOp52
 70
     0
102
RTVSPost2010Prop53
 90
        2
102
RTVSPost2010PropOp53
 70
     1
102
RTVSPost2010Prop54
  1
strokes_ogs.tif
102
RTVSPost2010PropOp54
 70
     1
102
RTVSPost2010Prop55
280
     0
102
RTVSPost2010PropOp55
 70
     1
102
RTVSPost2010Prop56
140
1.0
102
RTVSPost2010PropOp56
 70
     1
102
RTVSPost2010Prop57
140
1.0
102
RTVSPost2010PropOp57
 70
     1
  0
XRECORD
  5
3E2
102
{ACAD_REACTORS
330
3E1
102
}
330
3E1
100
AcDbXrecord
280
     1
102
RTVSPost2010Prop28
280
     0
102
RTVSPost2010PropOp28
 70
     1
102
RTVSPost2010Prop29
280
     1
102
RTVSPost2010PropOp29
 70
     1
102
RTVSPost2010Prop30
280
     1
102
RTVSPost2010PropOp30
 70
     1
102
RTVSPost2010Prop31
280
     0
102
RTVSPost2010PropOp31
 70
     1
102
RTVSPost2010Prop32
280
     0
102
RTVSPost2010PropOp32
 70
     1
102
RTVSPost2010Prop33
280
     0
102
RTVSPost2010PropOp33
 70
     1
102
RTVSPost2010Prop34
280
     0
102
RTVSPost2010PropOp34
 70
     1
102
RTVSPost2010Prop35
280
     0
102
RTVSPost2010PropOp35
 70
     1
102
RTVSPost2010Prop36
280
     0
102
RTVSPost2010PropOp36
 70
     1
102
RTVSPost2010Prop37
 90
       50
102
RTVSPost2010PropOp37
 70
     1
102
RTVSPost2010Prop38
140
0.0
102
RTVSPost2010PropOp38
 70
     1
102
RTVSPost2010Prop39
140
1.0
102
RTVSPost2010PropOp39
 70
     1
102
RTVSPost2010Prop40
 90
        0
102
RTVSPost2010PropOp40
 70
     1
102
RTVSPost2010Prop41ColorIndex
 90
       18
102
RTVSPost2010Prop41ColorRGB
 90
        0
102
RTVSPost2010PropOp41
 70
     1
102
RTVSPost2010Prop42
 90
       50
102
RTVSPost2010PropOp42
 70
     1
102
RTVSPost2010Prop43
 90
        3
102
RTVSPost2010PropOp43
 70
     1
102
RTVSPost2010Prop44ColorIndex
 90
        5
102
RTVSPost2010Prop44ColorRGB
 90
      255
102
RTVSPost2010PropOp44
 70
     1
102
RTVSPost2010Prop45
280
     0
102
RTVSPost2010PropOp45
 70
     1
102
RTVSPost2010Prop46
 90
       50
102
RTVSPost2010PropOp46
 70
     1
102
RTVSPost2010Prop47
 90
       50
102
RTVSPost2010PropOp47
 70
     1
102
RTVSPost2010Prop48
 90
       50
102
RTVSPost2010PropOp48
 70
     1
102
RTVSPost2010Prop49
280
     0
102
RTVSPost2010PropOp49
 70
     1
102
RTVSPost2010Prop50
 90
       50
102
RTVSPost2010PropOp50
 70
     1
102
RTVSPost2010Prop51ColorIndex
 90
      256
102
RTVSPost2010Prop51ColorRGB
 90
-16777216
102
RTVSPost2010PropOp51
 70
     0
102
RTVSPost2010Prop52
140
1.0
102
RTVSPost2010PropOp52
 70
     0
102
RTVSPost2010Prop53
 90
        2
102
RTVSPost2010PropOp53
 70
     1
102
RTVSPost2010Prop54
  1
strokes_ogs.tif
102
RTVSPost2010PropOp54
 70
     1
102
RTVSPost2010Prop55
280
     0
102
RTVSPost2010PropOp55
 70
     1
102
RTVSPost2010Prop56
140
1.0
102
RTVSPost2010PropOp56
 70
     1
102
RTVSPost2010Prop57
140
1.0
102
RTVSPost2010PropOp57
 70
     1
  0
ENDSEC
  0
EOF
