  0
SECTION
  2
HEADER
  9
$ACADVER
  1
AC1024
  9
$ACADMAINTVER
 70
     6
  9
$DWGCODEPAGE
  3
ANSI_1252
  9
$LASTSAVEDBY
  1
C.Meyer
  9
$INSBASE
 10
0.0
 20
0.0
 30
0.0
  9
$EXTMIN
 10
-1165.026721570047
 20
-82.835268286528
 30
0.0
  9
$EXTMAX
 10
219.976721570047
 20
464.640634017099
 30
0.0
  9
$LIMMIN
 10
0.0
 20
0.0
  9
$LIMMAX
 10
420.0
 20
297.0
  9
$ORTHOMODE
 70
     0
  9
$REGENMODE
 70
     1
  9
$FILLMODE
 70
     1
  9
$QTEXTMODE
 70
     0
  9
$MIRRTEXT
 70
     1
  9
$LTSCALE
 40
5.0
  9
$ATTMODE
 70
     1
  9
$TEXTSIZE
 40
2.5
  9
$TRACEWID
 40
1.0
  9
$TEXTSTYLE
  7
Standard
  9
$CLAYER
  8
0
  9
$CELTYPE
  6
ByLayer
  9
$CECOLOR
 62
   256
  9
$CELTSCALE
 40
1.0
  9
$DISPSILH
 70
     0
  9
$DIMSCALE
 40
1.0
  9
$DIMASZ
 40
2.5
  9
$DIMEXO
 40
0.625
  9
$DIMDLI
 40
3.75
  9
$DIMRND
 40
0.0
  9
$DIMDLE
 40
0.0
  9
$DIMEXE
 40
1.25
  9
$DIMTP
 40
0.0
  9
$DIMTM
 40
0.0
  9
$DIMTXT
 40
2.5
  9
$DIMCEN
 40
2.5
  9
$DIMTSZ
 40
0.0
  9
$DIMTOL
 70
     0
  9
$DIMLIM
 70
     0
  9
$DIMTIH
 70
     0
  9
$DIMTOH
 70
     0
  9
$DIMSE1
 70
     0
  9
$DIMSE2
 70
     0
  9
$DIMTAD
 70
     1
  9
$DIMZIN
 70
     8
  9
$DIMBLK
  1

  9
$DIMASO
 70
     1
  9
$DIMSHO
 70
     1
  9
$DIMPOST
  1

  9
$DIMAPOST
  1

  9
$DIMALT
 70
     0
  9
$DIMALTD
 70
     3
  9
$DIMALTF
 40
0.03937007874
  9
$DIMLFAC
 40
1.0
  9
$DIMTOFL
 70
     1
  9
$DIMTVP
 40
0.0
  9
$DIMTIX
 70
     0
  9
$DIMSOXD
 70
     0
  9
$DIMSAH
 70
     0
  9
$DIMBLK1
  1

  9
$DIMBLK2
  1

  9
$DIMSTYLE
  2
ISO-25
  9
$DIMCLRD
 70
     0
  9
$DIMCLRE
 70
     0
  9
$DIMCLRT
 70
     0
  9
$DIMTFAC
 40
1.0
  9
$DIMGAP
 40
0.625
  9
$DIMJUST
 70
     0
  9
$DIMSD1
 70
     0
  9
$DIMSD2
 70
     0
  9
$DIMTOLJ
 70
     0
  9
$DIMTZIN
 70
     8
  9
$DIMALTZ
 70
     0
  9
$DIMALTTZ
 70
     0
  9
$DIMUPT
 70
     0
  9
$DIMDEC
 70
     2
  9
$DIMTDEC
 70
     2
  9
$DIMALTU
 70
     2
  9
$DIMALTTD
 70
     3
  9
$DIMTXSTY
  7
Standard
  9
$DIMAUNIT
 70
     0
  9
$DIMADEC
 70
     0
  9
$DIMALTRND
 40
0.0
  9
$DIMAZIN
 70
     0
  9
$DIMDSEP
 70
    44
  9
$DIMATFIT
 70
     3
  9
$DIMFRAC
 70
     0
  9
$DIMLDRBLK
  1

  9
$DIMLUNIT
 70
     2
  9
$DIMLWD
 70
    -2
  9
$DIMLWE
 70
    -2
  9
$DIMTMOVE
 70
     0
  9
$DIMFXL
 40
1.0
  9
$DIMFXLON
 70
     0
  9
$DIMJOGANG
 40
0.785398163397
  9
$DIMTFILL
 70
     0
  9
$DIMTFILLCLR
 70
     0
  9
$DIMARCSYM
 70
     0
  9
$DIMLTYPE
  6

  9
$DIMLTEX1
  6

  9
$DIMLTEX2
  6

  9
$DIMTXTDIRECTION
 70
     0
  9
$LUNITS
 70
     2
  9
$LUPREC
 70
     4
  9
$SKETCHINC
 40
1.0
  9
$FILLETRAD
 40
10.0
  9
$AUNITS
 70
     0
  9
$AUPREC
 70
     0
  9
$MENU
  1
.
  9
$ELEVATION
 40
0.0
  9
$PELEVATION
 40
0.0
  9
$THICKNESS
 40
0.0
  9
$LIMCHECK
 70
     0
  9
$CHAMFERA
 40
0.0
  9
$CHAMFERB
 40
0.0
  9
$CHAMFERC
 40
0.0
  9
$CHAMFERD
 40
0.0
  9
$SKPOLY
 70
     0
  9
$TDCREATE
 40
2458583.47681544
  9
$TDUCREATE
 40
2458583.393482106
  9
$TDUPDATE
 40
2458583.476815799
  9
$TDUUPDATE
 40
2458583.393482465
  9
$TDINDWG
 40
0.0000000116
  9
$TDUSRTIMER
 40
0.0000000116
  9
$USRTIMER
 70
     1
  9
$ANGBASE
 50
0.0
  9
$ANGDIR
 70
     0
  9
$PDMODE
 70
     2
  9
$PDSIZE
 40
1.0
  9
$PLINEWID
 40
0.0
  9
$SPLFRAME
 70
     0
  9
$SPLINETYPE
 70
     6
  9
$SPLINESEGS
 70
     8
  9
$HANDSEED
  5
364
  9
$SURFTAB1
 70
     6
  9
$SURFTAB2
 70
     6
  9
$SURFTYPE
 70
     6
  9
$SURFU
 70
     6
  9
$SURFV
 70
     6
  9
$UCSBASE
  2

  9
$UCSNAME
  2

  9
$UCSORG
 10
0.0
 20
0.0
 30
0.0
  9
$UCSXDIR
 10
1.0
 20
0.0
 30
0.0
  9
$UCSYDIR
 10
0.0
 20
1.0
 30
0.0
  9
$UCSORTHOREF
  2

  9
$UCSORTHOVIEW
 70
     0
  9
$UCSORGTOP
 10
0.0
 20
0.0
 30
0.0
  9
$UCSORGBOTTOM
 10
0.0
 20
0.0
 30
0.0
  9
$UCSORGLEFT
 10
0.0
 20
0.0
 30
0.0
  9
$UCSORGRIGHT
 10
0.0
 20
0.0
 30
0.0
  9
$UCSORGFRONT
 10
0.0
 20
0.0
 30
0.0
  9
$UCSORGBACK
 10
0.0
 20
0.0
 30
0.0
  9
$PUCSBASE
  2

  9
$PUCSNAME
  2

  9
$PUCSORG
 10
0.0
 20
0.0
 30
0.0
  9
$PUCSXDIR
 10
1.0
 20
0.0
 30
0.0
  9
$PUCSYDIR
 10
0.0
 20
1.0
 30
0.0
  9
$PUCSORTHOREF
  2

  9
$PUCSORTHOVIEW
 70
     0
  9
$PUCSORGTOP
 10
0.0
 20
0.0
 30
0.0
  9
$PUCSORGBOTTOM
 10
0.0
 20
0.0
 30
0.0
  9
$PUCSORGLEFT
 10
0.0
 20
0.0
 30
0.0
  9
$PUCSORGRIGHT
 10
0.0
 20
0.0
 30
0.0
  9
$PUCSORGFRONT
 10
0.0
 20
0.0
 30
0.0
  9
$PUCSORGBACK
 10
0.0
 20
0.0
 30
0.0
  9
$USERI1
 70
     0
  9
$USERI2
 70
     0
  9
$USERI3
 70
     0
  9
$USERI4
 70
     0
  9
$USERI5
 70
     0
  9
$USERR1
 40
0.0
  9
$USERR2
 40
0.0
  9
$USERR3
 40
0.0
  9
$USERR4
 40
0.0
  9
$USERR5
 40
0.0
  9
$WORLDVIEW
 70
     1
  9
$SHADEDGE
 70
     3
  9
$SHADEDIF
 70
    70
  9
$TILEMODE
 70
     1
  9
$MAXACTVP
 70
    64
  9
$PINSBASE
 10
0.0
 20
0.0
 30
0.0
  9
$PLIMCHECK
 70
     0
  9
$PEXTMIN
 10
1.000000000000E+20
 20
1.000000000000E+20
 30
1.000000000000E+20
  9
$PEXTMAX
 10
-1.000000000000E+20
 20
-1.000000000000E+20
 30
-1.000000000000E+20
  9
$PLIMMIN
 10
0.0
 20
0.0
  9
$PLIMMAX
 10
420.0
 20
297.0
  9
$UNITMODE
 70
     0
  9
$VISRETAIN
 70
     1
  9
$PLINEGEN
 70
     0
  9
$PSLTSCALE
 70
     1
  9
$TREEDEPTH
 70
  3020
  9
$CMLSTYLE
  2
Standard
  9
$CMLJUST
 70
     0
  9
$CMLSCALE
 40
20.0
  9
$PROXYGRAPHICS
 70
     1
  9
$MEASUREMENT
 70
     1
  9
$CELWEIGHT
370
    -1
  9
$ENDCAPS
280
     0
  9
$JOINSTYLE
280
     0
  9
$LWDISPLAY
290
     0
  9
$INSUNITS
 70
     4
  9
$HYPERLINKBASE
  1

  9
$STYLESHEET
  1

  9
$XEDIT
290
     1
  9
$CEPSNTYPE
380
     0
  9
$PSTYLEMODE
290
     1
  9
$FINGERPRINTGUID
  2
{85445c5e-d31e-44cb-b85c-a74509235078}
  9
$VERSIONGUID
  2
{FAEB1C32-E019-11D5-929B-00C0DF256EC4}
  9
$EXTNAMES
290
     1
  9
$PSVPSCALE
 40
0.0
  9
$OLESTARTUP
290
     0
  9
$SORTENTS
280
   127
  9
$INDEXCTL
280
     0
  9
$HIDETEXT
280
     1
  9
$XCLIPFRAME
280
     2
  9
$HALOGAP
280
     0
  9
$OBSCOLOR
 70
   257
  9
$OBSLTYPE
280
     0
  9
$INTERSECTIONDISPLAY
280
     0
  9
$INTERSECTIONCOLOR
 70
   257
  9
$DIMASSOC
280
     2
  9
$PROJECTNAME
  1

  9
$CAMERADISPLAY
290
     0
  9
$LENSLENGTH
 40
50.0
  9
$CAMERAHEIGHT
 40
0.0
  9
$STEPSPERSEC
 40
2.0
  9
$STEPSIZE
 40
6.0
  9
$3DDWFPREC
 40
2.0
  9
$PSOLWIDTH
 40
5.0
  9
$PSOLHEIGHT
 40
80.0
  9
$LOFTANG1
 40
1.570796326795
  9
$LOFTANG2
 40
1.570796326795
  9
$LOFTMAG1
 40
0.0
  9
$LOFTMAG2
 40
0.0
  9
$LOFTPARAM
 70
     7
  9
$LOFTNORMALS
280
     1
  9
$LATITUDE
 40
37.795
  9
$LONGITUDE
 40
-122.394
  9
$NORTHDIRECTION
 40
0.0
  9
$TIMEZONE
 70
 -8000
  9
$LIGHTGLYPHDISPLAY
280
     1
  9
$TILEMODELIGHTSYNCH
280
     1
  9
$CMATERIAL
347
44
  9
$SOLIDHIST
280
     0
  9
$SHOWHIST
280
     1
  9
$DWFFRAME
280
     2
  9
$DGNFRAME
280
     2
  9
$REALWORLDSCALE
290
     1
  9
$INTERFERECOLOR
 62
   256
  9
$CSHADOW
280
     0
  9
$SHADOWPLANELOCATION
 40
0.0
  0
ENDSEC
  0
SECTION
  2
CLASSES
  0
CLASS
  1
ACDBDICTIONARYWDFLT
  2
AcDbDictionaryWithDefault
  3
ObjectDBX Classes
 90
        0
 91
        3
280
     0
281
     0
  0
CLASS
  1
VISUALSTYLE
  2
AcDbVisualStyle
  3
ObjectDBX Classes
 90
     4095
 91
        3
280
     0
281
     0
  0
CLASS
  1
MATERIAL
  2
AcDbMaterial
  3
ObjectDBX Classes
 90
     1153
 91
        3
280
     0
281
     0
  0
CLASS
  1
SCALE
  2
AcDbScale
  3
ObjectDBX Classes
 90
     1153
 91
        3
280
     0
281
     0
  0
CLASS
  1
TABLESTYLE
  2
AcDbTableStyle
  3
ObjectDBX Classes
 90
     4095
 91
        3
280
     0
281
     0
  0
CLASS
  1
MLEADERSTYLE
  2
AcDbMLeaderStyle
  3
ACDB_MLEADERSTYLE_CLASS
 90
     4095
 91
        3
280
     0
281
     0
  0
CLASS
  1
SUN
  2
AcDbSun
  3
SCENEOE
 90
     1153
 91
        3
280
     0
281
     0
  0
CLASS
  1
WIPEOUT
  2
AcDbWipeout
  3
WipeOut|AutoCAD Express Tool|expresstools@autodesk.com
 90
      127
 91
        3
280
     0
281
     1
  0
CLASS
  1
DICTIONARYVAR
  2
AcDbDictionaryVar
  3
ObjectDBX Classes
 90
        0
 91
        3
280
     0
281
     0
  0
CLASS
  1
CELLSTYLEMAP
  2
AcDbCellStyleMap
  3
ObjectDBX Classes
 90
     1152
 91
        3
280
     0
281
     0
  0
CLASS
  1
WIPEOUTVARIABLES
  2
AcDbWipeoutVariables
  3
WipeOut|AutoCAD Express Tool|expresstools@autodesk.com
 90
        0
 91
        3
280
     0
281
     0
  0
ENDSEC
  0
SECTION
  2
TABLES
  0
TABLE
  2
VPORT
  5
8
330
0
100
AcDbSymbolTable
 70
     1
  0
VPORT
  5
29
330
8
100
AcDbSymbolTableRecord
100
AcDbViewportTableRecord
  2
*Active
 70
     0
 10
0.0
 20
0.0
 11
1.0
 21
1.0
 12
-472.525
 22
190.902682865285
 13
0.0
 23
0.0
 14
10.0
 24
10.0
 15
10.0
 25
10.0
 16
0.0
 26
0.0
 36
1.0
 17
0.0
 27
0.0
 37
0.0
 40
547.475902303628
 41
2.529798000811
 42
50.0
 43
0.0
 44
0.0
 50
0.0
 51
0.0
 71
     0
 72
   100
 73
     1
 74
     3
 75
     0
 76
     0
 77
     0
 78
     0
281
     0
 65
     1
110
0.0
120
0.0
130
0.0
111
1.0
121
0.0
131
0.0
112
0.0
122
1.0
132
0.0
 79
     0
146
0.0
348
2F
 60
     3
 61
     5
292
     1
282
     1
141
0.0
142
0.0
 63
   250
361
6D
  0
ENDTAB
  0
TABLE
  2
LTYPE
  5
5
330
0
100
AcDbSymbolTable
 70
     2
  0
LTYPE
  5
14
330
5
100
AcDbSymbolTableRecord
100
AcDbLinetypeTableRecord
  2
ByBlock
 70
     0
  3

 72
    65
 73
     0
 40
0.0
  0
LTYPE
  5
15
330
5
100
AcDbSymbolTableRecord
100
AcDbLinetypeTableRecord
  2
ByLayer
 70
     0
  3

 72
    65
 73
     0
 40
0.0
  0
LTYPE
  5
16
330
5
100
AcDbSymbolTableRecord
100
AcDbLinetypeTableRecord
  2
Continuous
 70
     0
  3
Solid line
 72
    65
 73
     0
 40
0.0
  0
LTYPE
  5
6E
330
5
100
AcDbSymbolTableRecord
100
AcDbLinetypeTableRecord
  2
AUSGEZOGEN
 70
     0
  3

 72
    65
 73
     0
 40
0.0
  0
ENDTAB
  0
TABLE
  2
LAYER
  5
2
330
0
100
AcDbSymbolTable
 70
     3
  0
LAYER
  5
10
330
2
100
AcDbSymbolTableRecord
100
AcDbLayerTableRecord
  2
0
 70
     0
 62
     7
  6
Continuous
370
    -3
390
F
347
46
  0
LAYER
  5
72
330
2
100
AcDbSymbolTableRecord
100
AcDbLayerTableRecord
  2
Layer6
 70
     0
 62
    18
420
        0
  6
Continuous
370
    -3
390
F
347
46
  0
LAYER
  5
73
330
2
100
AcDbSymbolTableRecord
100
AcDbLayerTableRecord
  2
Layer9
 70
     0
 62
    18
420
        0
  6
Continuous
370
    -3
390
F
347
46
  0
ENDTAB
  0
TABLE
  2
STYLE
  5
3
330
0
100
AcDbSymbolTable
 70
     3
  0
STYLE
  5
11
330
3
100
AcDbSymbolTableRecord
100
AcDbTextStyleTableRecord
  2
Standard
 70
     0
 40
0.0
 41
1.0
 50
0.0
 71
     0
 42
2.5
  3
txt
  4

  0
STYLE
  5
6F
330
3
100
AcDbSymbolTableRecord
100
AcDbTextStyleTableRecord
  2
Arial
 70
     0
 40
0.0
 41
1.0
 50
0.0
 71
     0
 42
2.5
  3
arial.ttf
  4

1001
ACAD
1000
Arial
1071
       34
  0
STYLE
  5
70
330
3
100
AcDbSymbolTableRecord
100
AcDbTextStyleTableRecord
  2
Toleranzfont
 70
     0
 40
0.0
 41
1.0
 50
0.0
 71
     0
 42
2.5
  3
IGES1003.SHX
  4

  0
ENDTAB
  0
TABLE
  2
VIEW
  5
6
330
0
100
AcDbSymbolTable
 70
     0
  0
ENDTAB
  0
TABLE
  2
UCS
  5
7
330
0
100
AcDbSymbolTable
 70
     0
  0
ENDTAB
  0
TABLE
  2
APPID
  5
9
330
0
100
AcDbSymbolTable
 70
     1
  0
APPID
  5
12
330
9
100
AcDbSymbolTableRecord
100
AcDbRegAppTableRecord
  2
ACAD
 70
     0
  0
ENDTAB
  0
TABLE
  2
DIMSTYLE
  5
A
330
0
100
AcDbSymbolTable
 70
     1
100
AcDbDimStyleTable
  0
DIMSTYLE
105
27
102
{ACAD_REACTORS
330
2F6
330
301
330
314
330
326
102
}
330
A
100
AcDbSymbolTableRecord
100
AcDbDimStyleTableRecord
  2
ISO-25
 70
     0
 41
2.5
 42
0.625
 43
3.75
 44
1.25
 73
     0
 74
     0
 77
     1
 78
     8
140
2.5
141
2.5
143
0.03937007874
147
0.625
171
     3
172
     1
178
     0
271
     2
272
     2
274
     3
278
    44
283
     0
284
     8
340
11
  0
ENDTAB
  0
TABLE
  2
BLOCK_RECORD
  5
1
330
0
100
AcDbSymbolTable
 70
     8
  0
BLOCK_RECORD
  5
1F
330
1
100
AcDbSymbolTableRecord
100
AcDbBlockTableRecord
  2
*Model_Space
340
22
 70
     0
280
     1
281
     0
  0
BLOCK_RECORD
  5
1B
330
1
100
AcDbSymbolTableRecord
100
AcDbBlockTableRecord
  2
*Paper_Space
340
1E
 70
     0
280
     1
281
     0
  0
BLOCK_RECORD
  5
23
330
1
100
AcDbSymbolTableRecord
100
AcDbBlockTableRecord
  2
*Paper_Space0
340
26
 70
     0
280
     1
281
     0
  0
BLOCK_RECORD
  5
74
330
1
100
AcDbSymbolTableRecord
100
AcDbBlockTableRecord
  2
Draufsicht_nNn00
340
0
102
{BLKREFS
331
1B3
102
}
 70
     0
280
     1
281
     0
  0
BLOCK_RECORD
  5
1B4
330
1
100
AcDbSymbolTableRecord
100
AcDbBlockTableRecord
  2
Draufsicht-SL_nNn01
340
0
102
{BLKREFS
331
227
102
}
 70
     0
280
     1
281
     0
  0
BLOCK_RECORD
  5
228
330
1
100
AcDbSymbolTableRecord
100
AcDbBlockTableRecord
  2
Draufsicht-D_nNn02
340
0
102
{BLKREFS
331
2EA
102
}
 70
     0
280
     1
281
     0
  0
BLOCK_RECORD
  5
2EB
330
1
100
AcDbSymbolTableRecord
100
AcDbBlockTableRecord
  2
*D4
340
0
 70
     0
280
     1
281
     0
  0
BLOCK_RECORD
  5
2F7
330
1
100
AcDbSymbolTableRecord
100
AcDbBlockTableRecord
  2
*D5
340
0
 70
     0
280
     1
281
     0
  0
BLOCK_RECORD
  5
302
330
1
100
AcDbSymbolTableRecord
100
AcDbBlockTableRecord
  2
*D6
340
0
 70
     0
280
     1
281
     0
  0
BLOCK_RECORD
  5
315
330
1
100
AcDbSymbolTableRecord
100
AcDbBlockTableRecord
  2
*D7
340
0
 70
     0
280
     1
281
     0
  0
ENDTAB
  0
ENDSEC
  0
SECTION
  2
BLOCKS
  0
BLOCK
  5
20
330
1F
100
AcDbEntity
  8
0
100
AcDbBlockBegin
  2
*Model_Space
 70
     0
 10
0.0
 20
0.0
 30
0.0
  3
*Model_Space
  1

  0
ENDBLK
  5
21
330
1F
100
AcDbEntity
  8
0
100
AcDbBlockEnd
  0
BLOCK
  5
1C
330
1B
100
AcDbEntity
 67
     1
  8
0
100
AcDbBlockBegin
  2
*Paper_Space
 70
     0
 10
0.0
 20
0.0
 30
0.0
  3
*Paper_Space
  1

  0
ENDBLK
  5
1D
330
1B
100
AcDbEntity
 67
     1
  8
0
100
AcDbBlockEnd
  0
BLOCK
  5
24
330
23
100
AcDbEntity
  8
0
100
AcDbBlockBegin
  2
*Paper_Space0
 70
     0
 10
0.0
 20
0.0
 30
0.0
  3
*Paper_Space0
  1

  0
ENDBLK
  5
25
330
23
100
AcDbEntity
  8
0
100
AcDbBlockEnd
  0
BLOCK
  5
75
330
74
100
AcDbEntity
  8
0
100
AcDbBlockBegin
  2
Draufsicht_nNn00
 70
     0
 10
0.0
 20
0.0
 30
0.0
  3
Draufsicht_nNn00
  1

  0
LINE
  5
77
330
74
100
AcDbEntity
  8
Layer9
  6
AUSGEZOGEN
 62
    18
420
        0
370
    18
100
AcDbLine
 10
-909.05
 20
364.6
 30
0.0
 11
-393.55
 21
364.6
 31
0.0
  0
LINE
  5
78
330
74
100
AcDbEntity
  8
Layer9
  6
AUSGEZOGEN
 62
    18
420
        0
370
    18
100
AcDbLine
 10
-393.55
 20
367.6
 30
0.0
 11
-909.05
 21
367.6
 31
0.0
  0
LINE
  5
79
330
74
100
AcDbEntity
  8
Layer9
  6
AUSGEZOGEN
 62
    18
420
        0
370
    18
100
AcDbLine
 10
-908.05
 20
347.6
 30
0.0
 11
-394.55
 21
347.6
 31
0.0
  0
LINE
  5
7A
330
74
100
AcDbEntity
  8
Layer9
  6
AUSGEZOGEN
 62
    18
420
        0
370
    18
100
AcDbLine
 10
-909.05
 20
364.6
 30
0.0
 11
-909.05
 21
348.6
 31
0.0
  0
LINE
  5
7B
330
74
100
AcDbEntity
  8
Layer9
  6
AUSGEZOGEN
 62
    18
420
        0
370
    18
100
AcDbLine
 10
-393.55
 20
348.6
 30
0.0
 11
-393.55
 21
364.6
 31
0.0
  0
LINE
  5
7C
330
74
100
AcDbEntity
  8
Layer9
  6
AUSGEZOGEN
 62
    18
420
        0
370
    18
100
AcDbLine
 10
-909.05
 20
364.6
 30
0.0
 11
-909.05
 21
367.6
 31
0.0
  0
LINE
  5
7D
330
74
100
AcDbEntity
  8
Layer9
  6
AUSGEZOGEN
 62
    18
420
        0
370
    18
100
AcDbLine
 10
-393.55
 20
364.6
 30
0.0
 11
-393.55
 21
367.6
 31
0.0
  0
ARC
  5
7E
330
74
100
AcDbEntity
  8
Layer9
  6
AUSGEZOGEN
 62
    18
420
        0
370
    18
100
AcDbCircle
 10
-394.55
 20
348.6
 30
0.0
 40
1.0
100
AcDbArc
 50
270.0
 51
0.0
  0
ARC
  5
7F
330
74
100
AcDbEntity
  8
Layer9
  6
AUSGEZOGEN
 62
    18
420
        0
370
    18
100
AcDbCircle
 10
-908.05
 20
348.6
 30
0.0
 40
1.0
100
AcDbArc
 50
180.0
 51
270.0
  0
LINE
  5
80
330
74
100
AcDbEntity
  8
Layer9
  6
AUSGEZOGEN
 62
    18
420
        0
370
    18
100
AcDbLine
 10
-391.3
 20
372.6
 30
0.0
 11
-393.3
 21
372.6
 31
0.0
  0
LINE
  5
81
330
74
100
AcDbEntity
  8
Layer9
  6
AUSGEZOGEN
 62
    18
420
        0
370
    18
100
AcDbLine
 10
-393.3
 20
372.3452774264
 30
0.0
 11
-391.3
 21
372.3452774264
 31
0.0
  0
LINE
  5
82
330
74
100
AcDbEntity
  8
Layer9
  6
AUSGEZOGEN
 62
    18
420
        0
370
    18
100
AcDbLine
 10
-393.3
 20
372.3452774264
 30
0.0
 11
-393.3
 21
332.762966084836
 31
0.0
  0
LINE
  5
83
330
74
100
AcDbEntity
  8
Layer9
  6
AUSGEZOGEN
 62
    18
420
        0
370
    18
100
AcDbLine
 10
-393.3
 20
332.762966084836
 30
0.0
 11
-391.3
 21
332.762966084836
 31
0.0
  0
LINE
  5
84
330
74
100
AcDbEntity
  8
Layer9
  6
AUSGEZOGEN
 62
    18
420
        0
370
    18
100
AcDbLine
 10
-391.3
 20
332.762966084836
 30
0.0
 11
-391.3
 21
372.3452774264
 31
0.0
  0
LINE
  5
85
330
74
100
AcDbEntity
  8
Layer9
  6
AUSGEZOGEN
 62
    18
420
        0
370
    18
100
AcDbLine
 10
-393.3
 20
331.84787360937
 30
0.0
 11
-391.3
 21
331.84787360937
 31
0.0
  0
LINE
  5
86
330
74
100
AcDbEntity
  8
Layer9
  6
AUSGEZOGEN
 62
    18
420
        0
370
    18
100
AcDbLine
 10
-391.3
 20
330.5
 30
0.0
 11
-391.3
 21
331.84787360937
 31
0.0
  0
LINE
  5
87
330
74
100
AcDbEntity
  8
Layer9
  6
AUSGEZOGEN
 62
    18
420
        0
370
    18
100
AcDbLine
 10
-393.3
 20
331.84787360937
 30
0.0
 11
-393.3
 21
330.5
 31
0.0
  0
LINE
  5
88
330
74
100
AcDbEntity
  8
Layer9
  6
AUSGEZOGEN
 62
    18
420
        0
370
    18
100
AcDbLine
 10
-391.3
 20
327.671572875254
 30
0.0
 11
-391.3
 21
330.5
 31
0.0
  0
LINE
  5
89
330
74
100
AcDbEntity
  8
Layer9
  6
AUSGEZOGEN
 62
    18
420
        0
370
    18
100
AcDbLine
 10
-391.7794011464
 20
327.89013941981
 30
0.0
 11
-391.448050297095
 21
327.728361402466
 31
0.0
  0
LINE
  5
8A
330
74
100
AcDbEntity
  8
Layer9
  6
AUSGEZOGEN
 62
    18
420
        0
370
    18
100
AcDbLine
 10
-391.448050297095
 20
327.728361402466
 30
0.0
 11
-391.3
 21
327.671572875254
 31
0.0
  0
LINE
  5
8B
330
74
100
AcDbEntity
  8
Layer9
  6
AUSGEZOGEN
 62
    18
420
        0
370
    18
100
AcDbLine
 10
-390.913559767128
 20
327.563461409477
 30
0.0
 11
-390.885270966048
 21
327.55764415879
 31
0.0
  0
LINE
  5
8C
330
74
100
AcDbEntity
  8
Layer9
  6
AUSGEZOGEN
 62
    18
420
        0
370
    18
100
AcDbLine
 10
-390.885270966048
 20
327.55764415879
 30
0.0
 11
-390.823343983945
 21
327.546018131277
 31
0.0
  0
LINE
  5
8D
330
74
100
AcDbEntity
  8
Layer9
  6
AUSGEZOGEN
 62
    18
420
        0
370
    18
100
AcDbLine
 10
-392.213171513396
 20
328.189204734225
 30
0.0
 11
-391.966710699059
 21
328.005591163092
 31
0.0
  0
LINE
  5
8E
330
74
100
AcDbEntity
  8
Layer9
  6
AUSGEZOGEN
 62
    18
420
        0
370
    18
100
AcDbLine
 10
-391.966710699059
 20
328.005591163092
 30
0.0
 11
-391.7794011464
 21
327.89013941981
 31
0.0
  0
LINE
  5
8F
330
74
100
AcDbEntity
  8
Layer9
  6
AUSGEZOGEN
 62
    18
420
        0
370
    18
100
AcDbLine
 10
-392.58793184954
 20
328.559544421569
 30
0.0
 11
-392.42132034356
 21
328.37867965644
 31
0.0
  0
LINE
  5
90
330
74
100
AcDbEntity
  8
Layer9
  6
AUSGEZOGEN
 62
    18
420
        0
370
    18
100
AcDbLine
 10
-392.42132034356
 20
328.37867965644
 30
0.0
 11
-392.213171513396
 21
328.189204734225
 31
0.0
  0
LINE
  5
91
330
74
100
AcDbEntity
  8
Layer9
  6
AUSGEZOGEN
 62
    18
420
        0
370
    18
100
AcDbLine
 10
-392.892123013979
 20
328.989735691874
 30
0.0
 11
-392.794408836907
 21
328.833289300941
 31
0.0
  0
LINE
  5
92
330
74
100
AcDbEntity
  8
Layer9
  6
AUSGEZOGEN
 62
    18
420
        0
370
    18
100
AcDbLine
 10
-392.794408836907
 20
328.833289300941
 30
0.0
 11
-392.58793184954
 21
328.559544421569
 31
0.0
  0
LINE
  5
93
330
74
100
AcDbEntity
  8
Layer9
  6
AUSGEZOGEN
 62
    18
420
        0
370
    18
100
AcDbLine
 10
-393.116362507617
 20
329.466509687665
 30
0.0
 11
-393.071638597534
 21
329.351949702905
 31
0.0
  0
LINE
  5
94
330
74
100
AcDbEntity
  8
Layer9
  6
AUSGEZOGEN
 62
    18
420
        0
370
    18
100
AcDbLine
 10
-393.071638597534
 20
329.351949702905
 30
0.0
 11
-392.892123013979
 21
328.989735691874
 31
0.0
  0
LINE
  5
95
330
74
100
AcDbEntity
  8
Layer9
  6
AUSGEZOGEN
 62
    18
420
        0
370
    18
100
AcDbLine
 10
-393.253733867738
 20
329.975160749777
 30
0.0
 11
-393.242355841209
 21
329.914729033952
 31
0.0
  0
LINE
  5
96
330
74
100
AcDbEntity
  8
Layer9
  6
AUSGEZOGEN
 62
    18
420
        0
370
    18
100
AcDbLine
 10
-393.242355841209
 20
329.914729033952
 30
0.0
 11
-393.116362507617
 21
329.466509687665
 31
0.0
  0
LINE
  5
97
330
74
100
AcDbEntity
  8
Layer9
  6
AUSGEZOGEN
 62
    18
420
        0
370
    18
100
AcDbLine
 10
-385.3
 20
327.5
 30
0.0
 11
-385.3
 21
329.5
 31
0.0
  0
LINE
  5
98
330
74
100
AcDbEntity
  8
Layer9
  6
AUSGEZOGEN
 62
    18
420
        0
370
    18
100
AcDbLine
 10
-390.3
 20
329.5
 30
0.0
 11
-390.3
 21
327.5
 31
0.0
  0
LINE
  5
99
330
74
100
AcDbEntity
  8
Layer9
  6
AUSGEZOGEN
 62
    18
420
        0
370
    18
100
AcDbLine
 10
-375.3
 20
327.5
 30
0.0
 11
-375.3
 21
329.5
 31
0.0
  0
LINE
  5
9A
330
74
100
AcDbEntity
  8
Layer9
  6
AUSGEZOGEN
 62
    18
420
        0
370
    18
100
AcDbLine
 10
-385.3
 20
327.5
 30
0.0
 11
-375.3
 21
327.5
 31
0.0
  0
LINE
  5
9B
330
74
100
AcDbEntity
  8
Layer9
  6
AUSGEZOGEN
 62
    18
420
        0
370
    18
100
AcDbLine
 10
-375.3
 20
329.5
 30
0.0
 11
-385.3
 21
329.5
 31
0.0
  0
LINE
  5
9C
330
74
100
AcDbEntity
  8
Layer9
  6
AUSGEZOGEN
 62
    18
420
        0
370
    18
100
AcDbLine
 10
-374.3
 20
326.5
 30
0.0
 11
-372.3
 21
326.5
 31
0.0
  0
LINE
  5
9D
330
74
100
AcDbEntity
  8
Layer9
  6
AUSGEZOGEN
 62
    18
420
        0
370
    18
100
AcDbLine
 10
-372.3
 20
310.5
 30
0.0
 11
-374.3
 21
310.5
 31
0.0
  0
LINE
  5
9E
330
74
100
AcDbEntity
  8
Layer9
  6
AUSGEZOGEN
 62
    18
420
        0
370
    18
100
AcDbLine
 10
-374.3
 20
307.5
 30
0.0
 11
-372.3
 21
307.5
 31
0.0
  0
LINE
  5
9F
330
74
100
AcDbEntity
  8
Layer9
  6
AUSGEZOGEN
 62
    18
420
        0
370
    18
100
AcDbLine
 10
-372.3
 20
310.5
 30
0.0
 11
-372.3
 21
326.5
 31
0.0
  0
LINE
  5
A0
330
74
100
AcDbEntity
  8
Layer9
  6
AUSGEZOGEN
 62
    18
420
        0
370
    18
100
AcDbLine
 10
-374.3
 20
326.5
 30
0.0
 11
-374.3
 21
310.5
 31
0.0
  0
LINE
  5
A1
330
74
100
AcDbEntity
  8
Layer9
  6
AUSGEZOGEN
 62
    18
420
        0
370
    18
100
AcDbLine
 10
-391.3
 20
372.3452774264
 30
0.0
 11
-391.3
 21
372.6
 31
0.0
  0
LINE
  5
A2
330
74
100
AcDbEntity
  8
Layer9
  6
AUSGEZOGEN
 62
    18
420
        0
370
    18
100
AcDbLine
 10
-393.3
 20
372.3452774264
 30
0.0
 11
-393.3
 21
372.6
 31
0.0
  0
LINE
  5
A3
330
74
100
AcDbEntity
  8
Layer9
  6
AUSGEZOGEN
 62
    18
420
        0
370
    18
100
AcDbLine
 10
-391.3
 20
332.762966084836
 30
0.0
 11
-391.3
 21
331.84787360937
 31
0.0
  0
LINE
  5
A4
330
74
100
AcDbEntity
  8
Layer9
  6
AUSGEZOGEN
 62
    18
420
        0
370
    18
100
AcDbLine
 10
-393.3
 20
331.84787360937
 30
0.0
 11
-393.3
 21
332.762966084836
 31
0.0
  0
ARC
  5
A5
330
74
100
AcDbEntity
  8
Layer9
  6
AUSGEZOGEN
 62
    18
420
        0
370
    18
100
AcDbCircle
 10
-390.3
 20
330.5
 30
0.0
 40
3.0
100
AcDbArc
 50
180.0
 51
250.528779365509
  0
ARC
  5
A6
330
74
100
AcDbEntity
  8
Layer9
  6
AUSGEZOGEN
 62
    18
420
        0
370
    18
100
AcDbCircle
 10
-390.3
 20
330.5
 30
0.0
 40
1.0
100
AcDbArc
 50
180.0
 51
270.0
  0
ARC
  5
A7
330
74
100
AcDbEntity
  8
Layer9
  6
AUSGEZOGEN
 62
    18
420
        0
370
    18
100
AcDbCircle
 10
-390.3
 20
330.5
 30
0.0
 40
3.0
100
AcDbArc
 50
250.528779365509
 51
270.0
  0
ARC
  5
A8
330
74
100
AcDbEntity
  8
Layer9
  6
AUSGEZOGEN
 62
    18
420
        0
370
    18
100
AcDbCircle
 10
-390.3
 20
330.5
 30
0.0
 40
1.0
100
AcDbArc
 50
248.19809173136
 51
258.344081812568
  0
ARC
  5
A9
330
74
100
AcDbEntity
  8
Layer9
  6
AUSGEZOGEN
 62
    18
420
        0
370
    18
100
AcDbCircle
 10
-390.3
 20
330.5
 30
0.0
 40
1.0
100
AcDbArc
 50
237.31334907901
 51
247.085766650387
  0
ARC
  5
AA
330
74
100
AcDbEntity
  8
Layer9
  6
AUSGEZOGEN
 62
    18
420
        0
370
    18
100
AcDbCircle
 10
-390.3
 20
330.5
 30
0.0
 40
1.0
100
AcDbArc
 50
225.506826085434
 51
235.292330282109
  0
ARC
  5
AB
330
74
100
AcDbEntity
  8
Layer9
  6
AUSGEZOGEN
 62
    18
420
        0
370
    18
100
AcDbCircle
 10
-390.3
 20
330.5
 30
0.0
 40
1.0
100
AcDbArc
 50
215.02937791303
 51
223.913751540263
  0
ARC
  5
AC
330
74
100
AcDbEntity
  8
Layer9
  6
AUSGEZOGEN
 62
    18
420
        0
370
    18
100
AcDbCircle
 10
-390.3
 20
330.5
 30
0.0
 40
1.0
100
AcDbArc
 50
203.267047225916
 51
213.073848207736
  0
ARC
  5
AD
330
74
100
AcDbEntity
  8
Layer9
  6
AUSGEZOGEN
 62
    18
420
        0
370
    18
100
AcDbCircle
 10
-390.3
 20
330.5
 30
0.0
 40
1.0
100
AcDbArc
 50
192.796487440056
 51
200.757478117739
  0
ARC
  5
AE
330
74
100
AcDbEntity
  8
Layer9
  6
AUSGEZOGEN
 62
    18
420
        0
370
    18
100
AcDbCircle
 10
-390.3
 20
330.5
 30
0.0
 40
1.0
100
AcDbArc
 50
180.0
 51
190.191553689412
  0
ARC
  5
AF
330
74
100
AcDbEntity
  8
Layer9
  6
AUSGEZOGEN
 62
    18
420
        0
370
    18
100
AcDbCircle
 10
-390.3
 20
330.5
 30
0.0
 40
1.0
100
AcDbArc
 50
259.200289306005
 51
270.0
  0
LINE
  5
B0
330
74
100
AcDbEntity
  8
Layer9
  6
AUSGEZOGEN
 62
    18
420
        0
370
    18
100
AcDbLine
 10
-385.3
 20
327.5
 30
0.0
 11
-390.3
 21
327.5
 31
0.0
  0
LINE
  5
B1
330
74
100
AcDbEntity
  8
Layer9
  6
AUSGEZOGEN
 62
    18
420
        0
370
    18
100
AcDbLine
 10
-385.3
 20
329.5
 30
0.0
 11
-390.3
 21
329.5
 31
0.0
  0
ARC
  5
B2
330
74
100
AcDbEntity
  8
Layer9
  6
AUSGEZOGEN
 62
    18
420
        0
370
    18
100
AcDbCircle
 10
-375.3
 20
326.5
 30
0.0
 40
3.0
100
AcDbArc
 50
0.0
 51
90.0
  0
ARC
  5
B3
330
74
100
AcDbEntity
  8
Layer9
  6
AUSGEZOGEN
 62
    18
420
        0
370
    18
100
AcDbCircle
 10
-375.3
 20
326.5
 30
0.0
 40
1.0
100
AcDbArc
 50
0.0
 51
90.0
  0
LINE
  5
B4
330
74
100
AcDbEntity
  8
Layer9
  6
AUSGEZOGEN
 62
    18
420
        0
370
    18
100
AcDbLine
 10
-375.3
 20
327.5
 30
0.0
 11
-376.3
 21
327.5
 31
0.0
  0
LINE
  5
B5
330
74
100
AcDbEntity
  8
Layer9
  6
AUSGEZOGEN
 62
    18
420
        0
370
    18
100
AcDbLine
 10
-372.3
 20
310.5
 30
0.0
 11
-372.3
 21
307.5
 31
0.0
  0
LINE
  5
B6
330
74
100
AcDbEntity
  8
Layer9
  6
AUSGEZOGEN
 62
    18
420
        0
370
    18
100
AcDbLine
 10
-374.3
 20
310.5
 30
0.0
 11
-374.3
 21
307.5
 31
0.0
  0
LINE
  5
B7
330
74
100
AcDbEntity
  8
Layer9
  6
AUSGEZOGEN
 62
    18
420
        0
370
    18
100
AcDbLine
 10
-911.776656016055
 20
327.546018131277
 30
0.0
 11
-911.714729033951
 21
327.55764415879
 31
0.0
  0
LINE
  5
B8
330
74
100
AcDbEntity
  8
Layer9
  6
AUSGEZOGEN
 62
    18
420
        0
370
    18
100
AcDbLine
 10
-911.714729033951
 20
327.55764415879
 30
0.0
 11
-911.686440232871
 21
327.563461409477
 31
0.0
  0
LINE
  5
B9
330
74
100
AcDbEntity
  8
Layer9
  6
AUSGEZOGEN
 62
    18
420
        0
370
    18
100
AcDbLine
 10
-911.3
 20
327.671572875254
 30
0.0
 11
-911.151949702905
 21
327.728361402466
 31
0.0
  0
LINE
  5
BA
330
74
100
AcDbEntity
  8
Layer9
  6
AUSGEZOGEN
 62
    18
420
        0
370
    18
100
AcDbLine
 10
-911.151949702905
 20
327.728361402466
 30
0.0
 11
-910.8205988536
 21
327.89013941981
 31
0.0
  0
LINE
  5
BB
330
74
100
AcDbEntity
  8
Layer9
  6
AUSGEZOGEN
 62
    18
420
        0
370
    18
100
AcDbLine
 10
-910.633289300941
 20
328.005591163092
 30
0.0
 11
-910.386828486604
 21
328.189204734225
 31
0.0
  0
LINE
  5
BC
330
74
100
AcDbEntity
  8
Layer9
  6
AUSGEZOGEN
 62
    18
420
        0
370
    18
100
AcDbLine
 10
-910.8205988536
 20
327.89013941981
 30
0.0
 11
-910.633289300941
 21
328.005591163092
 31
0.0
  0
LINE
  5
BD
330
74
100
AcDbEntity
  8
Layer9
  6
AUSGEZOGEN
 62
    18
420
        0
370
    18
100
AcDbLine
 10
-910.386828486604
 20
328.189204734225
 30
0.0
 11
-910.17867965644
 21
328.37867965644
 31
0.0
  0
LINE
  5
BE
330
74
100
AcDbEntity
  8
Layer9
  6
AUSGEZOGEN
 62
    18
420
        0
370
    18
100
AcDbLine
 10
-910.17867965644
 20
328.37867965644
 30
0.0
 11
-910.01206815046
 21
328.559544421569
 31
0.0
  0
LINE
  5
BF
330
74
100
AcDbEntity
  8
Layer9
  6
AUSGEZOGEN
 62
    18
420
        0
370
    18
100
AcDbLine
 10
-909.483637492383
 20
329.466509687665
 30
0.0
 11
-909.35764415879
 21
329.914729033952
 31
0.0
  0
LINE
  5
C0
330
74
100
AcDbEntity
  8
Layer9
  6
AUSGEZOGEN
 62
    18
420
        0
370
    18
100
AcDbLine
 10
-909.35764415879
 20
329.914729033952
 30
0.0
 11
-909.346266132262
 21
329.975160749777
 31
0.0
  0
LINE
  5
C1
330
74
100
AcDbEntity
  8
Layer9
  6
AUSGEZOGEN
 62
    18
420
        0
370
    18
100
AcDbLine
 10
-909.707876986021
 20
328.989735691874
 30
0.0
 11
-909.528361402466
 21
329.351949702905
 31
0.0
  0
LINE
  5
C2
330
74
100
AcDbEntity
  8
Layer9
  6
AUSGEZOGEN
 62
    18
420
        0
370
    18
100
AcDbLine
 10
-909.528361402466
 20
329.351949702905
 30
0.0
 11
-909.483637492383
 21
329.466509687665
 31
0.0
  0
LINE
  5
C3
330
74
100
AcDbEntity
  8
Layer9
  6
AUSGEZOGEN
 62
    18
420
        0
370
    18
100
AcDbLine
 10
-910.01206815046
 20
328.559544421569
 30
0.0
 11
-909.805591163092
 21
328.833289300941
 31
0.0
  0
LINE
  5
C4
330
74
100
AcDbEntity
  8
Layer9
  6
AUSGEZOGEN
 62
    18
420
        0
370
    18
100
AcDbLine
 10
-909.805591163092
 20
328.833289300941
 30
0.0
 11
-909.707876986021
 21
328.989735691874
 31
0.0
  0
LINE
  5
C5
330
74
100
AcDbEntity
  8
Layer9
  6
AUSGEZOGEN
 62
    18
420
        0
370
    18
100
AcDbLine
 10
-911.3
 20
327.671572875254
 30
0.0
 11
-911.3
 21
330.5
 31
0.0
  0
LINE
  5
C6
330
74
100
AcDbEntity
  8
Layer9
  6
AUSGEZOGEN
 62
    18
420
        0
370
    18
100
AcDbLine
 10
-911.3
 20
331.84787360937
 30
0.0
 11
-911.3
 21
330.5
 31
0.0
  0
LINE
  5
C7
330
74
100
AcDbEntity
  8
Layer9
  6
AUSGEZOGEN
 62
    18
420
        0
370
    18
100
AcDbLine
 10
-909.3
 20
331.84787360937
 30
0.0
 11
-911.3
 21
331.84787360937
 31
0.0
  0
LINE
  5
C8
330
74
100
AcDbEntity
  8
Layer9
  6
AUSGEZOGEN
 62
    18
420
        0
370
    18
100
AcDbLine
 10
-909.3
 20
330.5
 30
0.0
 11
-909.3
 21
331.84787360937
 31
0.0
  0
LINE
  5
C9
330
74
100
AcDbEntity
  8
Layer9
  6
AUSGEZOGEN
 62
    18
420
        0
370
    18
100
AcDbLine
 10
-909.3
 20
332.762966084836
 30
0.0
 11
-911.3
 21
332.762966084836
 31
0.0
  0
LINE
  5
CA
330
74
100
AcDbEntity
  8
Layer9
  6
AUSGEZOGEN
 62
    18
420
        0
370
    18
100
AcDbLine
 10
-911.3
 20
372.3452774264
 30
0.0
 11
-911.3
 21
332.762966084836
 31
0.0
  0
LINE
  5
CB
330
74
100
AcDbEntity
  8
Layer9
  6
AUSGEZOGEN
 62
    18
420
        0
370
    18
100
AcDbLine
 10
-909.3
 20
332.762966084836
 30
0.0
 11
-909.3
 21
372.3452774264
 31
0.0
  0
LINE
  5
CC
330
74
100
AcDbEntity
  8
Layer9
  6
AUSGEZOGEN
 62
    18
420
        0
370
    18
100
AcDbLine
 10
-909.3
 20
372.3452774264
 30
0.0
 11
-911.3
 21
372.3452774264
 31
0.0
  0
LINE
  5
CD
330
74
100
AcDbEntity
  8
Layer9
  6
AUSGEZOGEN
 62
    18
420
        0
370
    18
100
AcDbLine
 10
-909.3
 20
372.6
 30
0.0
 11
-911.3
 21
372.6
 31
0.0
  0
LINE
  5
CE
330
74
100
AcDbEntity
  8
Layer9
  6
AUSGEZOGEN
 62
    18
420
        0
370
    18
100
AcDbLine
 10
-917.3
 20
329.5
 30
0.0
 11
-917.3
 21
327.5
 31
0.0
  0
LINE
  5
CF
330
74
100
AcDbEntity
  8
Layer9
  6
AUSGEZOGEN
 62
    18
420
        0
370
    18
100
AcDbLine
 10
-912.3
 20
327.5
 30
0.0
 11
-912.3
 21
329.5
 31
0.0
  0
LINE
  5
D0
330
74
100
AcDbEntity
  8
Layer9
  6
AUSGEZOGEN
 62
    18
420
        0
370
    18
100
AcDbLine
 10
-927.3
 20
329.5
 30
0.0
 11
-927.3
 21
327.5
 31
0.0
  0
LINE
  5
D1
330
74
100
AcDbEntity
  8
Layer9
  6
AUSGEZOGEN
 62
    18
420
        0
370
    18
100
AcDbLine
 10
-917.3
 20
329.5
 30
0.0
 11
-927.3
 21
329.5
 31
0.0
  0
LINE
  5
D2
330
74
100
AcDbEntity
  8
Layer9
  6
AUSGEZOGEN
 62
    18
420
        0
370
    18
100
AcDbLine
 10
-927.3
 20
327.5
 30
0.0
 11
-917.3
 21
327.5
 31
0.0
  0
LINE
  5
D3
330
74
100
AcDbEntity
  8
Layer9
  6
AUSGEZOGEN
 62
    18
420
        0
370
    18
100
AcDbLine
 10
-930.3
 20
326.5
 30
0.0
 11
-928.3
 21
326.5
 31
0.0
  0
LINE
  5
D4
330
74
100
AcDbEntity
  8
Layer9
  6
AUSGEZOGEN
 62
    18
420
        0
370
    18
100
AcDbLine
 10
-930.3
 20
307.5
 30
0.0
 11
-928.3
 21
307.5
 31
0.0
  0
LINE
  5
D5
330
74
100
AcDbEntity
  8
Layer9
  6
AUSGEZOGEN
 62
    18
420
        0
370
    18
100
AcDbLine
 10
-928.3
 20
310.5
 30
0.0
 11
-930.3
 21
310.5
 31
0.0
  0
LINE
  5
D6
330
74
100
AcDbEntity
  8
Layer9
  6
AUSGEZOGEN
 62
    18
420
        0
370
    18
100
AcDbLine
 10
-928.3
 20
310.5
 30
0.0
 11
-928.3
 21
326.5
 31
0.0
  0
LINE
  5
D7
330
74
100
AcDbEntity
  8
Layer9
  6
AUSGEZOGEN
 62
    18
420
        0
370
    18
100
AcDbLine
 10
-930.3
 20
326.5
 30
0.0
 11
-930.3
 21
310.5
 31
0.0
  0
ARC
  5
D8
330
74
100
AcDbEntity
  8
Layer9
  6
AUSGEZOGEN
 62
    18
420
        0
370
    18
100
AcDbCircle
 10
-912.3
 20
330.5
 30
0.0
 40
3.0
100
AcDbArc
 50
270.0
 51
289.471220634491
  0
ARC
  5
D9
330
74
100
AcDbEntity
  8
Layer9
  6
AUSGEZOGEN
 62
    18
420
        0
370
    18
100
AcDbCircle
 10
-912.3
 20
330.5
 30
0.0
 40
3.0
100
AcDbArc
 50
289.471220634491
 51
0.0
  0
ARC
  5
DA
330
74
100
AcDbEntity
  8
Layer9
  6
AUSGEZOGEN
 62
    18
420
        0
370
    18
100
AcDbCircle
 10
-912.3
 20
330.5
 30
0.0
 40
1.0
100
AcDbArc
 50
349.809051660384
 51
0.0
  0
ARC
  5
DB
330
74
100
AcDbEntity
  8
Layer9
  6
AUSGEZOGEN
 62
    18
420
        0
370
    18
100
AcDbCircle
 10
-912.3
 20
330.5
 30
0.0
 40
1.0
100
AcDbArc
 50
339.24006794212
 51
347.207379923336
  0
ARC
  5
DC
330
74
100
AcDbEntity
  8
Layer9
  6
AUSGEZOGEN
 62
    18
420
        0
370
    18
100
AcDbCircle
 10
-912.3
 20
330.5
 30
0.0
 40
1.0
100
AcDbArc
 50
326.932690328938
 51
336.738031764633
  0
ARC
  5
DD
330
74
100
AcDbEntity
  8
Layer9
  6
AUSGEZOGEN
 62
    18
420
        0
370
    18
100
AcDbCircle
 10
-912.3
 20
330.5
 30
0.0
 40
1.0
100
AcDbArc
 50
316.073385892499
 51
324.977620347048
  0
ARC
  5
DE
330
74
100
AcDbEntity
  8
Layer9
  6
AUSGEZOGEN
 62
    18
420
        0
370
    18
100
AcDbCircle
 10
-912.3
 20
330.5
 30
0.0
 40
1.0
100
AcDbArc
 50
304.723322655412
 51
314.503786043125
  0
ARC
  5
DF
330
74
100
AcDbEntity
  8
Layer9
  6
AUSGEZOGEN
 62
    18
420
        0
370
    18
100
AcDbCircle
 10
-912.3
 20
330.5
 30
0.0
 40
1.0
100
AcDbArc
 50
292.900559596053
 51
302.67076586178
  0
ARC
  5
E0
330
74
100
AcDbEntity
  8
Layer9
  6
AUSGEZOGEN
 62
    18
420
        0
370
    18
100
AcDbCircle
 10
-912.3
 20
330.5
 30
0.0
 40
1.0
100
AcDbArc
 50
281.650900968891
 51
291.81370186361
  0
ARC
  5
E1
330
74
100
AcDbEntity
  8
Layer9
  6
AUSGEZOGEN
 62
    18
420
        0
370
    18
100
AcDbCircle
 10
-912.3
 20
330.5
 30
0.0
 40
1.0
100
AcDbArc
 50
270.0
 51
280.801139526635
  0
ARC
  5
E2
330
74
100
AcDbEntity
  8
Layer9
  6
AUSGEZOGEN
 62
    18
420
        0
370
    18
100
AcDbCircle
 10
-912.3
 20
330.5
 30
0.0
 40
1.0
100
AcDbArc
 50
270.0
 51
0.0
  0
LINE
  5
E3
330
74
100
AcDbEntity
  8
Layer9
  6
AUSGEZOGEN
 62
    18
420
        0
370
    18
100
AcDbLine
 10
-911.3
 20
331.84787360937
 30
0.0
 11
-911.3
 21
332.762966084836
 31
0.0
  0
LINE
  5
E4
330
74
100
AcDbEntity
  8
Layer9
  6
AUSGEZOGEN
 62
    18
420
        0
370
    18
100
AcDbLine
 10
-909.3
 20
332.762966084836
 30
0.0
 11
-909.3
 21
331.84787360937
 31
0.0
  0
LINE
  5
E5
330
74
100
AcDbEntity
  8
Layer9
  6
AUSGEZOGEN
 62
    18
420
        0
370
    18
100
AcDbLine
 10
-911.3
 20
372.3452774264
 30
0.0
 11
-911.3
 21
372.6
 31
0.0
  0
LINE
  5
E6
330
74
100
AcDbEntity
  8
Layer9
  6
AUSGEZOGEN
 62
    18
420
        0
370
    18
100
AcDbLine
 10
-909.3
 20
372.3452774264
 30
0.0
 11
-909.3
 21
372.6
 31
0.0
  0
LINE
  5
E7
330
74
100
AcDbEntity
  8
Layer9
  6
AUSGEZOGEN
 62
    18
420
        0
370
    18
100
AcDbLine
 10
-917.3
 20
329.5
 30
0.0
 11
-912.3
 21
329.5
 31
0.0
  0
LINE
  5
E8
330
74
100
AcDbEntity
  8
Layer9
  6
AUSGEZOGEN
 62
    18
420
        0
370
    18
100
AcDbLine
 10
-917.3
 20
327.5
 30
0.0
 11
-912.3
 21
327.5
 31
0.0
  0
ARC
  5
E9
330
74
100
AcDbEntity
  8
Layer9
  6
AUSGEZOGEN
 62
    18
420
        0
370
    18
100
AcDbCircle
 10
-927.3
 20
326.5
 30
0.0
 40
3.0
100
AcDbArc
 50
90.0
 51
180.0
  0
ARC
  5
EA
330
74
100
AcDbEntity
  8
Layer9
  6
AUSGEZOGEN
 62
    18
420
        0
370
    18
100
AcDbCircle
 10
-927.3
 20
326.5
 30
0.0
 40
1.0
100
AcDbArc
 50
90.0
 51
180.0
  0
LINE
  5
EB
330
74
100
AcDbEntity
  8
Layer9
  6
AUSGEZOGEN
 62
    18
420
        0
370
    18
100
AcDbLine
 10
-930.3
 20
310.5
 30
0.0
 11
-930.3
 21
307.5
 31
0.0
  0
LINE
  5
EC
330
74
100
AcDbEntity
  8
Layer9
  6
AUSGEZOGEN
 62
    18
420
        0
370
    18
100
AcDbLine
 10
-928.3
 20
310.5
 30
0.0
 11
-928.3
 21
307.5
 31
0.0
  0
LINE
  5
ED
330
74
100
AcDbEntity
  8
Layer9
  6
AUSGEZOGEN
 62
    18
420
        0
370
    18
100
AcDbLine
 10
-582.3
 20
347.6
 30
0.0
 11
-582.3
 21
267.6
 31
0.0
  0
LINE
  5
EE
330
74
100
AcDbEntity
  8
Layer9
  6
AUSGEZOGEN
 62
    18
420
        0
370
    18
100
AcDbLine
 10
-563.3
 20
267.6
 30
0.0
 11
-563.3
 21
347.6
 31
0.0
  0
LINE
  5
EF
330
74
100
AcDbEntity
  8
Layer9
  6
AUSGEZOGEN
 62
    18
420
        0
370
    18
100
AcDbLine
 10
-593.3
 20
347.6
 30
0.0
 11
-593.3
 21
267.6
 31
0.0
  0
LINE
  5
F0
330
74
100
AcDbEntity
  8
Layer9
  6
AUSGEZOGEN
 62
    18
420
        0
370
    18
100
AcDbLine
 10
-591.4
 20
267.6
 30
0.0
 11
-591.3
 21
267.6
 31
0.0
  0
LINE
  5
F1
330
74
100
AcDbEntity
  8
Layer9
  6
AUSGEZOGEN
 62
    18
420
        0
370
    18
100
AcDbLine
 10
-591.3
 20
267.6
 30
0.0
 11
-591.3
 21
347.6
 31
0.0
  0
LINE
  5
F2
330
74
100
AcDbEntity
  8
Layer9
  6
AUSGEZOGEN
 62
    18
420
        0
370
    18
100
AcDbLine
 10
-711.3
 20
267.6
 30
0.0
 11
-711.2
 21
267.6
 31
0.0
  0
LINE
  5
F3
330
74
100
AcDbEntity
  8
Layer9
  6
AUSGEZOGEN
 62
    18
420
        0
370
    18
100
AcDbLine
 10
-711.3
 20
347.6
 30
0.0
 11
-711.3
 21
267.6
 31
0.0
  0
LINE
  5
F4
330
74
100
AcDbEntity
  8
Layer9
  6
AUSGEZOGEN
 62
    18
420
        0
370
    18
100
AcDbLine
 10
-709.3
 20
267.6
 30
0.0
 11
-709.3
 21
347.6
 31
0.0
  0
LINE
  5
F5
330
74
100
AcDbEntity
  8
Layer9
  6
AUSGEZOGEN
 62
    18
420
        0
370
    18
100
AcDbLine
 10
-739.3
 20
347.6
 30
0.0
 11
-739.3
 21
267.6
 31
0.0
  0
LINE
  5
F6
330
74
100
AcDbEntity
  8
Layer9
  6
AUSGEZOGEN
 62
    18
420
        0
370
    18
100
AcDbLine
 10
-720.3
 20
267.6
 30
0.0
 11
-720.3
 21
347.6
 31
0.0
  0
LINE
  5
F7
330
74
100
AcDbEntity
  8
Layer9
  6
AUSGEZOGEN
 62
    18
420
        0
370
    18
100
AcDbLine
 10
-566.8
 20
258.6
 30
0.0
 11
-566.8
 21
265.1
 31
0.0
  0
LINE
  5
F8
330
74
100
AcDbEntity
  8
Layer9
  6
AUSGEZOGEN
 62
    18
420
        0
370
    18
100
AcDbLine
 10
-569.63104559199
 20
254.6
 30
0.0
 11
-565.8
 21
254.6
 31
0.0
  0
LINE
  5
F9
330
74
100
AcDbEntity
  8
Layer9
  6
AUSGEZOGEN
 62
    18
420
        0
370
    18
100
AcDbLine
 10
-565.8
 20
258.6
 30
0.0
 11
-566.8
 21
258.6
 31
0.0
  0
LINE
  5
FA
330
74
100
AcDbEntity
  8
Layer9
  6
AUSGEZOGEN
 62
    18
420
        0
370
    18
100
AcDbLine
 10
-582.4
 20
265.1
 30
0.0
 11
-582.4
 21
254.6
 31
0.0
  0
LINE
  5
FB
330
74
100
AcDbEntity
  8
Layer9
  6
AUSGEZOGEN
 62
    18
420
        0
370
    18
100
AcDbLine
 10
-582.4
 20
254.6
 30
0.0
 11
-570.96895440801
 21
254.6
 31
0.0
  0
LINE
  5
FC
330
74
100
AcDbEntity
  8
Layer9
  6
AUSGEZOGEN
 62
    18
420
        0
370
    18
100
AcDbLine
 10
-582.4
 20
265.1
 30
0.0
 11
-560.8
 21
265.1
 31
0.0
  0
LINE
  5
FD
330
74
100
AcDbEntity
  8
Layer9
  6
AUSGEZOGEN
 62
    18
420
        0
370
    18
100
AcDbLine
 10
-582.4
 20
267.6
 30
0.0
 11
-582.4
 21
265.1
 31
0.0
  0
LINE
  5
FE
330
74
100
AcDbEntity
  8
Layer9
  6
AUSGEZOGEN
 62
    18
420
        0
370
    18
100
AcDbLine
 10
-563.2
 20
267.6
 30
0.0
 11
-582.4
 21
267.6
 31
0.0
  0
LINE
  5
FF
330
74
100
AcDbEntity
  8
Layer9
  6
AUSGEZOGEN
 62
    18
420
        0
370
    18
100
AcDbLine
 10
-563.2
 20
285.1
 30
0.0
 11
-563.2
 21
267.6
 31
0.0
  0
LINE
  5
100
330
74
100
AcDbEntity
  8
Layer9
  6
AUSGEZOGEN
 62
    18
420
        0
370
    18
100
AcDbLine
 10
-560.8
 20
285.1
 30
0.0
 11
-563.2
 21
285.1
 31
0.0
  0
LINE
  5
101
330
74
100
AcDbEntity
  8
Layer9
  6
AUSGEZOGEN
 62
    18
420
        0
370
    18
100
AcDbLine
 10
-560.8
 20
265.1
 30
0.0
 11
-560.8
 21
285.1
 31
0.0
  0
LINE
  5
102
330
74
100
AcDbEntity
  8
Layer9
  6
AUSGEZOGEN
 62
    18
420
        0
370
    18
100
AcDbLine
 10
-565.8
 20
258.6
 30
0.0
 11
-565.8
 21
254.6
 31
0.0
  0
LINE
  5
103
330
74
100
AcDbEntity
  8
Layer9
  6
AUSGEZOGEN
 62
    18
420
        0
370
    18
100
AcDbLine
 10
-560.8
 20
258.6
 30
0.0
 11
-565.8
 21
258.6
 31
0.0
  0
LINE
  5
104
330
74
100
AcDbEntity
  8
Layer9
  6
AUSGEZOGEN
 62
    18
420
        0
370
    18
100
AcDbLine
 10
-565.8
 20
254.6
 30
0.0
 11
-560.8
 21
254.6
 31
0.0
  0
LINE
  5
105
330
74
100
AcDbEntity
  8
Layer9
  6
AUSGEZOGEN
 62
    18
420
        0
370
    18
100
AcDbLine
 10
-560.8
 20
254.6
 30
0.0
 11
-560.8
 21
258.6
 31
0.0
  0
LINE
  5
106
330
74
100
AcDbEntity
  8
Layer9
  6
AUSGEZOGEN
 62
    18
420
        0
370
    18
100
AcDbLine
 10
-583.62735045483
 20
254.6
 30
0.0
 11
-582.4
 21
254.6
 31
0.0
  0
LINE
  5
107
330
74
100
AcDbEntity
  8
Layer9
  6
AUSGEZOGEN
 62
    18
420
        0
370
    18
100
AcDbLine
 10
-591.4
 20
254.6
 30
0.0
 11
-590.27264954517
 21
254.6
 31
0.0
  0
LINE
  5
108
330
74
100
AcDbEntity
  8
Layer9
  6
AUSGEZOGEN
 62
    18
420
        0
370
    18
100
AcDbLine
 10
-591.3
 20
267.6
 30
0.0
 11
-582.4
 21
267.6
 31
0.0
  0
LINE
  5
109
330
74
100
AcDbEntity
  8
Layer9
  6
AUSGEZOGEN
 62
    18
420
        0
370
    18
100
AcDbLine
 10
-711.2
 20
267.6
 30
0.0
 11
-711.2
 21
254.6
 31
0.0
  0
LINE
  5
10A
330
74
100
AcDbEntity
  8
Layer9
  6
AUSGEZOGEN
 62
    18
420
        0
370
    18
100
AcDbLine
 10
-709.15
 20
267.6
 30
0.0
 11
-711.2
 21
267.6
 31
0.0
  0
LINE
  5
10B
330
74
100
AcDbEntity
  8
Layer9
  6
AUSGEZOGEN
 62
    18
420
        0
370
    18
100
AcDbLine
 10
-711.2
 20
254.6
 30
0.0
 11
-709.15
 21
254.6
 31
0.0
  0
LINE
  5
10C
330
74
100
AcDbEntity
  8
Layer9
  6
AUSGEZOGEN
 62
    18
420
        0
370
    18
100
AcDbLine
 10
-709.15
 20
254.6
 30
0.0
 11
-709.15
 21
267.6
 31
0.0
  0
LINE
  5
10D
330
74
100
AcDbEntity
  8
Layer9
  6
AUSGEZOGEN
 62
    18
420
        0
370
    18
100
AcDbLine
 10
-704.15
 20
254.6
 30
0.0
 11
-704.15
 21
257.6
 31
0.0
  0
LINE
  5
10E
330
74
100
AcDbEntity
  8
Layer9
  6
AUSGEZOGEN
 62
    18
420
        0
370
    18
100
AcDbLine
 10
-598.45
 20
257.6
 30
0.0
 11
-598.45
 21
254.6
 31
0.0
  0
LINE
  5
10F
330
74
100
AcDbEntity
  8
Layer9
  6
AUSGEZOGEN
 62
    18
420
        0
370
    18
100
AcDbLine
 10
-600.15
 20
254.6
 30
0.0
 11
-598.45
 21
254.6
 31
0.0
  0
LINE
  5
110
330
74
100
AcDbEntity
  8
Layer9
  6
AUSGEZOGEN
 62
    18
420
        0
370
    18
100
AcDbLine
 10
-598.45
 20
257.6
 30
0.0
 11
-600.15
 21
257.6
 31
0.0
  0
LINE
  5
111
330
74
100
AcDbEntity
  8
Layer9
  6
AUSGEZOGEN
 62
    18
420
        0
370
    18
100
AcDbLine
 10
-600.15
 20
257.6
 30
0.0
 11
-600.15
 21
254.6
 31
0.0
  0
LINE
  5
112
330
74
100
AcDbEntity
  8
Layer9
  6
AUSGEZOGEN
 62
    18
420
        0
370
    18
100
AcDbLine
 10
-604.9415742375
 20
257.6
 30
0.0
 11
-604.9415742375
 21
254.6
 31
0.0
  0
LINE
  5
113
330
74
100
AcDbEntity
  8
Layer9
  6
AUSGEZOGEN
 62
    18
420
        0
370
    18
100
AcDbLine
 10
-613.566407865
 20
257.6
 30
0.0
 11
-613.566407865
 21
254.6
 31
0.0
  0
LINE
  5
114
330
74
100
AcDbEntity
  8
Layer9
  6
AUSGEZOGEN
 62
    18
420
        0
370
    18
100
AcDbLine
 10
-689.033592135
 20
254.6
 30
0.0
 11
-613.566407865
 21
254.6
 31
0.0
  0
LINE
  5
115
330
74
100
AcDbEntity
  8
Layer9
  6
AUSGEZOGEN
 62
    18
420
        0
370
    18
100
AcDbLine
 10
-613.566407865
 20
257.6
 30
0.0
 11
-689.033592135
 21
257.6
 31
0.0
  0
LINE
  5
116
330
74
100
AcDbEntity
  8
Layer9
  6
AUSGEZOGEN
 62
    18
420
        0
370
    18
100
AcDbLine
 10
-689.033592135
 20
257.6
 30
0.0
 11
-689.033592135
 21
254.6
 31
0.0
  0
LINE
  5
117
330
74
100
AcDbEntity
  8
Layer9
  6
AUSGEZOGEN
 62
    18
420
        0
370
    18
100
AcDbLine
 10
-697.6584257625
 20
257.6
 30
0.0
 11
-697.6584257625
 21
254.6
 31
0.0
  0
LINE
  5
118
330
74
100
AcDbEntity
  8
Layer9
  6
AUSGEZOGEN
 62
    18
420
        0
370
    18
100
AcDbLine
 10
-702.45
 20
257.6
 30
0.0
 11
-702.45
 21
254.6
 31
0.0
  0
LINE
  5
119
330
74
100
AcDbEntity
  8
Layer9
  6
AUSGEZOGEN
 62
    18
420
        0
370
    18
100
AcDbLine
 10
-704.15
 20
254.6
 30
0.0
 11
-702.45
 21
254.6
 31
0.0
  0
LINE
  5
11A
330
74
100
AcDbEntity
  8
Layer9
  6
AUSGEZOGEN
 62
    18
420
        0
370
    18
100
AcDbLine
 10
-702.45
 20
257.6
 30
0.0
 11
-704.15
 21
257.6
 31
0.0
  0
LINE
  5
11B
330
74
100
AcDbEntity
  8
Layer9
  6
AUSGEZOGEN
 62
    18
420
        0
370
    18
100
AcDbLine
 10
-593.45
 20
267.6
 30
0.0
 11
-593.45
 21
254.6
 31
0.0
  0
LINE
  5
11C
330
74
100
AcDbEntity
  8
Layer9
  6
AUSGEZOGEN
 62
    18
420
        0
370
    18
100
AcDbLine
 10
-591.4
 20
267.6
 30
0.0
 11
-593.45
 21
267.6
 31
0.0
  0
LINE
  5
11D
330
74
100
AcDbEntity
  8
Layer9
  6
AUSGEZOGEN
 62
    18
420
        0
370
    18
100
AcDbLine
 10
-593.45
 20
254.6
 30
0.0
 11
-591.4
 21
254.6
 31
0.0
  0
LINE
  5
11E
330
74
100
AcDbEntity
  8
Layer9
  6
AUSGEZOGEN
 62
    18
420
        0
370
    18
100
AcDbLine
 10
-591.4
 20
254.6
 30
0.0
 11
-591.4
 21
267.6
 31
0.0
  0
LINE
  5
11F
330
74
100
AcDbEntity
  8
Layer9
  6
AUSGEZOGEN
 62
    18
420
        0
370
    18
100
AcDbLine
 10
-556.049840090658
 20
285.084316544141
 30
0.0
 11
-556.3
 21
285.1
 31
0.0
  0
LINE
  5
120
330
74
100
AcDbEntity
  8
Layer9
  6
AUSGEZOGEN
 62
    18
420
        0
370
    18
100
AcDbLine
 10
-555.909819355968
 20
285.061570560806
 30
0.0
 11
-556.049840090658
 21
285.084316544141
 31
0.0
  0
LINE
  5
121
330
74
100
AcDbEntity
  8
Layer9
  6
AUSGEZOGEN
 62
    18
420
        0
370
    18
100
AcDbLine
 10
-555.796648931175
 20
285.035580195954
 30
0.0
 11
-555.909819355968
 21
285.061570560806
 31
0.0
  0
LINE
  5
122
330
74
100
AcDbEntity
  8
Layer9
  6
AUSGEZOGEN
 62
    18
420
        0
370
    18
100
AcDbLine
 10
-555.53463313527
 20
284.947759065023
 30
0.0
 11
-555.54503188489
 21
284.952056870144
 31
0.0
  0
LINE
  5
123
330
74
100
AcDbEntity
  8
Layer9
  6
AUSGEZOGEN
 62
    18
420
        0
370
    18
100
AcDbLine
 10
-555.188859533961
 20
284.762939224605
 30
0.0
 11
-555.301093797872
 21
284.832681851738
 31
0.0
  0
LINE
  5
124
330
74
100
AcDbEntity
  8
Layer9
  6
AUSGEZOGEN
 62
    18
420
        0
370
    18
100
AcDbLine
 10
-555.301093797872
 20
284.832681851738
 30
0.0
 11
-555.53463313527
 21
284.947759065023
 31
0.0
  0
LINE
  5
125
330
74
100
AcDbEntity
  8
Layer9
  6
AUSGEZOGEN
 62
    18
420
        0
370
    18
100
AcDbLine
 10
-555.070920733034
 20
284.677748806969
 30
0.0
 11
-555.188859533961
 21
284.762939224605
 31
0.0
  0
LINE
  5
126
330
74
100
AcDbEntity
  8
Layer9
  6
AUSGEZOGEN
 62
    18
420
        0
370
    18
100
AcDbLine
 10
-554.885786437627
 20
284.514213562373
 30
0.0
 11
-555.070920733034
 21
284.677748806969
 31
0.0
  0
LINE
  5
127
330
74
100
AcDbEntity
  8
Layer9
  6
AUSGEZOGEN
 62
    18
420
        0
370
    18
100
AcDbLine
 10
-554.864528573456
 20
284.492478228652
 30
0.0
 11
-554.885786437627
 21
284.514213562373
 31
0.0
  0
LINE
  5
128
330
74
100
AcDbEntity
  8
Layer9
  6
AUSGEZOGEN
 62
    18
420
        0
370
    18
100
AcDbLine
 10
-554.637060775395
 20
284.211140466039
 30
0.0
 11
-554.690351845729
 21
284.28716810961
 31
0.0
  0
LINE
  5
129
330
74
100
AcDbEntity
  8
Layer9
  6
AUSGEZOGEN
 62
    18
420
        0
370
    18
100
AcDbLine
 10
-554.452240934977
 20
283.86536686473
 30
0.0
 11
-554.55
 21
284.06824583655
 31
0.0
  0
LINE
  5
12A
330
74
100
AcDbEntity
  8
Layer9
  6
AUSGEZOGEN
 62
    18
420
        0
370
    18
100
AcDbLine
 10
-554.55
 20
284.06824583655
 30
0.0
 11
-554.637060775395
 21
284.211140466039
 31
0.0
  0
LINE
  5
12B
330
74
100
AcDbEntity
  8
Layer9
  6
AUSGEZOGEN
 62
    18
420
        0
370
    18
100
AcDbLine
 10
-554.412436744609
 20
283.761139135809
 30
0.0
 11
-554.452240934977
 21
283.86536686473
 31
0.0
  0
LINE
  5
12C
330
74
100
AcDbEntity
  8
Layer9
  6
AUSGEZOGEN
 62
    18
420
        0
370
    18
100
AcDbLine
 10
-554.338429439193
 20
283.490180644032
 30
0.0
 11
-554.412436744609
 21
283.761139135809
 31
0.0
  0
LINE
  5
12D
330
74
100
AcDbEntity
  8
Layer9
  6
AUSGEZOGEN
 62
    18
420
        0
370
    18
100
AcDbLine
 10
-554.328309543718
 20
283.435315887797
 30
0.0
 11
-554.338429439193
 21
283.490180644032
 31
0.0
  0
LINE
  5
12E
330
74
100
AcDbEntity
  8
Layer9
  6
AUSGEZOGEN
 62
    18
420
        0
370
    18
100
AcDbLine
 10
-554.3
 20
283.1
 30
0.0
 11
-554.328309543718
 21
283.435315887797
 31
0.0
  0
LINE
  5
12F
330
74
100
AcDbEntity
  8
Layer9
  6
AUSGEZOGEN
 62
    18
420
        0
370
    18
100
AcDbLine
 10
-556.3
 20
285.1
 30
0.0
 11
-557.6
 21
285.1
 31
0.0
  0
LINE
  5
130
330
74
100
AcDbEntity
  8
Layer9
  6
AUSGEZOGEN
 62
    18
420
        0
370
    18
100
AcDbLine
 10
-557.6
 20
285.1
 30
0.0
 11
-558.3
 21
282.1
 31
0.0
  0
LINE
  5
131
330
74
100
AcDbEntity
  8
Layer9
  6
AUSGEZOGEN
 62
    18
420
        0
370
    18
100
AcDbLine
 10
-558.3
 20
282.1
 30
0.0
 11
-558.3
 21
279.6
 31
0.0
  0
LINE
  5
132
330
74
100
AcDbEntity
  8
Layer9
  6
AUSGEZOGEN
 62
    18
420
        0
370
    18
100
AcDbLine
 10
-558.3
 20
279.6
 30
0.0
 11
-560.8
 21
279.6
 31
0.0
  0
LINE
  5
133
330
74
100
AcDbEntity
  8
Layer9
  6
AUSGEZOGEN
 62
    18
420
        0
370
    18
100
AcDbLine
 10
-560.8
 20
254.6
 30
0.0
 11
-557.8
 21
254.6
 31
0.0
  0
LINE
  5
134
330
74
100
AcDbEntity
  8
Layer9
  6
AUSGEZOGEN
 62
    18
420
        0
370
    18
100
AcDbLine
 10
-554.3
 20
279.6
 30
0.0
 11
-554.3
 21
283.1
 31
0.0
  0
LINE
  5
135
330
74
100
AcDbEntity
  8
Layer9
  6
AUSGEZOGEN
 62
    18
420
        0
370
    18
100
AcDbLine
 10
-556.96335089465
 20
254.6
 30
0.0
 11
-556.96335089465
 21
279.6
 31
0.0
  0
LINE
  5
136
330
74
100
AcDbEntity
  8
Layer9
  6
AUSGEZOGEN
 62
    18
420
        0
370
    18
100
AcDbLine
 10
-557.8
 20
254.6
 30
0.0
 11
-556.96335089465
 21
254.6
 31
0.0
  0
LINE
  5
137
330
74
100
AcDbEntity
  8
Layer9
  6
AUSGEZOGEN
 62
    18
420
        0
370
    18
100
AcDbLine
 10
-556.96335089465
 20
279.6
 30
0.0
 11
-557.8
 21
279.6
 31
0.0
  0
LINE
  5
138
330
74
100
AcDbEntity
  8
Layer9
  6
AUSGEZOGEN
 62
    18
420
        0
370
    18
100
AcDbLine
 10
-557.8
 20
279.6
 30
0.0
 11
-557.8
 21
254.6
 31
0.0
  0
LINE
  5
139
330
74
100
AcDbEntity
  8
Layer9
  6
AUSGEZOGEN
 62
    18
420
        0
370
    18
100
AcDbLine
 10
-550.8
 20
254.6
 30
0.0
 11
-550.8
 21
279.6
 31
0.0
  0
LINE
  5
13A
330
74
100
AcDbEntity
  8
Layer9
  6
AUSGEZOGEN
 62
    18
420
        0
370
    18
100
AcDbLine
 10
-560.8
 20
258.6
 30
0.0
 11
-560.8
 21
265.1
 31
0.0
  0
LINE
  5
13B
330
74
100
AcDbEntity
  8
Layer9
  6
AUSGEZOGEN
 62
    18
420
        0
370
    18
100
AcDbLine
 10
-741.8
 20
265.1
 30
0.0
 11
-741.8
 21
258.6
 31
0.0
  0
LINE
  5
13C
330
74
100
AcDbEntity
  8
Layer9
  6
AUSGEZOGEN
 62
    18
420
        0
370
    18
100
AcDbLine
 10
-735.8
 20
258.6
 30
0.0
 11
-736.8
 21
258.6
 31
0.0
  0
LINE
  5
13D
330
74
100
AcDbEntity
  8
Layer9
  6
AUSGEZOGEN
 62
    18
420
        0
370
    18
100
AcDbLine
 10
-736.8
 20
254.6
 30
0.0
 11
-732.96895440801
 21
254.6
 31
0.0
  0
LINE
  5
13E
330
74
100
AcDbEntity
  8
Layer9
  6
AUSGEZOGEN
 62
    18
420
        0
370
    18
100
AcDbLine
 10
-731.63104559199
 20
254.6
 30
0.0
 11
-720.2
 21
254.6
 31
0.0
  0
LINE
  5
13F
330
74
100
AcDbEntity
  8
Layer9
  6
AUSGEZOGEN
 62
    18
420
        0
370
    18
100
AcDbLine
 10
-720.2
 20
254.6
 30
0.0
 11
-720.2
 21
265.1
 31
0.0
  0
LINE
  5
140
330
74
100
AcDbEntity
  8
Layer9
  6
AUSGEZOGEN
 62
    18
420
        0
370
    18
100
AcDbLine
 10
-735.8
 20
265.1
 30
0.0
 11
-735.8
 21
258.6
 31
0.0
  0
LINE
  5
141
330
74
100
AcDbEntity
  8
Layer9
  6
AUSGEZOGEN
 62
    18
420
        0
370
    18
100
AcDbLine
 10
-741.8
 20
258.6
 30
0.0
 11
-741.8
 21
254.6
 31
0.0
  0
LINE
  5
142
330
74
100
AcDbEntity
  8
Layer9
  6
AUSGEZOGEN
 62
    18
420
        0
370
    18
100
AcDbLine
 10
-736.8
 20
258.6
 30
0.0
 11
-741.8
 21
258.6
 31
0.0
  0
LINE
  5
143
330
74
100
AcDbEntity
  8
Layer9
  6
AUSGEZOGEN
 62
    18
420
        0
370
    18
100
AcDbLine
 10
-741.8
 20
254.6
 30
0.0
 11
-736.8
 21
254.6
 31
0.0
  0
LINE
  5
144
330
74
100
AcDbEntity
  8
Layer9
  6
AUSGEZOGEN
 62
    18
420
        0
370
    18
100
AcDbLine
 10
-736.8
 20
254.6
 30
0.0
 11
-736.8
 21
258.6
 31
0.0
  0
LINE
  5
145
330
74
100
AcDbEntity
  8
Layer9
  6
AUSGEZOGEN
 62
    18
420
        0
370
    18
100
AcDbLine
 10
-720.2
 20
267.6
 30
0.0
 11
-739.4
 21
267.6
 31
0.0
  0
LINE
  5
146
330
74
100
AcDbEntity
  8
Layer9
  6
AUSGEZOGEN
 62
    18
420
        0
370
    18
100
AcDbLine
 10
-720.2
 20
265.1
 30
0.0
 11
-720.2
 21
267.6
 31
0.0
  0
LINE
  5
147
330
74
100
AcDbEntity
  8
Layer9
  6
AUSGEZOGEN
 62
    18
420
        0
370
    18
100
AcDbLine
 10
-741.8
 20
265.1
 30
0.0
 11
-720.2
 21
265.1
 31
0.0
  0
LINE
  5
148
330
74
100
AcDbEntity
  8
Layer9
  6
AUSGEZOGEN
 62
    18
420
        0
370
    18
100
AcDbLine
 10
-741.8
 20
285.1
 30
0.0
 11
-741.8
 21
265.1
 31
0.0
  0
LINE
  5
149
330
74
100
AcDbEntity
  8
Layer9
  6
AUSGEZOGEN
 62
    18
420
        0
370
    18
100
AcDbLine
 10
-739.4
 20
267.6
 30
0.0
 11
-739.4
 21
285.1
 31
0.0
  0
LINE
  5
14A
330
74
100
AcDbEntity
  8
Layer9
  6
AUSGEZOGEN
 62
    18
420
        0
370
    18
100
AcDbLine
 10
-739.4
 20
285.1
 30
0.0
 11
-741.8
 21
285.1
 31
0.0
  0
LINE
  5
14B
330
74
100
AcDbEntity
  8
Layer9
  6
AUSGEZOGEN
 62
    18
420
        0
370
    18
100
AcDbLine
 10
-748.3
 20
283.1
 30
0.0
 11
-748.3
 21
279.6
 31
0.0
  0
LINE
  5
14C
330
74
100
AcDbEntity
  8
Layer9
  6
AUSGEZOGEN
 62
    18
420
        0
370
    18
100
AcDbLine
 10
-744.8
 20
254.6
 30
0.0
 11
-741.8
 21
254.6
 31
0.0
  0
LINE
  5
14D
330
74
100
AcDbEntity
  8
Layer9
  6
AUSGEZOGEN
 62
    18
420
        0
370
    18
100
AcDbLine
 10
-741.8
 20
279.6
 30
0.0
 11
-744.3
 21
279.6
 31
0.0
  0
LINE
  5
14E
330
74
100
AcDbEntity
  8
Layer9
  6
AUSGEZOGEN
 62
    18
420
        0
370
    18
100
AcDbLine
 10
-744.3
 20
282.1
 30
0.0
 11
-745.0
 21
285.1
 31
0.0
  0
LINE
  5
14F
330
74
100
AcDbEntity
  8
Layer9
  6
AUSGEZOGEN
 62
    18
420
        0
370
    18
100
AcDbLine
 10
-744.3
 20
279.6
 30
0.0
 11
-744.3
 21
282.1
 31
0.0
  0
LINE
  5
150
330
74
100
AcDbEntity
  8
Layer9
  6
AUSGEZOGEN
 62
    18
420
        0
370
    18
100
AcDbLine
 10
-745.0
 20
285.1
 30
0.0
 11
-746.3
 21
285.1
 31
0.0
  0
LINE
  5
151
330
74
100
AcDbEntity
  8
Layer9
  6
AUSGEZOGEN
 62
    18
420
        0
370
    18
100
AcDbLine
 10
-746.3
 20
285.1
 30
0.0
 11
-746.550160999505
 21
285.084316414256
 31
0.0
  0
LINE
  5
152
330
74
100
AcDbEntity
  8
Layer9
  6
AUSGEZOGEN
 62
    18
420
        0
370
    18
100
AcDbLine
 10
-746.550160999505
 20
285.084316414256
 30
0.0
 11
-746.690180644032
 21
285.061570560806
 31
0.0
  0
LINE
  5
153
330
74
100
AcDbEntity
  8
Layer9
  6
AUSGEZOGEN
 62
    18
420
        0
370
    18
100
AcDbLine
 10
-747.05499653499
 20
284.952045083749
 30
0.0
 11
-747.06536686473
 21
284.947759065023
 31
0.0
  0
LINE
  5
154
330
74
100
AcDbEntity
  8
Layer9
  6
AUSGEZOGEN
 62
    18
420
        0
370
    18
100
AcDbLine
 10
-747.29894459444
 20
284.83265971767
 30
0.0
 11
-747.411140466039
 21
284.762939224605
 31
0.0
  0
LINE
  5
155
330
74
100
AcDbEntity
  8
Layer9
  6
AUSGEZOGEN
 62
    18
420
        0
370
    18
100
AcDbLine
 10
-747.06536686473
 20
284.947759065023
 30
0.0
 11
-747.29894459444
 21
284.83265971767
 31
0.0
  0
LINE
  5
156
330
74
100
AcDbEntity
  8
Layer9
  6
AUSGEZOGEN
 62
    18
420
        0
370
    18
100
AcDbLine
 10
-747.411140466039
 20
284.762939224605
 30
0.0
 11
-747.529109428447
 21
284.677725526885
 31
0.0
  0
LINE
  5
157
330
74
100
AcDbEntity
  8
Layer9
  6
AUSGEZOGEN
 62
    18
420
        0
370
    18
100
AcDbLine
 10
-747.529109428447
 20
284.677725526885
 30
0.0
 11
-747.714213562373
 21
284.514213562373
 31
0.0
  0
LINE
  5
158
330
74
100
AcDbEntity
  8
Layer9
  6
AUSGEZOGEN
 62
    18
420
        0
370
    18
100
AcDbLine
 10
-747.909654237662
 20
284.287159843366
 30
0.0
 11
-747.962939224605
 21
284.211140466039
 31
0.0
  0
LINE
  5
159
330
74
100
AcDbEntity
  8
Layer9
  6
AUSGEZOGEN
 62
    18
420
        0
370
    18
100
AcDbLine
 10
-748.05
 20
284.06824583655
 30
0.0
 11
-748.147759065023
 21
283.86536686473
 31
0.0
  0
LINE
  5
15A
330
74
100
AcDbEntity
  8
Layer9
  6
AUSGEZOGEN
 62
    18
420
        0
370
    18
100
AcDbLine
 10
-747.962939224605
 20
284.211140466039
 30
0.0
 11
-748.05
 21
284.06824583655
 31
0.0
  0
LINE
  5
15B
330
74
100
AcDbEntity
  8
Layer9
  6
AUSGEZOGEN
 62
    18
420
        0
370
    18
100
AcDbLine
 10
-748.147759065023
 20
283.86536686473
 30
0.0
 11
-748.187563255391
 21
283.761139135808
 31
0.0
  0
LINE
  5
15C
330
74
100
AcDbEntity
  8
Layer9
  6
AUSGEZOGEN
 62
    18
420
        0
370
    18
100
AcDbLine
 10
-748.187563255391
 20
283.761139135808
 30
0.0
 11
-748.261570560807
 21
283.490180644032
 31
0.0
  0
LINE
  5
15D
330
74
100
AcDbEntity
  8
Layer9
  6
AUSGEZOGEN
 62
    18
420
        0
370
    18
100
AcDbLine
 10
-748.261570560807
 20
283.490180644032
 30
0.0
 11
-748.271690456281
 21
283.435315887797
 31
0.0
  0
LINE
  5
15E
330
74
100
AcDbEntity
  8
Layer9
  6
AUSGEZOGEN
 62
    18
420
        0
370
    18
100
AcDbLine
 10
-748.271690456281
 20
283.435315887797
 30
0.0
 11
-748.3
 21
283.1
 31
0.0
  0
LINE
  5
15F
330
74
100
AcDbEntity
  8
Layer9
  6
AUSGEZOGEN
 62
    18
420
        0
370
    18
100
AcDbLine
 10
-747.714213562373
 20
284.514213562373
 30
0.0
 11
-747.73548782261
 21
284.492461270992
 31
0.0
  0
LINE
  5
160
330
74
100
AcDbEntity
  8
Layer9
  6
AUSGEZOGEN
 62
    18
420
        0
370
    18
100
AcDbLine
 10
-746.690180644032
 20
285.061570560806
 30
0.0
 11
-746.803363084232
 21
285.035577114954
 31
0.0
  0
LINE
  5
161
330
74
100
AcDbEntity
  8
Layer9
  6
AUSGEZOGEN
 62
    18
420
        0
370
    18
100
AcDbLine
 10
-745.63664910535
 20
254.6
 30
0.0
 11
-745.63664910535
 21
279.6
 31
0.0
  0
LINE
  5
162
330
74
100
AcDbEntity
  8
Layer9
  6
AUSGEZOGEN
 62
    18
420
        0
370
    18
100
AcDbLine
 10
-751.8
 20
279.6
 30
0.0
 11
-751.8
 21
254.6
 31
0.0
  0
LINE
  5
163
330
74
100
AcDbEntity
  8
Layer9
  6
AUSGEZOGEN
 62
    18
420
        0
370
    18
100
AcDbLine
 10
-744.8
 20
279.6
 30
0.0
 11
-745.63664910535
 21
279.6
 31
0.0
  0
LINE
  5
164
330
74
100
AcDbEntity
  8
Layer9
  6
AUSGEZOGEN
 62
    18
420
        0
370
    18
100
AcDbLine
 10
-744.8
 20
254.6
 30
0.0
 11
-744.8
 21
279.6
 31
0.0
  0
LINE
  5
165
330
74
100
AcDbEntity
  8
Layer9
  6
AUSGEZOGEN
 62
    18
420
        0
370
    18
100
AcDbLine
 10
-745.63664910535
 20
254.6
 30
0.0
 11
-744.8
 21
254.6
 31
0.0
  0
LINE
  5
166
330
74
100
AcDbEntity
  8
Layer9
  6
AUSGEZOGEN
 62
    18
420
        0
370
    18
100
AcDbLine
 10
-712.32735045483
 20
254.6
 30
0.0
 11
-711.2
 21
254.6
 31
0.0
  0
LINE
  5
167
330
74
100
AcDbEntity
  8
Layer9
  6
AUSGEZOGEN
 62
    18
420
        0
370
    18
100
AcDbLine
 10
-720.2
 20
254.6
 30
0.0
 11
-718.97264954517
 21
254.6
 31
0.0
  0
LINE
  5
168
330
74
100
AcDbEntity
  8
Layer9
  6
AUSGEZOGEN
 62
    18
420
        0
370
    18
100
AcDbLine
 10
-720.2
 20
267.6
 30
0.0
 11
-711.3
 21
267.6
 31
0.0
  0
LINE
  5
169
330
74
100
AcDbEntity
  8
Layer9
  6
AUSGEZOGEN
 62
    18
420
        0
370
    18
100
AcDbLine
 10
-589.54091727139
 20
264.3705975678
 30
0.0
 11
-584.35908272861
 21
264.3705975678
 31
0.0
  0
LINE
  5
16A
330
74
100
AcDbEntity
  8
Layer9
  6
AUSGEZOGEN
 62
    18
420
        0
370
    18
100
AcDbLine
 10
-583.62735045483
 20
254.6
 30
0.0
 11
-590.27264954517
 21
254.6
 31
0.0
  0
LINE
  5
16B
330
74
100
AcDbEntity
  8
Layer9
  6
AUSGEZOGEN
 62
    18
420
        0
370
    18
100
AcDbLine
 10
-704.15
 20
254.6
 30
0.0
 11
-709.15
 21
254.6
 31
0.0
  0
LINE
  5
16C
330
74
100
AcDbEntity
  8
Layer9
  6
AUSGEZOGEN
 62
    18
420
        0
370
    18
100
AcDbLine
 10
-704.15
 20
257.6
 30
0.0
 11
-709.15
 21
257.6
 31
0.0
  0
LINE
  5
16D
330
74
100
AcDbEntity
  8
Layer9
  6
AUSGEZOGEN
 62
    18
420
        0
370
    18
100
AcDbLine
 10
-598.45
 20
254.6
 30
0.0
 11
-593.45
 21
254.6
 31
0.0
  0
LINE
  5
16E
330
74
100
AcDbEntity
  8
Layer9
  6
AUSGEZOGEN
 62
    18
420
        0
370
    18
100
AcDbLine
 10
-598.45
 20
257.6
 30
0.0
 11
-593.45
 21
257.6
 31
0.0
  0
LINE
  5
16F
330
74
100
AcDbEntity
  8
Layer9
  6
AUSGEZOGEN
 62
    18
420
        0
370
    18
100
AcDbLine
 10
-600.15
 20
254.6
 30
0.0
 11
-604.9415742375
 21
254.6
 31
0.0
  0
LINE
  5
170
330
74
100
AcDbEntity
  8
Layer9
  6
AUSGEZOGEN
 62
    18
420
        0
370
    18
100
AcDbLine
 10
-600.15
 20
257.6
 30
0.0
 11
-604.9415742375
 21
257.6
 31
0.0
  0
LINE
  5
171
330
74
100
AcDbEntity
  8
Layer9
  6
AUSGEZOGEN
 62
    18
420
        0
370
    18
100
AcDbLine
 10
-604.9415742375
 20
254.6
 30
0.0
 11
-613.566407865
 21
254.6
 31
0.0
  0
LINE
  5
172
330
74
100
AcDbEntity
  8
Layer9
  6
AUSGEZOGEN
 62
    18
420
        0
370
    18
100
AcDbLine
 10
-604.9415742375
 20
257.6
 30
0.0
 11
-613.566407865
 21
257.6
 31
0.0
  0
LINE
  5
173
330
74
100
AcDbEntity
  8
Layer9
  6
AUSGEZOGEN
 62
    18
420
        0
370
    18
100
AcDbLine
 10
-689.033592135
 20
254.6
 30
0.0
 11
-697.6584257625
 21
254.6
 31
0.0
  0
LINE
  5
174
330
74
100
AcDbEntity
  8
Layer9
  6
AUSGEZOGEN
 62
    18
420
        0
370
    18
100
AcDbLine
 10
-689.033592135
 20
257.6
 30
0.0
 11
-697.6584257625
 21
257.6
 31
0.0
  0
LINE
  5
175
330
74
100
AcDbEntity
  8
Layer9
  6
AUSGEZOGEN
 62
    18
420
        0
370
    18
100
AcDbLine
 10
-697.6584257625
 20
254.6
 30
0.0
 11
-702.45
 21
254.6
 31
0.0
  0
LINE
  5
176
330
74
100
AcDbEntity
  8
Layer9
  6
AUSGEZOGEN
 62
    18
420
        0
370
    18
100
AcDbLine
 10
-697.6584257625
 20
257.6
 30
0.0
 11
-702.45
 21
257.6
 31
0.0
  0
ARC
  5
177
330
74
100
AcDbEntity
  8
Layer9
  6
AUSGEZOGEN
 62
    18
420
        0
370
    18
100
AcDbCircle
 10
-556.3
 20
283.1
 30
0.0
 40
2.0
100
AcDbArc
 50
0.0
 51
90.0
  0
ARC
  5
178
330
74
100
AcDbEntity
  8
Layer9
  6
AUSGEZOGEN
 62
    18
420
        0
370
    18
100
AcDbCircle
 10
-556.3
 20
283.1
 30
0.0
 40
2.0
100
AcDbArc
 50
67.822340939292
 51
75.42300509582
  0
ARC
  5
179
330
74
100
AcDbEntity
  8
Layer9
  6
AUSGEZOGEN
 62
    18
420
        0
370
    18
100
AcDbCircle
 10
-556.3
 20
283.1
 30
0.0
 40
2.0
100
AcDbArc
 50
36.409987161523
 51
44.129001810267
  0
LINE
  5
17A
330
74
100
AcDbEntity
  8
Layer9
  6
AUSGEZOGEN
 62
    18
420
        0
370
    18
100
AcDbLine
 10
-556.96335089465
 20
254.6
 30
0.0
 11
-550.8
 21
254.6
 31
0.0
  0
LINE
  5
17B
330
74
100
AcDbEntity
  8
Layer9
  6
AUSGEZOGEN
 62
    18
420
        0
370
    18
100
AcDbLine
 10
-556.96335089465
 20
279.6
 30
0.0
 11
-550.8
 21
279.6
 31
0.0
  0
ARC
  5
17C
330
74
100
AcDbEntity
  8
Layer9
  6
AUSGEZOGEN
 62
    18
420
        0
370
    18
100
AcDbCircle
 10
-746.3
 20
283.1
 30
0.0
 40
2.0
100
AcDbArc
 50
90.0
 51
180.0
  0
ARC
  5
17D
330
74
100
AcDbEntity
  8
Layer9
  6
AUSGEZOGEN
 62
    18
420
        0
370
    18
100
AcDbCircle
 10
-746.3
 20
283.1
 30
0.0
 40
2.0
100
AcDbArc
 50
104.577350261816
 51
112.178540444312
  0
ARC
  5
17E
330
74
100
AcDbEntity
  8
Layer9
  6
AUSGEZOGEN
 62
    18
420
        0
370
    18
100
AcDbCircle
 10
-746.3
 20
283.1
 30
0.0
 40
2.0
100
AcDbArc
 50
135.871673970936
 51
143.590306852223
  0
LINE
  5
17F
330
74
100
AcDbEntity
  8
Layer9
  6
AUSGEZOGEN
 62
    18
420
        0
370
    18
100
AcDbLine
 10
-745.63664910535
 20
254.6
 30
0.0
 11
-751.8
 21
254.6
 31
0.0
  0
LINE
  5
180
330
74
100
AcDbEntity
  8
Layer9
  6
AUSGEZOGEN
 62
    18
420
        0
370
    18
100
AcDbLine
 10
-745.63664910535
 20
279.6
 30
0.0
 11
-751.8
 21
279.6
 31
0.0
  0
LINE
  5
181
330
74
100
AcDbEntity
  8
Layer9
  6
AUSGEZOGEN
 62
    18
420
        0
370
    18
100
AcDbLine
 10
-718.24091727139
 20
264.3705975678
 30
0.0
 11
-713.05908272861
 21
264.3705975678
 31
0.0
  0
LINE
  5
182
330
74
100
AcDbEntity
  8
Layer9
  6
AUSGEZOGEN
 62
    18
420
        0
370
    18
100
AcDbLine
 10
-712.32735045483
 20
254.6
 30
0.0
 11
-718.97264954517
 21
254.6
 31
0.0
  0
LWPOLYLINE
  5
183
330
74
100
AcDbEntity
  8
Layer9
  6
AUSGEZOGEN
 62
    18
420
        0
370
    18
100
AcDbPolyline
 90
        3
 70
     0
 43
0.0
 10
-570.96895440801
 20
254.6
 10
-570.633736887249
 20
254.637503890916
 10
-570.3
 20
254.65
  0
LWPOLYLINE
  5
184
330
74
100
AcDbEntity
  8
Layer9
  6
AUSGEZOGEN
 62
    18
420
        0
370
    18
100
AcDbPolyline
 90
        3
 70
     0
 43
0.0
 10
-570.3
 20
254.65
 10
-569.966245496819
 20
254.637502547731
 10
-569.63104559199
 20
254.6
  0
LWPOLYLINE
  5
185
330
74
100
AcDbEntity
  8
Layer9
  6
AUSGEZOGEN
 62
    18
420
        0
370
    18
100
AcDbPolyline
 90
       19
 70
     0
 43
0.0
 10
-589.54091727139
 20
264.3705975678
 10
-589.452752903114
 20
264.785214985888
 10
-589.329548362265
 20
265.155910101845
 10
-589.01553628958
 20
265.773439787056
 10
-588.65505542238
 20
266.245031920807
 10
-588.281190132678
 20
266.595466381497
 10
-587.914511246375
 20
266.844226436176
 10
-587.572291713706
 20
267.004857442679
 10
-587.257086487806
 20
267.093218307767
 10
-586.947888371483
 20
267.122124215785
 10
-586.638577605438
 20
267.092395262661
 10
-586.323126294282
 20
267.003148451743
 10
-585.981652453282
 20
266.84204832672
 10
-585.615988878993
 20
266.593218906743
 10
-585.243035564271
 20
266.242937510003
 10
-584.883430823887
 20
265.771812919738
 10
-584.570159129109
 20
265.155173895499
 10
-584.447165612801
 20
264.784908967578
 10
-584.35908272861
 20
264.3705975678
  0
LWPOLYLINE
  5
186
330
74
100
AcDbEntity
  8
Layer9
  6
AUSGEZOGEN
 62
    18
420
        0
370
    18
100
AcDbPolyline
 90
        3
 70
     0
 43
0.0
 10
-584.35908272861
 20
264.3705975678
 10
-583.816400585632
 20
259.601768632431
 10
-583.62735045483
 20
254.6
  0
LWPOLYLINE
  5
187
330
74
100
AcDbEntity
  8
Layer9
  6
AUSGEZOGEN
 62
    18
420
        0
370
    18
100
AcDbPolyline
 90
        3
 70
     0
 43
0.0
 10
-590.27264954517
 20
254.6
 10
-590.083599414368
 20
259.601768632431
 10
-589.54091727139
 20
264.3705975678
  0
LWPOLYLINE
  5
188
330
74
100
AcDbEntity
  8
Layer9
  6
AUSGEZOGEN
 62
    18
420
        0
370
    18
100
AcDbPolyline
 90
        3
 70
     0
 43
0.0
 10
-732.96895440801
 20
254.6
 10
-732.633754503181
 20
254.637502547731
 10
-732.3
 20
254.65
  0
LWPOLYLINE
  5
189
330
74
100
AcDbEntity
  8
Layer9
  6
AUSGEZOGEN
 62
    18
420
        0
370
    18
100
AcDbPolyline
 90
        3
 70
     0
 43
0.0
 10
-732.3
 20
254.65
 10
-731.966263112751
 20
254.637503890916
 10
-731.63104559199
 20
254.6
  0
LWPOLYLINE
  5
18A
330
74
100
AcDbEntity
  8
Layer9
  6
AUSGEZOGEN
 62
    18
420
        0
370
    18
100
AcDbPolyline
 90
       19
 70
     0
 43
0.0
 10
-718.24091727139
 20
264.3705975678
 10
-718.152762083245
 20
264.785179217817
 10
-718.029594863657
 20
265.15579407665
 10
-717.715735414234
 20
265.773125860581
 10
-717.355444995363
 20
266.244604973579
 10
-716.981778135507
 20
266.594998370132
 10
-716.615320886752
 20
266.84376730123
 10
-716.273268844398
 20
267.004494276154
 10
-715.958004052272
 20
267.093045112574
 10
-715.648740262715
 20
267.12212510169
 10
-715.339413424498
 20
267.092554242671
 10
-715.023977573163
 20
267.003467229161
 10
-714.682407177406
 20
266.842477737793
 10
-714.316562330391
 20
266.593676215125
 10
-713.943427155619
 20
266.243367478276
 10
-713.583645310889
 20
265.772150483948
 10
-713.270225239241
 20
265.155341129336
 10
-713.14718653774
 20
264.784986555264
 10
-713.05908272861
 20
264.3705975678
  0
LWPOLYLINE
  5
18B
330
74
100
AcDbEntity
  8
Layer9
  6
AUSGEZOGEN
 62
    18
420
        0
370
    18
100
AcDbPolyline
 90
        3
 70
     0
 43
0.0
 10
-713.05908272861
 20
264.3705975678
 10
-712.516603085918
 20
259.604432985681
 10
-712.32735045483
 20
254.6
  0
LWPOLYLINE
  5
18C
330
74
100
AcDbEntity
  8
Layer9
  6
AUSGEZOGEN
 62
    18
420
        0
370
    18
100
AcDbPolyline
 90
        3
 70
     0
 43
0.0
 10
-718.97264954517
 20
254.6
 10
-718.783396914081
 20
259.604432985681
 10
-718.24091727139
 20
264.3705975678
  0
LINE
  5
18D
330
74
100
AcDbEntity
  8
Layer9
  6
AUSGEZOGEN
 62
   253
420
 10066329
370
    18
100
AcDbLine
 10
-708.8
 20
268.1
 30
0.0
 11
-593.8
 21
268.1
 31
0.0
  0
LINE
  5
18E
330
74
100
AcDbEntity
  8
Layer9
  6
AUSGEZOGEN
 62
   253
420
 10066329
370
    18
100
AcDbLine
 10
-593.8
 20
268.1
 30
0.0
 11
-593.8
 21
347.6
 31
0.0
  0
LINE
  5
18F
330
74
100
AcDbEntity
  8
Layer9
  6
AUSGEZOGEN
 62
   253
420
 10066329
370
    18
100
AcDbLine
 10
-701.8
 20
318.1
 30
0.0
 11
-701.8
 21
303.1
 31
0.0
  0
LINE
  5
190
330
74
100
AcDbEntity
  8
Layer9
  6
AUSGEZOGEN
 62
   253
420
 10066329
370
    18
100
AcDbLine
 10
-701.2
 20
332.0
 30
0.0
 11
-708.8
 21
332.0
 31
0.0
  0
LINE
  5
191
330
74
100
AcDbEntity
  8
Layer9
  6
AUSGEZOGEN
 62
   253
420
 10066329
370
    18
100
AcDbLine
 10
-708.8
 20
332.0
 30
0.0
 11
-708.8
 21
268.1
 31
0.0
  0
LINE
  5
192
330
74
100
AcDbEntity
  8
Layer9
  6
AUSGEZOGEN
 62
   253
420
 10066329
370
    18
100
AcDbLine
 10
-701.8
 20
303.1
 30
0.0
 11
-707.8
 21
303.1
 31
0.0
  0
LINE
  5
193
330
74
100
AcDbEntity
  8
Layer9
  6
AUSGEZOGEN
 62
   253
420
 10066329
370
    18
100
AcDbLine
 10
-701.2
 20
347.6
 30
0.0
 11
-701.2
 21
332.0
 31
0.0
  0
LINE
  5
194
330
74
100
AcDbEntity
  8
Layer9
  6
AUSGEZOGEN
 62
   253
420
 10066329
370
    18
100
AcDbLine
 10
-707.8
 20
303.1
 30
0.0
 11
-707.8
 21
318.1
 31
0.0
  0
LINE
  5
195
330
74
100
AcDbEntity
  8
Layer9
  6
AUSGEZOGEN
 62
   253
420
 10066329
370
    18
100
AcDbLine
 10
-707.8
 20
318.1
 30
0.0
 11
-701.8
 21
318.1
 31
0.0
  0
LINE
  5
196
330
74
100
AcDbEntity
  8
Layer9
  6
AUSGEZOGEN
 62
   253
420
 10066329
370
    18
100
AcDbLine
 10
-708.8
 20
332.0
 30
0.0
 11
-709.3
 21
332.0
 31
0.0
  0
LINE
  5
197
330
74
100
AcDbEntity
  8
Layer9
  6
AUSGEZOGEN
 62
   253
420
 10066329
370
    18
100
AcDbLine
 10
-709.3
 20
268.1
 30
0.0
 11
-708.8
 21
268.1
 31
0.0
  0
LINE
  5
198
330
74
100
AcDbEntity
  8
Layer9
  6
AUSGEZOGEN
 62
   253
420
 10066329
370
    18
100
AcDbLine
 10
-593.8
 20
268.1
 30
0.0
 11
-593.3
 21
268.1
 31
0.0
  0
LINE
  5
199
330
74
100
AcDbEntity
  8
Layer9
  6
AUSGEZOGEN
 62
   253
420
 10066329
370
    18
100
AcDbLine
 10
-732.3
 20
254.65
 30
0.0
 11
-732.3
 21
254.6
 31
0.0
  0
LINE
  5
19A
330
74
100
AcDbEntity
  8
Layer9
  6
AUSGEZOGEN
 62
   253
420
 10066329
370
    18
100
AcDbLine
 10
-732.3
 20
254.6
 30
0.0
 11
-731.63104559199
 21
254.6
 31
0.0
  0
LINE
  5
19B
330
74
100
AcDbEntity
  8
Layer9
  6
AUSGEZOGEN
 62
   253
420
 10066329
370
    18
100
AcDbLine
 10
-732.3
 20
254.6
 30
0.0
 11
-732.96895440801
 21
254.6
 31
0.0
  0
LINE
  5
19C
330
74
100
AcDbEntity
  8
Layer9
  6
AUSGEZOGEN
 62
   253
420
 10066329
370
    18
100
AcDbLine
 10
-570.3
 20
254.65
 30
0.0
 11
-570.3
 21
254.6
 31
0.0
  0
LINE
  5
19D
330
74
100
AcDbEntity
  8
Layer9
  6
AUSGEZOGEN
 62
   253
420
 10066329
370
    18
100
AcDbLine
 10
-570.3
 20
254.6
 30
0.0
 11
-569.63104559199
 21
254.6
 31
0.0
  0
LINE
  5
19E
330
74
100
AcDbEntity
  8
Layer9
  6
AUSGEZOGEN
 62
   253
420
 10066329
370
    18
100
AcDbLine
 10
-570.3
 20
254.6
 30
0.0
 11
-570.96895440801
 21
254.6
 31
0.0
  0
LINE
  5
19F
330
74
100
AcDbEntity
  8
Layer9
  6
AUSGEZOGEN
 62
   253
420
 10066329
370
    18
100
AcDbLine
 10
-732.3
 20
367.7
 30
0.0
 11
-732.3
 21
367.6
 31
0.0
  0
LINE
  5
1A0
330
74
100
AcDbEntity
  8
Layer9
  6
AUSGEZOGEN
 62
   253
420
 10066329
370
    18
100
AcDbLine
 10
-728.2
 20
367.6
 30
0.0
 11
-728.1
 21
367.7
 31
0.0
  0
LINE
  5
1A1
330
74
100
AcDbEntity
  8
Layer9
  6
AUSGEZOGEN
 62
   253
420
 10066329
370
    18
100
AcDbLine
 10
-736.5
 20
367.7
 30
0.0
 11
-736.4
 21
367.6
 31
0.0
  0
LINE
  5
1A2
330
74
100
AcDbEntity
  8
Layer9
  6
AUSGEZOGEN
 62
   253
420
 10066329
370
    18
100
AcDbLine
 10
-732.3
 20
367.7
 30
0.0
 11
-732.3
 21
368.2
 31
0.0
  0
LINE
  5
1A3
330
74
100
AcDbEntity
  8
Layer9
  6
AUSGEZOGEN
 62
   253
420
 10066329
370
    18
100
AcDbLine
 10
-736.5
 20
368.2
 30
0.0
 11
-736.5
 21
367.7
 31
0.0
  0
LINE
  5
1A4
330
74
100
AcDbEntity
  8
Layer9
  6
AUSGEZOGEN
 62
   253
420
 10066329
370
    18
100
AcDbLine
 10
-728.1
 20
367.7
 30
0.0
 11
-728.1
 21
368.2
 31
0.0
  0
LINE
  5
1A5
330
74
100
AcDbEntity
  8
Layer9
  6
AUSGEZOGEN
 62
   253
420
 10066329
370
    18
100
AcDbLine
 10
-732.3
 20
367.7
 30
0.0
 11
-728.1
 21
367.7
 31
0.0
  0
LINE
  5
1A6
330
74
100
AcDbEntity
  8
Layer9
  6
AUSGEZOGEN
 62
   253
420
 10066329
370
    18
100
AcDbLine
 10
-732.3
 20
367.7
 30
0.0
 11
-736.5
 21
367.7
 31
0.0
  0
LINE
  5
1A7
330
74
100
AcDbEntity
  8
Layer9
  6
AUSGEZOGEN
 62
   253
420
 10066329
370
    18
100
AcDbLine
 10
-732.3
 20
368.2
 30
0.0
 11
-736.5
 21
368.2
 31
0.0
  0
LINE
  5
1A8
330
74
100
AcDbEntity
  8
Layer9
  6
AUSGEZOGEN
 62
   253
420
 10066329
370
    18
100
AcDbLine
 10
-732.3
 20
368.2
 30
0.0
 11
-728.1
 21
368.2
 31
0.0
  0
LINE
  5
1A9
330
74
100
AcDbEntity
  8
Layer9
  6
AUSGEZOGEN
 62
   253
420
 10066329
370
    18
100
AcDbLine
 10
-570.3
 20
367.7
 30
0.0
 11
-570.3
 21
367.6
 31
0.0
  0
LINE
  5
1AA
330
74
100
AcDbEntity
  8
Layer9
  6
AUSGEZOGEN
 62
   253
420
 10066329
370
    18
100
AcDbLine
 10
-566.2
 20
367.6
 30
0.0
 11
-566.1
 21
367.7
 31
0.0
  0
LINE
  5
1AB
330
74
100
AcDbEntity
  8
Layer9
  6
AUSGEZOGEN
 62
   253
420
 10066329
370
    18
100
AcDbLine
 10
-574.5
 20
367.7
 30
0.0
 11
-574.4
 21
367.6
 31
0.0
  0
LINE
  5
1AC
330
74
100
AcDbEntity
  8
Layer9
  6
AUSGEZOGEN
 62
   253
420
 10066329
370
    18
100
AcDbLine
 10
-570.3
 20
367.7
 30
0.0
 11
-570.3
 21
368.2
 31
0.0
  0
LINE
  5
1AD
330
74
100
AcDbEntity
  8
Layer9
  6
AUSGEZOGEN
 62
   253
420
 10066329
370
    18
100
AcDbLine
 10
-574.5
 20
368.2
 30
0.0
 11
-574.5
 21
367.7
 31
0.0
  0
LINE
  5
1AE
330
74
100
AcDbEntity
  8
Layer9
  6
AUSGEZOGEN
 62
   253
420
 10066329
370
    18
100
AcDbLine
 10
-566.1
 20
367.7
 30
0.0
 11
-566.1
 21
368.2
 31
0.0
  0
LINE
  5
1AF
330
74
100
AcDbEntity
  8
Layer9
  6
AUSGEZOGEN
 62
   253
420
 10066329
370
    18
100
AcDbLine
 10
-570.3
 20
367.7
 30
0.0
 11
-566.1
 21
367.7
 31
0.0
  0
LINE
  5
1B0
330
74
100
AcDbEntity
  8
Layer9
  6
AUSGEZOGEN
 62
   253
420
 10066329
370
    18
100
AcDbLine
 10
-570.3
 20
367.7
 30
0.0
 11
-574.5
 21
367.7
 31
0.0
  0
LINE
  5
1B1
330
74
100
AcDbEntity
  8
Layer9
  6
AUSGEZOGEN
 62
   253
420
 10066329
370
    18
100
AcDbLine
 10
-570.3
 20
368.2
 30
0.0
 11
-574.5
 21
368.2
 31
0.0
  0
LINE
  5
1B2
330
74
100
AcDbEntity
  8
Layer9
  6
AUSGEZOGEN
 62
   253
420
 10066329
370
    18
100
AcDbLine
 10
-570.3
 20
368.2
 30
0.0
 11
-566.1
 21
368.2
 31
0.0
  0
ENDBLK
  5
76
330
74
100
AcDbEntity
  8
0
100
AcDbBlockEnd
  0
BLOCK
  5
1B5
330
1B4
100
AcDbEntity
  8
0
100
AcDbBlockBegin
  2
Draufsicht-SL_nNn01
 70
     0
 10
0.0
 20
0.0
 30
0.0
  3
Draufsicht-SL_nNn01
  1

  0
LINE
  5
1B7
330
1B4
100
AcDbEntity
  8
Layer9
  6
AUSGEZOGEN
 62
    18
420
        0
370
    18
100
AcDbLine
 10
-72.75
 20
327.5
 30
0.0
 11
-70.75
 21
327.5
 31
0.0
  0
LWPOLYLINE
  5
1B8
330
1B4
100
AcDbEntity
  8
Layer9
  6
AUSGEZOGEN
 62
    18
420
        0
370
    18
100
AcDbPolyline
 90
        2
 70
     0
 43
0.0
 10
-22.23856639018
 20
329.972024044925
 10
-22.242234745506
 20
330.03003310405
  0
LWPOLYLINE
  5
1B9
330
1B4
100
AcDbEntity
  8
Layer9
  6
AUSGEZOGEN
 62
    18
420
        0
370
    18
100
AcDbPolyline
 90
        2
 70
     0
 43
0.0
 10
-22.224227317632
 20
329.866754205884
 10
-22.234714364623
 20
329.943658359848
  0
LWPOLYLINE
  5
1BA
330
1B4
100
AcDbEntity
  8
Layer9
  6
AUSGEZOGEN
 62
    18
420
        0
370
    18
100
AcDbPolyline
 90
        2
 70
     0
 43
0.0
 10
-22.200610729134
 20
329.775872677119
 10
-22.217847255299
 20
329.842171753226
  0
LWPOLYLINE
  5
1BB
330
1B4
100
AcDbEntity
  8
Layer9
  6
AUSGEZOGEN
 62
    18
420
        0
370
    18
100
AcDbPolyline
 90
        2
 70
     0
 43
0.0
 10
-21.823129442217
 20
329.517616374071
 10
-21.885194477416
 20
329.526247136015
  0
LWPOLYLINE
  5
1BC
330
1B4
100
AcDbEntity
  8
Layer9
  6
AUSGEZOGEN
 62
    18
420
        0
370
    18
100
AcDbPolyline
 90
        2
 70
     0
 43
0.0
 10
-21.708013340761
 20
329.506986827644
 10
-21.779693850572
 20
329.511600956541
  0
LWPOLYLINE
  5
1BD
330
1B4
100
AcDbEntity
  8
Layer9
  6
AUSGEZOGEN
 62
    18
420
        0
370
    18
100
AcDbPolyline
 90
        2
 70
     0
 43
0.0
 10
-21.578964604916
 20
329.501972919192
 10
-21.660244253023
 20
329.503924077074
  0
LWPOLYLINE
  5
1BE
330
1B4
100
AcDbEntity
  8
Layer9
  6
AUSGEZOGEN
 62
    18
420
        0
370
    18
100
AcDbPolyline
 90
        2
 70
     0
 43
0.0
 10
-21.437449588192
 20
329.500252315143
 10
-21.529999703637
 20
329.500801636726
  0
LWPOLYLINE
  5
1BF
330
1B4
100
AcDbEntity
  8
Layer9
  6
AUSGEZOGEN
 62
    18
420
        0
370
    18
100
AcDbPolyline
 90
        2
 70
     0
 43
0.0
 10
-21.92703203194
 20
329.53720487584
 10
-21.976398249489
 20
329.55018524536
  0
LWPOLYLINE
  5
1C0
330
1B4
100
AcDbEntity
  8
Layer9
  6
AUSGEZOGEN
 62
    18
420
        0
370
    18
100
AcDbPolyline
 90
        2
 70
     0
 43
0.0
 10
-22.013434594523
 20
329.567168501321
 10
-22.053631023128
 20
329.585672644249
  0
LWPOLYLINE
  5
1C1
330
1B4
100
AcDbEntity
  8
Layer9
  6
AUSGEZOGEN
 62
    18
420
        0
370
    18
100
AcDbPolyline
 90
        2
 70
     0
 43
0.0
 10
-22.090631466939
 20
329.614375028124
 10
-22.116546145968
 20
329.634521441008
  0
LWPOLYLINE
  5
1C2
330
1B4
100
AcDbEntity
  8
Layer9
  6
AUSGEZOGEN
 62
    18
420
        0
370
    18
100
AcDbPolyline
 90
        2
 70
     0
 43
0.0
 10
-22.249209640419
 20
330.22092348197
 10
-22.25
 20
330.353666727289
  0
LINE
  5
1C3
330
1B4
100
AcDbEntity
  8
Layer9
  6
AUSGEZOGEN
 62
    18
420
        0
370
    18
100
AcDbLine
 10
-113.88168340753
 20
372.6
 30
0.0
 11
-144.25
 21
372.6
 31
0.0
  0
LINE
  5
1C4
330
1B4
100
AcDbEntity
  8
Layer9
  6
AUSGEZOGEN
 62
    18
420
        0
370
    18
100
AcDbLine
 10
-147.25
 20
330.5
 30
0.0
 11
-22.25
 21
330.5
 31
0.0
  0
LINE
  5
1C5
330
1B4
100
AcDbEntity
  8
Layer9
  6
AUSGEZOGEN
 62
    18
420
        0
370
    18
100
AcDbLine
 10
-22.25
 20
330.5
 30
0.0
 11
-22.25
 21
331.84787360937
 31
0.0
  0
LINE
  5
1C6
330
1B4
100
AcDbEntity
  8
Layer9
  6
AUSGEZOGEN
 62
    18
420
        0
370
    18
100
AcDbLine
 10
-22.8467559531
 20
332.762966084836
 30
0.0
 11
-112.67195126689
 21
372.3452774264
 31
0.0
  0
LINE
  5
1C7
330
1B4
100
AcDbEntity
  8
Layer9
  6
AUSGEZOGEN
 62
    18
420
        0
370
    18
100
AcDbLine
 10
-147.25
 20
369.6
 30
0.0
 11
-147.25
 21
330.5
 31
0.0
  0
LINE
  5
1C8
330
1B4
100
AcDbEntity
  8
Layer9
  6
AUSGEZOGEN
 62
    18
420
        0
370
    18
100
AcDbLine
 10
-142.25
 20
327.5
 30
0.0
 11
-142.25
 21
329.5
 31
0.0
  0
LINE
  5
1C9
330
1B4
100
AcDbEntity
  8
Layer9
  6
AUSGEZOGEN
 62
    18
420
        0
370
    18
100
AcDbLine
 10
-147.25
 20
329.5
 30
0.0
 11
-147.25
 21
327.5
 31
0.0
  0
LINE
  5
1CA
330
1B4
100
AcDbEntity
  8
Layer9
  6
AUSGEZOGEN
 62
    18
420
        0
370
    18
100
AcDbLine
 10
-22.25
 20
330.353573281351
 30
0.0
 11
-22.25
 21
330.5
 31
0.0
  0
LINE
  5
1CB
330
1B4
100
AcDbEntity
  8
Layer9
  6
AUSGEZOGEN
 62
    18
420
        0
370
    18
100
AcDbLine
 10
-70.75
 20
326.5
 30
0.0
 11
-14.75
 21
326.5
 31
0.0
  0
LINE
  5
1CC
330
1B4
100
AcDbEntity
  8
Layer9
  6
AUSGEZOGEN
 62
    18
420
        0
370
    18
100
AcDbLine
 10
-14.75
 20
329.5
 30
0.0
 11
-70.75
 21
329.5
 31
0.0
  0
LINE
  5
1CD
330
1B4
100
AcDbEntity
  8
Layer9
  6
AUSGEZOGEN
 62
    18
420
        0
370
    18
100
AcDbLine
 10
-72.75
 20
329.5
 30
0.0
 11
-72.75
 21
327.5
 31
0.0
  0
LINE
  5
1CE
330
1B4
100
AcDbEntity
  8
Layer9
  6
AUSGEZOGEN
 62
    18
420
        0
370
    18
100
AcDbLine
 10
-142.25
 20
327.5
 30
0.0
 11
-72.75
 21
327.5
 31
0.0
  0
LINE
  5
1CF
330
1B4
100
AcDbEntity
  8
Layer9
  6
AUSGEZOGEN
 62
    18
420
        0
370
    18
100
AcDbLine
 10
-72.75
 20
329.5
 30
0.0
 11
-142.25
 21
329.5
 31
0.0
  0
LINE
  5
1D0
330
1B4
100
AcDbEntity
  8
Layer9
  6
AUSGEZOGEN
 62
    18
420
        0
370
    18
100
AcDbLine
 10
-14.75
 20
310.5
 30
0.0
 11
-14.75
 21
326.5
 31
0.0
  0
LINE
  5
1D1
330
1B4
100
AcDbEntity
  8
Layer9
  6
AUSGEZOGEN
 62
    18
420
        0
370
    18
100
AcDbLine
 10
-67.75
 20
307.5
 30
0.0
 11
-17.75
 21
307.5
 31
0.0
  0
LINE
  5
1D2
330
1B4
100
AcDbEntity
  8
Layer9
  6
AUSGEZOGEN
 62
    18
420
        0
370
    18
100
AcDbLine
 10
-70.75
 20
326.5
 30
0.0
 11
-70.75
 21
310.5
 31
0.0
  0
ARC
  5
1D3
330
1B4
100
AcDbEntity
  8
Layer9
  6
AUSGEZOGEN
 62
    18
420
        0
370
    18
100
AcDbCircle
 10
-144.25
 20
369.6
 30
0.0
 40
3.0
100
AcDbArc
 50
90.0
 51
180.0
  0
ARC
  5
1D4
330
1B4
100
AcDbEntity
  8
Layer9
  6
AUSGEZOGEN
 62
    18
420
        0
370
    18
100
AcDbCircle
 10
-23.25
 20
331.84787360937
 30
0.0
 40
1.0
100
AcDbArc
 50
0.0
 51
66.218863202648
  0
ARC
  5
1D5
330
1B4
100
AcDbEntity
  8
Layer9
  6
AUSGEZOGEN
 62
    18
420
        0
370
    18
100
AcDbCircle
 10
-113.88168340753
 20
369.6
 30
0.0
 40
3.0
100
AcDbArc
 50
66.218863203712
 51
90.0
  0
LINE
  5
1D6
330
1B4
100
AcDbEntity
  8
Layer9
  6
AUSGEZOGEN
 62
    18
420
        0
370
    18
100
AcDbLine
 10
-142.25
 20
327.5
 30
0.0
 11
-147.25
 21
327.5
 31
0.0
  0
LINE
  5
1D7
330
1B4
100
AcDbEntity
  8
Layer9
  6
AUSGEZOGEN
 62
    18
420
        0
370
    18
100
AcDbLine
 10
-142.25
 20
329.5
 30
0.0
 11
-147.25
 21
329.5
 31
0.0
  0
LINE
  5
1D8
330
1B4
100
AcDbEntity
  8
Layer9
  6
AUSGEZOGEN
 62
    18
420
        0
370
    18
100
AcDbLine
 10
-147.25
 20
330.5
 30
0.0
 11
-147.25
 21
329.5
 31
0.0
  0
LINE
  5
1D9
330
1B4
100
AcDbEntity
  8
Layer9
  6
AUSGEZOGEN
 62
    18
420
        0
370
    18
100
AcDbLine
 10
-70.75
 20
326.5
 30
0.0
 11
-70.75
 21
329.5
 31
0.0
  0
LINE
  5
1DA
330
1B4
100
AcDbEntity
  8
Layer9
  6
AUSGEZOGEN
 62
    18
420
        0
370
    18
100
AcDbLine
 10
-14.75
 20
326.5
 30
0.0
 11
-14.75
 21
329.5
 31
0.0
  0
LINE
  5
1DB
330
1B4
100
AcDbEntity
  8
Layer9
  6
AUSGEZOGEN
 62
    18
420
        0
370
    18
100
AcDbLine
 10
-70.75
 20
327.5
 30
0.0
 11
-72.75
 21
327.5
 31
0.0
  0
LINE
  5
1DC
330
1B4
100
AcDbEntity
  8
Layer9
  6
AUSGEZOGEN
 62
    18
420
        0
370
    18
100
AcDbLine
 10
-70.75
 20
329.5
 30
0.0
 11
-72.75
 21
329.5
 31
0.0
  0
ARC
  5
1DD
330
1B4
100
AcDbEntity
  8
Layer9
  6
AUSGEZOGEN
 62
    18
420
        0
370
    18
100
AcDbCircle
 10
-31.25
 20
315.0
 30
0.0
 40
3.25
100
AcDbArc
 50
180.0
 51
0.0
  0
ARC
  5
1DE
330
1B4
100
AcDbEntity
  8
Layer9
  6
AUSGEZOGEN
 62
    18
420
        0
370
    18
100
AcDbCircle
 10
-22.25
 20
315.0
 30
0.0
 40
3.25
100
AcDbArc
 50
180.0
 51
0.0
  0
ARC
  5
1DF
330
1B4
100
AcDbEntity
  8
Layer9
  6
AUSGEZOGEN
 62
    18
420
        0
370
    18
100
AcDbCircle
 10
-22.25
 20
315.0
 30
0.0
 40
3.25
100
AcDbArc
 50
0.0
 51
180.0
  0
ARC
  5
1E0
330
1B4
100
AcDbEntity
  8
Layer9
  6
AUSGEZOGEN
 62
    18
420
        0
370
    18
100
AcDbCircle
 10
-17.75
 20
310.5
 30
0.0
 40
3.0
100
AcDbArc
 50
270.0
 51
0.0
  0
ARC
  5
1E1
330
1B4
100
AcDbEntity
  8
Layer9
  6
AUSGEZOGEN
 62
    18
420
        0
370
    18
100
AcDbCircle
 10
-54.25
 20
315.0
 30
0.0
 40
3.25
100
AcDbArc
 50
0.0
 51
180.0
  0
ARC
  5
1E2
330
1B4
100
AcDbEntity
  8
Layer9
  6
AUSGEZOGEN
 62
    18
420
        0
370
    18
100
AcDbCircle
 10
-63.25
 20
315.0
 30
0.0
 40
3.25
100
AcDbArc
 50
0.0
 51
180.0
  0
ARC
  5
1E3
330
1B4
100
AcDbEntity
  8
Layer9
  6
AUSGEZOGEN
 62
    18
420
        0
370
    18
100
AcDbCircle
 10
-63.25
 20
315.0
 30
0.0
 40
3.25
100
AcDbArc
 50
180.0
 51
0.0
  0
ARC
  5
1E4
330
1B4
100
AcDbEntity
  8
Layer9
  6
AUSGEZOGEN
 62
    18
420
        0
370
    18
100
AcDbCircle
 10
-67.75
 20
310.5
 30
0.0
 40
3.0
100
AcDbArc
 50
180.0
 51
270.0
  0
ARC
  5
1E5
330
1B4
100
AcDbEntity
  8
Layer9
  6
AUSGEZOGEN
 62
    18
420
        0
370
    18
100
AcDbCircle
 10
-54.25
 20
315.0
 30
0.0
 40
3.25
100
AcDbArc
 50
180.0
 51
0.0
  0
ARC
  5
1E6
330
1B4
100
AcDbEntity
  8
Layer9
  6
AUSGEZOGEN
 62
    18
420
        0
370
    18
100
AcDbCircle
 10
-31.25
 20
315.0
 30
0.0
 40
3.25
100
AcDbArc
 50
0.0
 51
180.0
  0
LWPOLYLINE
  5
1E7
330
1B4
100
AcDbEntity
  8
Layer9
  6
AUSGEZOGEN
 62
    18
420
        0
370
    18
100
AcDbPolyline
 90
       16
 70
     0
 43
0.0
 10
-21.394788689292
 20
329.5
 10
-21.529891971092
 20
329.500799059671
 10
-21.660073113462
 20
329.503913104333
 10
-21.779448072
 20
329.51156691854
 10
-21.884908115017
 20
329.526172134388
 10
-21.976139988533
 20
329.550066818125
 10
-22.053404617121
 20
329.585497014136
 10
-22.116464161833
 20
329.634414245198
 10
-22.165226257185
 20
329.698171608693
 10
-22.20067919505
 20
329.776023022016
 10
-22.224318675612
 20
329.867106209222
 10
-22.23858937495
 20
329.972193301003
 10
-22.246105589283
 20
330.091450410825
 10
-22.249211119517
 20
330.220985176627
 10
-22.250020288227
 20
330.356983148416
 10
-22.25
 20
330.5
  0
LINE
  5
1E8
330
1B4
100
AcDbEntity
  8
Layer9
  6
AUSGEZOGEN
 62
    18
420
        0
370
    18
100
AcDbLine
 10
-144.55
 20
309.35
 30
0.0
 11
-144.55
 21
306.35
 31
0.0
  0
LINE
  5
1E9
330
1B4
100
AcDbEntity
  8
Layer9
  6
AUSGEZOGEN
 62
    18
420
        0
370
    18
100
AcDbLine
 10
-144.55
 20
268.1
 30
0.0
 11
-144.55
 21
267.6
 31
0.0
  0
LINE
  5
1EA
330
1B4
100
AcDbEntity
  8
Layer9
  6
AUSGEZOGEN
 62
    18
420
        0
370
    18
100
AcDbLine
 10
-142.55
 20
267.6
 30
0.0
 11
-142.55
 21
268.1
 31
0.0
  0
LINE
  5
1EB
330
1B4
100
AcDbEntity
  8
Layer9
  6
AUSGEZOGEN
 62
    18
420
        0
370
    18
100
AcDbLine
 10
-142.55
 20
306.35
 30
0.0
 11
-142.55
 21
309.35
 31
0.0
  0
LINE
  5
1EC
330
1B4
100
AcDbEntity
  8
Layer9
  6
AUSGEZOGEN
 62
    18
420
        0
370
    18
100
AcDbLine
 10
-139.55
 20
327.5
 30
0.0
 11
-139.55
 21
267.6
 31
0.0
  0
LINE
  5
1ED
330
1B4
100
AcDbEntity
  8
Layer9
  6
AUSGEZOGEN
 62
    18
420
        0
370
    18
100
AcDbLine
 10
-137.55
 20
327.5
 30
0.0
 11
-137.55
 21
285.1
 31
0.0
  0
LINE
  5
1EE
330
1B4
100
AcDbEntity
  8
Layer9
  6
AUSGEZOGEN
 62
    18
420
        0
370
    18
100
AcDbLine
 10
-131.45
 20
285.1
 30
0.0
 11
-131.45
 21
327.5
 31
0.0
  0
LINE
  5
1EF
330
1B4
100
AcDbEntity
  8
Layer9
  6
AUSGEZOGEN
 62
    18
420
        0
370
    18
100
AcDbLine
 10
-129.55
 20
327.5
 30
0.0
 11
-129.55
 21
285.1
 31
0.0
  0
LINE
  5
1F0
330
1B4
100
AcDbEntity
  8
Layer9
  6
AUSGEZOGEN
 62
    18
420
        0
370
    18
100
AcDbLine
 10
-126.55
 20
285.1
 30
0.0
 11
-126.55
 21
327.5
 31
0.0
  0
LINE
  5
1F1
330
1B4
100
AcDbEntity
  8
Layer9
  6
AUSGEZOGEN
 62
    18
420
        0
370
    18
100
AcDbLine
 10
-126.45
 20
258.6
 30
0.0
 11
-126.45
 21
265.1
 31
0.0
  0
LINE
  5
1F2
330
1B4
100
AcDbEntity
  8
Layer9
  6
AUSGEZOGEN
 62
    18
420
        0
370
    18
100
AcDbLine
 10
-126.45
 20
265.1
 30
0.0
 11
-126.45
 21
285.1
 31
0.0
  0
LINE
  5
1F3
330
1B4
100
AcDbEntity
  8
Layer9
  6
AUSGEZOGEN
 62
    18
420
        0
370
    18
100
AcDbLine
 10
-127.760742404146
 20
265.1
 30
0.0
 11
-126.45
 21
265.1
 31
0.0
  0
LINE
  5
1F4
330
1B4
100
AcDbEntity
  8
Layer9
  6
AUSGEZOGEN
 62
    18
420
        0
370
    18
100
AcDbLine
 10
-127.760742404146
 20
254.6
 30
0.0
 11
-126.45
 21
254.6
 31
0.0
  0
LINE
  5
1F5
330
1B4
100
AcDbEntity
  8
Layer9
  6
AUSGEZOGEN
 62
    18
420
        0
370
    18
100
AcDbLine
 10
-126.45
 20
254.6
 30
0.0
 11
-126.45
 21
258.6
 31
0.0
  0
LINE
  5
1F6
330
1B4
100
AcDbEntity
  8
Layer9
  6
AUSGEZOGEN
 62
    18
420
        0
370
    18
100
AcDbLine
 10
-126.45
 20
258.6
 30
0.0
 11
-127.760742404146
 21
258.6
 31
0.0
  0
LINE
  5
1F7
330
1B4
100
AcDbEntity
  8
Layer9
  6
AUSGEZOGEN
 62
    18
420
        0
370
    18
100
AcDbLine
 10
-126.45
 20
285.1
 30
0.0
 11
-135.75
 21
285.1
 31
0.0
  0
LINE
  5
1F8
330
1B4
100
AcDbEntity
  8
Layer9
  6
AUSGEZOGEN
 62
    18
420
        0
370
    18
100
AcDbLine
 10
-136.85747221048
 20
285.1
 30
0.0
 11
-137.75
 21
285.1
 31
0.0
  0
LINE
  5
1F9
330
1B4
100
AcDbEntity
  8
Layer9
  6
AUSGEZOGEN
 62
    18
420
        0
370
    18
100
AcDbLine
 10
-137.75
 20
285.1
 30
0.0
 11
-137.75
 21
284.06824583655
 31
0.0
  0
LINE
  5
1FA
330
1B4
100
AcDbEntity
  8
Layer9
  6
AUSGEZOGEN
 62
    18
420
        0
370
    18
100
AcDbLine
 10
-135.75
 20
285.1
 30
0.0
 11
-136.79152149017
 21
285.1
 31
0.0
  0
LINE
  5
1FB
330
1B4
100
AcDbEntity
  8
Layer9
  6
AUSGEZOGEN
 62
    18
420
        0
370
    18
100
AcDbLine
 10
-137.75
 20
283.1
 30
0.0
 11
-135.75
 21
283.1
 31
0.0
  0
LINE
  5
1FC
330
1B4
100
AcDbEntity
  8
Layer9
  6
AUSGEZOGEN
 62
    18
420
        0
370
    18
100
AcDbLine
 10
-137.75
 20
283.1
 30
0.0
 11
-137.75
 21
279.6
 31
0.0
  0
LINE
  5
1FD
330
1B4
100
AcDbEntity
  8
Layer9
  6
AUSGEZOGEN
 62
    18
420
        0
370
    18
100
AcDbLine
 10
-135.75
 20
279.6
 30
0.0
 11
-135.75
 21
283.1
 31
0.0
  0
LINE
  5
1FE
330
1B4
100
AcDbEntity
  8
Layer9
  6
AUSGEZOGEN
 62
    18
420
        0
370
    18
100
AcDbLine
 10
-137.75
 20
279.6
 30
0.0
 11
-137.75
 21
254.6
 31
0.0
  0
LINE
  5
1FF
330
1B4
100
AcDbEntity
  8
Layer9
  6
AUSGEZOGEN
 62
    18
420
        0
370
    18
100
AcDbLine
 10
-134.25
 20
254.6
 30
0.0
 11
-134.25
 21
279.6
 31
0.0
  0
LINE
  5
200
330
1B4
100
AcDbEntity
  8
Layer9
  6
AUSGEZOGEN
 62
    18
420
        0
370
    18
100
AcDbLine
 10
-130.95
 20
254.6
 30
0.0
 11
-130.95
 21
279.6
 31
0.0
  0
LINE
  5
201
330
1B4
100
AcDbEntity
  8
Layer9
  6
AUSGEZOGEN
 62
    18
420
        0
370
    18
100
AcDbLine
 10
-134.25
 20
254.6
 30
0.0
 11
-130.95
 21
254.6
 31
0.0
  0
LINE
  5
202
330
1B4
100
AcDbEntity
  8
Layer9
  6
AUSGEZOGEN
 62
    18
420
        0
370
    18
100
AcDbLine
 10
-130.95
 20
279.6
 30
0.0
 11
-134.25
 21
279.6
 31
0.0
  0
LINE
  5
203
330
1B4
100
AcDbEntity
  8
Layer9
  6
AUSGEZOGEN
 62
    18
420
        0
370
    18
100
AcDbLine
 10
-127.760742404146
 20
254.6
 30
0.0
 11
-127.760742404146
 21
279.6
 31
0.0
  0
LINE
  5
204
330
1B4
100
AcDbEntity
  8
Layer9
  6
AUSGEZOGEN
 62
    18
420
        0
370
    18
100
AcDbLine
 10
-139.75
 20
267.6
 30
0.0
 11
-139.75
 21
254.6
 31
0.0
  0
LINE
  5
205
330
1B4
100
AcDbEntity
  8
Layer9
  6
AUSGEZOGEN
 62
    18
420
        0
370
    18
100
AcDbLine
 10
-137.75
 20
267.6
 30
0.0
 11
-139.75
 21
267.6
 31
0.0
  0
LINE
  5
206
330
1B4
100
AcDbEntity
  8
Layer9
  6
AUSGEZOGEN
 62
    18
420
        0
370
    18
100
AcDbLine
 10
-139.75
 20
254.6
 30
0.0
 11
-137.75
 21
254.6
 31
0.0
  0
LINE
  5
207
330
1B4
100
AcDbEntity
  8
Layer9
  6
AUSGEZOGEN
 62
    18
420
        0
370
    18
100
AcDbLine
 10
-139.75
 20
267.6
 30
0.0
 11
-142.35
 21
267.6
 31
0.0
  0
LINE
  5
208
330
1B4
100
AcDbEntity
  8
Layer9
  6
AUSGEZOGEN
 62
    18
420
        0
370
    18
100
AcDbLine
 10
-142.35
 20
254.6
 30
0.0
 11
-139.75
 21
254.6
 31
0.0
  0
LINE
  5
209
330
1B4
100
AcDbEntity
  8
Layer9
  6
AUSGEZOGEN
 62
    18
420
        0
370
    18
100
AcDbLine
 10
-144.75
 20
267.6
 30
0.0
 11
-144.75
 21
254.6
 31
0.0
  0
LINE
  5
20A
330
1B4
100
AcDbEntity
  8
Layer9
  6
AUSGEZOGEN
 62
    18
420
        0
370
    18
100
AcDbLine
 10
-142.35
 20
267.6
 30
0.0
 11
-144.75
 21
267.6
 31
0.0
  0
LINE
  5
20B
330
1B4
100
AcDbEntity
  8
Layer9
  6
AUSGEZOGEN
 62
    18
420
        0
370
    18
100
AcDbLine
 10
-144.75
 20
254.6
 30
0.0
 11
-142.35
 21
254.6
 31
0.0
  0
LINE
  5
20C
330
1B4
100
AcDbEntity
  8
Layer9
  6
AUSGEZOGEN
 62
    18
420
        0
370
    18
100
AcDbLine
 10
-142.35
 20
254.6
 30
0.0
 11
-142.35
 21
267.6
 31
0.0
  0
LINE
  5
20D
330
1B4
100
AcDbEntity
  8
Layer9
  6
AUSGEZOGEN
 62
    18
420
        0
370
    18
100
AcDbLine
 10
-135.75
 20
283.1
 30
0.0
 11
-135.75
 21
285.1
 31
0.0
  0
LINE
  5
20E
330
1B4
100
AcDbEntity
  8
Layer9
  6
AUSGEZOGEN
 62
    18
420
        0
370
    18
100
AcDbLine
 10
-137.75
 20
283.1
 30
0.0
 11
-137.75
 21
284.06824583655
 31
0.0
  0
LINE
  5
20F
330
1B4
100
AcDbEntity
  8
Layer9
  6
AUSGEZOGEN
 62
    18
420
        0
370
    18
100
AcDbLine
 10
-134.25
 20
279.6
 30
0.0
 11
-137.75
 21
279.6
 31
0.0
  0
LINE
  5
210
330
1B4
100
AcDbEntity
  8
Layer9
  6
AUSGEZOGEN
 62
    18
420
        0
370
    18
100
AcDbLine
 10
-134.25
 20
254.6
 30
0.0
 11
-137.75
 21
254.6
 31
0.0
  0
LINE
  5
211
330
1B4
100
AcDbEntity
  8
Layer9
  6
AUSGEZOGEN
 62
    18
420
        0
370
    18
100
AcDbLine
 10
-130.95
 20
279.6
 30
0.0
 11
-127.760742404146
 21
279.6
 31
0.0
  0
LINE
  5
212
330
1B4
100
AcDbEntity
  8
Layer9
  6
AUSGEZOGEN
 62
    18
420
        0
370
    18
100
AcDbLine
 10
-130.95
 20
254.6
 30
0.0
 11
-127.760742404146
 21
254.6
 31
0.0
  0
LINE
  5
213
330
1B4
100
AcDbEntity
  8
Layer9
  6
AUSGEZOGEN
 62
    18
420
        0
370
    18
100
AcDbLine
 10
-136.85747221048
 20
285.1
 30
0.0
 11
-136.79152149017
 21
285.1
 31
0.0
  0
LWPOLYLINE
  5
214
330
1B4
100
AcDbEntity
  8
Layer9
  6
AUSGEZOGEN
 62
    18
420
        0
370
    18
100
AcDbPolyline
 90
        9
 70
     0
 43
0.0
 10
-136.79152149017
 20
285.1
 10
-136.844274552099
 20
285.084316414256
 10
-136.920912964933
 20
285.035577114954
 10
-137.021988585631
 20
284.952045083749
 10
-137.146550460148
 20
284.83265971767
 10
-137.291575635978
 20
284.677725526885
 10
-137.448429758523
 20
284.492461270992
 10
-137.604543528308
 20
284.287159843366
 10
-137.75
 20
284.06824583655
  0
LWPOLYLINE
  5
215
330
1B4
100
AcDbEntity
  8
Layer9
  6
AUSGEZOGEN
 62
    18
420
        0
370
    18
100
AcDbPolyline
 90
        2
 70
     0
 43
0.0
 10
-136.85747221048
 20
285.1
 10
-136.859483855382
 20
285.074643839401
  0
LINE
  5
216
330
1B4
100
AcDbEntity
  8
Layer9
  6
AUSGEZOGEN
 62
   253
420
 10066329
370
    18
100
AcDbLine
 10
-147.85
 20
306.35
 30
0.0
 11
-147.85
 21
268.1
 31
0.0
  0
LINE
  5
217
330
1B4
100
AcDbEntity
  8
Layer9
  6
AUSGEZOGEN
 62
   253
420
 10066329
370
    18
100
AcDbLine
 10
-146.85
 20
268.1
 30
0.0
 11
-146.85
 21
306.35
 31
0.0
  0
LINE
  5
218
330
1B4
100
AcDbEntity
  8
Layer9
  6
AUSGEZOGEN
 62
   253
420
 10066329
370
    18
100
AcDbLine
 10
-147.85
 20
347.6
 30
0.0
 11
-147.85
 21
309.35
 31
0.0
  0
LINE
  5
219
330
1B4
100
AcDbEntity
  8
Layer9
  6
AUSGEZOGEN
 62
   253
420
 10066329
370
    18
100
AcDbLine
 10
-146.85
 20
309.35
 30
0.0
 11
-146.85
 21
327.5
 31
0.0
  0
LINE
  5
21A
330
1B4
100
AcDbEntity
  8
Layer9
  6
AUSGEZOGEN
 62
   253
420
 10066329
370
    18
100
AcDbLine
 10
-146.85
 20
268.1
 30
0.0
 11
-139.65
 21
268.1
 31
0.0
  0
LINE
  5
21B
330
1B4
100
AcDbEntity
  8
Layer9
  6
AUSGEZOGEN
 62
   253
420
 10066329
370
    18
100
AcDbLine
 10
-139.65
 20
268.1
 30
0.0
 11
-139.65
 21
306.35
 31
0.0
  0
LINE
  5
21C
330
1B4
100
AcDbEntity
  8
Layer9
  6
AUSGEZOGEN
 62
   253
420
 10066329
370
    18
100
AcDbLine
 10
-139.65
 20
306.35
 30
0.0
 11
-146.85
 21
306.35
 31
0.0
  0
LINE
  5
21D
330
1B4
100
AcDbEntity
  8
Layer9
  6
AUSGEZOGEN
 62
   253
420
 10066329
370
    18
100
AcDbLine
 10
-146.85
 20
309.35
 30
0.0
 11
-139.65
 21
309.35
 31
0.0
  0
LINE
  5
21E
330
1B4
100
AcDbEntity
  8
Layer9
  6
AUSGEZOGEN
 62
   253
420
 10066329
370
    18
100
AcDbLine
 10
-139.65
 20
309.35
 30
0.0
 11
-139.65
 21
327.5
 31
0.0
  0
LINE
  5
21F
330
1B4
100
AcDbEntity
  8
Layer9
  6
AUSGEZOGEN
 62
   253
420
 10066329
370
    18
100
AcDbLine
 10
-126.45
 20
268.1
 30
0.0
 11
-126.35
 21
268.1
 31
0.0
  0
LINE
  5
220
330
1B4
100
AcDbEntity
  8
Layer9
  6
AUSGEZOGEN
 62
   253
420
 10066329
370
    18
100
AcDbLine
 10
-126.35
 20
268.1
 30
0.0
 11
-126.35
 21
327.5
 31
0.0
  0
LINE
  5
221
330
1B4
100
AcDbEntity
  8
Layer9
  6
AUSGEZOGEN
 62
   253
420
 10066329
370
    18
100
AcDbLine
 10
-146.85
 20
306.35
 30
0.0
 11
-147.85
 21
306.35
 31
0.0
  0
LINE
  5
222
330
1B4
100
AcDbEntity
  8
Layer9
  6
AUSGEZOGEN
 62
   253
420
 10066329
370
    18
100
AcDbLine
 10
-146.85
 20
268.1
 30
0.0
 11
-147.85
 21
268.1
 31
0.0
  0
LINE
  5
223
330
1B4
100
AcDbEntity
  8
Layer9
  6
AUSGEZOGEN
 62
   253
420
 10066329
370
    18
100
AcDbLine
 10
-146.65
 20
306.35
 30
0.0
 11
-146.65
 21
309.35
 31
0.0
  0
LINE
  5
224
330
1B4
100
AcDbEntity
  8
Layer9
  6
AUSGEZOGEN
 62
   253
420
 10066329
370
    18
100
AcDbLine
 10
-147.85
 20
306.35
 30
0.0
 11
-147.85
 21
309.35
 31
0.0
  0
LINE
  5
225
330
1B4
100
AcDbEntity
  8
Layer9
  6
AUSGEZOGEN
 62
   253
420
 10066329
370
    18
100
AcDbLine
 10
-147.25
 20
347.6
 30
0.0
 11
-147.85
 21
347.6
 31
0.0
  0
LINE
  5
226
330
1B4
100
AcDbEntity
  8
Layer9
  6
AUSGEZOGEN
 62
   253
420
 10066329
370
    18
100
AcDbLine
 10
-146.85
 20
309.35
 30
0.0
 11
-147.85
 21
309.35
 31
0.0
  0
ENDBLK
  5
1B6
330
1B4
100
AcDbEntity
  8
0
100
AcDbBlockEnd
  0
BLOCK
  5
229
330
228
100
AcDbEntity
  8
0
100
AcDbBlockBegin
  2
Draufsicht-D_nNn02
 70
     0
 10
0.0
 20
0.0
 30
0.0
  3
Draufsicht-D_nNn02
  1

  0
LINE
  5
22B
330
228
100
AcDbEntity
  8
Layer9
  6
AUSGEZOGEN
 62
    18
420
        0
370
    18
100
AcDbLine
 10
-720.55
 20
68.35
 30
0.0
 11
-710.55
 21
68.35
 31
0.0
  0
LINE
  5
22C
330
228
100
AcDbEntity
  8
Layer9
  6
AUSGEZOGEN
 62
    18
420
        0
370
    18
100
AcDbLine
 10
-849.05
 20
68.35
 30
0.0
 11
-839.05
 21
68.35
 31
0.0
  0
LINE
  5
22D
330
228
100
AcDbEntity
  8
Layer9
  6
AUSGEZOGEN
 62
    18
420
        0
370
    18
100
AcDbLine
 10
-839.05
 20
68.35
 30
0.0
 11
-839.05
 21
58.35
 31
0.0
  0
LINE
  5
22E
330
228
100
AcDbEntity
  8
Layer9
  6
AUSGEZOGEN
 62
    18
420
        0
370
    18
100
AcDbLine
 10
-909.05
 20
71.55
 30
0.0
 11
-909.05
 21
53.55
 31
0.0
  0
LINE
  5
22F
330
228
100
AcDbEntity
  8
Layer9
  6
AUSGEZOGEN
 62
    18
420
        0
370
    18
100
AcDbLine
 10
-839.05
 20
58.35
 30
0.0
 11
-849.05
 21
58.35
 31
0.0
  0
LINE
  5
230
330
228
100
AcDbEntity
  8
Layer9
  6
AUSGEZOGEN
 62
    18
420
        0
370
    18
100
AcDbLine
 10
-582.05
 20
58.35
 30
0.0
 11
-592.05
 21
58.35
 31
0.0
  0
LINE
  5
231
330
228
100
AcDbEntity
  8
Layer9
  6
AUSGEZOGEN
 62
    18
420
        0
370
    18
100
AcDbLine
 10
-582.05
 20
68.35
 30
0.0
 11
-582.05
 21
58.35
 31
0.0
  0
LINE
  5
232
330
228
100
AcDbEntity
  8
Layer9
  6
AUSGEZOGEN
 62
    18
420
        0
370
    18
100
AcDbLine
 10
-463.55
 20
58.35
 30
0.0
 11
-463.55
 21
68.35
 31
0.0
  0
LINE
  5
233
330
228
100
AcDbEntity
  8
Layer9
  6
AUSGEZOGEN
 62
    18
420
        0
370
    18
100
AcDbLine
 10
-909.05
 20
53.55
 30
0.0
 11
-393.55
 21
53.55
 31
0.0
  0
LINE
  5
234
330
228
100
AcDbEntity
  8
Layer9
  6
AUSGEZOGEN
 62
    18
420
        0
370
    18
100
AcDbLine
 10
-710.55
 20
58.35
 30
0.0
 11
-720.55
 21
58.35
 31
0.0
  0
LINE
  5
235
330
228
100
AcDbEntity
  8
Layer9
  6
AUSGEZOGEN
 62
    18
420
        0
370
    18
100
AcDbLine
 10
-720.55
 20
58.35
 30
0.0
 11
-720.55
 21
68.35
 31
0.0
  0
LINE
  5
236
330
228
100
AcDbEntity
  8
Layer9
  6
AUSGEZOGEN
 62
    18
420
        0
370
    18
100
AcDbLine
 10
-849.05
 20
58.35
 30
0.0
 11
-849.05
 21
68.35
 31
0.0
  0
LINE
  5
237
330
228
100
AcDbEntity
  8
Layer9
  6
AUSGEZOGEN
 62
    18
420
        0
370
    18
100
AcDbLine
 10
-393.55
 20
71.55
 30
0.0
 11
-909.05
 21
71.55
 31
0.0
  0
LINE
  5
238
330
228
100
AcDbEntity
  8
Layer9
  6
AUSGEZOGEN
 62
    18
420
        0
370
    18
100
AcDbLine
 10
-710.55
 20
68.35
 30
0.0
 11
-710.55
 21
58.35
 31
0.0
  0
LINE
  5
239
330
228
100
AcDbEntity
  8
Layer9
  6
AUSGEZOGEN
 62
    18
420
        0
370
    18
100
AcDbLine
 10
-463.55
 20
68.35
 30
0.0
 11
-453.55
 21
68.35
 31
0.0
  0
LINE
  5
23A
330
228
100
AcDbEntity
  8
Layer9
  6
AUSGEZOGEN
 62
    18
420
        0
370
    18
100
AcDbLine
 10
-592.05
 20
58.35
 30
0.0
 11
-592.05
 21
68.35
 31
0.0
  0
LINE
  5
23B
330
228
100
AcDbEntity
  8
Layer9
  6
AUSGEZOGEN
 62
    18
420
        0
370
    18
100
AcDbLine
 10
-453.55
 20
68.35
 30
0.0
 11
-453.55
 21
58.35
 31
0.0
  0
LINE
  5
23C
330
228
100
AcDbEntity
  8
Layer9
  6
AUSGEZOGEN
 62
    18
420
        0
370
    18
100
AcDbLine
 10
-393.55
 20
53.55
 30
0.0
 11
-393.55
 21
71.55
 31
0.0
  0
LINE
  5
23D
330
228
100
AcDbEntity
  8
Layer9
  6
AUSGEZOGEN
 62
    18
420
        0
370
    18
100
AcDbLine
 10
-453.55
 20
58.35
 30
0.0
 11
-463.55
 21
58.35
 31
0.0
  0
LINE
  5
23E
330
228
100
AcDbEntity
  8
Layer9
  6
AUSGEZOGEN
 62
    18
420
        0
370
    18
100
AcDbLine
 10
-592.05
 20
68.35
 30
0.0
 11
-582.05
 21
68.35
 31
0.0
  0
LINE
  5
23F
330
228
100
AcDbEntity
  8
Layer9
  6
AUSGEZOGEN
 62
    18
420
        0
370
    18
100
AcDbLine
 10
-909.05
 20
50.55
 30
0.0
 11
-393.55
 21
50.55
 31
0.0
  0
LINE
  5
240
330
228
100
AcDbEntity
  8
Layer9
  6
AUSGEZOGEN
 62
    18
420
        0
370
    18
100
AcDbLine
 10
-393.55
 20
74.55
 30
0.0
 11
-909.05
 21
74.55
 31
0.0
  0
ARC
  5
241
330
228
100
AcDbEntity
  8
Layer9
  6
AUSGEZOGEN
 62
    18
420
        0
370
    18
100
AcDbCircle
 10
-441.8
 20
60.05
 30
0.0
 40
3.1
100
AcDbArc
 50
0.0
 51
180.0
  0
ARC
  5
242
330
228
100
AcDbEntity
  8
Layer9
  6
AUSGEZOGEN
 62
    18
420
        0
370
    18
100
AcDbCircle
 10
-860.8
 20
60.05
 30
0.0
 40
3.1
100
AcDbArc
 50
180.0
 51
0.0
  0
ARC
  5
243
330
228
100
AcDbEntity
  8
Layer9
  6
AUSGEZOGEN
 62
    18
420
        0
370
    18
100
AcDbCircle
 10
-860.8
 20
60.05
 30
0.0
 40
3.1
100
AcDbArc
 50
0.0
 51
180.0
  0
ARC
  5
244
330
228
100
AcDbEntity
  8
Layer9
  6
AUSGEZOGEN
 62
    18
420
        0
370
    18
100
AcDbCircle
 10
-441.8
 20
60.05
 30
0.0
 40
3.1
100
AcDbArc
 50
180.0
 51
0.0
  0
ARC
  5
245
330
228
100
AcDbEntity
  8
Layer9
  6
AUSGEZOGEN
 62
    18
420
        0
370
    18
100
AcDbCircle
 10
-698.8
 20
60.05
 30
0.0
 40
3.1
100
AcDbArc
 50
180.0
 51
0.0
  0
ARC
  5
246
330
228
100
AcDbEntity
  8
Layer9
  6
AUSGEZOGEN
 62
    18
420
        0
370
    18
100
AcDbCircle
 10
-698.8
 20
60.05
 30
0.0
 40
3.1
100
AcDbArc
 50
0.0
 51
180.0
  0
ARC
  5
247
330
228
100
AcDbEntity
  8
Layer9
  6
AUSGEZOGEN
 62
    18
420
        0
370
    18
100
AcDbCircle
 10
-603.8
 20
60.05
 30
0.0
 40
3.1
100
AcDbArc
 50
0.0
 51
180.0
  0
ARC
  5
248
330
228
100
AcDbEntity
  8
Layer9
  6
AUSGEZOGEN
 62
    18
420
        0
370
    18
100
AcDbCircle
 10
-603.8
 20
60.05
 30
0.0
 40
3.1
100
AcDbArc
 50
180.0
 51
0.0
  0
LINE
  5
249
330
228
100
AcDbEntity
  8
Layer9
  6
AUSGEZOGEN
 62
    18
420
        0
370
    18
100
AcDbLine
 10
-909.05
 20
53.55
 30
0.0
 11
-909.05
 21
50.55
 31
0.0
  0
LINE
  5
24A
330
228
100
AcDbEntity
  8
Layer9
  6
AUSGEZOGEN
 62
    18
420
        0
370
    18
100
AcDbLine
 10
-393.55
 20
53.55
 30
0.0
 11
-393.55
 21
50.55
 31
0.0
  0
LINE
  5
24B
330
228
100
AcDbEntity
  8
Layer9
  6
AUSGEZOGEN
 62
    18
420
        0
370
    18
100
AcDbLine
 10
-393.55
 20
71.55
 30
0.0
 11
-393.55
 21
74.55
 31
0.0
  0
LINE
  5
24C
330
228
100
AcDbEntity
  8
Layer9
  6
AUSGEZOGEN
 62
    18
420
        0
370
    18
100
AcDbLine
 10
-909.05
 20
71.55
 30
0.0
 11
-909.05
 21
74.55
 31
0.0
  0
LINE
  5
24D
330
228
100
AcDbEntity
  8
Layer9
  6
AUSGEZOGEN
 62
    18
420
        0
370
    18
100
AcDbLine
 10
-391.3
 20
41.18168340753
 30
0.0
 11
-393.3
 21
41.18168340753
 31
0.0
  0
LINE
  5
24E
330
228
100
AcDbEntity
  8
Layer9
  6
AUSGEZOGEN
 62
    18
420
        0
370
    18
100
AcDbLine
 10
-393.3
 20
39.97195126689
 30
0.0
 11
-391.3
 21
39.97195126689
 31
0.0
  0
LINE
  5
24F
330
228
100
AcDbEntity
  8
Layer9
  6
AUSGEZOGEN
 62
    18
420
        0
370
    18
100
AcDbLine
 10
-393.3
 20
39.97195126689
 30
0.0
 11
-393.3
 21
-49.8532440469
 31
0.0
  0
LINE
  5
250
330
228
100
AcDbEntity
  8
Layer9
  6
AUSGEZOGEN
 62
    18
420
        0
370
    18
100
AcDbLine
 10
-393.3
 20
-49.8532440469
 30
0.0
 11
-391.3
 21
-49.8532440469
 31
0.0
  0
LINE
  5
251
330
228
100
AcDbEntity
  8
Layer9
  6
AUSGEZOGEN
 62
    18
420
        0
370
    18
100
AcDbLine
 10
-391.3
 20
-49.8532440469
 30
0.0
 11
-391.3
 21
39.97195126689
 31
0.0
  0
LINE
  5
252
330
228
100
AcDbEntity
  8
Layer9
  6
AUSGEZOGEN
 62
    18
420
        0
370
    18
100
AcDbLine
 10
-393.3
 20
-50.45
 30
0.0
 11
-391.3
 21
-50.45
 31
0.0
  0
LINE
  5
253
330
228
100
AcDbEntity
  8
Layer9
  6
AUSGEZOGEN
 62
    18
420
        0
370
    18
100
AcDbLine
 10
-390.3
 20
-51.45
 30
0.0
 11
-390.3
 21
74.55
 31
0.0
  0
LINE
  5
254
330
228
100
AcDbEntity
  8
Layer9
  6
AUSGEZOGEN
 62
    18
420
        0
370
    18
100
AcDbLine
 10
-390.3
 20
-51.45
 30
0.0
 11
-390.3
 21
-52.95
 31
0.0
  0
LINE
  5
255
330
228
100
AcDbEntity
  8
Layer9
  6
AUSGEZOGEN
 62
    18
420
        0
370
    18
100
AcDbLine
 10
-380.3
 20
74.55
 30
0.0
 11
-390.3
 21
74.55
 31
0.0
  0
LINE
  5
256
330
228
100
AcDbEntity
  8
Layer9
  6
AUSGEZOGEN
 62
    18
420
        0
370
    18
100
AcDbLine
 10
-385.3
 20
-57.95
 30
0.0
 11
-375.3
 21
-57.95
 31
0.0
  0
LINE
  5
257
330
228
100
AcDbEntity
  8
Layer9
  6
AUSGEZOGEN
 62
    18
420
        0
370
    18
100
AcDbLine
 10
-375.3
 20
-57.95
 30
0.0
 11
-375.3
 21
-1.95
 31
0.0
  0
LINE
  5
258
330
228
100
AcDbEntity
  8
Layer9
  6
AUSGEZOGEN
 62
    18
420
        0
370
    18
100
AcDbLine
 10
-375.3
 20
0.05
 30
0.0
 11
-375.3
 21
69.55
 31
0.0
  0
LINE
  5
259
330
228
100
AcDbEntity
  8
Layer9
  6
AUSGEZOGEN
 62
    18
420
        0
370
    18
100
AcDbLine
 10
-391.3
 20
74.55
 30
0.0
 11
-393.3
 21
74.55
 31
0.0
  0
LINE
  5
25A
330
228
100
AcDbEntity
  8
Layer9
  6
AUSGEZOGEN
 62
    18
420
        0
370
    18
100
AcDbLine
 10
-393.3
 20
71.55
 30
0.0
 11
-391.3
 21
71.55
 31
0.0
  0
LINE
  5
25B
330
228
100
AcDbEntity
  8
Layer9
  6
AUSGEZOGEN
 62
    18
420
        0
370
    18
100
AcDbLine
 10
-391.3
 20
41.18168340753
 30
0.0
 11
-391.3
 21
71.55
 31
0.0
  0
LINE
  5
25C
330
228
100
AcDbEntity
  8
Layer9
  6
AUSGEZOGEN
 62
    18
420
        0
370
    18
100
AcDbLine
 10
-393.3
 20
71.55
 30
0.0
 11
-393.3
 21
41.18168340753
 31
0.0
  0
LINE
  5
25D
330
228
100
AcDbEntity
  8
Layer9
  6
AUSGEZOGEN
 62
    18
420
        0
370
    18
100
AcDbLine
 10
-372.3
 20
-57.95
 30
0.0
 11
-372.3
 21
-1.95
 31
0.0
  0
LINE
  5
25E
330
228
100
AcDbEntity
  8
Layer9
  6
AUSGEZOGEN
 62
    18
420
        0
370
    18
100
AcDbLine
 10
-391.3
 20
41.18168340753
 30
0.0
 11
-391.3
 21
39.97195126689
 31
0.0
  0
LINE
  5
25F
330
228
100
AcDbEntity
  8
Layer9
  6
AUSGEZOGEN
 62
    18
420
        0
370
    18
100
AcDbLine
 10
-393.3
 20
39.97195126689
 30
0.0
 11
-393.3
 21
41.18168340753
 31
0.0
  0
LINE
  5
260
330
228
100
AcDbEntity
  8
Layer9
  6
AUSGEZOGEN
 62
    18
420
        0
370
    18
100
AcDbLine
 10
-391.3
 20
-49.8532440469
 30
0.0
 11
-391.3
 21
-50.45
 31
0.0
  0
LINE
  5
261
330
228
100
AcDbEntity
  8
Layer9
  6
AUSGEZOGEN
 62
    18
420
        0
370
    18
100
AcDbLine
 10
-393.3
 20
-49.8532440469
 30
0.0
 11
-393.3
 21
-50.45
 31
0.0
  0
ARC
  5
262
330
228
100
AcDbEntity
  8
Layer9
  6
AUSGEZOGEN
 62
    18
420
        0
370
    18
100
AcDbCircle
 10
-391.3
 20
-51.45
 30
0.0
 40
1.0
100
AcDbArc
 50
79.693533724433
 51
83.68435319614
  0
ARC
  5
263
330
228
100
AcDbEntity
  8
Layer9
  6
AUSGEZOGEN
 62
    18
420
        0
370
    18
100
AcDbCircle
 10
-391.3
 20
-51.45
 30
0.0
 40
1.0
100
AcDbArc
 50
74.410463258703
 51
78.009985988737
  0
ARC
  5
264
330
228
100
AcDbEntity
  8
Layer9
  6
AUSGEZOGEN
 62
    18
420
        0
370
    18
100
AcDbCircle
 10
-391.3
 20
-51.45
 30
0.0
 40
1.0
100
AcDbArc
 50
69.274632944389
 51
72.543558962707
  0
ARC
  5
265
330
228
100
AcDbEntity
  8
Layer9
  6
AUSGEZOGEN
 62
    18
420
        0
370
    18
100
AcDbCircle
 10
-391.3
 20
-51.45
 30
0.0
 40
1.0
100
AcDbArc
 50
64.184980413496
 51
66.807954581612
  0
ARC
  5
266
330
228
100
AcDbEntity
  8
Layer9
  6
AUSGEZOGEN
 62
    18
420
        0
370
    18
100
AcDbCircle
 10
-391.3
 20
-51.45
 30
0.0
 40
1.0
100
AcDbArc
 50
58.482168373411
 51
60.780313067372
  0
ARC
  5
267
330
228
100
AcDbEntity
  8
Layer9
  6
AUSGEZOGEN
 62
    18
420
        0
370
    18
100
AcDbCircle
 10
-391.3
 20
-51.45
 30
0.0
 40
1.0
100
AcDbArc
 50
52.296436850093
 51
54.453132545117
  0
ARC
  5
268
330
228
100
AcDbEntity
  8
Layer9
  6
AUSGEZOGEN
 62
    18
420
        0
370
    18
100
AcDbCircle
 10
-391.3
 20
-51.45
 30
0.0
 40
1.0
100
AcDbArc
 50
45.803795637605
 51
47.938997145903
  0
ARC
  5
269
330
228
100
AcDbEntity
  8
Layer9
  6
AUSGEZOGEN
 62
    18
420
        0
370
    18
100
AcDbCircle
 10
-391.3
 20
-51.45
 30
0.0
 40
1.0
100
AcDbArc
 50
39.27617645568
 51
40.401343248115
  0
ARC
  5
26A
330
228
100
AcDbEntity
  8
Layer9
  6
AUSGEZOGEN
 62
    18
420
        0
370
    18
100
AcDbCircle
 10
-391.3
 20
-51.45
 30
0.0
 40
1.0
100
AcDbArc
 50
23.199841227085
 51
32.973956907923
  0
ARC
  5
26B
330
228
100
AcDbEntity
  8
Layer9
  6
AUSGEZOGEN
 62
    18
420
        0
370
    18
100
AcDbCircle
 10
-391.3
 20
-51.45
 30
0.0
 40
1.0
100
AcDbArc
 50
12.878850356839
 51
20.780633885956
  0
ARC
  5
26C
330
228
100
AcDbEntity
  8
Layer9
  6
AUSGEZOGEN
 62
    18
420
        0
370
    18
100
AcDbCircle
 10
-391.3
 20
-51.45
 30
0.0
 40
1.0
100
AcDbArc
 50
0.0
 51
10.092459492995
  0
ARC
  5
26D
330
228
100
AcDbEntity
  8
Layer9
  6
AUSGEZOGEN
 62
    18
420
        0
370
    18
100
AcDbCircle
 10
-391.3
 20
-51.45
 30
0.0
 40
1.0
100
AcDbArc
 50
84.644506131473
 51
90.0
  0
ARC
  5
26E
330
228
100
AcDbEntity
  8
Layer9
  6
AUSGEZOGEN
 62
    18
420
        0
370
    18
100
AcDbCircle
 10
-391.3
 20
-51.45
 30
0.0
 40
1.0
100
AcDbArc
 50
0.0
 51
90.0
  0
LINE
  5
26F
330
228
100
AcDbEntity
  8
Layer9
  6
AUSGEZOGEN
 62
    18
420
        0
370
    18
100
AcDbLine
 10
-390.3
 20
74.55
 30
0.0
 11
-391.3
 21
74.55
 31
0.0
  0
ARC
  5
270
330
228
100
AcDbEntity
  8
Layer9
  6
AUSGEZOGEN
 62
    18
420
        0
370
    18
100
AcDbCircle
 10
-385.3
 20
-52.95
 30
0.0
 40
5.0
100
AcDbArc
 50
180.0
 51
270.0
  0
ARC
  5
271
330
228
100
AcDbEntity
  8
Layer9
  6
AUSGEZOGEN
 62
    18
420
        0
370
    18
100
AcDbCircle
 10
-380.3
 20
69.55
 30
0.0
 40
5.0
100
AcDbArc
 50
0.0
 51
90.0
  0
ARC
  5
272
330
228
100
AcDbEntity
  8
Layer9
  6
AUSGEZOGEN
 62
    18
420
        0
370
    18
100
AcDbCircle
 10
-375.3
 20
-0.95
 30
0.0
 40
1.0
100
AcDbArc
 50
90.0
 51
270.0
  0
LINE
  5
273
330
228
100
AcDbEntity
  8
Layer9
  6
AUSGEZOGEN
 62
    18
420
        0
370
    18
100
AcDbLine
 10
-391.3
 20
71.55
 30
0.0
 11
-391.3
 21
74.55
 31
0.0
  0
LINE
  5
274
330
228
100
AcDbEntity
  8
Layer9
  6
AUSGEZOGEN
 62
    18
420
        0
370
    18
100
AcDbLine
 10
-393.3
 20
71.55
 30
0.0
 11
-393.3
 21
74.55
 31
0.0
  0
LINE
  5
275
330
228
100
AcDbEntity
  8
Layer9
  6
AUSGEZOGEN
 62
    18
420
        0
370
    18
100
AcDbLine
 10
-375.3
 20
-1.95
 30
0.0
 11
-372.3
 21
-1.95
 31
0.0
  0
LINE
  5
276
330
228
100
AcDbEntity
  8
Layer9
  6
AUSGEZOGEN
 62
    18
420
        0
370
    18
100
AcDbLine
 10
-375.3
 20
-57.95
 30
0.0
 11
-372.3
 21
-57.95
 31
0.0
  0
LINE
  5
277
330
228
100
AcDbEntity
  8
Layer9
  6
AUSGEZOGEN
 62
    18
420
        0
370
    18
100
AcDbLine
 10
-911.3
 20
71.55
 30
0.0
 11
-909.3
 21
71.55
 31
0.0
  0
LINE
  5
278
330
228
100
AcDbEntity
  8
Layer9
  6
AUSGEZOGEN
 62
    18
420
        0
370
    18
100
AcDbLine
 10
-909.3
 20
74.55
 30
0.0
 11
-911.3
 21
74.55
 31
0.0
  0
LINE
  5
279
330
228
100
AcDbEntity
  8
Layer9
  6
AUSGEZOGEN
 62
    18
420
        0
370
    18
100
AcDbLine
 10
-927.3
 20
69.55
 30
0.0
 11
-927.3
 21
0.05
 31
0.0
  0
LINE
  5
27A
330
228
100
AcDbEntity
  8
Layer9
  6
AUSGEZOGEN
 62
    18
420
        0
370
    18
100
AcDbLine
 10
-927.3
 20
-1.95
 30
0.0
 11
-927.3
 21
-57.95
 31
0.0
  0
LINE
  5
27B
330
228
100
AcDbEntity
  8
Layer9
  6
AUSGEZOGEN
 62
    18
420
        0
370
    18
100
AcDbLine
 10
-927.3
 20
-57.95
 30
0.0
 11
-917.3
 21
-57.95
 31
0.0
  0
LINE
  5
27C
330
228
100
AcDbEntity
  8
Layer9
  6
AUSGEZOGEN
 62
    18
420
        0
370
    18
100
AcDbLine
 10
-912.3
 20
-51.45
 30
0.0
 11
-912.3
 21
74.55
 31
0.0
  0
LINE
  5
27D
330
228
100
AcDbEntity
  8
Layer9
  6
AUSGEZOGEN
 62
    18
420
        0
370
    18
100
AcDbLine
 10
-912.3
 20
-52.95
 30
0.0
 11
-912.3
 21
-51.45
 31
0.0
  0
LINE
  5
27E
330
228
100
AcDbEntity
  8
Layer9
  6
AUSGEZOGEN
 62
    18
420
        0
370
    18
100
AcDbLine
 10
-912.3
 20
74.55
 30
0.0
 11
-922.3
 21
74.55
 31
0.0
  0
LINE
  5
27F
330
228
100
AcDbEntity
  8
Layer9
  6
AUSGEZOGEN
 62
    18
420
        0
370
    18
100
AcDbLine
 10
-911.3
 20
-50.45
 30
0.0
 11
-909.3
 21
-50.45
 31
0.0
  0
LINE
  5
280
330
228
100
AcDbEntity
  8
Layer9
  6
AUSGEZOGEN
 62
    18
420
        0
370
    18
100
AcDbLine
 10
-909.3
 20
-49.8532440469
 30
0.0
 11
-911.3
 21
-49.8532440469
 31
0.0
  0
LINE
  5
281
330
228
100
AcDbEntity
  8
Layer9
  6
AUSGEZOGEN
 62
    18
420
        0
370
    18
100
AcDbLine
 10
-911.3
 20
39.97195126689
 30
0.0
 11
-911.3
 21
-49.8532440469
 31
0.0
  0
LINE
  5
282
330
228
100
AcDbEntity
  8
Layer9
  6
AUSGEZOGEN
 62
    18
420
        0
370
    18
100
AcDbLine
 10
-909.3
 20
-49.8532440469
 30
0.0
 11
-909.3
 21
39.97195126689
 31
0.0
  0
LINE
  5
283
330
228
100
AcDbEntity
  8
Layer9
  6
AUSGEZOGEN
 62
    18
420
        0
370
    18
100
AcDbLine
 10
-909.3
 20
39.97195126689
 30
0.0
 11
-911.3
 21
39.97195126689
 31
0.0
  0
LINE
  5
284
330
228
100
AcDbEntity
  8
Layer9
  6
AUSGEZOGEN
 62
    18
420
        0
370
    18
100
AcDbLine
 10
-909.3
 20
41.18168340753
 30
0.0
 11
-911.3
 21
41.18168340753
 31
0.0
  0
LINE
  5
285
330
228
100
AcDbEntity
  8
Layer9
  6
AUSGEZOGEN
 62
    18
420
        0
370
    18
100
AcDbLine
 10
-911.3
 20
71.55
 30
0.0
 11
-911.3
 21
41.18168340753
 31
0.0
  0
LINE
  5
286
330
228
100
AcDbEntity
  8
Layer9
  6
AUSGEZOGEN
 62
    18
420
        0
370
    18
100
AcDbLine
 10
-909.3
 20
41.18168340753
 30
0.0
 11
-909.3
 21
71.55
 31
0.0
  0
LINE
  5
287
330
228
100
AcDbEntity
  8
Layer9
  6
AUSGEZOGEN
 62
    18
420
        0
370
    18
100
AcDbLine
 10
-930.3
 20
-1.95
 30
0.0
 11
-930.3
 21
-57.95
 31
0.0
  0
LINE
  5
288
330
228
100
AcDbEntity
  8
Layer9
  6
AUSGEZOGEN
 62
    18
420
        0
370
    18
100
AcDbLine
 10
-911.3
 20
71.55
 30
0.0
 11
-911.3
 21
74.55
 31
0.0
  0
LINE
  5
289
330
228
100
AcDbEntity
  8
Layer9
  6
AUSGEZOGEN
 62
    18
420
        0
370
    18
100
AcDbLine
 10
-909.3
 20
71.55
 30
0.0
 11
-909.3
 21
74.55
 31
0.0
  0
ARC
  5
28A
330
228
100
AcDbEntity
  8
Layer9
  6
AUSGEZOGEN
 62
    18
420
        0
370
    18
100
AcDbCircle
 10
-927.3
 20
-0.95
 30
0.0
 40
1.0
100
AcDbArc
 50
270.0
 51
90.0
  0
ARC
  5
28B
330
228
100
AcDbEntity
  8
Layer9
  6
AUSGEZOGEN
 62
    18
420
        0
370
    18
100
AcDbCircle
 10
-922.3
 20
69.55
 30
0.0
 40
5.0
100
AcDbArc
 50
90.0
 51
180.0
  0
ARC
  5
28C
330
228
100
AcDbEntity
  8
Layer9
  6
AUSGEZOGEN
 62
    18
420
        0
370
    18
100
AcDbCircle
 10
-917.3
 20
-52.95
 30
0.0
 40
5.0
100
AcDbArc
 50
270.0
 51
0.0
  0
ARC
  5
28D
330
228
100
AcDbEntity
  8
Layer9
  6
AUSGEZOGEN
 62
    18
420
        0
370
    18
100
AcDbCircle
 10
-911.3
 20
-51.45
 30
0.0
 40
1.0
100
AcDbArc
 50
90.0
 51
180.0
  0
LINE
  5
28E
330
228
100
AcDbEntity
  8
Layer9
  6
AUSGEZOGEN
 62
    18
420
        0
370
    18
100
AcDbLine
 10
-912.3
 20
74.55
 30
0.0
 11
-911.3
 21
74.55
 31
0.0
  0
ARC
  5
28F
330
228
100
AcDbEntity
  8
Layer9
  6
AUSGEZOGEN
 62
    18
420
        0
370
    18
100
AcDbCircle
 10
-911.3
 20
-51.45
 30
0.0
 40
1.0
100
AcDbArc
 50
96.321973604241
 51
100.313823263994
  0
ARC
  5
290
330
228
100
AcDbEntity
  8
Layer9
  6
AUSGEZOGEN
 62
    18
420
        0
370
    18
100
AcDbCircle
 10
-911.3
 20
-51.45
 30
0.0
 40
1.0
100
AcDbArc
 50
101.970616742055
 51
105.605148998368
  0
ARC
  5
291
330
228
100
AcDbEntity
  8
Layer9
  6
AUSGEZOGEN
 62
    18
420
        0
370
    18
100
AcDbCircle
 10
-911.3
 20
-51.45
 30
0.0
 40
1.0
100
AcDbArc
 50
139.696815027399
 51
140.753581466203
  0
ARC
  5
292
330
228
100
AcDbEntity
  8
Layer9
  6
AUSGEZOGEN
 62
    18
420
        0
370
    18
100
AcDbCircle
 10
-911.3
 20
-51.45
 30
0.0
 40
1.0
100
AcDbArc
 50
169.909293021353
 51
180.0
  0
ARC
  5
293
330
228
100
AcDbEntity
  8
Layer9
  6
AUSGEZOGEN
 62
    18
420
        0
370
    18
100
AcDbCircle
 10
-911.3
 20
-51.45
 30
0.0
 40
1.0
100
AcDbArc
 50
159.211418533157
 51
167.127659507786
  0
ARC
  5
294
330
228
100
AcDbEntity
  8
Layer9
  6
AUSGEZOGEN
 62
    18
420
        0
370
    18
100
AcDbCircle
 10
-911.3
 20
-51.45
 30
0.0
 40
1.0
100
AcDbArc
 50
147.038912104645
 51
156.811323585803
  0
ARC
  5
295
330
228
100
AcDbEntity
  8
Layer9
  6
AUSGEZOGEN
 62
    18
420
        0
370
    18
100
AcDbCircle
 10
-911.3
 20
-51.45
 30
0.0
 40
1.0
100
AcDbArc
 50
132.10318571912
 51
134.227706083202
  0
ARC
  5
296
330
228
100
AcDbEntity
  8
Layer9
  6
AUSGEZOGEN
 62
    18
420
        0
370
    18
100
AcDbCircle
 10
-911.3
 20
-51.45
 30
0.0
 40
1.0
100
AcDbArc
 50
125.573643616789
 51
127.733512060921
  0
ARC
  5
297
330
228
100
AcDbEntity
  8
Layer9
  6
AUSGEZOGEN
 62
    18
420
        0
370
    18
100
AcDbCircle
 10
-911.3
 20
-51.45
 30
0.0
 40
1.0
100
AcDbArc
 50
119.234837141359
 51
121.529961045383
  0
ARC
  5
298
330
228
100
AcDbEntity
  8
Layer9
  6
AUSGEZOGEN
 62
    18
420
        0
370
    18
100
AcDbCircle
 10
-911.3
 20
-51.45
 30
0.0
 40
1.0
100
AcDbArc
 50
113.200678981115
 51
115.766003319491
  0
ARC
  5
299
330
228
100
AcDbEntity
  8
Layer9
  6
AUSGEZOGEN
 62
    18
420
        0
370
    18
100
AcDbCircle
 10
-911.3
 20
-51.45
 30
0.0
 40
1.0
100
AcDbArc
 50
107.445522773882
 51
110.675475074777
  0
ARC
  5
29A
330
228
100
AcDbEntity
  8
Layer9
  6
AUSGEZOGEN
 62
    18
420
        0
370
    18
100
AcDbCircle
 10
-911.3
 20
-51.45
 30
0.0
 40
1.0
100
AcDbArc
 50
90.0
 51
95.349160331954
  0
LINE
  5
29B
330
228
100
AcDbEntity
  8
Layer9
  6
AUSGEZOGEN
 62
    18
420
        0
370
    18
100
AcDbLine
 10
-911.3
 20
-49.8532440469
 30
0.0
 11
-911.3
 21
-50.45
 31
0.0
  0
LINE
  5
29C
330
228
100
AcDbEntity
  8
Layer9
  6
AUSGEZOGEN
 62
    18
420
        0
370
    18
100
AcDbLine
 10
-909.3
 20
-49.8532440469
 30
0.0
 11
-909.3
 21
-50.45
 31
0.0
  0
LINE
  5
29D
330
228
100
AcDbEntity
  8
Layer9
  6
AUSGEZOGEN
 62
    18
420
        0
370
    18
100
AcDbLine
 10
-911.3
 20
39.97195126689
 30
0.0
 11
-911.3
 21
41.18168340753
 31
0.0
  0
LINE
  5
29E
330
228
100
AcDbEntity
  8
Layer9
  6
AUSGEZOGEN
 62
    18
420
        0
370
    18
100
AcDbLine
 10
-909.3
 20
41.18168340753
 30
0.0
 11
-909.3
 21
39.97195126689
 31
0.0
  0
LINE
  5
29F
330
228
100
AcDbEntity
  8
Layer9
  6
AUSGEZOGEN
 62
    18
420
        0
370
    18
100
AcDbLine
 10
-927.3
 20
-1.95
 30
0.0
 11
-930.3
 21
-1.95
 31
0.0
  0
LINE
  5
2A0
330
228
100
AcDbEntity
  8
Layer9
  6
AUSGEZOGEN
 62
    18
420
        0
370
    18
100
AcDbLine
 10
-927.3
 20
-57.95
 30
0.0
 11
-930.3
 21
-57.95
 31
0.0
  0
LINE
  5
2A1
330
228
100
AcDbEntity
  8
Layer9
  6
AUSGEZOGEN
 62
    18
420
        0
370
    18
100
AcDbLine
 10
-582.3
 20
58.85
 30
0.0
 11
-583.95
 21
58.85
 31
0.0
  0
LINE
  5
2A2
330
228
100
AcDbEntity
  8
Layer9
  6
AUSGEZOGEN
 62
    18
420
        0
370
    18
100
AcDbLine
 10
-586.2
 20
60.35
 30
0.0
 11
-588.45
 21
58.85
 31
0.0
  0
LINE
  5
2A3
330
228
100
AcDbEntity
  8
Layer9
  6
AUSGEZOGEN
 62
    18
420
        0
370
    18
100
AcDbLine
 10
-583.95
 20
58.85
 30
0.0
 11
-583.95
 21
60.35
 31
0.0
  0
LINE
  5
2A4
330
228
100
AcDbEntity
  8
Layer9
  6
AUSGEZOGEN
 62
    18
420
        0
370
    18
100
AcDbLine
 10
-583.95
 20
60.35
 30
0.0
 11
-586.2
 21
60.35
 31
0.0
  0
LINE
  5
2A5
330
228
100
AcDbEntity
  8
Layer9
  6
AUSGEZOGEN
 62
    18
420
        0
370
    18
100
AcDbLine
 10
-582.3
 20
68.35
 30
0.0
 11
-582.3
 21
58.85
 31
0.0
  0
LINE
  5
2A6
330
228
100
AcDbEntity
  8
Layer9
  6
AUSGEZOGEN
 62
    18
420
        0
370
    18
100
AcDbLine
 10
-588.45
 20
58.85
 30
0.0
 11
-592.05
 21
58.85
 31
0.0
  0
LINE
  5
2A7
330
228
100
AcDbEntity
  8
Layer9
  6
AUSGEZOGEN
 62
    18
420
        0
370
    18
100
AcDbLine
 10
-710.55
 20
58.85
 30
0.0
 11
-714.15
 21
58.85
 31
0.0
  0
LINE
  5
2A8
330
228
100
AcDbEntity
  8
Layer9
  6
AUSGEZOGEN
 62
    18
420
        0
370
    18
100
AcDbLine
 10
-714.15
 20
58.85
 30
0.0
 11
-716.4
 21
60.35
 31
0.0
  0
LINE
  5
2A9
330
228
100
AcDbEntity
  8
Layer9
  6
AUSGEZOGEN
 62
    18
420
        0
370
    18
100
AcDbLine
 10
-716.4
 20
60.35
 30
0.0
 11
-718.65
 21
60.35
 31
0.0
  0
LINE
  5
2AA
330
228
100
AcDbEntity
  8
Layer9
  6
AUSGEZOGEN
 62
    18
420
        0
370
    18
100
AcDbLine
 10
-718.65
 20
60.35
 30
0.0
 11
-718.65
 21
58.85
 31
0.0
  0
LINE
  5
2AB
330
228
100
AcDbEntity
  8
Layer9
  6
AUSGEZOGEN
 62
    18
420
        0
370
    18
100
AcDbLine
 10
-718.65
 20
58.85
 30
0.0
 11
-720.3
 21
58.85
 31
0.0
  0
LINE
  5
2AC
330
228
100
AcDbEntity
  8
Layer9
  6
AUSGEZOGEN
 62
    18
420
        0
370
    18
100
AcDbLine
 10
-720.3
 20
58.85
 30
0.0
 11
-720.3
 21
68.35
 31
0.0
  0
LINE
  5
2AD
330
228
100
AcDbEntity
  8
Layer9
  6
AUSGEZOGEN
 62
   253
420
 10066329
370
    18
100
AcDbLine
 10
-575.2
 20
75.15
 30
0.0
 11
-727.4
 21
75.15
 31
0.0
  0
LINE
  5
2AE
330
228
100
AcDbEntity
  8
Layer9
  6
AUSGEZOGEN
 62
   253
420
 10066329
370
    18
100
AcDbLine
 10
-588.4
 20
58.883333333333
 30
0.0
 11
-588.4
 21
68.35
 31
0.0
  0
LINE
  5
2AF
330
228
100
AcDbEntity
  8
Layer9
  6
AUSGEZOGEN
 62
   253
420
 10066329
370
    18
100
AcDbLine
 10
-701.2
 20
61.98862008838
 30
0.0
 11
-701.2
 21
58.11137991162
 31
0.0
  0
LINE
  5
2B0
330
228
100
AcDbEntity
  8
Layer9
  6
AUSGEZOGEN
 62
   253
420
 10066329
370
    18
100
AcDbLine
 10
-714.2
 20
68.35
 30
0.0
 11
-714.2
 21
58.883333333333
 31
0.0
  0
LINE
  5
2B1
330
228
100
AcDbEntity
  8
Layer9
  6
AUSGEZOGEN
 62
   253
420
 10066329
370
    18
100
AcDbLine
 10
-720.2
 20
68.35
 30
0.0
 11
-720.2
 21
60.35
 31
0.0
  0
LINE
  5
2B2
330
228
100
AcDbEntity
  8
Layer9
  6
AUSGEZOGEN
 62
   253
420
 10066329
370
    18
100
AcDbLine
 10
-720.2
 20
60.35
 30
0.0
 11
-718.65
 21
60.35
 31
0.0
  0
LINE
  5
2B3
330
228
100
AcDbEntity
  8
Layer9
  6
AUSGEZOGEN
 62
   253
420
 10066329
370
    18
100
AcDbLine
 10
-716.4
 20
60.35
 30
0.0
 11
-714.2
 21
60.35
 31
0.0
  0
ARC
  5
2B4
330
228
100
AcDbEntity
  8
Layer9
  6
AUSGEZOGEN
 62
   253
420
 10066329
370
    18
100
AcDbCircle
 10
-727.4
 20
74.15
 30
0.0
 40
1.0
100
AcDbArc
 50
90.0
 51
156.378396153307
  0
ARC
  5
2B5
330
228
100
AcDbEntity
  8
Layer9
  6
AUSGEZOGEN
 62
   253
420
 10066329
370
    18
100
AcDbCircle
 10
-575.2
 20
74.15
 30
0.0
 40
1.0
100
AcDbArc
 50
23.621603846693
 51
90.0
  0
LINE
  5
2B6
330
228
100
AcDbEntity
  8
Layer9
  6
AUSGEZOGEN
 62
   253
420
 10066329
370
    18
100
AcDbLine
 10
-730.767135035302
 20
58.965
 30
0.0
 11
-731.558104904091
 21
58.965
 31
0.0
  0
LINE
  5
2B7
330
228
100
AcDbEntity
  8
Layer9
  6
AUSGEZOGEN
 62
   253
420
 10066329
370
    18
100
AcDbLine
 10
-732.126794919243
 20
61.92
 30
0.0
 11
-731.731309984848
 21
61.235
 31
0.0
  0
LINE
  5
2B8
330
228
100
AcDbEntity
  8
Layer9
  6
AUSGEZOGEN
 62
   253
420
 10066329
370
    18
100
AcDbLine
 10
-731.558104904091
 20
61.135
 30
0.0
 11
-730.767135035302
 21
61.135
 31
0.0
  0
LINE
  5
2B9
330
228
100
AcDbEntity
  8
Layer9
  6
AUSGEZOGEN
 62
   253
420
 10066329
370
    18
100
AcDbLine
 10
-733.832864964698
 20
61.135
 30
0.0
 11
-733.041895095909
 21
61.135
 31
0.0
  0
LINE
  5
2BA
330
228
100
AcDbEntity
  8
Layer9
  6
AUSGEZOGEN
 62
   253
420
 10066329
370
    18
100
AcDbLine
 10
-732.473205080757
 20
58.18
 30
0.0
 11
-732.868690015152
 21
58.865
 31
0.0
  0
LINE
  5
2BB
330
228
100
AcDbEntity
  8
Layer9
  6
AUSGEZOGEN
 62
   253
420
 10066329
370
    18
100
AcDbLine
 10
-733.041895095909
 20
58.965
 30
0.0
 11
-733.832864964698
 21
58.965
 31
0.0
  0
LINE
  5
2BC
330
228
100
AcDbEntity
  8
Layer9
  6
AUSGEZOGEN
 62
   253
420
 10066329
370
    18
100
AcDbLine
 10
-733.61058511106
 20
60.15
 30
0.0
 11
-734.006070045455
 21
60.835
 31
0.0
  0
LINE
  5
2BD
330
228
100
AcDbEntity
  8
Layer9
  6
AUSGEZOGEN
 62
   253
420
 10066329
370
    18
100
AcDbLine
 10
-734.006070045455
 20
59.265
 30
0.0
 11
-733.61058511106
 21
59.95
 31
0.0
  0
LINE
  5
2BE
330
228
100
AcDbEntity
  8
Layer9
  6
AUSGEZOGEN
 62
   253
420
 10066329
370
    18
100
AcDbLine
 10
-732.868690015152
 20
61.235
 30
0.0
 11
-732.473205080757
 21
61.92
 31
0.0
  0
LINE
  5
2BF
330
228
100
AcDbEntity
  8
Layer9
  6
AUSGEZOGEN
 62
   253
420
 10066329
370
    18
100
AcDbLine
 10
-730.593929954545
 20
60.835
 30
0.0
 11
-730.98941488894
 21
60.15
 31
0.0
  0
LINE
  5
2C0
330
228
100
AcDbEntity
  8
Layer9
  6
AUSGEZOGEN
 62
   253
420
 10066329
370
    18
100
AcDbLine
 10
-730.98941488894
 20
59.95
 30
0.0
 11
-730.593929954545
 21
59.265
 31
0.0
  0
LINE
  5
2C1
330
228
100
AcDbEntity
  8
Layer9
  6
AUSGEZOGEN
 62
   253
420
 10066329
370
    18
100
AcDbLine
 10
-731.731309984848
 20
58.865
 30
0.0
 11
-732.126794919243
 21
58.18
 31
0.0
  0
ARC
  5
2C2
330
228
100
AcDbEntity
  8
Layer9
  6
AUSGEZOGEN
 62
   253
420
 10066329
370
    18
100
AcDbCircle
 10
-732.3
 20
58.28
 30
0.0
 40
0.2
100
AcDbArc
 50
209.999999999998
 51
330.000000000002
  0
ARC
  5
2C3
330
228
100
AcDbEntity
  8
Layer9
  6
AUSGEZOGEN
 62
   253
420
 10066329
370
    18
100
AcDbCircle
 10
-732.3
 20
60.05
 30
0.0
 40
4.2
100
AcDbArc
 50
270.0
 51
90.0
  0
ARC
  5
2C4
330
228
100
AcDbEntity
  8
Layer9
  6
AUSGEZOGEN
 62
   253
420
 10066329
370
    18
100
AcDbCircle
 10
-731.558104904091
 20
58.765
 30
0.0
 40
0.2
100
AcDbArc
 50
90.0
 51
150.000000000002
  0
ARC
  5
2C5
330
228
100
AcDbEntity
  8
Layer9
  6
AUSGEZOGEN
 62
   253
420
 10066329
370
    18
100
AcDbCircle
 10
-730.767135035302
 20
59.165
 30
0.0
 40
0.2
100
AcDbArc
 50
270.0
 51
29.999999999986
  0
ARC
  5
2C6
330
228
100
AcDbEntity
  8
Layer9
  6
AUSGEZOGEN
 62
   253
420
 10066329
370
    18
100
AcDbCircle
 10
-730.767135035302
 20
60.935
 30
0.0
 40
0.2
100
AcDbArc
 50
330.000000000014
 51
90.0
  0
ARC
  5
2C7
330
228
100
AcDbEntity
  8
Layer9
  6
AUSGEZOGEN
 62
   253
420
 10066329
370
    18
100
AcDbCircle
 10
-731.558104904091
 20
61.335
 30
0.0
 40
0.2
100
AcDbArc
 50
209.999999999998
 51
270.0
  0
ARC
  5
2C8
330
228
100
AcDbEntity
  8
Layer9
  6
AUSGEZOGEN
 62
   253
420
 10066329
370
    18
100
AcDbCircle
 10
-732.3
 20
61.82
 30
0.0
 40
0.2
100
AcDbArc
 50
29.999999999998
 51
150.000000000002
  0
ARC
  5
2C9
330
228
100
AcDbEntity
  8
Layer9
  6
AUSGEZOGEN
 62
   253
420
 10066329
370
    18
100
AcDbCircle
 10
-732.3
 20
60.05
 30
0.0
 40
4.2
100
AcDbArc
 50
90.0
 51
270.0
  0
ARC
  5
2CA
330
228
100
AcDbEntity
  8
Layer9
  6
AUSGEZOGEN
 62
   253
420
 10066329
370
    18
100
AcDbCircle
 10
-733.041895095909
 20
61.335
 30
0.0
 40
0.2
100
AcDbArc
 50
270.0
 51
330.000000000002
  0
ARC
  5
2CB
330
228
100
AcDbEntity
  8
Layer9
  6
AUSGEZOGEN
 62
   253
420
 10066329
370
    18
100
AcDbCircle
 10
-733.832864964698
 20
60.935
 30
0.0
 40
0.2
100
AcDbArc
 50
90.0
 51
209.999999999986
  0
ARC
  5
2CC
330
228
100
AcDbEntity
  8
Layer9
  6
AUSGEZOGEN
 62
   253
420
 10066329
370
    18
100
AcDbCircle
 10
-733.832864964698
 20
59.165
 30
0.0
 40
0.2
100
AcDbArc
 50
150.000000000014
 51
270.0
  0
ARC
  5
2CD
330
228
100
AcDbEntity
  8
Layer9
  6
AUSGEZOGEN
 62
   253
420
 10066329
370
    18
100
AcDbCircle
 10
-733.041895095909
 20
58.765
 30
0.0
 40
0.2
100
AcDbArc
 50
29.999999999998
 51
90.0
  0
ARC
  5
2CE
330
228
100
AcDbEntity
  8
Layer9
  6
AUSGEZOGEN
 62
   253
420
 10066329
370
    18
100
AcDbCircle
 10
-733.783790191817
 20
60.05
 30
0.0
 40
0.2
100
AcDbArc
 50
330.000000000016
 51
29.999999999984
  0
ARC
  5
2CF
330
228
100
AcDbEntity
  8
Layer9
  6
AUSGEZOGEN
 62
   253
420
 10066329
370
    18
100
AcDbCircle
 10
-730.816209808183
 20
60.05
 30
0.0
 40
0.2
100
AcDbArc
 50
150.000000000016
 51
209.999999999984
  0
LINE
  5
2D0
330
228
100
AcDbEntity
  8
Layer9
  6
AUSGEZOGEN
 62
   253
420
 10066329
370
    18
100
AcDbLine
 10
-568.767135035302
 20
58.965
 30
0.0
 11
-569.558104904091
 21
58.965
 31
0.0
  0
LINE
  5
2D1
330
228
100
AcDbEntity
  8
Layer9
  6
AUSGEZOGEN
 62
   253
420
 10066329
370
    18
100
AcDbLine
 10
-570.126794919243
 20
61.92
 30
0.0
 11
-569.731309984848
 21
61.235
 31
0.0
  0
LINE
  5
2D2
330
228
100
AcDbEntity
  8
Layer9
  6
AUSGEZOGEN
 62
   253
420
 10066329
370
    18
100
AcDbLine
 10
-569.558104904091
 20
61.135
 30
0.0
 11
-568.767135035302
 21
61.135
 31
0.0
  0
LINE
  5
2D3
330
228
100
AcDbEntity
  8
Layer9
  6
AUSGEZOGEN
 62
   253
420
 10066329
370
    18
100
AcDbLine
 10
-571.832864964698
 20
61.135
 30
0.0
 11
-571.041895095909
 21
61.135
 31
0.0
  0
LINE
  5
2D4
330
228
100
AcDbEntity
  8
Layer9
  6
AUSGEZOGEN
 62
   253
420
 10066329
370
    18
100
AcDbLine
 10
-570.473205080757
 20
58.18
 30
0.0
 11
-570.868690015152
 21
58.865
 31
0.0
  0
LINE
  5
2D5
330
228
100
AcDbEntity
  8
Layer9
  6
AUSGEZOGEN
 62
   253
420
 10066329
370
    18
100
AcDbLine
 10
-571.041895095909
 20
58.965
 30
0.0
 11
-571.832864964698
 21
58.965
 31
0.0
  0
LINE
  5
2D6
330
228
100
AcDbEntity
  8
Layer9
  6
AUSGEZOGEN
 62
   253
420
 10066329
370
    18
100
AcDbLine
 10
-571.61058511106
 20
60.15
 30
0.0
 11
-572.006070045455
 21
60.835
 31
0.0
  0
LINE
  5
2D7
330
228
100
AcDbEntity
  8
Layer9
  6
AUSGEZOGEN
 62
   253
420
 10066329
370
    18
100
AcDbLine
 10
-572.006070045455
 20
59.265
 30
0.0
 11
-571.61058511106
 21
59.95
 31
0.0
  0
LINE
  5
2D8
330
228
100
AcDbEntity
  8
Layer9
  6
AUSGEZOGEN
 62
   253
420
 10066329
370
    18
100
AcDbLine
 10
-570.868690015152
 20
61.235
 30
0.0
 11
-570.473205080757
 21
61.92
 31
0.0
  0
LINE
  5
2D9
330
228
100
AcDbEntity
  8
Layer9
  6
AUSGEZOGEN
 62
   253
420
 10066329
370
    18
100
AcDbLine
 10
-568.593929954545
 20
60.835
 30
0.0
 11
-568.98941488894
 21
60.15
 31
0.0
  0
LINE
  5
2DA
330
228
100
AcDbEntity
  8
Layer9
  6
AUSGEZOGEN
 62
   253
420
 10066329
370
    18
100
AcDbLine
 10
-568.98941488894
 20
59.95
 30
0.0
 11
-568.593929954545
 21
59.265
 31
0.0
  0
LINE
  5
2DB
330
228
100
AcDbEntity
  8
Layer9
  6
AUSGEZOGEN
 62
   253
420
 10066329
370
    18
100
AcDbLine
 10
-569.731309984848
 20
58.865
 30
0.0
 11
-570.126794919243
 21
58.18
 31
0.0
  0
ARC
  5
2DC
330
228
100
AcDbEntity
  8
Layer9
  6
AUSGEZOGEN
 62
   253
420
 10066329
370
    18
100
AcDbCircle
 10
-570.3
 20
58.28
 30
0.0
 40
0.2
100
AcDbArc
 50
209.999999999998
 51
330.000000000002
  0
ARC
  5
2DD
330
228
100
AcDbEntity
  8
Layer9
  6
AUSGEZOGEN
 62
   253
420
 10066329
370
    18
100
AcDbCircle
 10
-570.3
 20
60.05
 30
0.0
 40
4.2
100
AcDbArc
 50
270.0
 51
90.0
  0
ARC
  5
2DE
330
228
100
AcDbEntity
  8
Layer9
  6
AUSGEZOGEN
 62
   253
420
 10066329
370
    18
100
AcDbCircle
 10
-569.558104904091
 20
58.765
 30
0.0
 40
0.2
100
AcDbArc
 50
90.0
 51
150.000000000002
  0
ARC
  5
2DF
330
228
100
AcDbEntity
  8
Layer9
  6
AUSGEZOGEN
 62
   253
420
 10066329
370
    18
100
AcDbCircle
 10
-568.767135035302
 20
59.165
 30
0.0
 40
0.2
100
AcDbArc
 50
270.0
 51
29.999999999986
  0
ARC
  5
2E0
330
228
100
AcDbEntity
  8
Layer9
  6
AUSGEZOGEN
 62
   253
420
 10066329
370
    18
100
AcDbCircle
 10
-568.767135035302
 20
60.935
 30
0.0
 40
0.2
100
AcDbArc
 50
330.000000000014
 51
90.0
  0
ARC
  5
2E1
330
228
100
AcDbEntity
  8
Layer9
  6
AUSGEZOGEN
 62
   253
420
 10066329
370
    18
100
AcDbCircle
 10
-569.558104904091
 20
61.335
 30
0.0
 40
0.2
100
AcDbArc
 50
209.999999999998
 51
270.0
  0
ARC
  5
2E2
330
228
100
AcDbEntity
  8
Layer9
  6
AUSGEZOGEN
 62
   253
420
 10066329
370
    18
100
AcDbCircle
 10
-570.3
 20
61.82
 30
0.0
 40
0.2
100
AcDbArc
 50
29.999999999998
 51
150.000000000002
  0
ARC
  5
2E3
330
228
100
AcDbEntity
  8
Layer9
  6
AUSGEZOGEN
 62
   253
420
 10066329
370
    18
100
AcDbCircle
 10
-570.3
 20
60.05
 30
0.0
 40
4.2
100
AcDbArc
 50
90.0
 51
270.0
  0
ARC
  5
2E4
330
228
100
AcDbEntity
  8
Layer9
  6
AUSGEZOGEN
 62
   253
420
 10066329
370
    18
100
AcDbCircle
 10
-571.041895095909
 20
61.335
 30
0.0
 40
0.2
100
AcDbArc
 50
270.0
 51
330.000000000002
  0
ARC
  5
2E5
330
228
100
AcDbEntity
  8
Layer9
  6
AUSGEZOGEN
 62
   253
420
 10066329
370
    18
100
AcDbCircle
 10
-571.832864964698
 20
60.935
 30
0.0
 40
0.2
100
AcDbArc
 50
90.0
 51
209.999999999986
  0
ARC
  5
2E6
330
228
100
AcDbEntity
  8
Layer9
  6
AUSGEZOGEN
 62
   253
420
 10066329
370
    18
100
AcDbCircle
 10
-571.832864964698
 20
59.165
 30
0.0
 40
0.2
100
AcDbArc
 50
150.000000000014
 51
270.0
  0
ARC
  5
2E7
330
228
100
AcDbEntity
  8
Layer9
  6
AUSGEZOGEN
 62
   253
420
 10066329
370
    18
100
AcDbCircle
 10
-571.041895095909
 20
58.765
 30
0.0
 40
0.2
100
AcDbArc
 50
29.999999999998
 51
90.0
  0
ARC
  5
2E8
330
228
100
AcDbEntity
  8
Layer9
  6
AUSGEZOGEN
 62
   253
420
 10066329
370
    18
100
AcDbCircle
 10
-571.783790191817
 20
60.05
 30
0.0
 40
0.2
100
AcDbArc
 50
330.000000000016
 51
29.999999999984
  0
ARC
  5
2E9
330
228
100
AcDbEntity
  8
Layer9
  6
AUSGEZOGEN
 62
   253
420
 10066329
370
    18
100
AcDbCircle
 10
-568.816209808183
 20
60.05
 30
0.0
 40
0.2
100
AcDbArc
 50
150.000000000016
 51
209.999999999984
  0
ENDBLK
  5
22A
330
228
100
AcDbEntity
  8
0
100
AcDbBlockEnd
  0
BLOCK
  5
2EC
330
2EB
100
AcDbEntity
  8
0
100
AcDbBlockBegin
  2
*D4
 70
     1
 10
0.0
 20
0.0
 30
0.0
  3
*D4
  1

  0
HATCH
  5
2EE
330
2EB
100
AcDbEntity
  8
Layer6
  6
AUSGEZOGEN
 62
    18
420
        0
370
    18
100
AcDbHatch
 10
0.0
 20
0.0
 30
0.0
210
0.0
220
0.0
230
1.0
  2
SOLID
 70
     1
 71
     0
 91
        1
 92
        2
 72
     0
 73
     1
 93
        3
 10
-391.3
 20
420.2169035685529
 10
-404.3256414413452
 20
422.1707497847547
 10
-404.3256414413452
 20
418.2630573523511
 97
        0
 75
     0
 76
     1
 98
        0
  0
HATCH
  5
2EF
330
2EB
100
AcDbEntity
  8
Layer6
  6
AUSGEZOGEN
 62
    18
420
        0
370
    18
100
AcDbHatch
 10
0.0
 20
0.0
 30
0.0
210
0.0
220
0.0
230
1.0
  2
SOLID
 70
     1
 71
     0
 91
        1
 92
        2
 72
     0
 73
     1
 93
        3
 10
-911.3
 20
420.2169035685529
 10
-898.2743585586547
 20
418.2630573523511
 10
-898.2743585586547
 20
422.1707497847547
 97
        0
 75
     0
 76
     1
 98
        0
  0
LINE
  5
2F0
330
2EB
100
AcDbEntity
  8
Layer6
  6
AUSGEZOGEN
 62
    18
420
        0
370
    18
100
AcDbLine
 10
-898.274358558655
 20
420.216903568553
 30
0.0
 11
-404.325641441345
 21
420.216903568553
 31
0.0
  0
LINE
  5
2F1
330
2EB
100
AcDbEntity
  8
Layer6
  6
AUSGEZOGEN
 62
    18
420
        0
370
    18
100
AcDbLine
 10
-911.3
 20
372.3452774264
 30
0.0
 11
-911.3
 21
427.660127249322
 31
0.0
  0
LINE
  5
2F2
330
2EB
100
AcDbEntity
  8
Layer6
  6
AUSGEZOGEN
 62
    18
420
        0
370
    18
100
AcDbLine
 10
-391.3
 20
352.554121755618
 30
0.0
 11
-391.3
 21
371.8452774264
 31
0.0
  0
LINE
  5
2F3
330
2EB
100
AcDbEntity
  8
Layer6
  6
AUSGEZOGEN
 62
    18
420
        0
370
    18
100
AcDbLine
 10
-391.3
 20
373.1
 30
0.0
 11
-391.3
 21
427.660127249322
 31
0.0
  0
WIPEOUT
  5
2F4
330
2EB
100
AcDbEntity
  8
Layer6
  6
AUSGEZOGEN
 62
    18
420
        0
370
    18
160
               128
310
80000000020000000C00000014000000010000006C0000000700000004000000EB51B81F7AD684C020556022A12E7A400000000000000000E17A14AD52DE83C020556022A12E7A400000000000000000E17A14AD52DE83C0205560FA157C7B400000000000000000EB51B81F7AD684C0205560FA157C7B4000000000000000
310
00
100
AcDbWipeout
 90
        0
 10
-666.809630813599
 20
418.914339424418
 30
0.0
 11
31.01926162719724
 21
0.0
 31
0.0
 12
0.0
 22
31.01926162719724
 32
0.0
 13
1.0
 23
1.0
340
0
 70
     7
280
     1
281
    50
282
    50
283
     0
360
0
 71
     2
 91
        5
 14
-0.5
 24
0.5
 14
0.5
 24
0.5
 14
0.5
 24
-0.171873707267
 14
-0.5
 24
-0.171873707267
 14
-0.5
 24
0.5
290
     0
  0
TEXT
  5
2F5
330
2EB
100
AcDbEntity
  8
Layer6
  6
AUSGEZOGEN
 62
    18
420
        0
370
    18
100
AcDbText
 10
-666.809630813599
 20
422.822031856822
 30
0.0
 40
13.025641441345
  1
520
 41
1.02293811461
  7
Arial
 72
     5
 11
-635.790369186401
 21
422.822031856822
 31
0.0
100
AcDbText
  0
ENDBLK
  5
2ED
330
2EB
100
AcDbEntity
  8
0
100
AcDbBlockEnd
  0
BLOCK
  5
2F8
330
2F7
100
AcDbEntity
  8
0
100
AcDbBlockBegin
  2
*D5
 70
     1
 10
0.0
 20
0.0
 30
0.0
  3
*D5
  1

  0
HATCH
  5
2FA
330
2F7
100
AcDbEntity
  8
Layer6
  6
AUSGEZOGEN
 62
    18
420
        0
370
    18
100
AcDbHatch
 10
0.0
 20
0.0
 30
0.0
210
0.0
220
0.0
230
1.0
  2
SOLID
 70
     1
 71
     0
 91
        1
 92
        2
 72
     0
 73
     1
 93
        3
 10
-372.3
 20
200.2794727714643
 10
-385.3256414413452
 20
202.2333189876661
 10
-385.3256414413452
 20
198.3256265552625
 97
        0
 75
     0
 76
     1
 98
        0
  0
HATCH
  5
2FB
330
2F7
100
AcDbEntity
  8
Layer6
  6
AUSGEZOGEN
 62
    18
420
        0
370
    18
100
AcDbHatch
 10
0.0
 20
0.0
 30
0.0
210
0.0
220
0.0
230
1.0
  2
SOLID
 70
     1
 71
     0
 91
        1
 92
        2
 72
     0
 73
     1
 93
        3
 10
-930.3
 20
200.2794727714643
 10
-917.2743585586547
 20
198.3256265552625
 10
-917.2743585586547
 20
202.2333189876661
 97
        0
 75
     0
 76
     1
 98
        0
  0
LINE
  5
2FC
330
2F7
100
AcDbEntity
  8
Layer6
  6
AUSGEZOGEN
 62
    18
420
        0
370
    18
100
AcDbLine
 10
-917.274358558655
 20
200.279472771464
 30
0.0
 11
-385.325641441345
 21
200.279472771464
 31
0.0
  0
LINE
  5
2FD
330
2F7
100
AcDbEntity
  8
Layer6
  6
AUSGEZOGEN
 62
    18
420
        0
370
    18
100
AcDbLine
 10
-930.3
 20
307.5
 30
0.0
 11
-930.3
 21
192.836249090696
 31
0.0
  0
LINE
  5
2FE
330
2F7
100
AcDbEntity
  8
Layer6
  6
AUSGEZOGEN
 62
    18
420
        0
370
    18
100
AcDbLine
 10
-372.3
 20
307.5
 30
0.0
 11
-372.3
 21
192.836249090696
 31
0.0
  0
WIPEOUT
  5
2FF
330
2F7
100
AcDbEntity
  8
Layer6
  6
AUSGEZOGEN
 62
    18
420
        0
370
    18
160
               128
310
80000000020000000C00000014000000010000006C0000000700000004000000EB51B81F7AD684C0FAB1E1D542DF68400000000000000000E17A14AD52DE83C0FAB1E1D542DF68400000000000000000E17A14AD52DE83C0FAB1E1852C7A6B400000000000000000EB51B81F7AD684C0FAB1E1852C7A6B4000000000000000
310
00
100
AcDbWipeout
 90
        0
 10
-666.809630813599
 20
198.97690862733
 30
0.0
 11
31.01926162719724
 21
0.0
 31
0.0
 12
0.0
 22
31.01926162719724
 32
0.0
 13
1.0
 23
1.0
340
0
 70
     7
280
     1
281
    50
282
    50
283
     0
360
0
 71
     2
 91
        5
 14
-0.5
 24
0.5
 14
0.5
 24
0.5
 14
0.5
 24
-0.171873707267
 14
-0.5
 24
-0.171873707267
 14
-0.5
 24
0.5
290
     0
  0
TEXT
  5
300
330
2F7
100
AcDbEntity
  8
Layer6
  6
AUSGEZOGEN
 62
    18
420
        0
370
    18
100
AcDbText
 10
-666.809630813599
 20
202.884601059733
 30
0.0
 40
13.025641441345
  1
558
 41
1.02293811461
  7
Arial
 72
     5
 11
-635.790369186401
 21
202.884601059733
 31
0.0
100
AcDbText
  0
ENDBLK
  5
2F9
330
2F7
100
AcDbEntity
  8
0
100
AcDbBlockEnd
  0
BLOCK
  5
303
330
302
100
AcDbEntity
  8
0
100
AcDbBlockBegin
  2
*D6
 70
     1
 10
0.0
 20
0.0
 30
0.0
  3
*D6
  1

  0
HATCH
  5
305
330
302
100
AcDbEntity
  8
Layer6
  6
AUSGEZOGEN
 62
    18
420
        0
370
    18
100
AcDbHatch
 10
0.0
 20
0.0
 30
0.0
210
0.0
220
0.0
230
1.0
  2
SOLID
 70
     1
 71
     0
 91
        1
 92
        2
 72
     0
 73
     1
 93
        3
 10
-183.0515923426152
 20
254.6
 10
-181.0977461264134
 20
267.6256414413452
 10
-185.0054385588169
 20
267.6256414413452
 97
        0
 75
     0
 76
     1
 98
        0
  0
HATCH
  5
306
330
302
100
AcDbEntity
  8
Layer6
  6
AUSGEZOGEN
 62
    18
420
        0
370
    18
100
AcDbHatch
 10
0.0
 20
0.0
 30
0.0
210
0.0
220
0.0
230
1.0
  2
SOLID
 70
     1
 71
     0
 91
        1
 92
        2
 72
     0
 73
     1
 93
        3
 10
-183.0515923426152
 20
372.6
 10
-185.0054385588169
 20
359.5743585586548
 10
-181.0977461264134
 20
359.5743585586548
 97
        0
 75
     0
 76
     1
 98
        0
  0
LINE
  5
307
330
302
100
AcDbEntity
  8
Layer6
  6
AUSGEZOGEN
 62
    18
420
        0
370
    18
100
AcDbLine
 10
-183.051592342615
 20
359.574358558655
 30
0.0
 11
-183.051592342615
 21
267.625641441345
 31
0.0
  0
LINE
  5
308
330
302
100
AcDbEntity
  8
Layer6
  6
AUSGEZOGEN
 62
    18
420
        0
370
    18
100
AcDbLine
 10
-129.065841703765
 20
372.6
 30
0.0
 11
-143.75
 21
372.6
 31
0.0
  0
LINE
  5
309
330
302
100
AcDbEntity
  8
Layer6
  6
AUSGEZOGEN
 62
    18
420
        0
370
    18
100
AcDbLine
 10
-144.75
 20
372.6
 30
0.0
 11
-190.494816023384
 21
372.6
 31
0.0
  0
LINE
  5
30A
330
302
100
AcDbEntity
  8
Layer6
  6
AUSGEZOGEN
 62
    18
420
        0
370
    18
100
AcDbLine
 10
-127.105371202073
 20
254.6
 30
0.0
 11
-127.260742404146
 21
254.6
 31
0.0
  0
LINE
  5
30B
330
302
100
AcDbEntity
  8
Layer6
  6
AUSGEZOGEN
 62
    18
420
        0
370
    18
100
AcDbLine
 10
-128.260742404146
 20
254.6
 30
0.0
 11
-130.45
 21
254.6
 31
0.0
  0
LINE
  5
30C
330
302
100
AcDbEntity
  8
Layer6
  6
AUSGEZOGEN
 62
    18
420
        0
370
    18
100
AcDbLine
 10
-131.45
 20
254.6
 30
0.0
 11
-133.75
 21
254.6
 31
0.0
  0
LINE
  5
30D
330
302
100
AcDbEntity
  8
Layer6
  6
AUSGEZOGEN
 62
    18
420
        0
370
    18
100
AcDbLine
 10
-134.75
 20
254.6
 30
0.0
 11
-137.25
 21
254.6
 31
0.0
  0
LINE
  5
30E
330
302
100
AcDbEntity
  8
Layer6
  6
AUSGEZOGEN
 62
    18
420
        0
370
    18
100
AcDbLine
 10
-138.25
 20
254.6
 30
0.0
 11
-139.25
 21
254.6
 31
0.0
  0
LINE
  5
30F
330
302
100
AcDbEntity
  8
Layer6
  6
AUSGEZOGEN
 62
    18
420
        0
370
    18
100
AcDbLine
 10
-140.25
 20
254.6
 30
0.0
 11
-141.85
 21
254.6
 31
0.0
  0
LINE
  5
310
330
302
100
AcDbEntity
  8
Layer6
  6
AUSGEZOGEN
 62
    18
420
        0
370
    18
100
AcDbLine
 10
-142.85
 20
254.6
 30
0.0
 11
-144.25
 21
254.6
 31
0.0
  0
LINE
  5
311
330
302
100
AcDbEntity
  8
Layer6
  6
AUSGEZOGEN
 62
    18
420
        0
370
    18
100
AcDbLine
 10
-145.25
 20
254.6
 30
0.0
 11
-190.494816023384
 21
254.6
 31
0.0
  0
WIPEOUT
  5
312
330
302
100
AcDbEntity
  8
Layer6
  6
AUSGEZOGEN
 62
    18
420
        0
370
    18
160
               128
310
80000000020000000C00000014000000010000006C00000007000000040000003208FC09F8B766C090C2F52672A1724000000000000000003208FC09F8B766C0A4703D0CC191744000000000000000003208FCB9E15269C0A4703D0CC191744000000000000000003208FCB9E15269C090C2F52672A1724000000000000000
310
00
100
AcDbWipeout
 90
        0
 10
-202.590054504633
 20
298.090369186401
 30
0.0
 11
31.01926162719724
 21
0.0
 31
0.0
 12
0.0
 22
31.01926162719724
 32
0.0
 13
1.0
 23
1.0
340
0
 70
     7
280
     1
281
    50
282
    50
283
     0
360
0
 71
     2
 91
        5
 14
0.171873707267
 24
0.5
 14
0.171873707267
 24
-0.5
 14
-0.5
 24
-0.5
 14
-0.5
 24
0.5
 14
0.171873707267
 24
0.5
290
     0
  0
TEXT
  5
313
330
302
100
AcDbEntity
  8
Layer6
  6
AUSGEZOGEN
 62
    18
420
        0
370
    18
100
AcDbText
 10
-185.656720630884
 20
298.090369186401
 30
0.0
 40
13.025641441345
  1
118
 50
90.0
 41
1.02293811461
  7
Arial
 72
     5
 11
-185.656720630884
 21
329.109630813599
 31
0.0
100
AcDbText
  0
ENDBLK
  5
304
330
302
100
AcDbEntity
  8
0
100
AcDbBlockEnd
  0
BLOCK
  5
316
330
315
100
AcDbEntity
  8
0
100
AcDbBlockBegin
  2
*D7
 70
     1
 10
0.0
 20
0.0
 30
0.0
  3
*D7
  1

  0
HATCH
  5
318
330
315
100
AcDbEntity
  8
Layer6
  6
AUSGEZOGEN
 62
    18
420
        0
370
    18
100
AcDbHatch
 10
0.0
 20
0.0
 30
0.0
210
0.0
220
0.0
230
1.0
  2
SOLID
 70
     1
 71
     0
 91
        1
 92
        2
 72
     0
 73
     1
 93
        3
 10
-14.75
 20
220.0
 10
-27.77564144134521
 20
221.9538462162018
 10
-27.77564144134521
 20
218.0461537837982
 97
        0
 75
     0
 76
     1
 98
        0
  0
HATCH
  5
319
330
315
100
AcDbEntity
  8
Layer6
  6
AUSGEZOGEN
 62
    18
420
        0
370
    18
100
AcDbHatch
 10
0.0
 20
0.0
 30
0.0
210
0.0
220
0.0
230
1.0
  2
SOLID
 70
     1
 71
     0
 91
        1
 92
        2
 72
     0
 73
     1
 93
        3
 10
-147.25
 20
220.0
 10
-134.2243585586548
 20
218.0461537837982
 10
-134.2243585586548
 20
221.9538462162018
 97
        0
 75
     0
 76
     1
 98
        0
  0
LINE
  5
31A
330
315
100
AcDbEntity
  8
Layer6
  6
AUSGEZOGEN
 62
    18
420
        0
370
    18
100
AcDbLine
 10
-134.224358558655
 20
220.0
 30
0.0
 11
-27.775641441345
 21
220.0
 31
0.0
  0
LINE
  5
31B
330
315
100
AcDbEntity
  8
Layer6
  6
AUSGEZOGEN
 62
    18
420
        0
370
    18
100
AcDbLine
 10
-147.25
 20
358.207421208673
 30
0.0
 11
-147.25
 21
348.1
 31
0.0
  0
LINE
  5
31C
330
315
100
AcDbEntity
  8
Layer6
  6
AUSGEZOGEN
 62
    18
420
        0
370
    18
100
AcDbLine
 10
-147.25
 20
347.1
 30
0.0
 11
-147.25
 21
331.0
 31
0.0
  0
LINE
  5
31D
330
315
100
AcDbEntity
  8
Layer6
  6
AUSGEZOGEN
 62
    18
420
        0
370
    18
100
AcDbLine
 10
-147.25
 20
329.0
 30
0.0
 11
-147.25
 21
328.0
 31
0.0
  0
LINE
  5
31E
330
315
100
AcDbEntity
  8
Layer6
  6
AUSGEZOGEN
 62
    18
420
        0
370
    18
100
AcDbLine
 10
-147.25
 20
327.0
 30
0.0
 11
-147.25
 21
309.85
 31
0.0
  0
LINE
  5
31F
330
315
100
AcDbEntity
  8
Layer6
  6
AUSGEZOGEN
 62
    18
420
        0
370
    18
100
AcDbLine
 10
-147.25
 20
308.85
 30
0.0
 11
-147.25
 21
306.85
 31
0.0
  0
LINE
  5
320
330
315
100
AcDbEntity
  8
Layer6
  6
AUSGEZOGEN
 62
    18
420
        0
370
    18
100
AcDbLine
 10
-147.25
 20
305.85
 30
0.0
 11
-147.25
 21
268.6
 31
0.0
  0
LINE
  5
321
330
315
100
AcDbEntity
  8
Layer6
  6
AUSGEZOGEN
 62
    18
420
        0
370
    18
100
AcDbLine
 10
-147.25
 20
267.6
 30
0.0
 11
-147.25
 21
212.556776319231
 31
0.0
  0
LINE
  5
322
330
315
100
AcDbEntity
  8
Layer6
  6
AUSGEZOGEN
 62
    18
420
        0
370
    18
100
AcDbLine
 10
-14.75
 20
326.5
 30
0.0
 11
-14.75
 21
311.0
 31
0.0
  0
LINE
  5
323
330
315
100
AcDbEntity
  8
Layer6
  6
AUSGEZOGEN
 62
    18
420
        0
370
    18
100
AcDbLine
 10
-14.75
 20
310.0
 30
0.0
 11
-14.75
 21
212.556776319231
 31
0.0
  0
WIPEOUT
  5
324
330
315
100
AcDbEntity
  8
Layer6
  6
AUSGEZOGEN
 62
    18
420
        0
370
    18
160
               128
310
80000000020000000C00000014000000010000006C00000007000000040000003E0AD7AFEC105AC00000006551566B40000000000000000085EB51A026DE4CC00000006551566B40000000000000000085EB51A026DE4CC0000000153BF16D4000000000000000003E0AD7AFEC105AC0000000153BF16D4000000000000000
310
00
100
AcDbWipeout
 90
        0
 10
-104.264446220398
 20
218.697435855865
 30
0.0
 11
46.5288924407959
 21
0.0
 31
0.0
 12
0.0
 22
46.5288924407959
 32
0.0
 13
1.0
 23
1.0
340
0
 70
     7
280
     1
281
    50
282
    50
283
     0
360
0
 71
     2
 91
        5
 14
-0.5
 24
0.5
 14
0.5
 24
0.5
 14
0.5
 24
0.052084195155
 14
-0.5
 24
0.052084195155
 14
-0.5
 24
0.5
290
     0
  0
TEXT
  5
325
330
315
100
AcDbEntity
  8
Layer6
  6
AUSGEZOGEN
 62
    18
420
        0
370
    18
100
AcDbText
 10
-104.264446220398
 20
222.605128288269
 30
0.0
 40
13.025641441345
  1
132.5
 41
1.02293811461
  7
Arial
 72
     5
 11
-57.735553779602
 21
222.605128288269
 31
0.0
100
AcDbText
  0
ENDBLK
  5
317
330
315
100
AcDbEntity
  8
0
100
AcDbBlockEnd
  0
ENDSEC
  0
SECTION
  2
ENTITIES
  0
INSERT
  5
1B3
330
1F
100
AcDbEntity
  8
0
100
AcDbBlockReference
  2
Draufsicht_nNn00
 10
0.0
 20
0.0
 30
0.0
  0
INSERT
  5
227
330
1F
100
AcDbEntity
  8
0
100
AcDbBlockReference
  2
Draufsicht-SL_nNn01
 10
0.0
 20
0.0
 30
0.0
  0
INSERT
  5
2EA
330
1F
100
AcDbEntity
  8
0
100
AcDbBlockReference
  2
Draufsicht-D_nNn02
 10
0.0
 20
0.0
 30
0.0
  0
DIMENSION
  5
2F6
330
1F
100
AcDbEntity
  8
Layer6
  6
AUSGEZOGEN
 62
    18
420
        0
370
    18
100
AcDbDimension
280
     0
  2
*D4
 10
-391.3
 20
420.216903568553
 30
0.0
 11
-651.3
 21
429.334852577495
 31
0.0
 70
    32
 71
     5
 42
-1.0
 73
     0
 74
     0
 75
     0
  3
ISO-25
100
AcDbAlignedDimension
 13
-911.3
 23
372.3452774264
 33
0.0
 14
-391.3
 24
352.554121755618
 34
0.0
100
AcDbRotatedDimension
1001
ACAD
1000
DSTYLE
1002
{
1070
     3
1000
<>
1070
   340
1005
6F
1070
    44
1040
9.304029600961
1070
   280
1070
     0
1070
    77
1070
     1
1070
    78
1070
     8
1070
   179
1070
     2
1070
   271
1070
     2
1070
   173
1070
     1
1070
    41
1040
13.025641441345
1070
   147
1040
1.860805920192
1070
   140
1040
13.025641441345
1070
   178
1070
    18
1070
   177
1070
    18
1070
   176
1070
    18
1002
}
  0
DIMENSION
  5
301
330
1F
100
AcDbEntity
  8
Layer6
  6
AUSGEZOGEN
 62
    18
420
        0
370
    18
100
AcDbDimension
280
     0
  2
*D5
 10
-372.3
 20
200.279472771464
 30
0.0
 11
-651.3
 21
209.397421780406
 31
0.0
 70
    32
 71
     5
 42
-1.0
 73
     0
 74
     0
 75
     0
  3
ISO-25
100
AcDbAlignedDimension
 13
-930.3
 23
307.5
 33
0.0
 14
-372.3
 24
307.5
 34
0.0
100
AcDbRotatedDimension
1001
ACAD
1000
DSTYLE
1002
{
1070
     3
1000
<>
1070
   340
1005
6F
1070
    44
1040
9.304029600961
1070
   280
1070
     0
1070
    77
1070
     1
1070
    78
1070
     8
1070
   179
1070
     2
1070
   271
1070
     2
1070
   173
1070
     1
1070
    41
1040
13.025641441345
1070
   147
1040
1.860805920192
1070
   140
1040
13.025641441345
1070
   178
1070
    18
1070
   177
1070
    18
1070
   176
1070
    18
1002
}
  0
DIMENSION
  5
314
330
1F
100
AcDbEntity
  8
Layer6
  6
AUSGEZOGEN
 62
    18
420
        0
370
    18
100
AcDbDimension
280
     0
  2
*D6
 10
-183.051592342615
 20
254.6
 30
0.0
 11
-192.169541351557
 21
313.6
 31
0.0
 70
    32
 71
     5
 42
-1.0
 73
     0
 74
     0
 75
     0
 53
90.0
  3
ISO-25
100
AcDbAlignedDimension
 13
-129.065841703765
 23
372.6
 33
0.0
 14
-127.105371202073
 24
254.6
 34
0.0
 50
-90.0
100
AcDbRotatedDimension
1001
ACAD
1000
DSTYLE
1002
{
1070
     3
1000
<>
1070
   340
1005
6F
1070
    44
1040
9.304029600961
1070
   280
1070
     0
1070
    77
1070
     1
1070
    78
1070
     8
1070
   179
1070
     2
1070
   271
1070
     2
1070
   173
1070
     1
1070
    41
1040
13.025641441345
1070
   147
1040
1.860805920192
1070
   140
1040
13.025641441345
1070
   178
1070
    18
1070
   177
1070
    18
1070
   176
1070
    18
1002
}
  0
DIMENSION
  5
326
330
1F
100
AcDbEntity
  8
Layer6
  6
AUSGEZOGEN
 62
    18
420
        0
370
    18
100
AcDbDimension
280
     0
  2
*D7
 10
-14.75
 20
220.0
 30
0.0
 11
-81.0
 21
229.117949008942
 31
0.0
 70
    32
 71
     5
 42
-1.0
 73
     0
 74
     0
 75
     0
  3
ISO-25
100
AcDbAlignedDimension
 13
-147.25
 23
358.207421208673
 33
0.0
 14
-14.75
 24
326.5
 34
0.0
100
AcDbRotatedDimension
1001
ACAD
1000
DSTYLE
1002
{
1070
     3
1000
<>
1070
   340
1005
6F
1070
    44
1040
9.304029600961
1070
   280
1070
     0
1070
    77
1070
     1
1070
    78
1070
     8
1070
   179
1070
     2
1070
   271
1070
     2
1070
   173
1070
     1
1070
    41
1040
13.025641441345
1070
   147
1040
1.860805920192
1070
   140
1040
13.025641441345
1070
   178
1070
    18
1070
   177
1070
    18
1070
   176
1070
    18
1002
}
  0
ENDSEC
  0
SECTION
  2
OBJECTS
  0
DICTIONARY
  5
C
330
0
100
AcDbDictionary
281
     1
  3
ACAD_DETAILVIEWSTYLE
350
35F
  3
ACAD_GROUP
350
D
  3
ACAD_LAYOUT
350
1A
  3
ACAD_MATERIAL
350
43
  3
ACAD_MLEADERSTYLE
350
6B
  3
ACAD_MLINESTYLE
350
17
  3
ACAD_PLOTSETTINGS
350
19
  3
ACAD_PLOTSTYLENAME
350
E
  3
ACAD_SCALELIST
350
47
  3
ACAD_SECTIONVIEWSTYLE
350
360
  3
ACAD_TABLESTYLE
350
69
  3
ACAD_VISUALSTYLE
350
2A
  3
ACAD_WIPEOUT_VARS
350
35C
  3
ACDB_RECOMPOSE_DATA
350
35B
  3
AcDbVariableDictionary
350
327
  0
SUN
  5
6D
330
29
100
AcDbSun
 90
        1
290
     0
 63
     7
421
 16777215
 40
1.0
291
     1
 91
  2455826
 92
 54000000
292
     0
 70
     2
 71
   256
280
     1
  0
DICTIONARY
  5
35F
102
{ACAD_REACTORS
330
C
102
}
330
C
100
AcDbDictionary
281
     1
  0
DICTIONARY
  5
D
102
{ACAD_REACTORS
330
C
102
}
330
C
100
AcDbDictionary
281
     1
  0
DICTIONARY
  5
1A
102
{ACAD_REACTORS
330
C
102
}
330
C
100
AcDbDictionary
281
     1
  3
Layout1
350
1E
  3
Layout2
350
26
  3
Model
350
22
  0
DICTIONARY
  5
43
102
{ACAD_REACTORS
330
C
102
}
330
C
100
AcDbDictionary
281
     1
  3
ByBlock
350
45
  3
ByLayer
350
44
  3
Global
350
46
  0
DICTIONARY
  5
6B
102
{ACAD_REACTORS
330
C
102
}
330
C
100
AcDbDictionary
281
     1
  3
Standard
350
6C
  0
DICTIONARY
  5
17
102
{ACAD_REACTORS
330
C
102
}
330
C
100
AcDbDictionary
281
     1
  3
Standard
350
18
  0
DICTIONARY
  5
19
102
{ACAD_REACTORS
330
C
102
}
330
C
100
AcDbDictionary
281
     1
  0
ACDBDICTIONARYWDFLT
  5
E
102
{ACAD_REACTORS
330
C
102
}
330
C
100
AcDbDictionary
281
     1
  3
Normal
350
F
100
AcDbDictionaryWithDefault
340
F
  0
DICTIONARY
  5
47
102
{ACAD_REACTORS
330
C
102
}
330
C
100
AcDbDictionary
281
     1
  3
A0
350
48
  3
A1
350
49
  3
A2
350
4A
  3
A3
350
4B
  3
A4
350
4C
  3
A5
350
4D
  3
A6
350
4E
  3
A7
350
4F
  3
A8
350
50
  3
A9
350
51
  3
B0
350
52
  3
B1
350
53
  3
B2
350
54
  3
B3
350
55
  3
B4
350
56
  3
B5
350
57
  3
B6
350
58
  3
B7
350
59
  3
B8
350
5A
  3
B9
350
5B
  3
C0
350
5C
  3
C1
350
5D
  3
C2
350
5E
  3
C3
350
5F
  3
C4
350
60
  3
C5
350
61
  3
C6
350
62
  3
C7
350
63
  3
C8
350
64
  3
C9
350
65
  3
D0
350
66
  3
D1
350
67
  3
D2
350
68
  0
DICTIONARY
  5
360
102
{ACAD_REACTORS
330
C
102
}
330
C
100
AcDbDictionary
281
     1
  0
DICTIONARY
  5
69
102
{ACAD_REACTORS
330
C
102
}
330
C
100
AcDbDictionary
281
     1
  3
Standard
350
6A
  0
DICTIONARY
  5
2A
102
{ACAD_REACTORS
330
C
102
}
330
C
100
AcDbDictionary
281
     1
  3
2dWireframe
350
2F
  3
Basic
350
32
  3
Brighten
350
36
  3
ColorChange
350
3A
  3
Conceptual
350
34
  3
Dim
350
35
  3
EdgeColorOff
350
3D
  3
Facepattern
350
39
  3
Flat
350
2B
  3
FlatWithEdges
350
2C
  3
Gouraud
350
2D
  3
GouraudWithEdges
350
2E
  3
Hidden
350
31
  3
JitterOff
350
3B
  3
Linepattern
350
38
  3
OverhangOff
350
3C
  3
Realistic
350
33
  3
Shaded
350
42
  3
Shaded with edges
350
41
  3
Shades of Gray
350
3E
  3
Sketchy
350
3F
  3
Thicken
350
37
  3
Wireframe
350
30
  3
X-Ray
350
40
  0
WIPEOUTVARIABLES
  5
35C
102
{ACAD_REACTORS
330
C
102
}
330
C
100
AcDbWipeoutVariables
 70
     0
  0
XRECORD
  5
35B
102
{ACAD_REACTORS
330
C
102
}
330
C
100
AcDbXrecord
280
     1
 90
        1
330
6A
  0
DICTIONARY
  5
327
102
{ACAD_REACTORS
330
C
102
}
330
C
100
AcDbDictionary
281
     1
  3
CANNOSCALE
350
328
  3
CENTEREXE
350
362
  3
CENTERLTYPEFILE
350
363
  3
CMLEADERSTYLE
350
35E
  3
CTABLESTYLE
350
35D
  3
WIPEOUTFRAME
350
361
  0
LAYOUT
  5
1E
102
{ACAD_REACTORS
330
1A
102
}
330
1A
100
AcDbPlotSettings
  1

  2
none_device
  4

  6

 40
0.0
 41
0.0
 42
0.0
 43
0.0
 44
0.0
 45
0.0
 46
0.0
 47
0.0
 48
0.0
 49
0.0
140
0.0
141
0.0
142
1.0
143
1.0
 70
   688
 72
     1
 73
     0
 74
     5
  7

 75
    16
 76
     0
 77
     2
 78
   300
147
1.0
148
0.0
149
0.0
100
AcDbLayout
  1
Layout1
 70
     1
 71
     1
 10
0.0
 20
0.0
 11
420.0
 21
297.0
 12
0.0
 22
0.0
 32
0.0
 14
1.000000000000E+20
 24
1.000000000000E+20
 34
1.000000000000E+20
 15
-1.000000000000E+20
 25
-1.000000000000E+20
 35
-1.000000000000E+20
146
0.0
 13
0.0
 23
0.0
 33
0.0
 16
1.0
 26
0.0
 36
0.0
 17
0.0
 27
1.0
 37
0.0
 76
     0
330
1B
  0
LAYOUT
  5
26
102
{ACAD_REACTORS
330
1A
102
}
330
1A
100
AcDbPlotSettings
  1

  2
none_device
  4

  6

 40
0.0
 41
0.0
 42
0.0
 43
0.0
 44
0.0
 45
0.0
 46
0.0
 47
0.0
 48
0.0
 49
0.0
140
0.0
141
0.0
142
1.0
143
1.0
 70
   688
 72
     1
 73
     0
 74
     5
  7

 75
    16
 76
     0
 77
     2
 78
   300
147
1.0
148
0.0
149
0.0
100
AcDbLayout
  1
Layout2
 70
     1
 71
     2
 10
0.0
 20
0.0
 11
0.0
 21
0.0
 12
0.0
 22
0.0
 32
0.0
 14
0.0
 24
0.0
 34
0.0
 15
0.0
 25
0.0
 35
0.0
146
0.0
 13
0.0
 23
0.0
 33
0.0
 16
1.0
 26
0.0
 36
0.0
 17
0.0
 27
1.0
 37
0.0
 76
     0
330
23
  0
LAYOUT
  5
22
102
{ACAD_REACTORS
330
1A
102
}
330
1A
100
AcDbPlotSettings
  1

  2
none_device
  4
Letter_(8.50_x_11.00_Inches)
  6

 40
6.35
 41
6.35
 42
6.35000508
 43
6.35000508
 44
215.9
 45
279.4
 46
0.0
 47
0.0
 48
0.0
 49
0.0
140
0.0
141
0.0
142
1.0
143
1.0
 70
  1712
 72
     1
 73
     0
 74
     0
  7

 75
     0
 76
     0
 77
     2
 78
   300
147
1.0
148
0.0
149
0.0
100
AcDbLayout
  1
Model
 70
     1
 71
     0
 10
0.0
 20
0.0
 11
420.0
 21
297.0
 12
0.0
 22
0.0
 32
0.0
 14
-1165.026721570047
 24
-82.835268286528
 34
0.0
 15
219.976721570047
 25
464.640634017099
 35
0.0
146
0.0
 13
0.0
 23
0.0
 33
0.0
 16
1.0
 26
0.0
 36
0.0
 17
0.0
 27
1.0
 37
0.0
 76
     0
330
1F
331
29
  0
MATERIAL
  5
45
102
{ACAD_REACTORS
330
43
102
}
330
43
100
AcDbMaterial
  1
ByBlock
 72
     1
 94
      127
  0
MATERIAL
  5
44
102
{ACAD_REACTORS
330
43
102
}
330
43
100
AcDbMaterial
  1
ByLayer
 72
     1
 94
      127
  0
MATERIAL
  5
46
102
{ACAD_REACTORS
330
43
102
}
330
43
100
AcDbMaterial
  1
Global
 72
     1
 94
      127
  0
MLEADERSTYLE
  5
6C
102
{ACAD_REACTORS
330
6B
102
}
330
6B
100
AcDbMLeaderStyle
179
     2
170
     2
171
     1
172
     0
 90
        2
 40
0.0
 41
0.0
173
     1
 91
-1056964608
340
14
 92
       -2
290
     1
 42
2.0
291
     1
 43
8.0
  3
Standard
341
0
 44
4.0
300

342
11
174
     1
178
     6
175
     1
176
     0
 93
-1056964608
 45
4.0
292
     0
297
     0
 46
4.0
343
0
 94
-1056964608
 47
1.0
 49
1.0
140
1.0
293
     1
141
0.0
294
     1
177
     0
142
1.0
295
     0
296
     0
143
3.75
271
     0
272
     9
273
     9
  0
MLINESTYLE
  5
18
102
{ACAD_REACTORS
330
17
102
}
330
17
100
AcDbMlineStyle
  2
Standard
 70
     0
  3

 62
   256
 51
90.0
 52
90.0
 71
     2
 49
0.5
 62
   256
  6
BYLAYER
 49
-0.5
 62
   256
  6
BYLAYER
  0
ACDBPLACEHOLDER
  5
F
102
{ACAD_REACTORS
330
E
102
}
330
E
  0
SCALE
  5
48
102
{ACAD_REACTORS
330
47
102
}
330
47
100
AcDbScale
 70
     0
300
1:1
140
1.0
141
1.0
290
     1
  0
SCALE
  5
49
102
{ACAD_REACTORS
330
47
102
}
330
47
100
AcDbScale
 70
     0
300
1:2
140
1.0
141
2.0
290
     0
  0
SCALE
  5
4A
102
{ACAD_REACTORS
330
47
102
}
330
47
100
AcDbScale
 70
     0
300
1:4
140
1.0
141
4.0
290
     0
  0
SCALE
  5
4B
102
{ACAD_REACTORS
330
47
102
}
330
47
100
AcDbScale
 70
     0
300
1:5
140
1.0
141
5.0
290
     0
  0
SCALE
  5
4C
102
{ACAD_REACTORS
330
47
102
}
330
47
100
AcDbScale
 70
     0
300
1:8
140
1.0
141
8.0
290
     0
  0
SCALE
  5
4D
102
{ACAD_REACTORS
330
47
102
}
330
47
100
AcDbScale
 70
     0
300
1:10
140
1.0
141
10.0
290
     0
  0
SCALE
  5
4E
102
{ACAD_REACTORS
330
47
102
}
330
47
100
AcDbScale
 70
     0
300
1:16
140
1.0
141
16.0
290
     0
  0
SCALE
  5
4F
102
{ACAD_REACTORS
330
47
102
}
330
47
100
AcDbScale
 70
     0
300
1:20
140
1.0
141
20.0
290
     0
  0
SCALE
  5
50
102
{ACAD_REACTORS
330
47
102
}
330
47
100
AcDbScale
 70
     0
300
1:30
140
1.0
141
30.0
290
     0
  0
SCALE
  5
51
102
{ACAD_REACTORS
330
47
102
}
330
47
100
AcDbScale
 70
     0
300
1:40
140
1.0
141
40.0
290
     0
  0
SCALE
  5
52
102
{ACAD_REACTORS
330
47
102
}
330
47
100
AcDbScale
 70
     0
300
1:50
140
1.0
141
50.0
290
     0
  0
SCALE
  5
53
102
{ACAD_REACTORS
330
47
102
}
330
47
100
AcDbScale
 70
     0
300
1:100
140
1.0
141
100.0
290
     0
  0
SCALE
  5
54
102
{ACAD_REACTORS
330
47
102
}
330
47
100
AcDbScale
 70
     0
300
2:1
140
2.0
141
1.0
290
     0
  0
SCALE
  5
55
102
{ACAD_REACTORS
330
47
102
}
330
47
100
AcDbScale
 70
     0
300
4:1
140
4.0
141
1.0
290
     0
  0
SCALE
  5
56
102
{ACAD_REACTORS
330
47
102
}
330
47
100
AcDbScale
 70
     0
300
8:1
140
8.0
141
1.0
290
     0
  0
SCALE
  5
57
102
{ACAD_REACTORS
330
47
102
}
330
47
100
AcDbScale
 70
     0
300
10:1
140
10.0
141
1.0
290
     0
  0
SCALE
  5
58
102
{ACAD_REACTORS
330
47
102
}
330
47
100
AcDbScale
 70
     0
300
100:1
140
100.0
141
1.0
290
     0
  0
SCALE
  5
59
102
{ACAD_REACTORS
330
47
102
}
330
47
100
AcDbScale
 70
     0
300
1/128" = 1'-0"
140
0.0078125
141
12.0
290
     0
  0
SCALE
  5
5A
102
{ACAD_REACTORS
330
47
102
}
330
47
100
AcDbScale
 70
     0
300
1/64" = 1'-0"
140
0.015625
141
12.0
290
     0
  0
SCALE
  5
5B
102
{ACAD_REACTORS
330
47
102
}
330
47
100
AcDbScale
 70
     0
300
1/32" = 1'-0"
140
0.03125
141
12.0
290
     0
  0
SCALE
  5
5C
102
{ACAD_REACTORS
330
47
102
}
330
47
100
AcDbScale
 70
     0
300
1/16" = 1'-0"
140
0.0625
141
12.0
290
     0
  0
SCALE
  5
5D
102
{ACAD_REACTORS
330
47
102
}
330
47
100
AcDbScale
 70
     0
300
3/32" = 1'-0"
140
0.09375
141
12.0
290
     0
  0
SCALE
  5
5E
102
{ACAD_REACTORS
330
47
102
}
330
47
100
AcDbScale
 70
     0
300
1/8" = 1'-0"
140
0.125
141
12.0
290
     0
  0
SCALE
  5
5F
102
{ACAD_REACTORS
330
47
102
}
330
47
100
AcDbScale
 70
     0
300
3/16" = 1'-0"
140
0.1875
141
12.0
290
     0
  0
SCALE
  5
60
102
{ACAD_REACTORS
330
47
102
}
330
47
100
AcDbScale
 70
     0
300
1/4" = 1'-0"
140
0.25
141
12.0
290
     0
  0
SCALE
  5
61
102
{ACAD_REACTORS
330
47
102
}
330
47
100
AcDbScale
 70
     0
300
3/8" = 1'-0"
140
0.375
141
12.0
290
     0
  0
SCALE
  5
62
102
{ACAD_REACTORS
330
47
102
}
330
47
100
AcDbScale
 70
     0
300
1/2" = 1'-0"
140
0.5
141
12.0
290
     0
  0
SCALE
  5
63
102
{ACAD_REACTORS
330
47
102
}
330
47
100
AcDbScale
 70
     0
300
3/4" = 1'-0"
140
0.75
141
12.0
290
     0
  0
SCALE
  5
64
102
{ACAD_REACTORS
330
47
102
}
330
47
100
AcDbScale
 70
     0
300
1" = 1'-0"
140
1.0
141
12.0
290
     0
  0
SCALE
  5
65
102
{ACAD_REACTORS
330
47
102
}
330
47
100
AcDbScale
 70
     0
300
1-1/2" = 1'-0"
140
1.5
141
12.0
290
     0
  0
SCALE
  5
66
102
{ACAD_REACTORS
330
47
102
}
330
47
100
AcDbScale
 70
     0
300
3" = 1'-0"
140
3.0
141
12.0
290
     0
  0
SCALE
  5
67
102
{ACAD_REACTORS
330
47
102
}
330
47
100
AcDbScale
 70
     0
300
6" = 1'-0"
140
6.0
141
12.0
290
     0
  0
SCALE
  5
68
102
{ACAD_REACTORS
330
47
102
}
330
47
100
AcDbScale
 70
     0
300
1'-0" = 1'-0"
140
12.0
141
12.0
290
     0
  0
TABLESTYLE
  5
6A
102
{ACAD_REACTORS
330
69
102
}
102
{ACAD_XDICTIONARY
360
359
102
}
330
69
100
AcDbTableStyle
  3
Standard
 70
     0
 71
     0
 40
0.06
 41
0.06
280
     0
281
     0
  7
Standard
140
4.5
170
     2
 62
     0
 63
   257
283
     0
 90
        4
 91
        0
  1

274
    -2
284
     1
 64
     0
275
    -2
285
     1
 65
     0
276
    -2
286
     1
 66
     0
277
    -2
287
     1
 67
     0
278
    -2
288
     1
 68
     0
279
    -2
289
     1
 69
     0
  7
Standard
140
6.0
170
     5
 62
     0
 63
   257
283
     0
 90
        4
 91
        0
  1

274
    -2
284
     1
 64
     0
275
    -2
285
     1
 65
     0
276
    -2
286
     1
 66
     0
277
    -2
287
     1
 67
     0
278
    -2
288
     1
 68
     0
279
    -2
289
     1
 69
     0
  7
Standard
140
4.5
170
     5
 62
     0
 63
   257
283
     0
 90
        4
 91
        0
  1

274
    -2
284
     1
 64
     0
275
    -2
285
     1
 65
     0
276
    -2
286
     1
 66
     0
277
    -2
287
     1
 67
     0
278
    -2
288
     1
 68
     0
279
    -2
289
     1
 69
     0
  0
VISUALSTYLE
  5
2F
102
{ACAD_REACTORS
330
2A
102
}
102
{ACAD_XDICTIONARY
360
331
102
}
330
2A
100
AcDbVisualStyle
  2
2dWireframe
 70
     4
177
     2
291
     0
 71
     0
176
     1
 72
     2
176
     1
 73
     0
176
     1
 90
        0
176
     1
 40
0.6
176
     1
 41
30.0
176
     1
 62
     5
 63
     7
421
 16777215
176
     1
 74
     1
176
     1
 91
        4
176
     1
 64
     7
176
     1
 65
   257
176
     1
 75
     1
176
     1
175
     1
176
     1
 42
1.0
176
     1
 92
        0
176
     1
 66
   257
176
     1
 43
1.0
176
     1
 76
     1
176
     1
 77
     6
176
     1
 78
     2
176
     1
 67
     7
176
     1
 79
     5
176
     1
170
     0
176
     1
171
     0
176
     1
290
     0
176
     1
 93
        1
176
     1
 44
0.0
176
     1
173
     0
176
     1
  0
VISUALSTYLE
  5
32
102
{ACAD_REACTORS
330
2A
102
}
102
{ACAD_XDICTIONARY
360
337
102
}
330
2A
100
AcDbVisualStyle
  2
Basic
 70
     7
177
     2
291
     1
 71
     1
176
     1
 72
     0
176
     1
 73
     1
176
     1
 90
        0
176
     1
 40
0.6
176
     1
 41
30.0
176
     1
 62
     5
 63
     7
421
 16777215
176
     1
 74
     0
176
     1
 91
        4
176
     1
 64
     7
176
     1
 65
   257
176
     1
 75
     1
176
     1
175
     1
176
     1
 42
1.0
176
     1
 92
        8
176
     1
 66
     7
176
     1
 43
1.0
176
     1
 76
     1
176
     1
 77
     6
176
     1
 78
     2
176
     1
 67
     7
176
     1
 79
     5
176
     1
170
     0
176
     1
171
     0
176
     1
290
     0
176
     1
 93
        1
176
     1
 44
0.0
176
     1
173
     0
176
     1
  0
VISUALSTYLE
  5
36
102
{ACAD_REACTORS
330
2A
102
}
102
{ACAD_XDICTIONARY
360
33F
102
}
330
2A
100
AcDbVisualStyle
  2
Brighten
 70
    12
177
     2
291
     1
 71
     2
176
     1
 72
     2
176
     1
 73
     0
176
     1
 90
        0
176
     1
 40
0.6
176
     1
 41
30.0
176
     1
 62
     5
 63
     7
421
 16777215
176
     1
 74
     1
176
     1
 91
        4
176
     1
 64
     7
176
     1
 65
   257
176
     1
 75
     1
176
     1
175
     1
176
     1
 42
1.0
176
     1
 92
        8
176
     1
 66
     7
176
     1
 43
1.0
176
     1
 76
     1
176
     1
 77
     6
176
     1
 78
     2
176
     1
 67
     7
176
     1
 79
     5
176
     1
170
     0
176
     1
171
     0
176
     1
290
     0
176
     1
 93
        1
176
     1
 44
50.0
176
     1
173
     0
176
     1
  0
VISUALSTYLE
  5
3A
102
{ACAD_REACTORS
330
2A
102
}
102
{ACAD_XDICTIONARY
360
347
102
}
330
2A
100
AcDbVisualStyle
  2
ColorChange
 70
    16
177
     2
291
     1
 71
     2
176
     1
 72
     2
176
     1
 73
     3
176
     1
 90
        0
176
     1
 40
0.6
176
     1
 41
30.0
176
     1
 62
     5
 63
     8
421
  8421504
176
     1
 74
     1
176
     1
 91
        4
176
     1
 64
     7
176
     1
 65
   257
176
     1
 75
     1
176
     1
175
     1
176
     1
 42
1.0
176
     1
 92
        8
176
     1
 66
     8
424
  8421504
176
     1
 43
1.0
176
     1
 76
     1
176
     1
 77
     6
176
     1
 78
     2
176
     1
 67
     7
176
     1
 79
     5
176
     1
170
     0
176
     1
171
     0
176
     1
290
     0
176
     1
 93
        1
176
     1
 44
0.0
176
     1
173
     0
176
     1
  0
VISUALSTYLE
  5
34
102
{ACAD_REACTORS
330
2A
102
}
102
{ACAD_XDICTIONARY
360
33B
102
}
330
2A
100
AcDbVisualStyle
  2
Conceptual
 70
     9
177
     2
291
     0
 71
     3
176
     1
 72
     2
176
     1
 73
     0
176
     1
 90
        0
176
     1
 40
0.6
176
     1
 41
30.0
176
     1
 62
     5
 63
     7
421
 16777215
176
     1
 74
     2
176
     1
 91
        2
176
     1
 64
     7
176
     1
 65
   257
176
     1
 75
     1
176
     1
175
     1
176
     1
 42
179.0
176
     1
 92
        8
176
     1
 66
     7
176
     1
 43
1.0
176
     1
 76
     1
176
     1
 77
     6
176
     1
 78
     2
176
     1
 67
     7
176
     1
 79
     3
176
     1
170
     0
176
     1
171
     0
176
     1
290
     0
176
     1
 93
        1
176
     1
 44
0.0
176
     1
173
     0
176
     1
  0
VISUALSTYLE
  5
35
102
{ACAD_REACTORS
330
2A
102
}
102
{ACAD_XDICTIONARY
360
33D
102
}
330
2A
100
AcDbVisualStyle
  2
Dim
 70
    11
177
     2
291
     1
 71
     2
176
     1
 72
     2
176
     1
 73
     0
176
     1
 90
        0
176
     1
 40
0.6
176
     1
 41
30.0
176
     1
 62
     5
 63
     7
421
 16777215
176
     1
 74
     1
176
     1
 91
        4
176
     1
 64
     7
176
     1
 65
   257
176
     1
 75
     1
176
     1
175
     1
176
     1
 42
1.0
176
     1
 92
        8
176
     1
 66
     7
176
     1
 43
1.0
176
     1
 76
     1
176
     1
 77
     6
176
     1
 78
     2
176
     1
 67
     7
176
     1
 79
     5
176
     1
170
     0
176
     1
171
     0
176
     1
290
     0
176
     1
 93
        1
176
     1
 44
-50.0
176
     1
173
     0
176
     1
  0
VISUALSTYLE
  5
3D
102
{ACAD_REACTORS
330
2A
102
}
102
{ACAD_XDICTIONARY
360
34D
102
}
330
2A
100
AcDbVisualStyle
  2
EdgeColorOff
 70
    22
177
     2
291
     1
 71
     2
176
     0
 72
     2
176
     0
 73
     0
176
     0
 90
        0
176
     0
 40
0.6
176
     0
 41
30.0
176
     0
 62
     5
 63
     7
421
 16777215
176
     0
 74
     1
176
     0
 91
        4
176
     0
 64
     7
176
     0
 65
   257
176
     0
 75
     1
176
     0
175
     1
176
     0
 42
1.0
176
     0
 92
        8
176
     2
 66
     7
176
     0
 43
1.0
176
     0
 76
     1
176
     0
 77
     6
176
     0
 78
     2
176
     0
 67
     7
176
     0
 79
     5
176
     0
170
     0
176
     0
171
     0
176
     0
290
     0
176
     0
 93
        1
176
     0
 44
0.0
176
     0
173
     0
176
     0
  0
VISUALSTYLE
  5
39
102
{ACAD_REACTORS
330
2A
102
}
102
{ACAD_XDICTIONARY
360
345
102
}
330
2A
100
AcDbVisualStyle
  2
Facepattern
 70
    15
177
     2
291
     1
 71
     2
176
     1
 72
     2
176
     1
 73
     0
176
     1
 90
        0
176
     1
 40
0.6
176
     1
 41
30.0
176
     1
 62
     5
 63
     7
421
 16777215
176
     1
 74
     1
176
     1
 91
        4
176
     1
 64
     7
176
     1
 65
   257
176
     1
 75
     1
176
     1
175
     1
176
     1
 42
1.0
176
     1
 92
        8
176
     1
 66
     7
176
     1
 43
1.0
176
     1
 76
     1
176
     1
 77
     6
176
     1
 78
     2
176
     1
 67
     7
176
     1
 79
     5
176
     1
170
     0
176
     1
171
     0
176
     1
290
     0
176
     1
 93
        1
176
     1
 44
0.0
176
     1
173
     0
176
     1
  0
VISUALSTYLE
  5
2B
102
{ACAD_REACTORS
330
2A
102
}
102
{ACAD_XDICTIONARY
360
329
102
}
330
2A
100
AcDbVisualStyle
  2
Flat
 70
     0
177
     2
291
     1
 71
     2
176
     1
 72
     1
176
     1
 73
     1
176
     1
 90
        2
176
     1
 40
0.6
176
     1
 41
30.0
176
     1
 62
     5
 63
     7
421
 16777215
176
     1
 74
     0
176
     1
 91
        0
176
     1
 64
     7
176
     1
 65
   257
176
     1
 75
     1
176
     1
175
     1
176
     1
 42
1.0
176
     1
 92
        8
176
     1
 66
     7
176
     1
 43
1.0
176
     1
 76
     1
176
     1
 77
     6
176
     1
 78
     2
176
     1
 67
     7
176
     1
 79
     5
176
     1
170
     0
176
     1
171
     0
176
     1
290
     0
176
     1
 93
       13
176
     1
 44
0.0
176
     1
173
     0
176
     1
  0
VISUALSTYLE
  5
2C
102
{ACAD_REACTORS
330
2A
102
}
102
{ACAD_XDICTIONARY
360
32B
102
}
330
2A
100
AcDbVisualStyle
  2
FlatWithEdges
 70
     1
177
     2
291
     1
 71
     2
176
     1
 72
     1
176
     1
 73
     1
176
     1
 90
        2
176
     1
 40
0.6
176
     1
 41
30.0
176
     1
 62
     5
 63
     7
421
 16777215
176
     1
 74
     1
176
     1
 91
        0
176
     1
 64
     7
176
     1
 65
   257
176
     1
 75
     1
176
     1
175
     1
176
     1
 42
1.0
176
     1
 92
        0
176
     1
 66
   257
176
     1
 43
1.0
176
     1
 76
     1
176
     1
 77
     6
176
     1
 78
     2
176
     1
 67
     7
176
     1
 79
     5
176
     1
170
     0
176
     1
171
     0
176
     1
290
     0
176
     1
 93
       13
176
     1
 44
0.0
176
     1
173
     0
176
     1
  0
VISUALSTYLE
  5
2D
102
{ACAD_REACTORS
330
2A
102
}
102
{ACAD_XDICTIONARY
360
32D
102
}
330
2A
100
AcDbVisualStyle
  2
Gouraud
 70
     2
177
     2
291
     1
 71
     2
176
     1
 72
     2
176
     1
 73
     1
176
     1
 90
        2
176
     1
 40
0.6
176
     1
 41
30.0
176
     1
 62
     5
 63
     7
421
 16777215
176
     1
 74
     0
176
     1
 91
        0
176
     1
 64
     7
176
     1
 65
   257
176
     1
 75
     1
176
     1
175
     1
176
     1
 42
1.0
176
     1
 92
        0
176
     1
 66
     7
176
     1
 43
1.0
176
     1
 76
     1
176
     1
 77
     6
176
     1
 78
     2
176
     1
 67
     7
176
     1
 79
     5
176
     1
170
     0
176
     1
171
     0
176
     1
290
     0
176
     1
 93
       13
176
     1
 44
0.0
176
     1
173
     0
176
     1
  0
VISUALSTYLE
  5
2E
102
{ACAD_REACTORS
330
2A
102
}
102
{ACAD_XDICTIONARY
360
32F
102
}
330
2A
100
AcDbVisualStyle
  2
GouraudWithEdges
 70
     3
177
     2
291
     1
 71
     2
176
     1
 72
     2
176
     1
 73
     1
176
     1
 90
        2
176
     1
 40
0.6
176
     1
 41
30.0
176
     1
 62
     5
 63
     7
421
 16777215
176
     1
 74
     1
176
     1
 91
        0
176
     1
 64
     7
176
     1
 65
   257
176
     1
 75
     1
176
     1
175
     1
176
     1
 42
1.0
176
     1
 92
        0
176
     1
 66
   257
176
     1
 43
1.0
176
     1
 76
     1
176
     1
 77
     6
176
     1
 78
     2
176
     1
 67
     7
176
     1
 79
     5
176
     1
170
     0
176
     1
171
     0
176
     1
290
     0
176
     1
 93
       13
176
     1
 44
0.0
176
     1
173
     0
176
     1
  0
VISUALSTYLE
  5
31
102
{ACAD_REACTORS
330
2A
102
}
102
{ACAD_XDICTIONARY
360
335
102
}
330
2A
100
AcDbVisualStyle
  2
Hidden
 70
     6
177
     2
291
     0
 71
     1
176
     1
 72
     2
176
     1
 73
     2
176
     1
 90
        0
176
     1
 40
0.6
176
     1
 41
30.0
176
     1
 62
     5
 63
     7
421
 16777215
176
     1
 74
     2
176
     1
 91
        2
176
     1
 64
     7
176
     1
 65
   257
176
     1
 75
     2
176
     1
175
     1
176
     1
 42
40.0
176
     1
 92
        0
176
     1
 66
   257
176
     1
 43
1.0
176
     1
 76
     1
176
     1
 77
     6
176
     1
 78
     2
176
     1
 67
     7
176
     1
 79
     3
176
     1
170
     0
176
     1
171
     0
176
     1
290
     0
176
     1
 93
        1
176
     1
 44
0.0
176
     1
173
     0
176
     1
  0
VISUALSTYLE
  5
3B
102
{ACAD_REACTORS
330
2A
102
}
102
{ACAD_XDICTIONARY
360
349
102
}
330
2A
100
AcDbVisualStyle
  2
JitterOff
 70
    20
177
     2
291
     1
 71
     2
176
     0
 72
     2
176
     0
 73
     0
176
     0
 90
        0
176
     0
 40
0.6
176
     0
 41
30.0
176
     0
 62
     5
 63
     7
421
 16777215
176
     0
 74
     1
176
     0
 91
        4
176
     0
 64
     7
176
     0
 65
   257
176
     0
 75
     1
176
     0
175
     1
176
     0
 42
1.0
176
     0
 92
       10
176
     2
 66
     7
176
     0
 43
1.0
176
     0
 76
     1
176
     0
 77
     6
176
     0
 78
     2
176
     0
 67
     7
176
     0
 79
     5
176
     0
170
     0
176
     0
171
     0
176
     0
290
     0
176
     0
 93
        1
176
     0
 44
0.0
176
     0
173
     0
176
     0
  0
VISUALSTYLE
  5
38
102
{ACAD_REACTORS
330
2A
102
}
102
{ACAD_XDICTIONARY
360
343
102
}
330
2A
100
AcDbVisualStyle
  2
Linepattern
 70
    14
177
     2
291
     1
 71
     2
176
     1
 72
     2
176
     1
 73
     0
176
     1
 90
        0
176
     1
 40
0.6
176
     1
 41
30.0
176
     1
 62
     5
 63
     7
421
 16777215
176
     1
 74
     1
176
     1
 91
        4
176
     1
 64
     7
176
     1
 65
   257
176
     1
 75
     7
176
     1
175
     7
176
     1
 42
1.0
176
     1
 92
        8
176
     1
 66
     7
176
     1
 43
1.0
176
     1
 76
     1
176
     1
 77
     6
176
     1
 78
     2
176
     1
 67
     7
176
     1
 79
     5
176
     1
170
     0
176
     1
171
     0
176
     1
290
     0
176
     1
 93
        1
176
     1
 44
0.0
176
     1
173
     0
176
     1
  0
VISUALSTYLE
  5
3C
102
{ACAD_REACTORS
330
2A
102
}
102
{ACAD_XDICTIONARY
360
34B
102
}
330
2A
100
AcDbVisualStyle
  2
OverhangOff
 70
    21
177
     2
291
     1
 71
     2
176
     0
 72
     2
176
     0
 73
     0
176
     0
 90
        0
176
     0
 40
0.6
176
     0
 41
30.0
176
     0
 62
     5
 63
     7
421
 16777215
176
     0
 74
     1
176
     0
 91
        4
176
     0
 64
     7
176
     0
 65
   257
176
     0
 75
     1
176
     0
175
     1
176
     0
 42
1.0
176
     0
 92
        9
176
     2
 66
     7
176
     0
 43
1.0
176
     0
 76
     1
176
     0
 77
     6
176
     0
 78
     2
176
     0
 67
     7
176
     0
 79
     5
176
     0
170
     0
176
     0
171
     0
176
     0
290
     0
176
     0
 93
        1
176
     0
 44
0.0
176
     0
173
     0
176
     0
  0
VISUALSTYLE
  5
33
102
{ACAD_REACTORS
330
2A
102
}
102
{ACAD_XDICTIONARY
360
339
102
}
330
2A
100
AcDbVisualStyle
  2
Realistic
 70
     8
177
     2
291
     0
 71
     2
176
     1
 72
     3
176
     1
 73
     0
176
     1
 90
        2
176
     1
 40
0.6
176
     1
 41
30.0
176
     1
 62
     5
 63
     7
421
 16777215
176
     1
 74
     0
176
     1
 91
        0
176
     1
 64
     7
176
     1
 65
   257
176
     1
 75
     1
176
     1
175
     1
176
     1
 42
1.0
176
     1
 92
        8
176
     1
 66
   257
176
     1
 43
1.0
176
     1
 76
     1
176
     1
 77
     6
176
     1
 78
     2
176
     1
 67
     7
176
     1
 79
     3
176
     1
170
     0
176
     1
171
     0
176
     1
290
     0
176
     1
 93
       13
176
     1
 44
0.0
176
     1
173
     0
176
     1
  0
VISUALSTYLE
  5
42
102
{ACAD_REACTORS
330
2A
102
}
102
{ACAD_XDICTIONARY
360
357
102
}
330
2A
100
AcDbVisualStyle
  2
Shaded
 70
    27
177
     2
291
     0
 71
     2
176
     1
 72
     2
176
     1
 73
     1
176
     1
 90
        2
176
     1
 40
0.6
176
     1
 41
30.0
176
     1
 62
     5
 63
     7
421
 16777215
176
     1
 74
     0
176
     1
 91
        4
176
     1
 64
     7
176
     1
 65
   257
176
     1
 75
     1
176
     1
175
     1
176
     1
 42
1.0
176
     1
 92
        8
176
     1
 66
   257
176
     1
 43
1.0
176
     1
 76
     1
176
     1
 77
     6
176
     1
 78
     2
176
     1
 67
     8
425
  7895160
176
     1
 79
     3
176
     1
170
     0
176
     1
171
     0
176
     1
290
     0
176
     1
 93
        5
176
     1
 44
0.0
176
     1
173
     0
176
     1
  0
VISUALSTYLE
  5
41
102
{ACAD_REACTORS
330
2A
102
}
102
{ACAD_XDICTIONARY
360
355
102
}
330
2A
100
AcDbVisualStyle
  2
Shaded with edges
 70
    26
177
     2
291
     0
 71
     2
176
     1
 72
     2
176
     1
 73
     1
176
     1
 90
        2
176
     1
 40
0.6
176
     1
 41
30.0
176
     1
 62
     5
 63
     7
421
 16777215
176
     1
 74
     1
176
     1
 91
       10
176
     1
 64
     7
176
     1
 65
   257
176
     1
 75
     2
176
     1
175
     1
176
     1
 42
1.0
176
     1
 92
        8
176
     1
 66
   257
176
     1
 43
1.0
176
     1
 76
     1
176
     1
 77
     6
176
     1
 78
     2
176
     1
 67
     7
176
     1
 79
     3
176
     1
170
     0
176
     1
171
     0
176
     1
290
     0
176
     1
 93
        5
176
     1
 44
0.0
176
     1
173
     0
176
     1
  0
VISUALSTYLE
  5
3E
102
{ACAD_REACTORS
330
2A
102
}
102
{ACAD_XDICTIONARY
360
34F
102
}
330
2A
100
AcDbVisualStyle
  2
Shades of Gray
 70
    23
177
     2
291
     0
 71
     2
176
     1
 72
     2
176
     1
 73
     3
176
     1
 90
        0
176
     1
 40
0.6
176
     1
 41
30.0
176
     1
 62
     5
 63
     7
421
 16777215
176
     1
 74
     2
176
     1
 91
        2
176
     1
 64
     7
176
     1
 65
     7
176
     1
 75
     1
176
     1
175
     1
176
     1
 42
40.0
176
     1
 92
        8
176
     1
 66
     7
176
     1
 43
1.0
176
     1
 76
     1
176
     1
 77
     6
176
     1
 78
     2
176
     1
 67
     7
176
     1
 79
     3
176
     1
170
     0
176
     1
171
     0
176
     1
290
     0
176
     1
 93
        1
176
     1
 44
0.0
176
     1
173
     0
176
     1
  0
VISUALSTYLE
  5
3F
102
{ACAD_REACTORS
330
2A
102
}
102
{ACAD_XDICTIONARY
360
351
102
}
330
2A
100
AcDbVisualStyle
  2
Sketchy
 70
    24
177
     2
291
     0
 71
     1
176
     1
 72
     2
176
     1
 73
     2
176
     1
 90
        0
176
     1
 40
0.6
176
     1
 41
30.0
176
     1
 62
     5
 63
     7
421
 16777215
176
     1
 74
     2
176
     1
 91
        2
176
     1
 64
     7
176
     1
 65
     7
176
     1
 75
     1
176
     1
175
     1
176
     1
 42
40.0
176
     1
 92
       11
176
     1
 66
     7
176
     1
 43
1.0
176
     1
 76
     1
176
     1
 77
     6
176
     1
 78
     2
176
     1
 67
     7
176
     1
 79
     6
176
     1
170
     0
176
     1
171
     0
176
     1
290
     0
176
     1
 93
        1
176
     1
 44
0.0
176
     1
173
     0
176
     1
  0
VISUALSTYLE
  5
37
102
{ACAD_REACTORS
330
2A
102
}
102
{ACAD_XDICTIONARY
360
341
102
}
330
2A
100
AcDbVisualStyle
  2
Thicken
 70
    13
177
     2
291
     1
 71
     2
176
     1
 72
     2
176
     1
 73
     0
176
     1
 90
        0
176
     1
 40
0.6
176
     1
 41
30.0
176
     1
 62
     5
 63
     7
421
 16777215
176
     1
 74
     1
176
     1
 91
        4
176
     1
 64
     7
176
     1
 65
   257
176
     1
 75
     1
176
     1
175
     1
176
     1
 42
1.0
176
     1
 92
       12
176
     1
 66
     7
176
     1
 43
1.0
176
     1
 76
     1
176
     1
 77
     6
176
     1
 78
     2
176
     1
 67
     7
176
     1
 79
     5
176
     1
170
     0
176
     1
171
     0
176
     1
290
     0
176
     1
 93
        1
176
     1
 44
0.0
176
     1
173
     0
176
     1
  0
VISUALSTYLE
  5
30
102
{ACAD_REACTORS
330
2A
102
}
102
{ACAD_XDICTIONARY
360
333
102
}
330
2A
100
AcDbVisualStyle
  2
Wireframe
 70
     5
177
     2
291
     0
 71
     0
176
     1
 72
     2
176
     1
 73
     0
176
     1
 90
        0
176
     1
 40
0.6
176
     1
 41
30.0
176
     1
 62
     5
 63
     7
421
 16777215
176
     1
 74
     1
176
     1
 91
        4
176
     1
 64
     7
176
     1
 65
   257
176
     1
 75
     1
176
     1
175
     1
176
     1
 42
1.0
176
     1
 92
        0
176
     1
 66
   257
176
     1
 43
1.0
176
     1
 76
     1
176
     1
 77
     6
176
     1
 78
     2
176
     1
 67
     7
176
     1
 79
     3
176
     1
170
     0
176
     1
171
     0
176
     1
290
     0
176
     1
 93
        1
176
     1
 44
0.0
176
     1
173
     0
176
     1
  0
VISUALSTYLE
  5
40
102
{ACAD_REACTORS
330
2A
102
}
102
{ACAD_XDICTIONARY
360
353
102
}
330
2A
100
AcDbVisualStyle
  2
X-Ray
 70
    25
177
     2
291
     0
 71
     2
176
     1
 72
     2
176
     1
 73
     1
176
     1
 90
        1
176
     1
 40
0.5
176
     1
 41
30.0
176
     1
 62
     5
 63
     7
421
 16777215
176
     1
 74
     1
176
     1
 91
        0
176
     1
 64
     7
176
     1
 65
   257
176
     1
 75
     1
176
     1
175
     1
176
     1
 42
1.0
176
     1
 92
        8
176
     1
 66
     7
176
     1
 43
1.0
176
     1
 76
     1
176
     1
 77
     6
176
     1
 78
     2
176
     1
 67
     7
176
     1
 79
     3
176
     1
170
     0
176
     1
171
     0
176
     1
290
     0
176
     1
 93
       13
176
     1
 44
0.0
176
     1
173
     0
176
     1
  0
DICTIONARYVAR
  5
328
102
{ACAD_REACTORS
330
327
102
}
330
327
100
DictionaryVariables
280
     0
  1
1:1
  0
DICTIONARYVAR
  5
362
102
{ACAD_REACTORS
330
327
102
}
330
327
100
DictionaryVariables
280
     0
  1
3.500000
  0
DICTIONARYVAR
  5
363
102
{ACAD_REACTORS
330
327
102
}
330
327
100
DictionaryVariables
280
     0
  1
acadiso.lin
  0
DICTIONARYVAR
  5
35E
102
{ACAD_REACTORS
330
327
102
}
330
327
100
DictionaryVariables
280
     0
  1
Standard
  0
DICTIONARYVAR
  5
35D
102
{ACAD_REACTORS
330
327
102
}
330
327
100
DictionaryVariables
280
     0
  1
Standard
  0
DICTIONARYVAR
  5
361
102
{ACAD_REACTORS
330
327
102
}
330
327
100
DictionaryVariables
280
     0
  1
0
  0
DICTIONARY
  5
359
330
6A
100
AcDbDictionary
280
     1
281
     1
  3
ACAD_ROUNDTRIP_2008_TABLESTYLE_CELLSTYLEMAP
360
35A
  0
DICTIONARY
  5
331
330
2F
100
AcDbDictionary
280
     1
281
     1
  3
ACAD_XREC_ROUNDTRIP
360
332
  0
DICTIONARY
  5
337
330
32
100
AcDbDictionary
280
     1
281
     1
  3
ACAD_XREC_ROUNDTRIP
360
338
  0
DICTIONARY
  5
33F
330
36
100
AcDbDictionary
280
     1
281
     1
  3
ACAD_XREC_ROUNDTRIP
360
340
  0
DICTIONARY
  5
347
330
3A
100
AcDbDictionary
280
     1
281
     1
  3
ACAD_XREC_ROUNDTRIP
360
348
  0
DICTIONARY
  5
33B
330
34
100
AcDbDictionary
280
     1
281
     1
  3
ACAD_XREC_ROUNDTRIP
360
33C
  0
DICTIONARY
  5
33D
330
35
100
AcDbDictionary
280
     1
281
     1
  3
ACAD_XREC_ROUNDTRIP
360
33E
  0
DICTIONARY
  5
34D
330
3D
100
AcDbDictionary
280
     1
281
     1
  3
ACAD_XREC_ROUNDTRIP
360
34E
  0
DICTIONARY
  5
345
330
39
100
AcDbDictionary
280
     1
281
     1
  3
ACAD_XREC_ROUNDTRIP
360
346
  0
DICTIONARY
  5
329
330
2B
100
AcDbDictionary
280
     1
281
     1
  3
ACAD_XREC_ROUNDTRIP
360
32A
  0
DICTIONARY
  5
32B
330
2C
100
AcDbDictionary
280
     1
281
     1
  3
ACAD_XREC_ROUNDTRIP
360
32C
  0
DICTIONARY
  5
32D
330
2D
100
AcDbDictionary
280
     1
281
     1
  3
ACAD_XREC_ROUNDTRIP
360
32E
  0
DICTIONARY
  5
32F
330
2E
100
AcDbDictionary
280
     1
281
     1
  3
ACAD_XREC_ROUNDTRIP
360
330
  0
DICTIONARY
  5
335
330
31
100
AcDbDictionary
280
     1
281
     1
  3
ACAD_XREC_ROUNDTRIP
360
336
  0
DICTIONARY
  5
349
330
3B
100
AcDbDictionary
280
     1
281
     1
  3
ACAD_XREC_ROUNDTRIP
360
34A
  0
DICTIONARY
  5
343
330
38
100
AcDbDictionary
280
     1
281
     1
  3
ACAD_XREC_ROUNDTRIP
360
344
  0
DICTIONARY
  5
34B
330
3C
100
AcDbDictionary
280
     1
281
     1
  3
ACAD_XREC_ROUNDTRIP
360
34C
  0
DICTIONARY
  5
339
330
33
100
AcDbDictionary
280
     1
281
     1
  3
ACAD_XREC_ROUNDTRIP
360
33A
  0
DICTIONARY
  5
357
330
42
100
AcDbDictionary
280
     1
281
     1
  3
ACAD_XREC_ROUNDTRIP
360
358
  0
DICTIONARY
  5
355
330
41
100
AcDbDictionary
280
     1
281
     1
  3
ACAD_XREC_ROUNDTRIP
360
356
  0
DICTIONARY
  5
34F
330
3E
100
AcDbDictionary
280
     1
281
     1
  3
ACAD_XREC_ROUNDTRIP
360
350
  0
DICTIONARY
  5
351
330
3F
100
AcDbDictionary
280
     1
281
     1
  3
ACAD_XREC_ROUNDTRIP
360
352
  0
DICTIONARY
  5
341
330
37
100
AcDbDictionary
280
     1
281
     1
  3
ACAD_XREC_ROUNDTRIP
360
342
  0
DICTIONARY
  5
333
330
30
100
AcDbDictionary
280
     1
281
     1
  3
ACAD_XREC_ROUNDTRIP
360
334
  0
DICTIONARY
  5
353
330
40
100
AcDbDictionary
280
     1
281
     1
  3
ACAD_XREC_ROUNDTRIP
360
354
  0
CELLSTYLEMAP
  5
35A
102
{ACAD_REACTORS
330
359
102
}
330
359
100
AcDbCellStyleMap
 90
        3
300
CELLSTYLE
  1
TABLEFORMAT_BEGIN
 90
        5
170
     1
 91
        0
 92
    32768
 62
   257
 93
        1
300
CONTENTFORMAT
  1
CONTENTFORMAT_BEGIN
 90
        0
 91
        0
 92
        4
 93
        0
300

 40
0.0
140
1.0
 94
        5
 62
     0
340
11
144
6.0
309
CONTENTFORMAT_END
171
     1
301
MARGIN
  1
CELLMARGIN_BEGIN
 40
1.5
 40
1.5
 40
1.5
 40
1.5
 40
1.5
 40
1.5
309
CELLMARGIN_END
 94
        6
 95
        1
302
GRIDFORMAT
  1
GRIDFORMAT_BEGIN
 90
        0
 91
        1
 62
     0
 92
       -2
340
14
 93
        0
 40
0.045
309
GRIDFORMAT_END
 95
        2
302
GRIDFORMAT
  1
GRIDFORMAT_BEGIN
 90
        0
 91
        1
 62
     0
 92
       -2
340
14
 93
        0
 40
0.045
309
GRIDFORMAT_END
 95
        4
302
GRIDFORMAT
  1
GRIDFORMAT_BEGIN
 90
        0
 91
        1
 62
     0
 92
       -2
340
14
 93
        0
 40
0.045
309
GRIDFORMAT_END
 95
        8
302
GRIDFORMAT
  1
GRIDFORMAT_BEGIN
 90
        0
 91
        1
 62
     0
 92
       -2
340
14
 93
        0
 40
0.045
309
GRIDFORMAT_END
 95
       16
302
GRIDFORMAT
  1
GRIDFORMAT_BEGIN
 90
        0
 91
        1
 62
     0
 92
       -2
340
14
 93
        0
 40
0.045
309
GRIDFORMAT_END
 95
       32
302
GRIDFORMAT
  1
GRIDFORMAT_BEGIN
 90
        0
 91
        1
 62
     0
 92
       -2
340
14
 93
        0
 40
0.045
309
GRIDFORMAT_END
309
TABLEFORMAT_END
  1
CELLSTYLE_BEGIN
 90
        1
 91
        1
300
_TITLE
309
CELLSTYLE_END
300
CELLSTYLE
  1
TABLEFORMAT_BEGIN
 90
        5
170
     1
 91
        0
 92
        0
 62
   257
 93
        1
300
CONTENTFORMAT
  1
CONTENTFORMAT_BEGIN
 90
        0
 91
        0
 92
        4
 93
        0
300

 40
0.0
140
1.0
 94
        5
 62
     0
340
11
144
4.5
309
CONTENTFORMAT_END
171
     1
301
MARGIN
  1
CELLMARGIN_BEGIN
 40
1.5
 40
1.5
 40
1.5
 40
1.5
 40
1.5
 40
1.5
309
CELLMARGIN_END
 94
        6
 95
        1
302
GRIDFORMAT
  1
GRIDFORMAT_BEGIN
 90
        0
 91
        1
 62
     0
 92
       -2
340
14
 93
        0
 40
0.045
309
GRIDFORMAT_END
 95
        2
302
GRIDFORMAT
  1
GRIDFORMAT_BEGIN
 90
        0
 91
        1
 62
     0
 92
       -2
340
14
 93
        0
 40
0.045
309
GRIDFORMAT_END
 95
        4
302
GRIDFORMAT
  1
GRIDFORMAT_BEGIN
 90
        0
 91
        1
 62
     0
 92
       -2
340
14
 93
        0
 40
0.045
309
GRIDFORMAT_END
 95
        8
302
GRIDFORMAT
  1
GRIDFORMAT_BEGIN
 90
        0
 91
        1
 62
     0
 92
       -2
340
14
 93
        0
 40
0.045
309
GRIDFORMAT_END
 95
       16
302
GRIDFORMAT
  1
GRIDFORMAT_BEGIN
 90
        0
 91
        1
 62
     0
 92
       -2
340
14
 93
        0
 40
0.045
309
GRIDFORMAT_END
 95
       32
302
GRIDFORMAT
  1
GRIDFORMAT_BEGIN
 90
        0
 91
        1
 62
     0
 92
       -2
340
14
 93
        0
 40
0.045
309
GRIDFORMAT_END
309
TABLEFORMAT_END
  1
CELLSTYLE_BEGIN
 90
        2
 91
        1
300
_HEADER
309
CELLSTYLE_END
300
CELLSTYLE
  1
TABLEFORMAT_BEGIN
 90
        5
170
     1
 91
        0
 92
        0
 62
   257
 93
        1
300
CONTENTFORMAT
  1
CONTENTFORMAT_BEGIN
 90
        0
 91
        0
 92
        4
 93
        0
300

 40
0.0
140
1.0
 94
        2
 62
     0
340
11
144
4.5
309
CONTENTFORMAT_END
171
     1
301
MARGIN
  1
CELLMARGIN_BEGIN
 40
1.5
 40
1.5
 40
1.5
 40
1.5
 40
1.5
 40
1.5
309
CELLMARGIN_END
 94
        6
 95
        1
302
GRIDFORMAT
  1
GRIDFORMAT_BEGIN
 90
        0
 91
        1
 62
     0
 92
       -2
340
14
 93
        0
 40
0.045
309
GRIDFORMAT_END
 95
        2
302
GRIDFORMAT
  1
GRIDFORMAT_BEGIN
 90
        0
 91
        1
 62
     0
 92
       -2
340
14
 93
        0
 40
0.045
309
GRIDFORMAT_END
 95
        4
302
GRIDFORMAT
  1
GRIDFORMAT_BEGIN
 90
        0
 91
        1
 62
     0
 92
       -2
340
14
 93
        0
 40
0.045
309
GRIDFORMAT_END
 95
        8
302
GRIDFORMAT
  1
GRIDFORMAT_BEGIN
 90
        0
 91
        1
 62
     0
 92
       -2
340
14
 93
        0
 40
0.045
309
GRIDFORMAT_END
 95
       16
302
GRIDFORMAT
  1
GRIDFORMAT_BEGIN
 90
        0
 91
        1
 62
     0
 92
       -2
340
14
 93
        0
 40
0.045
309
GRIDFORMAT_END
 95
       32
302
GRIDFORMAT
  1
GRIDFORMAT_BEGIN
 90
        0
 91
        1
 62
     0
 92
       -2
340
14
 93
        0
 40
0.045
309
GRIDFORMAT_END
309
TABLEFORMAT_END
  1
CELLSTYLE_BEGIN
 90
        3
 91
        2
300
_DATA
309
CELLSTYLE_END
  0
XRECORD
  5
332
102
{ACAD_REACTORS
330
331
102
}
330
331
100
AcDbXrecord
280
     1
102
RTVSPost2010Prop28
280
     1
102
RTVSPost2010PropOp28
 70
     1
102
RTVSPost2010Prop29
280
     1
102
RTVSPost2010PropOp29
 70
     1
102
RTVSPost2010Prop30
280
     0
102
RTVSPost2010PropOp30
 70
     1
102
RTVSPost2010Prop31
280
     0
102
RTVSPost2010PropOp31
 70
     1
102
RTVSPost2010Prop32
280
     0
102
RTVSPost2010PropOp32
 70
     1
102
RTVSPost2010Prop33
280
     0
102
RTVSPost2010PropOp33
 70
     1
102
RTVSPost2010Prop34
280
     0
102
RTVSPost2010PropOp34
 70
     1
102
RTVSPost2010Prop35
280
     0
102
RTVSPost2010PropOp35
 70
     1
102
RTVSPost2010Prop36
280
     0
102
RTVSPost2010PropOp36
 70
     1
102
RTVSPost2010Prop37
 90
       50
102
RTVSPost2010PropOp37
 70
     1
102
RTVSPost2010Prop38
140
0.0
102
RTVSPost2010PropOp38
 70
     1
102
RTVSPost2010Prop39
140
1.0
102
RTVSPost2010PropOp39
 70
     1
102
RTVSPost2010Prop40
 90
        0
102
RTVSPost2010PropOp40
 70
     1
102
RTVSPost2010Prop41ColorIndex
 90
       18
102
RTVSPost2010Prop41ColorRGB
 90
        0
102
RTVSPost2010PropOp41
 70
     1
102
RTVSPost2010Prop42
 90
       50
102
RTVSPost2010PropOp42
 70
     1
102
RTVSPost2010Prop43
 90
        3
102
RTVSPost2010PropOp43
 70
     1
102
RTVSPost2010Prop44ColorIndex
 90
        5
102
RTVSPost2010Prop44ColorRGB
 90
      255
102
RTVSPost2010PropOp44
 70
     1
102
RTVSPost2010Prop45
280
     0
102
RTVSPost2010PropOp45
 70
     1
102
RTVSPost2010Prop46
 90
       50
102
RTVSPost2010PropOp46
 70
     1
102
RTVSPost2010Prop47
 90
       50
102
RTVSPost2010PropOp47
 70
     1
102
RTVSPost2010Prop48
 90
       50
102
RTVSPost2010PropOp48
 70
     1
102
RTVSPost2010Prop49
280
     0
102
RTVSPost2010PropOp49
 70
     1
102
RTVSPost2010Prop50
 90
       50
102
RTVSPost2010PropOp50
 70
     1
102
RTVSPost2010Prop51ColorIndex
 90
      256
102
RTVSPost2010Prop51ColorRGB
 90
-16777216
102
RTVSPost2010PropOp51
 70
     0
102
RTVSPost2010Prop52
140
1.0
102
RTVSPost2010PropOp52
 70
     0
102
RTVSPost2010Prop53
 90
        2
102
RTVSPost2010PropOp53
 70
     1
102
RTVSPost2010Prop54
  1
strokes_ogs.tif
102
RTVSPost2010PropOp54
 70
     1
102
RTVSPost2010Prop55
280
     0
102
RTVSPost2010PropOp55
 70
     1
102
RTVSPost2010Prop56
140
1.0
102
RTVSPost2010PropOp56
 70
     1
102
RTVSPost2010Prop57
140
1.0
102
RTVSPost2010PropOp57
 70
     1
  0
XRECORD
  5
338
102
{ACAD_REACTORS
330
337
102
}
330
337
100
AcDbXrecord
280
     1
102
RTVSPost2010Prop28
280
     0
102
RTVSPost2010PropOp28
 70
     1
102
RTVSPost2010Prop29
280
     1
102
RTVSPost2010PropOp29
 70
     1
102
RTVSPost2010Prop30
280
     1
102
RTVSPost2010PropOp30
 70
     1
102
RTVSPost2010Prop31
280
     0
102
RTVSPost2010PropOp31
 70
     1
102
RTVSPost2010Prop32
280
     0
102
RTVSPost2010PropOp32
 70
     1
102
RTVSPost2010Prop33
280
     0
102
RTVSPost2010PropOp33
 70
     1
102
RTVSPost2010Prop34
280
     0
102
RTVSPost2010PropOp34
 70
     1
102
RTVSPost2010Prop35
280
     0
102
RTVSPost2010PropOp35
 70
     1
102
RTVSPost2010Prop36
280
     0
102
RTVSPost2010PropOp36
 70
     1
102
RTVSPost2010Prop37
 90
       50
102
RTVSPost2010PropOp37
 70
     1
102
RTVSPost2010Prop38
140
0.0
102
RTVSPost2010PropOp38
 70
     1
102
RTVSPost2010Prop39
140
1.0
102
RTVSPost2010PropOp39
 70
     1
102
RTVSPost2010Prop40
 90
        0
102
RTVSPost2010PropOp40
 70
     1
102
RTVSPost2010Prop41ColorIndex
 90
       18
102
RTVSPost2010Prop41ColorRGB
 90
        0
102
RTVSPost2010PropOp41
 70
     1
102
RTVSPost2010Prop42
 90
       50
102
RTVSPost2010PropOp42
 70
     1
102
RTVSPost2010Prop43
 90
        3
102
RTVSPost2010PropOp43
 70
     1
102
RTVSPost2010Prop44ColorIndex
 90
        5
102
RTVSPost2010Prop44ColorRGB
 90
      255
102
RTVSPost2010PropOp44
 70
     1
102
RTVSPost2010Prop45
280
     0
102
RTVSPost2010PropOp45
 70
     1
102
RTVSPost2010Prop46
 90
       50
102
RTVSPost2010PropOp46
 70
     1
102
RTVSPost2010Prop47
 90
       50
102
RTVSPost2010PropOp47
 70
     1
102
RTVSPost2010Prop48
 90
       50
102
RTVSPost2010PropOp48
 70
     1
102
RTVSPost2010Prop49
280
     0
102
RTVSPost2010PropOp49
 70
     1
102
RTVSPost2010Prop50
 90
       50
102
RTVSPost2010PropOp50
 70
     1
102
RTVSPost2010Prop51ColorIndex
 90
      256
102
RTVSPost2010Prop51ColorRGB
 90
-16777216
102
RTVSPost2010PropOp51
 70
     0
102
RTVSPost2010Prop52
140
1.0
102
RTVSPost2010PropOp52
 70
     0
102
RTVSPost2010Prop53
 90
        2
102
RTVSPost2010PropOp53
 70
     1
102
RTVSPost2010Prop54
  1
strokes_ogs.tif
102
RTVSPost2010PropOp54
 70
     1
102
RTVSPost2010Prop55
280
     0
102
RTVSPost2010PropOp55
 70
     1
102
RTVSPost2010Prop56
140
1.0
102
RTVSPost2010PropOp56
 70
     1
102
RTVSPost2010Prop57
140
1.0
102
RTVSPost2010PropOp57
 70
     1
  0
XRECORD
  5
340
102
{ACAD_REACTORS
330
33F
102
}
330
33F
100
AcDbXrecord
280
     1
102
RTVSPost2010Prop28
280
     0
102
RTVSPost2010PropOp28
 70
     1
102
RTVSPost2010Prop29
280
     1
102
RTVSPost2010PropOp29
 70
     1
102
RTVSPost2010Prop30
280
     1
102
RTVSPost2010PropOp30
 70
     1
102
RTVSPost2010Prop31
280
     0
102
RTVSPost2010PropOp31
 70
     1
102
RTVSPost2010Prop32
280
     0
102
RTVSPost2010PropOp32
 70
     1
102
RTVSPost2010Prop33
280
     0
102
RTVSPost2010PropOp33
 70
     1
102
RTVSPost2010Prop34
280
     0
102
RTVSPost2010PropOp34
 70
     1
102
RTVSPost2010Prop35
280
     0
102
RTVSPost2010PropOp35
 70
     1
102
RTVSPost2010Prop36
280
     0
102
RTVSPost2010PropOp36
 70
     1
102
RTVSPost2010Prop37
 90
       50
102
RTVSPost2010PropOp37
 70
     1
102
RTVSPost2010Prop38
140
0.0
102
RTVSPost2010PropOp38
 70
     1
102
RTVSPost2010Prop39
140
1.0
102
RTVSPost2010PropOp39
 70
     1
102
RTVSPost2010Prop40
 90
        0
102
RTVSPost2010PropOp40
 70
     1
102
RTVSPost2010Prop41ColorIndex
 90
       18
102
RTVSPost2010Prop41ColorRGB
 90
        0
102
RTVSPost2010PropOp41
 70
     1
102
RTVSPost2010Prop42
 90
       50
102
RTVSPost2010PropOp42
 70
     1
102
RTVSPost2010Prop43
 90
        3
102
RTVSPost2010PropOp43
 70
     1
102
RTVSPost2010Prop44ColorIndex
 90
        5
102
RTVSPost2010Prop44ColorRGB
 90
      255
102
RTVSPost2010PropOp44
 70
     1
102
RTVSPost2010Prop45
280
     0
102
RTVSPost2010PropOp45
 70
     1
102
RTVSPost2010Prop46
 90
       50
102
RTVSPost2010PropOp46
 70
     1
102
RTVSPost2010Prop47
 90
       50
102
RTVSPost2010PropOp47
 70
     1
102
RTVSPost2010Prop48
 90
       50
102
RTVSPost2010PropOp48
 70
     1
102
RTVSPost2010Prop49
280
     0
102
RTVSPost2010PropOp49
 70
     1
102
RTVSPost2010Prop50
 90
       50
102
RTVSPost2010PropOp50
 70
     1
102
RTVSPost2010Prop51ColorIndex
 90
      256
102
RTVSPost2010Prop51ColorRGB
 90
-16777216
102
RTVSPost2010PropOp51
 70
     0
102
RTVSPost2010Prop52
140
1.0
102
RTVSPost2010PropOp52
 70
     0
102
RTVSPost2010Prop53
 90
        2
102
RTVSPost2010PropOp53
 70
     1
102
RTVSPost2010Prop54
  1
strokes_ogs.tif
102
RTVSPost2010PropOp54
 70
     1
102
RTVSPost2010Prop55
280
     0
102
RTVSPost2010PropOp55
 70
     1
102
RTVSPost2010Prop56
140
1.0
102
RTVSPost2010PropOp56
 70
     1
102
RTVSPost2010Prop57
140
1.0
102
RTVSPost2010PropOp57
 70
     1
  0
XRECORD
  5
348
102
{ACAD_REACTORS
330
347
102
}
330
347
100
AcDbXrecord
280
     1
102
RTVSPost2010Prop28
280
     0
102
RTVSPost2010PropOp28
 70
     1
102
RTVSPost2010Prop29
280
     1
102
RTVSPost2010PropOp29
 70
     1
102
RTVSPost2010Prop30
280
     1
102
RTVSPost2010PropOp30
 70
     1
102
RTVSPost2010Prop31
280
     0
102
RTVSPost2010PropOp31
 70
     1
102
RTVSPost2010Prop32
280
     0
102
RTVSPost2010PropOp32
 70
     1
102
RTVSPost2010Prop33
280
     0
102
RTVSPost2010PropOp33
 70
     1
102
RTVSPost2010Prop34
280
     0
102
RTVSPost2010PropOp34
 70
     1
102
RTVSPost2010Prop35
280
     0
102
RTVSPost2010PropOp35
 70
     1
102
RTVSPost2010Prop36
280
     0
102
RTVSPost2010PropOp36
 70
     1
102
RTVSPost2010Prop37
 90
       50
102
RTVSPost2010PropOp37
 70
     1
102
RTVSPost2010Prop38
140
0.0
102
RTVSPost2010PropOp38
 70
     1
102
RTVSPost2010Prop39
140
1.0
102
RTVSPost2010PropOp39
 70
     1
102
RTVSPost2010Prop40
 90
        0
102
RTVSPost2010PropOp40
 70
     1
102
RTVSPost2010Prop41ColorIndex
 90
       18
102
RTVSPost2010Prop41ColorRGB
 90
        0
102
RTVSPost2010PropOp41
 70
     1
102
RTVSPost2010Prop42
 90
       50
102
RTVSPost2010PropOp42
 70
     1
102
RTVSPost2010Prop43
 90
        3
102
RTVSPost2010PropOp43
 70
     1
102
RTVSPost2010Prop44ColorIndex
 90
        5
102
RTVSPost2010Prop44ColorRGB
 90
      255
102
RTVSPost2010PropOp44
 70
     1
102
RTVSPost2010Prop45
280
     0
102
RTVSPost2010PropOp45
 70
     1
102
RTVSPost2010Prop46
 90
       50
102
RTVSPost2010PropOp46
 70
     1
102
RTVSPost2010Prop47
 90
       50
102
RTVSPost2010PropOp47
 70
     1
102
RTVSPost2010Prop48
 90
       50
102
RTVSPost2010PropOp48
 70
     1
102
RTVSPost2010Prop49
280
     0
102
RTVSPost2010PropOp49
 70
     1
102
RTVSPost2010Prop50
 90
       50
102
RTVSPost2010PropOp50
 70
     1
102
RTVSPost2010Prop51ColorIndex
 90
      256
102
RTVSPost2010Prop51ColorRGB
 90
-16777216
102
RTVSPost2010PropOp51
 70
     0
102
RTVSPost2010Prop52
140
1.0
102
RTVSPost2010PropOp52
 70
     0
102
RTVSPost2010Prop53
 90
        2
102
RTVSPost2010PropOp53
 70
     1
102
RTVSPost2010Prop54
  1
strokes_ogs.tif
102
RTVSPost2010PropOp54
 70
     1
102
RTVSPost2010Prop55
280
     0
102
RTVSPost2010PropOp55
 70
     1
102
RTVSPost2010Prop56
140
1.0
102
RTVSPost2010PropOp56
 70
     1
102
RTVSPost2010Prop57
140
1.0
102
RTVSPost2010PropOp57
 70
     1
  0
XRECORD
  5
33C
102
{ACAD_REACTORS
330
33B
102
}
330
33B
100
AcDbXrecord
280
     1
102
RTVSPost2010Prop28
280
     0
102
RTVSPost2010PropOp28
 70
     1
102
RTVSPost2010Prop29
280
     1
102
RTVSPost2010PropOp29
 70
     1
102
RTVSPost2010Prop30
280
     1
102
RTVSPost2010PropOp30
 70
     1
102
RTVSPost2010Prop31
280
     0
102
RTVSPost2010PropOp31
 70
     1
102
RTVSPost2010Prop32
280
     0
102
RTVSPost2010PropOp32
 70
     1
102
RTVSPost2010Prop33
280
     0
102
RTVSPost2010PropOp33
 70
     1
102
RTVSPost2010Prop34
280
     0
102
RTVSPost2010PropOp34
 70
     1
102
RTVSPost2010Prop35
280
     0
102
RTVSPost2010PropOp35
 70
     1
102
RTVSPost2010Prop36
280
     0
102
RTVSPost2010PropOp36
 70
     1
102
RTVSPost2010Prop37
 90
       50
102
RTVSPost2010PropOp37
 70
     1
102
RTVSPost2010Prop38
140
0.0
102
RTVSPost2010PropOp38
 70
     1
102
RTVSPost2010Prop39
140
1.0
102
RTVSPost2010PropOp39
 70
     1
102
RTVSPost2010Prop40
 90
        0
102
RTVSPost2010PropOp40
 70
     1
102
RTVSPost2010Prop41ColorIndex
 90
       18
102
RTVSPost2010Prop41ColorRGB
 90
        0
102
RTVSPost2010PropOp41
 70
     1
102
RTVSPost2010Prop42
 90
       50
102
RTVSPost2010PropOp42
 70
     1
102
RTVSPost2010Prop43
 90
        3
102
RTVSPost2010PropOp43
 70
     1
102
RTVSPost2010Prop44ColorIndex
 90
        5
102
RTVSPost2010Prop44ColorRGB
 90
      255
102
RTVSPost2010PropOp44
 70
     1
102
RTVSPost2010Prop45
280
     0
102
RTVSPost2010PropOp45
 70
     1
102
RTVSPost2010Prop46
 90
       50
102
RTVSPost2010PropOp46
 70
     1
102
RTVSPost2010Prop47
 90
       50
102
RTVSPost2010PropOp47
 70
     1
102
RTVSPost2010Prop48
 90
       50
102
RTVSPost2010PropOp48
 70
     1
102
RTVSPost2010Prop49
280
     0
102
RTVSPost2010PropOp49
 70
     1
102
RTVSPost2010Prop50
 90
       50
102
RTVSPost2010PropOp50
 70
     1
102
RTVSPost2010Prop51ColorIndex
 90
      256
102
RTVSPost2010Prop51ColorRGB
 90
-16777216
102
RTVSPost2010PropOp51
 70
     0
102
RTVSPost2010Prop52
140
1.0
102
RTVSPost2010PropOp52
 70
     0
102
RTVSPost2010Prop53
 90
        2
102
RTVSPost2010PropOp53
 70
     1
102
RTVSPost2010Prop54
  1
strokes_ogs.tif
102
RTVSPost2010PropOp54
 70
     1
102
RTVSPost2010Prop55
280
     0
102
RTVSPost2010PropOp55
 70
     1
102
RTVSPost2010Prop56
140
1.0
102
RTVSPost2010PropOp56
 70
     1
102
RTVSPost2010Prop57
140
1.0
102
RTVSPost2010PropOp57
 70
     1
  0
XRECORD
  5
33E
102
{ACAD_REACTORS
330
33D
102
}
330
33D
100
AcDbXrecord
280
     1
102
RTVSPost2010Prop28
280
     0
102
RTVSPost2010PropOp28
 70
     1
102
RTVSPost2010Prop29
280
     1
102
RTVSPost2010PropOp29
 70
     1
102
RTVSPost2010Prop30
280
     1
102
RTVSPost2010PropOp30
 70
     1
102
RTVSPost2010Prop31
280
     0
102
RTVSPost2010PropOp31
 70
     1
102
RTVSPost2010Prop32
280
     0
102
RTVSPost2010PropOp32
 70
     1
102
RTVSPost2010Prop33
280
     0
102
RTVSPost2010PropOp33
 70
     1
102
RTVSPost2010Prop34
280
     0
102
RTVSPost2010PropOp34
 70
     1
102
RTVSPost2010Prop35
280
     0
102
RTVSPost2010PropOp35
 70
     1
102
RTVSPost2010Prop36
280
     0
102
RTVSPost2010PropOp36
 70
     1
102
RTVSPost2010Prop37
 90
       50
102
RTVSPost2010PropOp37
 70
     1
102
RTVSPost2010Prop38
140
0.0
102
RTVSPost2010PropOp38
 70
     1
102
RTVSPost2010Prop39
140
1.0
102
RTVSPost2010PropOp39
 70
     1
102
RTVSPost2010Prop40
 90
        0
102
RTVSPost2010PropOp40
 70
     1
102
RTVSPost2010Prop41ColorIndex
 90
       18
102
RTVSPost2010Prop41ColorRGB
 90
        0
102
RTVSPost2010PropOp41
 70
     1
102
RTVSPost2010Prop42
 90
       50
102
RTVSPost2010PropOp42
 70
     1
102
RTVSPost2010Prop43
 90
        3
102
RTVSPost2010PropOp43
 70
     1
102
RTVSPost2010Prop44ColorIndex
 90
        5
102
RTVSPost2010Prop44ColorRGB
 90
      255
102
RTVSPost2010PropOp44
 70
     1
102
RTVSPost2010Prop45
280
     0
102
RTVSPost2010PropOp45
 70
     1
102
RTVSPost2010Prop46
 90
       50
102
RTVSPost2010PropOp46
 70
     1
102
RTVSPost2010Prop47
 90
       50
102
RTVSPost2010PropOp47
 70
     1
102
RTVSPost2010Prop48
 90
       50
102
RTVSPost2010PropOp48
 70
     1
102
RTVSPost2010Prop49
280
     0
102
RTVSPost2010PropOp49
 70
     1
102
RTVSPost2010Prop50
 90
       50
102
RTVSPost2010PropOp50
 70
     1
102
RTVSPost2010Prop51ColorIndex
 90
      256
102
RTVSPost2010Prop51ColorRGB
 90
-16777216
102
RTVSPost2010PropOp51
 70
     0
102
RTVSPost2010Prop52
140
1.0
102
RTVSPost2010PropOp52
 70
     0
102
RTVSPost2010Prop53
 90
        2
102
RTVSPost2010PropOp53
 70
     1
102
RTVSPost2010Prop54
  1
strokes_ogs.tif
102
RTVSPost2010PropOp54
 70
     1
102
RTVSPost2010Prop55
280
     0
102
RTVSPost2010PropOp55
 70
     1
102
RTVSPost2010Prop56
140
1.0
102
RTVSPost2010PropOp56
 70
     1
102
RTVSPost2010Prop57
140
1.0
102
RTVSPost2010PropOp57
 70
     1
  0
XRECORD
  5
34E
102
{ACAD_REACTORS
330
34D
102
}
330
34D
100
AcDbXrecord
280
     1
102
RTVSPost2010Prop28
280
     0
102
RTVSPost2010PropOp28
 70
     0
102
RTVSPost2010Prop29
280
     1
102
RTVSPost2010PropOp29
 70
     0
102
RTVSPost2010Prop30
280
     1
102
RTVSPost2010PropOp30
 70
     0
102
RTVSPost2010Prop31
280
     0
102
RTVSPost2010PropOp31
 70
     0
102
RTVSPost2010Prop32
280
     0
102
RTVSPost2010PropOp32
 70
     0
102
RTVSPost2010Prop33
280
     0
102
RTVSPost2010PropOp33
 70
     0
102
RTVSPost2010Prop34
280
     0
102
RTVSPost2010PropOp34
 70
     0
102
RTVSPost2010Prop35
280
     0
102
RTVSPost2010PropOp35
 70
     0
102
RTVSPost2010Prop36
280
     0
102
RTVSPost2010PropOp36
 70
     0
102
RTVSPost2010Prop37
 90
       50
102
RTVSPost2010PropOp37
 70
     0
102
RTVSPost2010Prop38
140
0.0
102
RTVSPost2010PropOp38
 70
     0
102
RTVSPost2010Prop39
140
1.0
102
RTVSPost2010PropOp39
 70
     0
102
RTVSPost2010Prop40
 90
        0
102
RTVSPost2010PropOp40
 70
     0
102
RTVSPost2010Prop41ColorIndex
 90
       18
102
RTVSPost2010Prop41ColorRGB
 90
        0
102
RTVSPost2010PropOp41
 70
     0
102
RTVSPost2010Prop42
 90
       50
102
RTVSPost2010PropOp42
 70
     0
102
RTVSPost2010Prop43
 90
        3
102
RTVSPost2010PropOp43
 70
     0
102
RTVSPost2010Prop44ColorIndex
 90
        5
102
RTVSPost2010Prop44ColorRGB
 90
      255
102
RTVSPost2010PropOp44
 70
     0
102
RTVSPost2010Prop45
280
     0
102
RTVSPost2010PropOp45
 70
     0
102
RTVSPost2010Prop46
 90
       50
102
RTVSPost2010PropOp46
 70
     0
102
RTVSPost2010Prop47
 90
       50
102
RTVSPost2010PropOp47
 70
     0
102
RTVSPost2010Prop48
 90
       50
102
RTVSPost2010PropOp48
 70
     0
102
RTVSPost2010Prop49
280
     0
102
RTVSPost2010PropOp49
 70
     0
102
RTVSPost2010Prop50
 90
       50
102
RTVSPost2010PropOp50
 70
     0
102
RTVSPost2010Prop51ColorIndex
 90
      256
102
RTVSPost2010Prop51ColorRGB
 90
-16777216
102
RTVSPost2010PropOp51
 70
     0
102
RTVSPost2010Prop52
140
1.0
102
RTVSPost2010PropOp52
 70
     0
102
RTVSPost2010Prop53
 90
        2
102
RTVSPost2010PropOp53
 70
     0
102
RTVSPost2010Prop54
  1
strokes_ogs.tif
102
RTVSPost2010PropOp54
 70
     0
102
RTVSPost2010Prop55
280
     0
102
RTVSPost2010PropOp55
 70
     0
102
RTVSPost2010Prop56
140
1.0
102
RTVSPost2010PropOp56
 70
     0
102
RTVSPost2010Prop57
140
1.0
102
RTVSPost2010PropOp57
 70
     0
  0
XRECORD
  5
346
102
{ACAD_REACTORS
330
345
102
}
330
345
100
AcDbXrecord
280
     1
102
RTVSPost2010Prop28
280
     0
102
RTVSPost2010PropOp28
 70
     1
102
RTVSPost2010Prop29
280
     1
102
RTVSPost2010PropOp29
 70
     1
102
RTVSPost2010Prop30
280
     1
102
RTVSPost2010PropOp30
 70
     1
102
RTVSPost2010Prop31
280
     0
102
RTVSPost2010PropOp31
 70
     1
102
RTVSPost2010Prop32
280
     0
102
RTVSPost2010PropOp32
 70
     1
102
RTVSPost2010Prop33
280
     0
102
RTVSPost2010PropOp33
 70
     1
102
RTVSPost2010Prop34
280
     0
102
RTVSPost2010PropOp34
 70
     1
102
RTVSPost2010Prop35
280
     0
102
RTVSPost2010PropOp35
 70
     1
102
RTVSPost2010Prop36
280
     0
102
RTVSPost2010PropOp36
 70
     1
102
RTVSPost2010Prop37
 90
       50
102
RTVSPost2010PropOp37
 70
     1
102
RTVSPost2010Prop38
140
0.0
102
RTVSPost2010PropOp38
 70
     1
102
RTVSPost2010Prop39
140
1.0
102
RTVSPost2010PropOp39
 70
     1
102
RTVSPost2010Prop40
 90
        0
102
RTVSPost2010PropOp40
 70
     1
102
RTVSPost2010Prop41ColorIndex
 90
       18
102
RTVSPost2010Prop41ColorRGB
 90
        0
102
RTVSPost2010PropOp41
 70
     1
102
RTVSPost2010Prop42
 90
       50
102
RTVSPost2010PropOp42
 70
     1
102
RTVSPost2010Prop43
 90
        3
102
RTVSPost2010PropOp43
 70
     1
102
RTVSPost2010Prop44ColorIndex
 90
        5
102
RTVSPost2010Prop44ColorRGB
 90
      255
102
RTVSPost2010PropOp44
 70
     1
102
RTVSPost2010Prop45
280
     0
102
RTVSPost2010PropOp45
 70
     1
102
RTVSPost2010Prop46
 90
       50
102
RTVSPost2010PropOp46
 70
     1
102
RTVSPost2010Prop47
 90
       50
102
RTVSPost2010PropOp47
 70
     1
102
RTVSPost2010Prop48
 90
       50
102
RTVSPost2010PropOp48
 70
     1
102
RTVSPost2010Prop49
280
     0
102
RTVSPost2010PropOp49
 70
     1
102
RTVSPost2010Prop50
 90
       50
102
RTVSPost2010PropOp50
 70
     1
102
RTVSPost2010Prop51ColorIndex
 90
      256
102
RTVSPost2010Prop51ColorRGB
 90
-16777216
102
RTVSPost2010PropOp51
 70
     0
102
RTVSPost2010Prop52
140
1.0
102
RTVSPost2010PropOp52
 70
     0
102
RTVSPost2010Prop53
 90
        2
102
RTVSPost2010PropOp53
 70
     1
102
RTVSPost2010Prop54
  1
strokes_ogs.tif
102
RTVSPost2010PropOp54
 70
     1
102
RTVSPost2010Prop55
280
     0
102
RTVSPost2010PropOp55
 70
     1
102
RTVSPost2010Prop56
140
1.0
102
RTVSPost2010PropOp56
 70
     1
102
RTVSPost2010Prop57
140
1.0
102
RTVSPost2010PropOp57
 70
     1
  0
XRECORD
  5
32A
102
{ACAD_REACTORS
330
329
102
}
330
329
100
AcDbXrecord
280
     1
102
RTVSPost2010Prop28
280
     0
102
RTVSPost2010PropOp28
 70
     1
102
RTVSPost2010Prop29
280
     1
102
RTVSPost2010PropOp29
 70
     1
102
RTVSPost2010Prop30
280
     1
102
RTVSPost2010PropOp30
 70
     1
102
RTVSPost2010Prop31
280
     0
102
RTVSPost2010PropOp31
 70
     1
102
RTVSPost2010Prop32
280
     0
102
RTVSPost2010PropOp32
 70
     1
102
RTVSPost2010Prop33
280
     0
102
RTVSPost2010PropOp33
 70
     1
102
RTVSPost2010Prop34
280
     0
102
RTVSPost2010PropOp34
 70
     1
102
RTVSPost2010Prop35
280
     0
102
RTVSPost2010PropOp35
 70
     1
102
RTVSPost2010Prop36
280
     0
102
RTVSPost2010PropOp36
 70
     1
102
RTVSPost2010Prop37
 90
       50
102
RTVSPost2010PropOp37
 70
     1
102
RTVSPost2010Prop38
140
0.0
102
RTVSPost2010PropOp38
 70
     1
102
RTVSPost2010Prop39
140
1.0
102
RTVSPost2010PropOp39
 70
     1
102
RTVSPost2010Prop40
 90
        0
102
RTVSPost2010PropOp40
 70
     1
102
RTVSPost2010Prop41ColorIndex
 90
       18
102
RTVSPost2010Prop41ColorRGB
 90
        0
102
RTVSPost2010PropOp41
 70
     1
102
RTVSPost2010Prop42
 90
       50
102
RTVSPost2010PropOp42
 70
     1
102
RTVSPost2010Prop43
 90
        3
102
RTVSPost2010PropOp43
 70
     1
102
RTVSPost2010Prop44ColorIndex
 90
        5
102
RTVSPost2010Prop44ColorRGB
 90
      255
102
RTVSPost2010PropOp44
 70
     1
102
RTVSPost2010Prop45
280
     0
102
RTVSPost2010PropOp45
 70
     1
102
RTVSPost2010Prop46
 90
       50
102
RTVSPost2010PropOp46
 70
     1
102
RTVSPost2010Prop47
 90
       50
102
RTVSPost2010PropOp47
 70
     1
102
RTVSPost2010Prop48
 90
       50
102
RTVSPost2010PropOp48
 70
     1
102
RTVSPost2010Prop49
280
     0
102
RTVSPost2010PropOp49
 70
     1
102
RTVSPost2010Prop50
 90
       50
102
RTVSPost2010PropOp50
 70
     1
102
RTVSPost2010Prop51ColorIndex
 90
      256
102
RTVSPost2010Prop51ColorRGB
 90
-16777216
102
RTVSPost2010PropOp51
 70
     0
102
RTVSPost2010Prop52
140
1.0
102
RTVSPost2010PropOp52
 70
     0
102
RTVSPost2010Prop53
 90
        2
102
RTVSPost2010PropOp53
 70
     1
102
RTVSPost2010Prop54
  1
strokes_ogs.tif
102
RTVSPost2010PropOp54
 70
     1
102
RTVSPost2010Prop55
280
     0
102
RTVSPost2010PropOp55
 70
     1
102
RTVSPost2010Prop56
140
1.0
102
RTVSPost2010PropOp56
 70
     1
102
RTVSPost2010Prop57
140
1.0
102
RTVSPost2010PropOp57
 70
     1
  0
XRECORD
  5
32C
102
{ACAD_REACTORS
330
32B
102
}
330
32B
100
AcDbXrecord
280
     1
102
RTVSPost2010Prop28
280
     0
102
RTVSPost2010PropOp28
 70
     1
102
RTVSPost2010Prop29
280
     1
102
RTVSPost2010PropOp29
 70
     1
102
RTVSPost2010Prop30
280
     1
102
RTVSPost2010PropOp30
 70
     1
102
RTVSPost2010Prop31
280
     0
102
RTVSPost2010PropOp31
 70
     1
102
RTVSPost2010Prop32
280
     0
102
RTVSPost2010PropOp32
 70
     1
102
RTVSPost2010Prop33
280
     0
102
RTVSPost2010PropOp33
 70
     1
102
RTVSPost2010Prop34
280
     0
102
RTVSPost2010PropOp34
 70
     1
102
RTVSPost2010Prop35
280
     0
102
RTVSPost2010PropOp35
 70
     1
102
RTVSPost2010Prop36
280
     0
102
RTVSPost2010PropOp36
 70
     1
102
RTVSPost2010Prop37
 90
       50
102
RTVSPost2010PropOp37
 70
     1
102
RTVSPost2010Prop38
140
0.0
102
RTVSPost2010PropOp38
 70
     1
102
RTVSPost2010Prop39
140
1.0
102
RTVSPost2010PropOp39
 70
     1
102
RTVSPost2010Prop40
 90
        0
102
RTVSPost2010PropOp40
 70
     1
102
RTVSPost2010Prop41ColorIndex
 90
       18
102
RTVSPost2010Prop41ColorRGB
 90
        0
102
RTVSPost2010PropOp41
 70
     1
102
RTVSPost2010Prop42
 90
       50
102
RTVSPost2010PropOp42
 70
     1
102
RTVSPost2010Prop43
 90
        3
102
RTVSPost2010PropOp43
 70
     1
102
RTVSPost2010Prop44ColorIndex
 90
        5
102
RTVSPost2010Prop44ColorRGB
 90
      255
102
RTVSPost2010PropOp44
 70
     1
102
RTVSPost2010Prop45
280
     0
102
RTVSPost2010PropOp45
 70
     1
102
RTVSPost2010Prop46
 90
       50
102
RTVSPost2010PropOp46
 70
     1
102
RTVSPost2010Prop47
 90
       50
102
RTVSPost2010PropOp47
 70
     1
102
RTVSPost2010Prop48
 90
       50
102
RTVSPost2010PropOp48
 70
     1
102
RTVSPost2010Prop49
280
     0
102
RTVSPost2010PropOp49
 70
     1
102
RTVSPost2010Prop50
 90
       50
102
RTVSPost2010PropOp50
 70
     1
102
RTVSPost2010Prop51ColorIndex
 90
      256
102
RTVSPost2010Prop51ColorRGB
 90
-16777216
102
RTVSPost2010PropOp51
 70
     0
102
RTVSPost2010Prop52
140
1.0
102
RTVSPost2010PropOp52
 70
     0
102
RTVSPost2010Prop53
 90
        2
102
RTVSPost2010PropOp53
 70
     1
102
RTVSPost2010Prop54
  1
strokes_ogs.tif
102
RTVSPost2010PropOp54
 70
     1
102
RTVSPost2010Prop55
280
     0
102
RTVSPost2010PropOp55
 70
     1
102
RTVSPost2010Prop56
140
1.0
102
RTVSPost2010PropOp56
 70
     1
102
RTVSPost2010Prop57
140
1.0
102
RTVSPost2010PropOp57
 70
     1
  0
XRECORD
  5
32E
102
{ACAD_REACTORS
330
32D
102
}
330
32D
100
AcDbXrecord
280
     1
102
RTVSPost2010Prop28
280
     0
102
RTVSPost2010PropOp28
 70
     1
102
RTVSPost2010Prop29
280
     1
102
RTVSPost2010PropOp29
 70
     1
102
RTVSPost2010Prop30
280
     1
102
RTVSPost2010PropOp30
 70
     1
102
RTVSPost2010Prop31
280
     0
102
RTVSPost2010PropOp31
 70
     1
102
RTVSPost2010Prop32
280
     0
102
RTVSPost2010PropOp32
 70
     1
102
RTVSPost2010Prop33
280
     0
102
RTVSPost2010PropOp33
 70
     1
102
RTVSPost2010Prop34
280
     0
102
RTVSPost2010PropOp34
 70
     1
102
RTVSPost2010Prop35
280
     0
102
RTVSPost2010PropOp35
 70
     1
102
RTVSPost2010Prop36
280
     0
102
RTVSPost2010PropOp36
 70
     1
102
RTVSPost2010Prop37
 90
       50
102
RTVSPost2010PropOp37
 70
     1
102
RTVSPost2010Prop38
140
0.0
102
RTVSPost2010PropOp38
 70
     1
102
RTVSPost2010Prop39
140
1.0
102
RTVSPost2010PropOp39
 70
     1
102
RTVSPost2010Prop40
 90
        0
102
RTVSPost2010PropOp40
 70
     1
102
RTVSPost2010Prop41ColorIndex
 90
       18
102
RTVSPost2010Prop41ColorRGB
 90
        0
102
RTVSPost2010PropOp41
 70
     1
102
RTVSPost2010Prop42
 90
       50
102
RTVSPost2010PropOp42
 70
     1
102
RTVSPost2010Prop43
 90
        3
102
RTVSPost2010PropOp43
 70
     1
102
RTVSPost2010Prop44ColorIndex
 90
        5
102
RTVSPost2010Prop44ColorRGB
 90
      255
102
RTVSPost2010PropOp44
 70
     1
102
RTVSPost2010Prop45
280
     0
102
RTVSPost2010PropOp45
 70
     1
102
RTVSPost2010Prop46
 90
       50
102
RTVSPost2010PropOp46
 70
     1
102
RTVSPost2010Prop47
 90
       50
102
RTVSPost2010PropOp47
 70
     1
102
RTVSPost2010Prop48
 90
       50
102
RTVSPost2010PropOp48
 70
     1
102
RTVSPost2010Prop49
280
     0
102
RTVSPost2010PropOp49
 70
     1
102
RTVSPost2010Prop50
 90
       50
102
RTVSPost2010PropOp50
 70
     1
102
RTVSPost2010Prop51ColorIndex
 90
      256
102
RTVSPost2010Prop51ColorRGB
 90
-16777216
102
RTVSPost2010PropOp51
 70
     0
102
RTVSPost2010Prop52
140
1.0
102
RTVSPost2010PropOp52
 70
     0
102
RTVSPost2010Prop53
 90
        2
102
RTVSPost2010PropOp53
 70
     1
102
RTVSPost2010Prop54
  1
strokes_ogs.tif
102
RTVSPost2010PropOp54
 70
     1
102
RTVSPost2010Prop55
280
     0
102
RTVSPost2010PropOp55
 70
     1
102
RTVSPost2010Prop56
140
1.0
102
RTVSPost2010PropOp56
 70
     1
102
RTVSPost2010Prop57
140
1.0
102
RTVSPost2010PropOp57
 70
     1
  0
XRECORD
  5
330
102
{ACAD_REACTORS
330
32F
102
}
330
32F
100
AcDbXrecord
280
     1
102
RTVSPost2010Prop28
280
     0
102
RTVSPost2010PropOp28
 70
     1
102
RTVSPost2010Prop29
280
     1
102
RTVSPost2010PropOp29
 70
     1
102
RTVSPost2010Prop30
280
     1
102
RTVSPost2010PropOp30
 70
     1
102
RTVSPost2010Prop31
280
     0
102
RTVSPost2010PropOp31
 70
     1
102
RTVSPost2010Prop32
280
     0
102
RTVSPost2010PropOp32
 70
     1
102
RTVSPost2010Prop33
280
     0
102
RTVSPost2010PropOp33
 70
     1
102
RTVSPost2010Prop34
280
     0
102
RTVSPost2010PropOp34
 70
     1
102
RTVSPost2010Prop35
280
     0
102
RTVSPost2010PropOp35
 70
     1
102
RTVSPost2010Prop36
280
     0
102
RTVSPost2010PropOp36
 70
     1
102
RTVSPost2010Prop37
 90
       50
102
RTVSPost2010PropOp37
 70
     1
102
RTVSPost2010Prop38
140
0.0
102
RTVSPost2010PropOp38
 70
     1
102
RTVSPost2010Prop39
140
1.0
102
RTVSPost2010PropOp39
 70
     1
102
RTVSPost2010Prop40
 90
        0
102
RTVSPost2010PropOp40
 70
     1
102
RTVSPost2010Prop41ColorIndex
 90
       18
102
RTVSPost2010Prop41ColorRGB
 90
        0
102
RTVSPost2010PropOp41
 70
     1
102
RTVSPost2010Prop42
 90
       50
102
RTVSPost2010PropOp42
 70
     1
102
RTVSPost2010Prop43
 90
        3
102
RTVSPost2010PropOp43
 70
     1
102
RTVSPost2010Prop44ColorIndex
 90
        5
102
RTVSPost2010Prop44ColorRGB
 90
      255
102
RTVSPost2010PropOp44
 70
     1
102
RTVSPost2010Prop45
280
     0
102
RTVSPost2010PropOp45
 70
     1
102
RTVSPost2010Prop46
 90
       50
102
RTVSPost2010PropOp46
 70
     1
102
RTVSPost2010Prop47
 90
       50
102
RTVSPost2010PropOp47
 70
     1
102
RTVSPost2010Prop48
 90
       50
102
RTVSPost2010PropOp48
 70
     1
102
RTVSPost2010Prop49
280
     0
102
RTVSPost2010PropOp49
 70
     1
102
RTVSPost2010Prop50
 90
       50
102
RTVSPost2010PropOp50
 70
     1
102
RTVSPost2010Prop51ColorIndex
 90
      256
102
RTVSPost2010Prop51ColorRGB
 90
-16777216
102
RTVSPost2010PropOp51
 70
     0
102
RTVSPost2010Prop52
140
1.0
102
RTVSPost2010PropOp52
 70
     0
102
RTVSPost2010Prop53
 90
        2
102
RTVSPost2010PropOp53
 70
     1
102
RTVSPost2010Prop54
  1
strokes_ogs.tif
102
RTVSPost2010PropOp54
 70
     1
102
RTVSPost2010Prop55
280
     0
102
RTVSPost2010PropOp55
 70
     1
102
RTVSPost2010Prop56
140
1.0
102
RTVSPost2010PropOp56
 70
     1
102
RTVSPost2010Prop57
140
1.0
102
RTVSPost2010PropOp57
 70
     1
  0
XRECORD
  5
336
102
{ACAD_REACTORS
330
335
102
}
330
335
100
AcDbXrecord
280
     1
102
RTVSPost2010Prop28
280
     0
102
RTVSPost2010PropOp28
 70
     1
102
RTVSPost2010Prop29
280
     1
102
RTVSPost2010PropOp29
 70
     1
102
RTVSPost2010Prop30
280
     1
102
RTVSPost2010PropOp30
 70
     1
102
RTVSPost2010Prop31
280
     0
102
RTVSPost2010PropOp31
 70
     1
102
RTVSPost2010Prop32
280
     0
102
RTVSPost2010PropOp32
 70
     1
102
RTVSPost2010Prop33
280
     0
102
RTVSPost2010PropOp33
 70
     1
102
RTVSPost2010Prop34
280
     0
102
RTVSPost2010PropOp34
 70
     1
102
RTVSPost2010Prop35
280
     0
102
RTVSPost2010PropOp35
 70
     1
102
RTVSPost2010Prop36
280
     0
102
RTVSPost2010PropOp36
 70
     1
102
RTVSPost2010Prop37
 90
       50
102
RTVSPost2010PropOp37
 70
     1
102
RTVSPost2010Prop38
140
0.0
102
RTVSPost2010PropOp38
 70
     1
102
RTVSPost2010Prop39
140
1.0
102
RTVSPost2010PropOp39
 70
     1
102
RTVSPost2010Prop40
 90
        0
102
RTVSPost2010PropOp40
 70
     1
102
RTVSPost2010Prop41ColorIndex
 90
       18
102
RTVSPost2010Prop41ColorRGB
 90
        0
102
RTVSPost2010PropOp41
 70
     1
102
RTVSPost2010Prop42
 90
       50
102
RTVSPost2010PropOp42
 70
     1
102
RTVSPost2010Prop43
 90
        3
102
RTVSPost2010PropOp43
 70
     1
102
RTVSPost2010Prop44ColorIndex
 90
        5
102
RTVSPost2010Prop44ColorRGB
 90
      255
102
RTVSPost2010PropOp44
 70
     1
102
RTVSPost2010Prop45
280
     0
102
RTVSPost2010PropOp45
 70
     1
102
RTVSPost2010Prop46
 90
       50
102
RTVSPost2010PropOp46
 70
     1
102
RTVSPost2010Prop47
 90
       50
102
RTVSPost2010PropOp47
 70
     1
102
RTVSPost2010Prop48
 90
       50
102
RTVSPost2010PropOp48
 70
     1
102
RTVSPost2010Prop49
280
     0
102
RTVSPost2010PropOp49
 70
     1
102
RTVSPost2010Prop50
 90
       50
102
RTVSPost2010PropOp50
 70
     1
102
RTVSPost2010Prop51ColorIndex
 90
      256
102
RTVSPost2010Prop51ColorRGB
 90
-16777216
102
RTVSPost2010PropOp51
 70
     0
102
RTVSPost2010Prop52
140
1.0
102
RTVSPost2010PropOp52
 70
     0
102
RTVSPost2010Prop53
 90
        2
102
RTVSPost2010PropOp53
 70
     1
102
RTVSPost2010Prop54
  1
strokes_ogs.tif
102
RTVSPost2010PropOp54
 70
     1
102
RTVSPost2010Prop55
280
     0
102
RTVSPost2010PropOp55
 70
     1
102
RTVSPost2010Prop56
140
1.0
102
RTVSPost2010PropOp56
 70
     1
102
RTVSPost2010Prop57
140
1.0
102
RTVSPost2010PropOp57
 70
     1
  0
XRECORD
  5
34A
102
{ACAD_REACTORS
330
349
102
}
330
349
100
AcDbXrecord
280
     1
102
RTVSPost2010Prop28
280
     0
102
RTVSPost2010PropOp28
 70
     0
102
RTVSPost2010Prop29
280
     1
102
RTVSPost2010PropOp29
 70
     0
102
RTVSPost2010Prop30
280
     1
102
RTVSPost2010PropOp30
 70
     0
102
RTVSPost2010Prop31
280
     0
102
RTVSPost2010PropOp31
 70
     0
102
RTVSPost2010Prop32
280
     0
102
RTVSPost2010PropOp32
 70
     0
102
RTVSPost2010Prop33
280
     0
102
RTVSPost2010PropOp33
 70
     0
102
RTVSPost2010Prop34
280
     0
102
RTVSPost2010PropOp34
 70
     0
102
RTVSPost2010Prop35
280
     0
102
RTVSPost2010PropOp35
 70
     0
102
RTVSPost2010Prop36
280
     0
102
RTVSPost2010PropOp36
 70
     0
102
RTVSPost2010Prop37
 90
       50
102
RTVSPost2010PropOp37
 70
     0
102
RTVSPost2010Prop38
140
0.0
102
RTVSPost2010PropOp38
 70
     0
102
RTVSPost2010Prop39
140
1.0
102
RTVSPost2010PropOp39
 70
     0
102
RTVSPost2010Prop40
 90
        0
102
RTVSPost2010PropOp40
 70
     0
102
RTVSPost2010Prop41ColorIndex
 90
       18
102
RTVSPost2010Prop41ColorRGB
 90
        0
102
RTVSPost2010PropOp41
 70
     0
102
RTVSPost2010Prop42
 90
       50
102
RTVSPost2010PropOp42
 70
     0
102
RTVSPost2010Prop43
 90
        3
102
RTVSPost2010PropOp43
 70
     0
102
RTVSPost2010Prop44ColorIndex
 90
        5
102
RTVSPost2010Prop44ColorRGB
 90
      255
102
RTVSPost2010PropOp44
 70
     0
102
RTVSPost2010Prop45
280
     0
102
RTVSPost2010PropOp45
 70
     0
102
RTVSPost2010Prop46
 90
       50
102
RTVSPost2010PropOp46
 70
     0
102
RTVSPost2010Prop47
 90
       50
102
RTVSPost2010PropOp47
 70
     0
102
RTVSPost2010Prop48
 90
       50
102
RTVSPost2010PropOp48
 70
     0
102
RTVSPost2010Prop49
280
     0
102
RTVSPost2010PropOp49
 70
     0
102
RTVSPost2010Prop50
 90
       50
102
RTVSPost2010PropOp50
 70
     0
102
RTVSPost2010Prop51ColorIndex
 90
      256
102
RTVSPost2010Prop51ColorRGB
 90
-16777216
102
RTVSPost2010PropOp51
 70
     0
102
RTVSPost2010Prop52
140
1.0
102
RTVSPost2010PropOp52
 70
     0
102
RTVSPost2010Prop53
 90
        2
102
RTVSPost2010PropOp53
 70
     0
102
RTVSPost2010Prop54
  1
strokes_ogs.tif
102
RTVSPost2010PropOp54
 70
     0
102
RTVSPost2010Prop55
280
     0
102
RTVSPost2010PropOp55
 70
     0
102
RTVSPost2010Prop56
140
1.0
102
RTVSPost2010PropOp56
 70
     0
102
RTVSPost2010Prop57
140
1.0
102
RTVSPost2010PropOp57
 70
     0
  0
XRECORD
  5
344
102
{ACAD_REACTORS
330
343
102
}
330
343
100
AcDbXrecord
280
     1
102
RTVSPost2010Prop28
280
     0
102
RTVSPost2010PropOp28
 70
     1
102
RTVSPost2010Prop29
280
     1
102
RTVSPost2010PropOp29
 70
     1
102
RTVSPost2010Prop30
280
     1
102
RTVSPost2010PropOp30
 70
     1
102
RTVSPost2010Prop31
280
     0
102
RTVSPost2010PropOp31
 70
     1
102
RTVSPost2010Prop32
280
     0
102
RTVSPost2010PropOp32
 70
     1
102
RTVSPost2010Prop33
280
     0
102
RTVSPost2010PropOp33
 70
     1
102
RTVSPost2010Prop34
280
     0
102
RTVSPost2010PropOp34
 70
     1
102
RTVSPost2010Prop35
280
     0
102
RTVSPost2010PropOp35
 70
     1
102
RTVSPost2010Prop36
280
     0
102
RTVSPost2010PropOp36
 70
     1
102
RTVSPost2010Prop37
 90
       50
102
RTVSPost2010PropOp37
 70
     1
102
RTVSPost2010Prop38
140
0.0
102
RTVSPost2010PropOp38
 70
     1
102
RTVSPost2010Prop39
140
1.0
102
RTVSPost2010PropOp39
 70
     1
102
RTVSPost2010Prop40
 90
        0
102
RTVSPost2010PropOp40
 70
     1
102
RTVSPost2010Prop41ColorIndex
 90
       18
102
RTVSPost2010Prop41ColorRGB
 90
        0
102
RTVSPost2010PropOp41
 70
     1
102
RTVSPost2010Prop42
 90
       50
102
RTVSPost2010PropOp42
 70
     1
102
RTVSPost2010Prop43
 90
        3
102
RTVSPost2010PropOp43
 70
     1
102
RTVSPost2010Prop44ColorIndex
 90
        5
102
RTVSPost2010Prop44ColorRGB
 90
      255
102
RTVSPost2010PropOp44
 70
     1
102
RTVSPost2010Prop45
280
     0
102
RTVSPost2010PropOp45
 70
     1
102
RTVSPost2010Prop46
 90
       50
102
RTVSPost2010PropOp46
 70
     1
102
RTVSPost2010Prop47
 90
       50
102
RTVSPost2010PropOp47
 70
     1
102
RTVSPost2010Prop48
 90
       50
102
RTVSPost2010PropOp48
 70
     1
102
RTVSPost2010Prop49
280
     0
102
RTVSPost2010PropOp49
 70
     1
102
RTVSPost2010Prop50
 90
       50
102
RTVSPost2010PropOp50
 70
     1
102
RTVSPost2010Prop51ColorIndex
 90
      256
102
RTVSPost2010Prop51ColorRGB
 90
-16777216
102
RTVSPost2010PropOp51
 70
     0
102
RTVSPost2010Prop52
140
1.0
102
RTVSPost2010PropOp52
 70
     0
102
RTVSPost2010Prop53
 90
        2
102
RTVSPost2010PropOp53
 70
     1
102
RTVSPost2010Prop54
  1
strokes_ogs.tif
102
RTVSPost2010PropOp54
 70
     1
102
RTVSPost2010Prop55
280
     0
102
RTVSPost2010PropOp55
 70
     1
102
RTVSPost2010Prop56
140
1.0
102
RTVSPost2010PropOp56
 70
     1
102
RTVSPost2010Prop57
140
1.0
102
RTVSPost2010PropOp57
 70
     1
  0
XRECORD
  5
34C
102
{ACAD_REACTORS
330
34B
102
}
330
34B
100
AcDbXrecord
280
     1
102
RTVSPost2010Prop28
280
     0
102
RTVSPost2010PropOp28
 70
     0
102
RTVSPost2010Prop29
280
     1
102
RTVSPost2010PropOp29
 70
     0
102
RTVSPost2010Prop30
280
     1
102
RTVSPost2010PropOp30
 70
     0
102
RTVSPost2010Prop31
280
     0
102
RTVSPost2010PropOp31
 70
     0
102
RTVSPost2010Prop32
280
     0
102
RTVSPost2010PropOp32
 70
     0
102
RTVSPost2010Prop33
280
     0
102
RTVSPost2010PropOp33
 70
     0
102
RTVSPost2010Prop34
280
     0
102
RTVSPost2010PropOp34
 70
     0
102
RTVSPost2010Prop35
280
     0
102
RTVSPost2010PropOp35
 70
     0
102
RTVSPost2010Prop36
280
     0
102
RTVSPost2010PropOp36
 70
     0
102
RTVSPost2010Prop37
 90
       50
102
RTVSPost2010PropOp37
 70
     0
102
RTVSPost2010Prop38
140
0.0
102
RTVSPost2010PropOp38
 70
     0
102
RTVSPost2010Prop39
140
1.0
102
RTVSPost2010PropOp39
 70
     0
102
RTVSPost2010Prop40
 90
        0
102
RTVSPost2010PropOp40
 70
     0
102
RTVSPost2010Prop41ColorIndex
 90
       18
102
RTVSPost2010Prop41ColorRGB
 90
        0
102
RTVSPost2010PropOp41
 70
     0
102
RTVSPost2010Prop42
 90
       50
102
RTVSPost2010PropOp42
 70
     0
102
RTVSPost2010Prop43
 90
        3
102
RTVSPost2010PropOp43
 70
     0
102
RTVSPost2010Prop44ColorIndex
 90
        5
102
RTVSPost2010Prop44ColorRGB
 90
      255
102
RTVSPost2010PropOp44
 70
     0
102
RTVSPost2010Prop45
280
     0
102
RTVSPost2010PropOp45
 70
     0
102
RTVSPost2010Prop46
 90
       50
102
RTVSPost2010PropOp46
 70
     0
102
RTVSPost2010Prop47
 90
       50
102
RTVSPost2010PropOp47
 70
     0
102
RTVSPost2010Prop48
 90
       50
102
RTVSPost2010PropOp48
 70
     0
102
RTVSPost2010Prop49
280
     0
102
RTVSPost2010PropOp49
 70
     0
102
RTVSPost2010Prop50
 90
       50
102
RTVSPost2010PropOp50
 70
     0
102
RTVSPost2010Prop51ColorIndex
 90
      256
102
RTVSPost2010Prop51ColorRGB
 90
-16777216
102
RTVSPost2010PropOp51
 70
     0
102
RTVSPost2010Prop52
140
1.0
102
RTVSPost2010PropOp52
 70
     0
102
RTVSPost2010Prop53
 90
        2
102
RTVSPost2010PropOp53
 70
     0
102
RTVSPost2010Prop54
  1
strokes_ogs.tif
102
RTVSPost2010PropOp54
 70
     0
102
RTVSPost2010Prop55
280
     0
102
RTVSPost2010PropOp55
 70
     0
102
RTVSPost2010Prop56
140
1.0
102
RTVSPost2010PropOp56
 70
     0
102
RTVSPost2010Prop57
140
1.0
102
RTVSPost2010PropOp57
 70
     0
  0
XRECORD
  5
33A
102
{ACAD_REACTORS
330
339
102
}
330
339
100
AcDbXrecord
280
     1
102
RTVSPost2010Prop28
280
     0
102
RTVSPost2010PropOp28
 70
     1
102
RTVSPost2010Prop29
280
     1
102
RTVSPost2010PropOp29
 70
     1
102
RTVSPost2010Prop30
280
     1
102
RTVSPost2010PropOp30
 70
     1
102
RTVSPost2010Prop31
280
     0
102
RTVSPost2010PropOp31
 70
     1
102
RTVSPost2010Prop32
280
     0
102
RTVSPost2010PropOp32
 70
     1
102
RTVSPost2010Prop33
280
     0
102
RTVSPost2010PropOp33
 70
     1
102
RTVSPost2010Prop34
280
     0
102
RTVSPost2010PropOp34
 70
     1
102
RTVSPost2010Prop35
280
     0
102
RTVSPost2010PropOp35
 70
     1
102
RTVSPost2010Prop36
280
     0
102
RTVSPost2010PropOp36
 70
     1
102
RTVSPost2010Prop37
 90
       50
102
RTVSPost2010PropOp37
 70
     1
102
RTVSPost2010Prop38
140
0.0
102
RTVSPost2010PropOp38
 70
     1
102
RTVSPost2010Prop39
140
1.0
102
RTVSPost2010PropOp39
 70
     1
102
RTVSPost2010Prop40
 90
        0
102
RTVSPost2010PropOp40
 70
     1
102
RTVSPost2010Prop41ColorIndex
 90
       18
102
RTVSPost2010Prop41ColorRGB
 90
        0
102
RTVSPost2010PropOp41
 70
     1
102
RTVSPost2010Prop42
 90
       50
102
RTVSPost2010PropOp42
 70
     1
102
RTVSPost2010Prop43
 90
        3
102
RTVSPost2010PropOp43
 70
     1
102
RTVSPost2010Prop44ColorIndex
 90
        5
102
RTVSPost2010Prop44ColorRGB
 90
      255
102
RTVSPost2010PropOp44
 70
     1
102
RTVSPost2010Prop45
280
     0
102
RTVSPost2010PropOp45
 70
     1
102
RTVSPost2010Prop46
 90
       50
102
RTVSPost2010PropOp46
 70
     1
102
RTVSPost2010Prop47
 90
       50
102
RTVSPost2010PropOp47
 70
     1
102
RTVSPost2010Prop48
 90
       50
102
RTVSPost2010PropOp48
 70
     1
102
RTVSPost2010Prop49
280
     0
102
RTVSPost2010PropOp49
 70
     1
102
RTVSPost2010Prop50
 90
       50
102
RTVSPost2010PropOp50
 70
     1
102
RTVSPost2010Prop51ColorIndex
 90
      256
102
RTVSPost2010Prop51ColorRGB
 90
-16777216
102
RTVSPost2010PropOp51
 70
     0
102
RTVSPost2010Prop52
140
1.0
102
RTVSPost2010PropOp52
 70
     0
102
RTVSPost2010Prop53
 90
        2
102
RTVSPost2010PropOp53
 70
     1
102
RTVSPost2010Prop54
  1
strokes_ogs.tif
102
RTVSPost2010PropOp54
 70
     1
102
RTVSPost2010Prop55
280
     0
102
RTVSPost2010PropOp55
 70
     1
102
RTVSPost2010Prop56
140
1.0
102
RTVSPost2010PropOp56
 70
     1
102
RTVSPost2010Prop57
140
1.0
102
RTVSPost2010PropOp57
 70
     1
  0
XRECORD
  5
358
102
{ACAD_REACTORS
330
357
102
}
330
357
100
AcDbXrecord
280
     1
102
RTVSPost2010Prop28
280
     0
102
RTVSPost2010PropOp28
 70
     1
102
RTVSPost2010Prop29
280
     1
102
RTVSPost2010PropOp29
 70
     1
102
RTVSPost2010Prop30
280
     1
102
RTVSPost2010PropOp30
 70
     1
102
RTVSPost2010Prop31
280
     0
102
RTVSPost2010PropOp31
 70
     1
102
RTVSPost2010Prop32
280
     0
102
RTVSPost2010PropOp32
 70
     1
102
RTVSPost2010Prop33
280
     0
102
RTVSPost2010PropOp33
 70
     1
102
RTVSPost2010Prop34
280
     0
102
RTVSPost2010PropOp34
 70
     1
102
RTVSPost2010Prop35
280
     0
102
RTVSPost2010PropOp35
 70
     1
102
RTVSPost2010Prop36
280
     0
102
RTVSPost2010PropOp36
 70
     1
102
RTVSPost2010Prop37
 90
       50
102
RTVSPost2010PropOp37
 70
     1
102
RTVSPost2010Prop38
140
0.0
102
RTVSPost2010PropOp38
 70
     1
102
RTVSPost2010Prop39
140
1.0
102
RTVSPost2010PropOp39
 70
     1
102
RTVSPost2010Prop40
 90
        0
102
RTVSPost2010PropOp40
 70
     1
102
RTVSPost2010Prop41ColorIndex
 90
       18
102
RTVSPost2010Prop41ColorRGB
 90
        0
102
RTVSPost2010PropOp41
 70
     1
102
RTVSPost2010Prop42
 90
       50
102
RTVSPost2010PropOp42
 70
     1
102
RTVSPost2010Prop43
 90
        3
102
RTVSPost2010PropOp43
 70
     1
102
RTVSPost2010Prop44ColorIndex
 90
        5
102
RTVSPost2010Prop44ColorRGB
 90
      255
102
RTVSPost2010PropOp44
 70
     1
102
RTVSPost2010Prop45
280
     0
102
RTVSPost2010PropOp45
 70
     1
102
RTVSPost2010Prop46
 90
       50
102
RTVSPost2010PropOp46
 70
     1
102
RTVSPost2010Prop47
 90
       50
102
RTVSPost2010PropOp47
 70
     1
102
RTVSPost2010Prop48
 90
       50
102
RTVSPost2010PropOp48
 70
     1
102
RTVSPost2010Prop49
280
     0
102
RTVSPost2010PropOp49
 70
     1
102
RTVSPost2010Prop50
 90
       50
102
RTVSPost2010PropOp50
 70
     1
102
RTVSPost2010Prop51ColorIndex
 90
      256
102
RTVSPost2010Prop51ColorRGB
 90
-16777216
102
RTVSPost2010PropOp51
 70
     0
102
RTVSPost2010Prop52
140
1.0
102
RTVSPost2010PropOp52
 70
     0
102
RTVSPost2010Prop53
 90
        2
102
RTVSPost2010PropOp53
 70
     1
102
RTVSPost2010Prop54
  1
strokes_ogs.tif
102
RTVSPost2010PropOp54
 70
     1
102
RTVSPost2010Prop55
280
     0
102
RTVSPost2010PropOp55
 70
     1
102
RTVSPost2010Prop56
140
1.0
102
RTVSPost2010PropOp56
 70
     1
102
RTVSPost2010Prop57
140
1.0
102
RTVSPost2010PropOp57
 70
     1
  0
XRECORD
  5
356
102
{ACAD_REACTORS
330
355
102
}
330
355
100
AcDbXrecord
280
     1
102
RTVSPost2010Prop28
280
     0
102
RTVSPost2010PropOp28
 70
     1
102
RTVSPost2010Prop29
280
     1
102
RTVSPost2010PropOp29
 70
     1
102
RTVSPost2010Prop30
280
     1
102
RTVSPost2010PropOp30
 70
     1
102
RTVSPost2010Prop31
280
     0
102
RTVSPost2010PropOp31
 70
     1
102
RTVSPost2010Prop32
280
     0
102
RTVSPost2010PropOp32
 70
     1
102
RTVSPost2010Prop33
280
     0
102
RTVSPost2010PropOp33
 70
     1
102
RTVSPost2010Prop34
280
     0
102
RTVSPost2010PropOp34
 70
     1
102
RTVSPost2010Prop35
280
     0
102
RTVSPost2010PropOp35
 70
     1
102
RTVSPost2010Prop36
280
     0
102
RTVSPost2010PropOp36
 70
     1
102
RTVSPost2010Prop37
 90
       50
102
RTVSPost2010PropOp37
 70
     1
102
RTVSPost2010Prop38
140
0.0
102
RTVSPost2010PropOp38
 70
     1
102
RTVSPost2010Prop39
140
1.0
102
RTVSPost2010PropOp39
 70
     1
102
RTVSPost2010Prop40
 90
        0
102
RTVSPost2010PropOp40
 70
     1
102
RTVSPost2010Prop41ColorIndex
 90
       18
102
RTVSPost2010Prop41ColorRGB
 90
        0
102
RTVSPost2010PropOp41
 70
     1
102
RTVSPost2010Prop42
 90
       50
102
RTVSPost2010PropOp42
 70
     1
102
RTVSPost2010Prop43
 90
        3
102
RTVSPost2010PropOp43
 70
     1
102
RTVSPost2010Prop44ColorIndex
 90
        5
102
RTVSPost2010Prop44ColorRGB
 90
      255
102
RTVSPost2010PropOp44
 70
     1
102
RTVSPost2010Prop45
280
     0
102
RTVSPost2010PropOp45
 70
     1
102
RTVSPost2010Prop46
 90
       50
102
RTVSPost2010PropOp46
 70
     1
102
RTVSPost2010Prop47
 90
       50
102
RTVSPost2010PropOp47
 70
     1
102
RTVSPost2010Prop48
 90
       50
102
RTVSPost2010PropOp48
 70
     1
102
RTVSPost2010Prop49
280
     0
102
RTVSPost2010PropOp49
 70
     1
102
RTVSPost2010Prop50
 90
       50
102
RTVSPost2010PropOp50
 70
     1
102
RTVSPost2010Prop51ColorIndex
 90
      256
102
RTVSPost2010Prop51ColorRGB
 90
-16777216
102
RTVSPost2010PropOp51
 70
     0
102
RTVSPost2010Prop52
140
1.0
102
RTVSPost2010PropOp52
 70
     0
102
RTVSPost2010Prop53
 90
        2
102
RTVSPost2010PropOp53
 70
     1
102
RTVSPost2010Prop54
  1
strokes_ogs.tif
102
RTVSPost2010PropOp54
 70
     1
102
RTVSPost2010Prop55
280
     0
102
RTVSPost2010PropOp55
 70
     1
102
RTVSPost2010Prop56
140
1.0
102
RTVSPost2010PropOp56
 70
     1
102
RTVSPost2010Prop57
140
1.0
102
RTVSPost2010PropOp57
 70
     1
  0
XRECORD
  5
350
102
{ACAD_REACTORS
330
34F
102
}
330
34F
100
AcDbXrecord
280
     1
102
RTVSPost2010Prop28
280
     0
102
RTVSPost2010PropOp28
 70
     1
102
RTVSPost2010Prop29
280
     1
102
RTVSPost2010PropOp29
 70
     1
102
RTVSPost2010Prop30
280
     1
102
RTVSPost2010PropOp30
 70
     1
102
RTVSPost2010Prop31
280
     0
102
RTVSPost2010PropOp31
 70
     1
102
RTVSPost2010Prop32
280
     0
102
RTVSPost2010PropOp32
 70
     1
102
RTVSPost2010Prop33
280
     0
102
RTVSPost2010PropOp33
 70
     1
102
RTVSPost2010Prop34
280
     0
102
RTVSPost2010PropOp34
 70
     1
102
RTVSPost2010Prop35
280
     0
102
RTVSPost2010PropOp35
 70
     1
102
RTVSPost2010Prop36
280
     0
102
RTVSPost2010PropOp36
 70
     1
102
RTVSPost2010Prop37
 90
       50
102
RTVSPost2010PropOp37
 70
     1
102
RTVSPost2010Prop38
140
0.0
102
RTVSPost2010PropOp38
 70
     1
102
RTVSPost2010Prop39
140
1.0
102
RTVSPost2010PropOp39
 70
     1
102
RTVSPost2010Prop40
 90
        0
102
RTVSPost2010PropOp40
 70
     1
102
RTVSPost2010Prop41ColorIndex
 90
       18
102
RTVSPost2010Prop41ColorRGB
 90
        0
102
RTVSPost2010PropOp41
 70
     1
102
RTVSPost2010Prop42
 90
       50
102
RTVSPost2010PropOp42
 70
     1
102
RTVSPost2010Prop43
 90
        3
102
RTVSPost2010PropOp43
 70
     1
102
RTVSPost2010Prop44ColorIndex
 90
        5
102
RTVSPost2010Prop44ColorRGB
 90
      255
102
RTVSPost2010PropOp44
 70
     1
102
RTVSPost2010Prop45
280
     0
102
RTVSPost2010PropOp45
 70
     1
102
RTVSPost2010Prop46
 90
       50
102
RTVSPost2010PropOp46
 70
     1
102
RTVSPost2010Prop47
 90
       50
102
RTVSPost2010PropOp47
 70
     1
102
RTVSPost2010Prop48
 90
       50
102
RTVSPost2010PropOp48
 70
     1
102
RTVSPost2010Prop49
280
     0
102
RTVSPost2010PropOp49
 70
     1
102
RTVSPost2010Prop50
 90
       50
102
RTVSPost2010PropOp50
 70
     1
102
RTVSPost2010Prop51ColorIndex
 90
      256
102
RTVSPost2010Prop51ColorRGB
 90
-16777216
102
RTVSPost2010PropOp51
 70
     0
102
RTVSPost2010Prop52
140
1.0
102
RTVSPost2010PropOp52
 70
     0
102
RTVSPost2010Prop53
 90
        2
102
RTVSPost2010PropOp53
 70
     1
102
RTVSPost2010Prop54
  1
strokes_ogs.tif
102
RTVSPost2010PropOp54
 70
     1
102
RTVSPost2010Prop55
280
     0
102
RTVSPost2010PropOp55
 70
     1
102
RTVSPost2010Prop56
140
1.0
102
RTVSPost2010PropOp56
 70
     1
102
RTVSPost2010Prop57
140
1.0
102
RTVSPost2010PropOp57
 70
     1
  0
XRECORD
  5
352
102
{ACAD_REACTORS
330
351
102
}
330
351
100
AcDbXrecord
280
     1
102
RTVSPost2010Prop28
280
     0
102
RTVSPost2010PropOp28
 70
     1
102
RTVSPost2010Prop29
280
     1
102
RTVSPost2010PropOp29
 70
     1
102
RTVSPost2010Prop30
280
     1
102
RTVSPost2010PropOp30
 70
     1
102
RTVSPost2010Prop31
280
     0
102
RTVSPost2010PropOp31
 70
     1
102
RTVSPost2010Prop32
280
     0
102
RTVSPost2010PropOp32
 70
     1
102
RTVSPost2010Prop33
280
     0
102
RTVSPost2010PropOp33
 70
     1
102
RTVSPost2010Prop34
280
     0
102
RTVSPost2010PropOp34
 70
     1
102
RTVSPost2010Prop35
280
     0
102
RTVSPost2010PropOp35
 70
     1
102
RTVSPost2010Prop36
280
     0
102
RTVSPost2010PropOp36
 70
     1
102
RTVSPost2010Prop37
 90
       50
102
RTVSPost2010PropOp37
 70
     1
102
RTVSPost2010Prop38
140
0.0
102
RTVSPost2010PropOp38
 70
     1
102
RTVSPost2010Prop39
140
1.0
102
RTVSPost2010PropOp39
 70
     1
102
RTVSPost2010Prop40
 90
        0
102
RTVSPost2010PropOp40
 70
     1
102
RTVSPost2010Prop41ColorIndex
 90
       18
102
RTVSPost2010Prop41ColorRGB
 90
        0
102
RTVSPost2010PropOp41
 70
     1
102
RTVSPost2010Prop42
 90
       50
102
RTVSPost2010PropOp42
 70
     1
102
RTVSPost2010Prop43
 90
        3
102
RTVSPost2010PropOp43
 70
     1
102
RTVSPost2010Prop44ColorIndex
 90
        5
102
RTVSPost2010Prop44ColorRGB
 90
      255
102
RTVSPost2010PropOp44
 70
     1
102
RTVSPost2010Prop45
280
     0
102
RTVSPost2010PropOp45
 70
     1
102
RTVSPost2010Prop46
 90
       50
102
RTVSPost2010PropOp46
 70
     1
102
RTVSPost2010Prop47
 90
       50
102
RTVSPost2010PropOp47
 70
     1
102
RTVSPost2010Prop48
 90
       50
102
RTVSPost2010PropOp48
 70
     1
102
RTVSPost2010Prop49
280
     0
102
RTVSPost2010PropOp49
 70
     1
102
RTVSPost2010Prop50
 90
       50
102
RTVSPost2010PropOp50
 70
     1
102
RTVSPost2010Prop51ColorIndex
 90
      256
102
RTVSPost2010Prop51ColorRGB
 90
-16777216
102
RTVSPost2010PropOp51
 70
     0
102
RTVSPost2010Prop52
140
1.0
102
RTVSPost2010PropOp52
 70
     0
102
RTVSPost2010Prop53
 90
        2
102
RTVSPost2010PropOp53
 70
     1
102
RTVSPost2010Prop54
  1
strokes_ogs.tif
102
RTVSPost2010PropOp54
 70
     1
102
RTVSPost2010Prop55
280
     0
102
RTVSPost2010PropOp55
 70
     1
102
RTVSPost2010Prop56
140
1.0
102
RTVSPost2010PropOp56
 70
     1
102
RTVSPost2010Prop57
140
1.0
102
RTVSPost2010PropOp57
 70
     1
  0
XRECORD
  5
342
102
{ACAD_REACTORS
330
341
102
}
330
341
100
AcDbXrecord
280
     1
102
RTVSPost2010Prop28
280
     0
102
RTVSPost2010PropOp28
 70
     1
102
RTVSPost2010Prop29
280
     1
102
RTVSPost2010PropOp29
 70
     1
102
RTVSPost2010Prop30
280
     1
102
RTVSPost2010PropOp30
 70
     1
102
RTVSPost2010Prop31
280
     0
102
RTVSPost2010PropOp31
 70
     1
102
RTVSPost2010Prop32
280
     0
102
RTVSPost2010PropOp32
 70
     1
102
RTVSPost2010Prop33
280
     0
102
RTVSPost2010PropOp33
 70
     1
102
RTVSPost2010Prop34
280
     0
102
RTVSPost2010PropOp34
 70
     1
102
RTVSPost2010Prop35
280
     0
102
RTVSPost2010PropOp35
 70
     1
102
RTVSPost2010Prop36
280
     0
102
RTVSPost2010PropOp36
 70
     1
102
RTVSPost2010Prop37
 90
       50
102
RTVSPost2010PropOp37
 70
     1
102
RTVSPost2010Prop38
140
0.0
102
RTVSPost2010PropOp38
 70
     1
102
RTVSPost2010Prop39
140
1.0
102
RTVSPost2010PropOp39
 70
     1
102
RTVSPost2010Prop40
 90
        0
102
RTVSPost2010PropOp40
 70
     1
102
RTVSPost2010Prop41ColorIndex
 90
       18
102
RTVSPost2010Prop41ColorRGB
 90
        0
102
RTVSPost2010PropOp41
 70
     1
102
RTVSPost2010Prop42
 90
       50
102
RTVSPost2010PropOp42
 70
     1
102
RTVSPost2010Prop43
 90
        3
102
RTVSPost2010PropOp43
 70
     1
102
RTVSPost2010Prop44ColorIndex
 90
        5
102
RTVSPost2010Prop44ColorRGB
 90
      255
102
RTVSPost2010PropOp44
 70
     1
102
RTVSPost2010Prop45
280
     0
102
RTVSPost2010PropOp45
 70
     1
102
RTVSPost2010Prop46
 90
       50
102
RTVSPost2010PropOp46
 70
     1
102
RTVSPost2010Prop47
 90
       50
102
RTVSPost2010PropOp47
 70
     1
102
RTVSPost2010Prop48
 90
       50
102
RTVSPost2010PropOp48
 70
     1
102
RTVSPost2010Prop49
280
     0
102
RTVSPost2010PropOp49
 70
     1
102
RTVSPost2010Prop50
 90
       50
102
RTVSPost2010PropOp50
 70
     1
102
RTVSPost2010Prop51ColorIndex
 90
      256
102
RTVSPost2010Prop51ColorRGB
 90
-16777216
102
RTVSPost2010PropOp51
 70
     0
102
RTVSPost2010Prop52
140
1.0
102
RTVSPost2010PropOp52
 70
     0
102
RTVSPost2010Prop53
 90
        2
102
RTVSPost2010PropOp53
 70
     1
102
RTVSPost2010Prop54
  1
strokes_ogs.tif
102
RTVSPost2010PropOp54
 70
     1
102
RTVSPost2010Prop55
280
     0
102
RTVSPost2010PropOp55
 70
     1
102
RTVSPost2010Prop56
140
1.0
102
RTVSPost2010PropOp56
 70
     1
102
RTVSPost2010Prop57
140
1.0
102
RTVSPost2010PropOp57
 70
     1
  0
XRECORD
  5
334
102
{ACAD_REACTORS
330
333
102
}
330
333
100
AcDbXrecord
280
     1
102
RTVSPost2010Prop28
280
     0
102
RTVSPost2010PropOp28
 70
     1
102
RTVSPost2010Prop29
280
     1
102
RTVSPost2010PropOp29
 70
     1
102
RTVSPost2010Prop30
280
     1
102
RTVSPost2010PropOp30
 70
     1
102
RTVSPost2010Prop31
280
     0
102
RTVSPost2010PropOp31
 70
     1
102
RTVSPost2010Prop32
280
     0
102
RTVSPost2010PropOp32
 70
     1
102
RTVSPost2010Prop33
280
     0
102
RTVSPost2010PropOp33
 70
     1
102
RTVSPost2010Prop34
280
     0
102
RTVSPost2010PropOp34
 70
     1
102
RTVSPost2010Prop35
280
     0
102
RTVSPost2010PropOp35
 70
     1
102
RTVSPost2010Prop36
280
     0
102
RTVSPost2010PropOp36
 70
     1
102
RTVSPost2010Prop37
 90
       50
102
RTVSPost2010PropOp37
 70
     1
102
RTVSPost2010Prop38
140
0.0
102
RTVSPost2010PropOp38
 70
     1
102
RTVSPost2010Prop39
140
1.0
102
RTVSPost2010PropOp39
 70
     1
102
RTVSPost2010Prop40
 90
        0
102
RTVSPost2010PropOp40
 70
     1
102
RTVSPost2010Prop41ColorIndex
 90
       18
102
RTVSPost2010Prop41ColorRGB
 90
        0
102
RTVSPost2010PropOp41
 70
     1
102
RTVSPost2010Prop42
 90
       50
102
RTVSPost2010PropOp42
 70
     1
102
RTVSPost2010Prop43
 90
        3
102
RTVSPost2010PropOp43
 70
     1
102
RTVSPost2010Prop44ColorIndex
 90
        5
102
RTVSPost2010Prop44ColorRGB
 90
      255
102
RTVSPost2010PropOp44
 70
     1
102
RTVSPost2010Prop45
280
     0
102
RTVSPost2010PropOp45
 70
     1
102
RTVSPost2010Prop46
 90
       50
102
RTVSPost2010PropOp46
 70
     1
102
RTVSPost2010Prop47
 90
       50
102
RTVSPost2010PropOp47
 70
     1
102
RTVSPost2010Prop48
 90
       50
102
RTVSPost2010PropOp48
 70
     1
102
RTVSPost2010Prop49
280
     0
102
RTVSPost2010PropOp49
 70
     1
102
RTVSPost2010Prop50
 90
       50
102
RTVSPost2010PropOp50
 70
     1
102
RTVSPost2010Prop51ColorIndex
 90
      256
102
RTVSPost2010Prop51ColorRGB
 90
-16777216
102
RTVSPost2010PropOp51
 70
     0
102
RTVSPost2010Prop52
140
1.0
102
RTVSPost2010PropOp52
 70
     0
102
RTVSPost2010Prop53
 90
        2
102
RTVSPost2010PropOp53
 70
     1
102
RTVSPost2010Prop54
  1
strokes_ogs.tif
102
RTVSPost2010PropOp54
 70
     1
102
RTVSPost2010Prop55
280
     0
102
RTVSPost2010PropOp55
 70
     1
102
RTVSPost2010Prop56
140
1.0
102
RTVSPost2010PropOp56
 70
     1
102
RTVSPost2010Prop57
140
1.0
102
RTVSPost2010PropOp57
 70
     1
  0
XRECORD
  5
354
102
{ACAD_REACTORS
330
353
102
}
330
353
100
AcDbXrecord
280
     1
102
RTVSPost2010Prop28
280
     0
102
RTVSPost2010PropOp28
 70
     1
102
RTVSPost2010Prop29
280
     1
102
RTVSPost2010PropOp29
 70
     1
102
RTVSPost2010Prop30
280
     1
102
RTVSPost2010PropOp30
 70
     1
102
RTVSPost2010Prop31
280
     0
102
RTVSPost2010PropOp31
 70
     1
102
RTVSPost2010Prop32
280
     0
102
RTVSPost2010PropOp32
 70
     1
102
RTVSPost2010Prop33
280
     0
102
RTVSPost2010PropOp33
 70
     1
102
RTVSPost2010Prop34
280
     0
102
RTVSPost2010PropOp34
 70
     1
102
RTVSPost2010Prop35
280
     0
102
RTVSPost2010PropOp35
 70
     1
102
RTVSPost2010Prop36
280
     0
102
RTVSPost2010PropOp36
 70
     1
102
RTVSPost2010Prop37
 90
       50
102
RTVSPost2010PropOp37
 70
     1
102
RTVSPost2010Prop38
140
0.0
102
RTVSPost2010PropOp38
 70
     1
102
RTVSPost2010Prop39
140
1.0
102
RTVSPost2010PropOp39
 70
     1
102
RTVSPost2010Prop40
 90
        0
102
RTVSPost2010PropOp40
 70
     1
102
RTVSPost2010Prop41ColorIndex
 90
       18
102
RTVSPost2010Prop41ColorRGB
 90
        0
102
RTVSPost2010PropOp41
 70
     1
102
RTVSPost2010Prop42
 90
       50
102
RTVSPost2010PropOp42
 70
     1
102
RTVSPost2010Prop43
 90
        3
102
RTVSPost2010PropOp43
 70
     1
102
RTVSPost2010Prop44ColorIndex
 90
        5
102
RTVSPost2010Prop44ColorRGB
 90
      255
102
RTVSPost2010PropOp44
 70
     1
102
RTVSPost2010Prop45
280
     0
102
RTVSPost2010PropOp45
 70
     1
102
RTVSPost2010Prop46
 90
       50
102
RTVSPost2010PropOp46
 70
     1
102
RTVSPost2010Prop47
 90
       50
102
RTVSPost2010PropOp47
 70
     1
102
RTVSPost2010Prop48
 90
       50
102
RTVSPost2010PropOp48
 70
     1
102
RTVSPost2010Prop49
280
     0
102
RTVSPost2010PropOp49
 70
     1
102
RTVSPost2010Prop50
 90
       50
102
RTVSPost2010PropOp50
 70
     1
102
RTVSPost2010Prop51ColorIndex
 90
      256
102
RTVSPost2010Prop51ColorRGB
 90
-16777216
102
RTVSPost2010PropOp51
 70
     0
102
RTVSPost2010Prop52
140
1.0
102
RTVSPost2010PropOp52
 70
     0
102
RTVSPost2010Prop53
 90
        2
102
RTVSPost2010PropOp53
 70
     1
102
RTVSPost2010Prop54
  1
strokes_ogs.tif
102
RTVSPost2010PropOp54
 70
     1
102
RTVSPost2010Prop55
280
     0
102
RTVSPost2010PropOp55
 70
     1
102
RTVSPost2010Prop56
140
1.0
102
RTVSPost2010PropOp56
 70
     1
102
RTVSPost2010Prop57
140
1.0
102
RTVSPost2010PropOp57
 70
     1
  0
ENDSEC
  0
EOF
