  0
SECTION
  2
HEADER
  9
$ACADVER
  1
AC1024
  9
$ACADMAINTVER
 70
     6
  9
$DWGCODEPAGE
  3
ANSI_1252
  9
$LASTSAVEDBY
  1
c.meyer
  9
$INSBASE
 10
0.0
 20
0.0
 30
0.0
  9
$EXTMIN
 10
-4169.584620032632
 20
-1825.903821377853
 30
0.0
  9
$EXTMAX
 10
3262.973302480119
 20
1103.506178622147
 30
0.0
  9
$LIMMIN
 10
0.0
 20
0.0
  9
$LIMMAX
 10
420.0
 20
297.0
  9
$ORTHOMODE
 70
     0
  9
$REGENMODE
 70
     1
  9
$FILLMODE
 70
     1
  9
$QTEXTMODE
 70
     0
  9
$MIRRTEXT
 70
     1
  9
$LTSCALE
 40
5.0
  9
$ATTMODE
 70
     1
  9
$TEXTSIZE
 40
2.5
  9
$TRACEWID
 40
1.0
  9
$TEXTSTYLE
  7
Standard
  9
$CLAYER
  8
0
  9
$CELTYPE
  6
ByLayer
  9
$CECOLOR
 62
   256
  9
$CELTSCALE
 40
1.0
  9
$DISPSILH
 70
     0
  9
$DIMSCALE
 40
1.0
  9
$DIMASZ
 40
2.5
  9
$DIMEXO
 40
0.625
  9
$DIMDLI
 40
3.75
  9
$DIMRND
 40
0.0
  9
$DIMDLE
 40
0.0
  9
$DIMEXE
 40
1.25
  9
$DIMTP
 40
0.0
  9
$DIMTM
 40
0.0
  9
$DIMTXT
 40
2.5
  9
$DIMCEN
 40
2.5
  9
$DIMTSZ
 40
0.0
  9
$DIMTOL
 70
     0
  9
$DIMLIM
 70
     0
  9
$DIMTIH
 70
     0
  9
$DIMTOH
 70
     0
  9
$DIMSE1
 70
     0
  9
$DIMSE2
 70
     0
  9
$DIMTAD
 70
     1
  9
$DIMZIN
 70
     8
  9
$DIMBLK
  1

  9
$DIMASO
 70
     1
  9
$DIMSHO
 70
     1
  9
$DIMPOST
  1

  9
$DIMAPOST
  1

  9
$DIMALT
 70
     0
  9
$DIMALTD
 70
     3
  9
$DIMALTF
 40
0.03937007874
  9
$DIMLFAC
 40
1.0
  9
$DIMTOFL
 70
     1
  9
$DIMTVP
 40
0.0
  9
$DIMTIX
 70
     0
  9
$DIMSOXD
 70
     0
  9
$DIMSAH
 70
     0
  9
$DIMBLK1
  1

  9
$DIMBLK2
  1

  9
$DIMSTYLE
  2
ISO-25
  9
$DIMCLRD
 70
     0
  9
$DIMCLRE
 70
     0
  9
$DIMCLRT
 70
     0
  9
$DIMTFAC
 40
1.0
  9
$DIMGAP
 40
0.625
  9
$DIMJUST
 70
     0
  9
$DIMSD1
 70
     0
  9
$DIMSD2
 70
     0
  9
$DIMTOLJ
 70
     0
  9
$DIMTZIN
 70
     8
  9
$DIMALTZ
 70
     0
  9
$DIMALTTZ
 70
     0
  9
$DIMUPT
 70
     0
  9
$DIMDEC
 70
     2
  9
$DIMTDEC
 70
     2
  9
$DIMALTU
 70
     2
  9
$DIMALTTD
 70
     3
  9
$DIMTXSTY
  7
Standard
  9
$DIMAUNIT
 70
     0
  9
$DIMADEC
 70
     0
  9
$DIMALTRND
 40
0.0
  9
$DIMAZIN
 70
     0
  9
$DIMDSEP
 70
    44
  9
$DIMATFIT
 70
     3
  9
$DIMFRAC
 70
     0
  9
$DIMLDRBLK
  1

  9
$DIMLUNIT
 70
     2
  9
$DIMLWD
 70
    -2
  9
$DIMLWE
 70
    -2
  9
$DIMTMOVE
 70
     0
  9
$DIMFXL
 40
1.0
  9
$DIMFXLON
 70
     0
  9
$DIMJOGANG
 40
0.785398163397
  9
$DIMTFILL
 70
     0
  9
$DIMTFILLCLR
 70
     0
  9
$DIMARCSYM
 70
     0
  9
$DIMLTYPE
  6

  9
$DIMLTEX1
  6

  9
$DIMLTEX2
  6

  9
$DIMTXTDIRECTION
 70
     0
  9
$LUNITS
 70
     2
  9
$LUPREC
 70
     4
  9
$SKETCHINC
 40
1.0
  9
$FILLETRAD
 40
10.0
  9
$AUNITS
 70
     0
  9
$AUPREC
 70
     0
  9
$MENU
  1
.
  9
$ELEVATION
 40
0.0
  9
$PELEVATION
 40
0.0
  9
$THICKNESS
 40
0.0
  9
$LIMCHECK
 70
     0
  9
$CHAMFERA
 40
0.0
  9
$CHAMFERB
 40
0.0
  9
$CHAMFERC
 40
0.0
  9
$CHAMFERD
 40
0.0
  9
$SKPOLY
 70
     0
  9
$TDCREATE
 40
2459276.450225023
  9
$TDUCREATE
 40
2459276.408558357
  9
$TDUPDATE
 40
2459276.450225567
  9
$TDUUPDATE
 40
2459276.4085589
  9
$TDINDWG
 40
0.0000000116
  9
$TDUSRTIMER
 40
0.0000000116
  9
$USRTIMER
 70
     1
  9
$ANGBASE
 50
0.0
  9
$ANGDIR
 70
     0
  9
$PDMODE
 70
     2
  9
$PDSIZE
 40
1.0
  9
$PLINEWID
 40
0.0
  9
$SPLFRAME
 70
     0
  9
$SPLINETYPE
 70
     6
  9
$SPLINESEGS
 70
     8
  9
$HANDSEED
  5
301
  9
$SURFTAB1
 70
     6
  9
$SURFTAB2
 70
     6
  9
$SURFTYPE
 70
     6
  9
$SURFU
 70
     6
  9
$SURFV
 70
     6
  9
$UCSBASE
  2

  9
$UCSNAME
  2

  9
$UCSORG
 10
0.0
 20
0.0
 30
0.0
  9
$UCSXDIR
 10
1.0
 20
0.0
 30
0.0
  9
$UCSYDIR
 10
0.0
 20
1.0
 30
0.0
  9
$UCSORTHOREF
  2

  9
$UCSORTHOVIEW
 70
     0
  9
$UCSORGTOP
 10
0.0
 20
0.0
 30
0.0
  9
$UCSORGBOTTOM
 10
0.0
 20
0.0
 30
0.0
  9
$UCSORGLEFT
 10
0.0
 20
0.0
 30
0.0
  9
$UCSORGRIGHT
 10
0.0
 20
0.0
 30
0.0
  9
$UCSORGFRONT
 10
0.0
 20
0.0
 30
0.0
  9
$UCSORGBACK
 10
0.0
 20
0.0
 30
0.0
  9
$PUCSBASE
  2

  9
$PUCSNAME
  2

  9
$PUCSORG
 10
0.0
 20
0.0
 30
0.0
  9
$PUCSXDIR
 10
1.0
 20
0.0
 30
0.0
  9
$PUCSYDIR
 10
0.0
 20
1.0
 30
0.0
  9
$PUCSORTHOREF
  2

  9
$PUCSORTHOVIEW
 70
     0
  9
$PUCSORGTOP
 10
0.0
 20
0.0
 30
0.0
  9
$PUCSORGBOTTOM
 10
0.0
 20
0.0
 30
0.0
  9
$PUCSORGLEFT
 10
0.0
 20
0.0
 30
0.0
  9
$PUCSORGRIGHT
 10
0.0
 20
0.0
 30
0.0
  9
$PUCSORGFRONT
 10
0.0
 20
0.0
 30
0.0
  9
$PUCSORGBACK
 10
0.0
 20
0.0
 30
0.0
  9
$USERI1
 70
     0
  9
$USERI2
 70
     0
  9
$USERI3
 70
     0
  9
$USERI4
 70
     0
  9
$USERI5
 70
     0
  9
$USERR1
 40
0.0
  9
$USERR2
 40
0.0
  9
$USERR3
 40
0.0
  9
$USERR4
 40
0.0
  9
$USERR5
 40
0.0
  9
$WORLDVIEW
 70
     1
  9
$SHADEDGE
 70
     3
  9
$SHADEDIF
 70
    70
  9
$TILEMODE
 70
     1
  9
$MAXACTVP
 70
    64
  9
$PINSBASE
 10
0.0
 20
0.0
 30
0.0
  9
$PLIMCHECK
 70
     0
  9
$PEXTMIN
 10
1.000000000000E+20
 20
1.000000000000E+20
 30
1.000000000000E+20
  9
$PEXTMAX
 10
-1.000000000000E+20
 20
-1.000000000000E+20
 30
-1.000000000000E+20
  9
$PLIMMIN
 10
0.0
 20
0.0
  9
$PLIMMAX
 10
420.0
 20
297.0
  9
$UNITMODE
 70
     0
  9
$VISRETAIN
 70
     1
  9
$PLINEGEN
 70
     0
  9
$PSLTSCALE
 70
     1
  9
$TREEDEPTH
 70
  3020
  9
$CMLSTYLE
  2
Standard
  9
$CMLJUST
 70
     0
  9
$CMLSCALE
 40
20.0
  9
$PROXYGRAPHICS
 70
     1
  9
$MEASUREMENT
 70
     1
  9
$CELWEIGHT
370
    -1
  9
$ENDCAPS
280
     0
  9
$JOINSTYLE
280
     0
  9
$LWDISPLAY
290
     0
  9
$INSUNITS
 70
     4
  9
$HYPERLINKBASE
  1

  9
$STYLESHEET
  1

  9
$XEDIT
290
     1
  9
$CEPSNTYPE
380
     0
  9
$PSTYLEMODE
290
     1
  9
$FINGERPRINTGUID
  2
{13b90004-1636-4309-9bf8-d47491ded655}
  9
$VERSIONGUID
  2
{FAEB1C32-E019-11D5-929B-00C0DF256EC4}
  9
$EXTNAMES
290
     1
  9
$PSVPSCALE
 40
0.0
  9
$OLESTARTUP
290
     0
  9
$SORTENTS
280
   127
  9
$INDEXCTL
280
     0
  9
$HIDETEXT
280
     1
  9
$XCLIPFRAME
280
     2
  9
$HALOGAP
280
     0
  9
$OBSCOLOR
 70
   257
  9
$OBSLTYPE
280
     0
  9
$INTERSECTIONDISPLAY
280
     0
  9
$INTERSECTIONCOLOR
 70
   257
  9
$DIMASSOC
280
     2
  9
$PROJECTNAME
  1

  9
$CAMERADISPLAY
290
     0
  9
$LENSLENGTH
 40
50.0
  9
$CAMERAHEIGHT
 40
0.0
  9
$STEPSPERSEC
 40
2.0
  9
$STEPSIZE
 40
6.0
  9
$3DDWFPREC
 40
2.0
  9
$PSOLWIDTH
 40
5.0
  9
$PSOLHEIGHT
 40
80.0
  9
$LOFTANG1
 40
1.570796326795
  9
$LOFTANG2
 40
1.570796326795
  9
$LOFTMAG1
 40
0.0
  9
$LOFTMAG2
 40
0.0
  9
$LOFTPARAM
 70
     7
  9
$LOFTNORMALS
280
     1
  9
$LATITUDE
 40
37.795
  9
$LONGITUDE
 40
-122.394
  9
$NORTHDIRECTION
 40
0.0
  9
$TIMEZONE
 70
 -8000
  9
$LIGHTGLYPHDISPLAY
280
     1
  9
$TILEMODELIGHTSYNCH
280
     1
  9
$CMATERIAL
347
44
  9
$SOLIDHIST
280
     0
  9
$SHOWHIST
280
     1
  9
$DWFFRAME
280
     2
  9
$DGNFRAME
280
     2
  9
$REALWORLDSCALE
290
     1
  9
$INTERFERECOLOR
 62
   256
  9
$CSHADOW
280
     0
  9
$SHADOWPLANELOCATION
 40
0.0
  0
ENDSEC
  0
SECTION
  2
CLASSES
  0
CLASS
  1
ACDBDICTIONARYWDFLT
  2
AcDbDictionaryWithDefault
  3
ObjectDBX Classes
 90
        0
 91
        3
280
     0
281
     0
  0
CLASS
  1
VISUALSTYLE
  2
AcDbVisualStyle
  3
ObjectDBX Classes
 90
     4095
 91
        3
280
     0
281
     0
  0
CLASS
  1
MATERIAL
  2
AcDbMaterial
  3
ObjectDBX Classes
 90
     1153
 91
        3
280
     0
281
     0
  0
CLASS
  1
SCALE
  2
AcDbScale
  3
ObjectDBX Classes
 90
     1153
 91
        3
280
     0
281
     0
  0
CLASS
  1
TABLESTYLE
  2
AcDbTableStyle
  3
ObjectDBX Classes
 90
     4095
 91
        3
280
     0
281
     0
  0
CLASS
  1
MLEADERSTYLE
  2
AcDbMLeaderStyle
  3
ACDB_MLEADERSTYLE_CLASS
 90
     4095
 91
        3
280
     0
281
     0
  0
CLASS
  1
SUN
  2
AcDbSun
  3
SCENEOE
 90
     1153
 91
        3
280
     0
281
     0
  0
CLASS
  1
IMAGEDEF
  2
AcDbRasterImageDef
  3
ISM
 90
        0
 91
        3
280
     0
281
     0
  0
CLASS
  1
IMAGE
  2
AcDbRasterImage
  3
ISM
 90
      127
 91
        4
280
     0
281
     1
  0
CLASS
  1
IMAGEDEF_REACTOR
  2
AcDbRasterImageDefReactor
  3
ISM
 90
        1
 91
        3
280
     0
281
     0
  0
CLASS
  1
DICTIONARYVAR
  2
AcDbDictionaryVar
  3
ObjectDBX Classes
 90
        0
 91
        3
280
     0
281
     0
  0
CLASS
  1
CELLSTYLEMAP
  2
AcDbCellStyleMap
  3
ObjectDBX Classes
 90
     1152
 91
        3
280
     0
281
     0
  0
CLASS
  1
WIPEOUTVARIABLES
  2
AcDbWipeoutVariables
  3
WipeOut|AutoCAD Express Tool|expresstools@autodesk.com
 90
        0
 91
        3
280
     0
281
     0
  0
ENDSEC
  0
SECTION
  2
TABLES
  0
TABLE
  2
VPORT
  5
8
330
0
100
AcDbSymbolTable
 70
     1
  0
VPORT
  5
29
330
8
100
AcDbSymbolTableRecord
100
AcDbViewportTableRecord
  2
*Active
 70
     0
 10
0.0
 20
0.0
 11
1.0
 21
1.0
 12
-453.305658776257
 22
-361.198821377853
 13
0.0
 23
0.0
 14
10.0
 24
10.0
 15
10.0
 25
10.0
 16
0.0
 26
0.0
 36
1.0
 17
0.0
 27
0.0
 37
0.0
 40
2929.409999999999
 41
2.537220096372
 42
50.0
 43
0.0
 44
0.0
 50
0.0
 51
0.0
 71
     0
 72
   100
 73
     1
 74
     3
 75
     0
 76
     0
 77
     0
 78
     0
281
     0
 65
     1
110
0.0
120
0.0
130
0.0
111
1.0
121
0.0
131
0.0
112
0.0
122
1.0
132
0.0
 79
     0
146
0.0
348
2F
 60
     3
 61
     5
292
     1
282
     1
141
0.0
142
0.0
 63
   250
361
6D
  0
ENDTAB
  0
TABLE
  2
LTYPE
  5
5
330
0
100
AcDbSymbolTable
 70
     3
  0
LTYPE
  5
14
330
5
100
AcDbSymbolTableRecord
100
AcDbLinetypeTableRecord
  2
ByBlock
 70
     0
  3

 72
    65
 73
     0
 40
0.0
  0
LTYPE
  5
15
330
5
100
AcDbSymbolTableRecord
100
AcDbLinetypeTableRecord
  2
ByLayer
 70
     0
  3

 72
    65
 73
     0
 40
0.0
  0
LTYPE
  5
16
330
5
100
AcDbSymbolTableRecord
100
AcDbLinetypeTableRecord
  2
Continuous
 70
     0
  3
Solid line
 72
    65
 73
     0
 40
0.0
  0
LTYPE
  5
6E
330
5
100
AcDbSymbolTableRecord
100
AcDbLinetypeTableRecord
  2
AUSGEZOGEN
 70
     0
  3

 72
    65
 73
     0
 40
0.0
  0
LTYPE
  5
70
330
5
100
AcDbSymbolTableRecord
100
AcDbLinetypeTableRecord
  2
DASHDOT
 70
     0
  3

 72
    65
 73
     4
 40
1.0
 49
0.5
 74
     0
 49
-0.25
 74
     0
 49
0.0
 74
     0
 49
-0.25
 74
     0
  0
ENDTAB
  0
TABLE
  2
LAYER
  5
2
330
0
100
AcDbSymbolTable
 70
     9
  0
LAYER
  5
10
330
2
100
AcDbSymbolTableRecord
100
AcDbLayerTableRecord
  2
0
 70
     0
 62
     7
  6
Continuous
370
    -3
390
F
347
46
  0
LAYER
  5
72
330
2
100
AcDbSymbolTableRecord
100
AcDbLayerTableRecord
  2
Layer0
 70
     0
 62
     9
420
 12632256
  6
Continuous
370
    -3
390
F
347
46
  0
LAYER
  5
73
330
2
100
AcDbSymbolTableRecord
100
AcDbLayerTableRecord
  2
Layer1
 70
     0
 62
     4
420
    65535
  6
Continuous
370
    -3
390
F
347
46
  0
LAYER
  5
74
330
2
100
AcDbSymbolTableRecord
100
AcDbLayerTableRecord
  2
Layer2
 70
     0
 62
    18
420
        0
  6
Continuous
370
    -3
390
F
347
46
  0
LAYER
  5
75
330
2
100
AcDbSymbolTableRecord
100
AcDbLayerTableRecord
  2
Layer3
 70
     0
 62
    18
420
        0
  6
Continuous
370
    -3
390
F
347
46
  0
LAYER
  5
76
330
2
100
AcDbSymbolTableRecord
100
AcDbLayerTableRecord
  2
Layer4
 70
     0
 62
     1
420
 16711680
  6
Continuous
370
    -3
390
F
347
46
  0
LAYER
  5
77
330
2
100
AcDbSymbolTableRecord
100
AcDbLayerTableRecord
  2
Layer5
 70
     0
 62
     7
  6
Continuous
370
    -3
390
F
347
46
  0
LAYER
  5
78
330
2
100
AcDbSymbolTableRecord
100
AcDbLayerTableRecord
  2
Layer6
 70
     0
 62
     6
420
 16711935
  6
Continuous
370
    -3
390
F
347
46
  0
LAYER
  5
79
330
2
100
AcDbSymbolTableRecord
100
AcDbLayerTableRecord
  2
Layer100
 70
     0
 62
    18
420
        0
  6
Continuous
370
    -3
390
F
347
46
  0
ENDTAB
  0
TABLE
  2
STYLE
  5
3
330
0
100
AcDbSymbolTable
 70
     3
  0
STYLE
  5
11
330
3
100
AcDbSymbolTableRecord
100
AcDbTextStyleTableRecord
  2
Standard
 70
     0
 40
0.0
 41
1.0
 50
0.0
 71
     0
 42
2.5
  3
txt
  4

  0
STYLE
  5
6F
330
3
100
AcDbSymbolTableRecord
100
AcDbTextStyleTableRecord
  2
Arial
 70
     0
 40
0.0
 41
1.0
 50
0.0
 71
     0
 42
2.5
  3
arial.ttf
  4

1001
ACAD
1000
Arial
1071
        0
  0
STYLE
  5
71
330
3
100
AcDbSymbolTableRecord
100
AcDbTextStyleTableRecord
  2
Toleranzfont
 70
     0
 40
0.0
 41
1.0
 50
0.0
 71
     0
 42
2.5
  3
IGES1003.SHX
  4

  0
ENDTAB
  0
TABLE
  2
VIEW
  5
6
330
0
100
AcDbSymbolTable
 70
     0
  0
ENDTAB
  0
TABLE
  2
UCS
  5
7
330
0
100
AcDbSymbolTable
 70
     0
  0
ENDTAB
  0
TABLE
  2
APPID
  5
9
330
0
100
AcDbSymbolTable
 70
     1
  0
APPID
  5
12
330
9
100
AcDbSymbolTableRecord
100
AcDbRegAppTableRecord
  2
ACAD
 70
     0
  0
ENDTAB
  0
TABLE
  2
DIMSTYLE
  5
A
330
0
100
AcDbSymbolTable
 70
     1
100
AcDbDimStyleTable
  0
DIMSTYLE
105
27
102
{ACAD_REACTORS
330
96
330
A0
330
AA
330
B1
330
206
330
20F
330
21B
330
225
330
22F
330
238
330
242
330
24C
102
}
330
A
100
AcDbSymbolTableRecord
100
AcDbDimStyleTableRecord
  2
ISO-25
 70
     0
 41
2.5
 42
0.625
 43
3.75
 44
1.25
 73
     0
 74
     0
 77
     1
 78
     8
140
2.5
141
2.5
143
0.03937007874
147
0.625
171
     3
172
     1
178
     0
271
     2
272
     2
274
     3
278
    44
283
     0
284
     8
340
11
  0
ENDTAB
  0
TABLE
  2
BLOCK_RECORD
  5
1
330
0
100
AcDbSymbolTable
 70
    22
  0
BLOCK_RECORD
  5
1F
330
1
100
AcDbSymbolTableRecord
100
AcDbBlockTableRecord
  2
*Model_Space
340
22
 70
     0
280
     1
281
     0
  0
BLOCK_RECORD
  5
1B
330
1
100
AcDbSymbolTableRecord
100
AcDbBlockTableRecord
  2
*Paper_Space
340
1E
 70
     0
280
     1
281
     0
  0
BLOCK_RECORD
  5
23
330
1
100
AcDbSymbolTableRecord
100
AcDbBlockTableRecord
  2
*Paper_Space0
340
26
 70
     0
280
     1
281
     0
  0
BLOCK_RECORD
  5
8D
330
1
100
AcDbSymbolTableRecord
100
AcDbBlockTableRecord
  2
*D1
340
0
 70
     0
280
     1
281
     0
  0
BLOCK_RECORD
  5
97
330
1
100
AcDbSymbolTableRecord
100
AcDbBlockTableRecord
  2
*D2
340
0
 70
     0
280
     1
281
     0
  0
BLOCK_RECORD
  5
A1
330
1
100
AcDbSymbolTableRecord
100
AcDbBlockTableRecord
  2
*D3
340
0
 70
     0
280
     1
281
     0
  0
BLOCK_RECORD
  5
AB
330
1
100
AcDbSymbolTableRecord
100
AcDbBlockTableRecord
  2
*D4
340
0
 70
     0
280
     1
281
     0
  0
BLOCK_RECORD
  5
B2
330
1
100
AcDbSymbolTableRecord
100
AcDbBlockTableRecord
  2
AnonymMegaMac_002_nNn04
340
0
102
{BLKREFS
331
B9
102
}
 70
     0
280
     1
281
     0
  0
BLOCK_RECORD
  5
D4
330
1
100
AcDbSymbolTableRecord
100
AcDbBlockTableRecord
  2
AnonymMegaMac_nNn05
340
0
102
{BLKREFS
331
116
102
}
 70
     0
280
     1
281
     0
  0
BLOCK_RECORD
  5
1FD
330
1
100
AcDbSymbolTableRecord
100
AcDbBlockTableRecord
  2
*D7
340
0
 70
     0
280
     1
281
     0
  0
BLOCK_RECORD
  5
207
330
1
100
AcDbSymbolTableRecord
100
AcDbBlockTableRecord
  2
*D8
340
0
 70
     0
280
     1
281
     0
  0
BLOCK_RECORD
  5
210
330
1
100
AcDbSymbolTableRecord
100
AcDbBlockTableRecord
  2
*D9
340
0
 70
     0
280
     1
281
     0
  0
BLOCK_RECORD
  5
21C
330
1
100
AcDbSymbolTableRecord
100
AcDbBlockTableRecord
  2
*D10
340
0
 70
     0
280
     1
281
     0
  0
BLOCK_RECORD
  5
226
330
1
100
AcDbSymbolTableRecord
100
AcDbBlockTableRecord
  2
*D11
340
0
 70
     0
280
     1
281
     0
  0
BLOCK_RECORD
  5
230
330
1
100
AcDbSymbolTableRecord
100
AcDbBlockTableRecord
  2
*D12
340
0
 70
     0
280
     1
281
     0
  0
BLOCK_RECORD
  5
239
330
1
100
AcDbSymbolTableRecord
100
AcDbBlockTableRecord
  2
*D13
340
0
 70
     0
280
     1
281
     0
  0
BLOCK_RECORD
  5
243
330
1
100
AcDbSymbolTableRecord
100
AcDbBlockTableRecord
  2
*D14
340
0
 70
     0
280
     1
281
     0
  0
BLOCK_RECORD
  5
24D
330
1
100
AcDbSymbolTableRecord
100
AcDbBlockTableRecord
  2
A4-NABER_nNn014
340
0
102
{BLKREFS
331
2C3
102
}
 70
     0
280
     1
281
     0
  0
BLOCK_RECORD
  5
250
330
1
100
AcDbSymbolTableRecord
100
AcDbBlockTableRecord
  2
A4-NABER_nNn015
340
0
102
{BLKREFS
331
2C1
102
}
 70
     0
280
     1
281
     0
  0
BLOCK_RECORD
  5
253
330
1
100
AcDbSymbolTableRecord
100
AcDbBlockTableRecord
  2
A4-Textliste_nNn016
340
0
102
{BLKREFS
331
263
102
}
 70
     0
280
     1
281
     0
  0
BLOCK_RECORD
  5
256
330
1
100
AcDbSymbolTableRecord
100
AcDbBlockTableRecord
  2
Zeichnungskoordinaten_nNn017
340
0
102
{BLKREFS
331
25B
102
}
 70
     0
280
     1
281
     0
  0
BLOCK_RECORD
  5
25C
330
1
100
AcDbSymbolTableRecord
100
AcDbBlockTableRecord
  2
Zeichnungsrahmen_nNn018
340
0
102
{BLKREFS
331
262
102
}
 70
     0
280
     1
281
     0
  0
BLOCK_RECORD
  5
26F
330
1
100
AcDbSymbolTableRecord
100
AcDbBlockTableRecord
  2
Schriftfeld_nNn019
340
0
102
{BLKREFS
331
2A8
102
}
 70
     0
280
     1
281
     0
  0
BLOCK_RECORD
  5
2A9
330
1
100
AcDbSymbolTableRecord
100
AcDbBlockTableRecord
  2
Beschriftung_nNn020
340
0
102
{BLKREFS
331
2B4
102
}
 70
     0
280
     1
281
     0
  0
ENDTAB
  0
ENDSEC
  0
SECTION
  2
BLOCKS
  0
BLOCK
  5
20
330
1F
100
AcDbEntity
  8
0
100
AcDbBlockBegin
  2
*Model_Space
 70
     0
 10
0.0
 20
0.0
 30
0.0
  3
*Model_Space
  1

  0
ENDBLK
  5
21
330
1F
100
AcDbEntity
  8
0
100
AcDbBlockEnd
  0
BLOCK
  5
1C
330
1B
100
AcDbEntity
 67
     1
  8
0
100
AcDbBlockBegin
  2
*Paper_Space
 70
     0
 10
0.0
 20
0.0
 30
0.0
  3
*Paper_Space
  1

  0
ENDBLK
  5
1D
330
1B
100
AcDbEntity
 67
     1
  8
0
100
AcDbBlockEnd
  0
BLOCK
  5
24
330
23
100
AcDbEntity
  8
0
100
AcDbBlockBegin
  2
*Paper_Space0
 70
     0
 10
0.0
 20
0.0
 30
0.0
  3
*Paper_Space0
  1

  0
ENDBLK
  5
25
330
23
100
AcDbEntity
  8
0
100
AcDbBlockEnd
  0
BLOCK
  5
8E
330
8D
100
AcDbEntity
  8
0
100
AcDbBlockBegin
  2
*D1
 70
     1
 10
0.0
 20
0.0
 30
0.0
  3
*D1
  1

  0
HATCH
  5
90
330
8D
100
AcDbEntity
  8
Layer2
  6
AUSGEZOGEN
 62
    18
420
        0
370
    25
100
AcDbHatch
 10
0.0
 20
0.0
 30
0.0
210
0.0
220
0.0
230
1.0
  2
SOLID
 70
     1
 71
     0
 91
        1
 92
        2
 72
     0
 73
     1
 93
        3
 10
-158.803167167629
 20
719.268978687478
 10
-171.303167167629
 20
721.768978687478
 10
-171.303167167629
 20
716.768978687478
 97
        0
 75
     0
 76
     1
 98
        0
  0
HATCH
  5
91
330
8D
100
AcDbEntity
  8
Layer2
  6
AUSGEZOGEN
 62
    18
420
        0
370
    25
100
AcDbHatch
 10
0.0
 20
0.0
 30
0.0
210
0.0
220
0.0
230
1.0
  2
SOLID
 70
     1
 71
     0
 91
        1
 92
        2
 72
     0
 73
     1
 93
        3
 10
-743.803167167629
 20
719.268978687478
 10
-731.303167167629
 20
716.768978687478
 10
-731.303167167629
 20
721.768978687478
 97
        0
 75
     0
 76
     1
 98
        0
  0
LINE
  5
92
330
8D
100
AcDbEntity
  8
Layer2
  6
AUSGEZOGEN
 62
    18
420
        0
370
    25
100
AcDbLine
 10
-731.303167167629
 20
719.268978687478
 30
0.0
 11
-171.303167167629
 21
719.268978687478
 31
0.0
  0
LINE
  5
93
330
8D
100
AcDbEntity
  8
Layer2
  6
AUSGEZOGEN
 62
    18
420
        0
370
    18
100
AcDbLine
 10
-743.803167167629
 20
695.409293286771
 30
0.0
 11
-743.803167167629
 21
724.268978687478
 31
0.0
  0
LINE
  5
94
330
8D
100
AcDbEntity
  8
Layer2
  6
AUSGEZOGEN
 62
    18
420
        0
370
    18
100
AcDbLine
 10
-158.803167167629
 20
693.602840800227
 30
0.0
 11
-158.803167167629
 21
724.268978687478
 31
0.0
  0
TEXT
  5
95
330
8D
100
AcDbEntity
  8
Layer2
  6
AUSGEZOGEN
 62
    18
420
        0
370
    18
100
AcDbText
 10
-490.928735349447
 20
749.268978687478
 30
0.0
 40
37.5
  1
585
 41
0.907802249297
  7
Arial
 72
     5
 11
-411.677598985811
 21
749.268978687478
 31
0.0
100
AcDbText
  0
ENDBLK
  5
8F
330
8D
100
AcDbEntity
  8
0
100
AcDbBlockEnd
  0
BLOCK
  5
98
330
97
100
AcDbEntity
  8
0
100
AcDbBlockBegin
  2
*D2
 70
     1
 10
0.0
 20
0.0
 30
0.0
  3
*D2
  1

  0
HATCH
  5
9A
330
97
100
AcDbEntity
  8
Layer2
  6
AUSGEZOGEN
 62
    18
420
        0
370
    25
100
AcDbHatch
 10
0.0
 20
0.0
 30
0.0
210
0.0
220
0.0
230
1.0
  2
SOLID
 70
     1
 71
     0
 91
        1
 92
        2
 72
     0
 73
     1
 93
        3
 10
-897.7725977438511
 20
131.7644947481781
 10
-895.2725977438511
 20
144.2644947481781
 10
-900.2725977438511
 20
144.2644947481781
 97
        0
 75
     0
 76
     1
 98
        0
  0
HATCH
  5
9B
330
97
100
AcDbEntity
  8
Layer2
  6
AUSGEZOGEN
 62
    18
420
        0
370
    25
100
AcDbHatch
 10
0.0
 20
0.0
 30
0.0
210
0.0
220
0.0
230
1.0
  2
SOLID
 70
     1
 71
     0
 91
        1
 92
        2
 72
     0
 73
     1
 93
        3
 10
-897.7725977438511
 20
611.7644947481781
 10
-900.2725977438511
 20
599.2644947481781
 10
-895.2725977438511
 20
599.2644947481781
 97
        0
 75
     0
 76
     1
 98
        0
  0
LINE
  5
9C
330
97
100
AcDbEntity
  8
Layer2
  6
AUSGEZOGEN
 62
    18
420
        0
370
    25
100
AcDbLine
 10
-897.772597743851
 20
599.264494748178
 30
0.0
 11
-897.772597743851
 21
144.264494748178
 31
0.0
  0
LINE
  5
9D
330
97
100
AcDbEntity
  8
Layer2
  6
AUSGEZOGEN
 62
    18
420
        0
370
    18
100
AcDbLine
 10
-870.669480927205
 20
611.764494748178
 30
0.0
 11
-902.772597743851
 21
611.764494748178
 31
0.0
  0
LINE
  5
9E
330
97
100
AcDbEntity
  8
Layer2
  6
AUSGEZOGEN
 62
    18
420
        0
370
    18
100
AcDbLine
 10
-870.669480927205
 20
131.764494748178
 30
0.0
 11
-902.772597743851
 21
131.764494748178
 31
0.0
  0
TEXT
  5
9F
330
97
100
AcDbEntity
  8
Layer2
  6
AUSGEZOGEN
 62
    18
420
        0
370
    18
100
AcDbText
 10
-927.772597743851
 20
332.13892656636
 30
0.0
 40
37.5
  1
480
 50
90.0
 41
0.907802249297
  7
Arial
 72
     5
 11
-927.772597743851
 21
411.390062929996
 31
0.0
100
AcDbText
  0
ENDBLK
  5
99
330
97
100
AcDbEntity
  8
0
100
AcDbBlockEnd
  0
BLOCK
  5
A2
330
A1
100
AcDbEntity
  8
0
100
AcDbBlockBegin
  2
*D3
 70
     1
 10
0.0
 20
0.0
 30
0.0
  3
*D3
  1

  0
HATCH
  5
A4
330
A1
100
AcDbEntity
  8
Layer2
  6
AUSGEZOGEN
 62
    18
420
        0
370
    25
100
AcDbHatch
 10
0.0
 20
0.0
 30
0.0
210
0.0
220
0.0
230
1.0
  2
SOLID
 70
     1
 71
     0
 91
        1
 92
        2
 72
     0
 73
     1
 93
        3
 10
-263.145944948802
 20
11.76449474817809
 10
-275.645944948802
 20
14.2644947481781
 10
-275.645944948802
 20
9.264494748178096
 97
        0
 75
     0
 76
     1
 98
        0
  0
HATCH
  5
A5
330
A1
100
AcDbEntity
  8
Layer2
  6
AUSGEZOGEN
 62
    18
420
        0
370
    25
100
AcDbHatch
 10
0.0
 20
0.0
 30
0.0
210
0.0
220
0.0
230
1.0
  2
SOLID
 70
     1
 71
     0
 91
        1
 92
        2
 72
     0
 73
     1
 93
        3
 10
-763.145944948802
 20
11.76449474817809
 10
-750.645944948802
 20
9.264494748178095
 10
-750.645944948802
 20
14.26449474817809
 97
        0
 75
     0
 76
     1
 98
        0
  0
LINE
  5
A6
330
A1
100
AcDbEntity
  8
Layer2
  6
AUSGEZOGEN
 62
    18
420
        0
370
    25
100
AcDbLine
 10
-750.645944948802
 20
11.764494748178
 30
0.0
 11
-275.645944948802
 21
11.764494748178
 31
0.0
  0
LINE
  5
A7
330
A1
100
AcDbEntity
  8
Layer2
  6
AUSGEZOGEN
 62
    18
420
        0
370
    18
100
AcDbLine
 10
-763.145944948802
 20
36.764494748178
 30
0.0
 11
-763.145944948802
 21
6.764494748178
 31
0.0
  0
LINE
  5
A8
330
A1
100
AcDbEntity
  8
Layer2
  6
AUSGEZOGEN
 62
    18
420
        0
370
    18
100
AcDbLine
 10
-263.145944948802
 20
36.764494748178
 30
0.0
 11
-263.145944948802
 21
6.764494748178
 31
0.0
  0
TEXT
  5
A9
330
A1
100
AcDbEntity
  8
Layer2
  6
AUSGEZOGEN
 62
    18
420
        0
370
    18
100
AcDbText
 10
-561.047124917212
 20
-46.207732421413
 30
0.0
 40
37.5
  1
500
 41
0.907802249297
  7
Arial
 72
     5
 11
-481.795988553576
 21
-46.207732421413
 31
0.0
100
AcDbText
  0
ENDBLK
  5
A3
330
A1
100
AcDbEntity
  8
0
100
AcDbBlockEnd
  0
BLOCK
  5
AC
330
AB
100
AcDbEntity
  8
0
100
AcDbBlockBegin
  2
*D4
 70
     1
 10
0.0
 20
0.0
 30
0.0
  3
*D4
  1

  0
HATCH
  5
AE
330
AB
100
AcDbEntity
  8
Layer2
  6
AUSGEZOGEN
 62
    18
420
        0
370
    25
100
AcDbHatch
 10
0.0
 20
0.0
 30
0.0
210
0.0
220
0.0
230
1.0
  2
SOLID
 70
     1
 71
     0
 91
        1
 92
        2
 72
     0
 73
     1
 93
        3
 10
-763.145944948802
 20
-57.89923777671902
 10
-750.645944948802
 20
-60.39923777671902
 10
-750.645944948802
 20
-55.39923777671902
 97
        0
 75
     0
 76
     1
 98
        0
  0
HATCH
  5
AF
330
AB
100
AcDbEntity
  8
Layer2
  6
AUSGEZOGEN
 62
    18
420
        0
370
    25
100
AcDbHatch
 10
0.0
 20
0.0
 30
0.0
210
0.0
220
0.0
230
1.0
  2
SOLID
 70
     1
 71
     0
 91
        1
 92
        2
 72
     0
 73
     1
 93
        3
 10
-743.803167167629
 20
-57.89923777671902
 10
-756.303167167629
 20
-55.39923777671902
 10
-756.303167167629
 20
-60.39923777671902
 97
        0
 75
     0
 76
     1
 98
        0
  0
TEXT
  5
B0
330
AB
100
AcDbEntity
  8
Layer2
  6
AUSGEZOGEN
 62
    18
420
        0
370
    18
100
AcDbText
 10
-779.891601512761
 20
-45.149237776719
 30
0.0
 40
37.5
  1
19
 41
0.907802249297
  7
Arial
 72
     5
 11
-727.05751060367
 21
-45.149237776719
 31
0.0
100
AcDbText
  0
ENDBLK
  5
AD
330
AB
100
AcDbEntity
  8
0
100
AcDbBlockEnd
  0
BLOCK
  5
B3
330
B2
100
AcDbEntity
  8
0
100
AcDbBlockBegin
  2
AnonymMegaMac_002_nNn04
 70
     0
 10
0.0
 20
0.0
 30
0.0
  3
AnonymMegaMac_002_nNn04
  1

  0
LINE
  5
B5
330
B2
100
AcDbEntity
  8
Layer2
  6
AUSGEZOGEN
 62
     3
420
    65280
370
    25
100
AcDbLine
 10
-730.753725212188
 20
591.225624641058
 30
0.0
 11
-707.132487151092
 21
545.626519506496
 31
0.0
  0
LINE
  5
B6
330
B2
100
AcDbEntity
  8
Layer2
  6
AUSGEZOGEN
 62
     3
420
    65280
370
    25
100
AcDbLine
 10
-707.132487151092
 20
545.626519506496
 30
0.0
 11
-596.829186292193
 21
545.626519506496
 31
0.0
  0
HATCH
  5
B7
330
B2
100
AcDbEntity
  8
Layer2
  6
AUSGEZOGEN
 62
     3
420
    65280
370
    25
100
AcDbHatch
 10
0.0
 20
0.0
 30
0.0
210
0.0
220
0.0
230
1.0
  2
SOLID
 70
     1
 71
     0
 91
        1
 92
        2
 72
     0
 73
     1
 93
        3
 10
-728.903859723245
 20
592.183891540516
 10
-732.603590701131
 20
590.267357741601
 10
-736.503326608932
 20
602.324817574716
 97
        0
 75
     0
 76
     1
 98
        0
  0
TEXT
  5
B8
330
B2
100
AcDbEntity
  8
Layer2
  6
AUSGEZOGEN
 62
    18
420
        0
370
    25
100
AcDbText
 10
-716.980836721643
 20
553.126519506496
 30
0.0
 40
37.5
  1
4xR5
 41
1.099872464537
  7
Arial
 72
     5
 11
-582.603918366858
 21
553.126519506496
 31
0.0
100
AcDbText
  0
ENDBLK
  5
B4
330
B2
100
AcDbEntity
  8
0
100
AcDbBlockEnd
  0
BLOCK
  5
D5
330
D4
100
AcDbEntity
  8
0
100
AcDbBlockBegin
  2
AnonymMegaMac_nNn05
 70
     0
 10
0.0
 20
0.0
 30
0.0
  3
AnonymMegaMac_nNn05
  1

  0
LINE
  5
D7
330
D4
100
AcDbEntity
  8
Layer4
  6
AUSGEZOGEN
 62
     1
420
 16711680
370
    25
100
AcDbLine
 10
-892.103336395453
 20
-403.770904426772
 30
0.0
 11
-916.466288414634
 21
-379.407952407591
 31
0.0
  0
LINE
  5
D8
330
D4
100
AcDbEntity
  8
Layer4
  6
AUSGEZOGEN
 62
     1
420
 16711680
370
    25
100
AcDbLine
 10
-849.67692952426
 20
-403.770904426772
 30
0.0
 11
-852.826678107844
 21
-400.621155843188
 31
0.0
  0
LINE
  5
D9
330
D4
100
AcDbEntity
  8
Layer4
  6
AUSGEZOGEN
 62
     1
420
 16711680
370
    25
100
AcDbLine
 10
-859.89774591971
 20
-393.550088031322
 30
0.0
 11
-879.453298341354
 21
-373.994535609678
 31
0.0
  0
LINE
  5
DA
330
D4
100
AcDbEntity
  8
Layer4
  6
AUSGEZOGEN
 62
     1
420
 16711680
370
    25
100
AcDbLine
 10
-807.250522653067
 20
-403.770904426772
 30
0.0
 11
-831.613474672248
 21
-379.407952407591
 31
0.0
  0
LINE
  5
DB
330
D4
100
AcDbEntity
  8
Layer4
  6
AUSGEZOGEN
 62
     1
420
 16711680
370
    25
100
AcDbLine
 10
-764.824115781875
 20
-403.770904426771
 30
0.0
 11
-767.973864365459
 21
-400.621155843187
 31
0.0
  0
LINE
  5
DC
330
D4
100
AcDbEntity
  8
Layer4
  6
AUSGEZOGEN
 62
     1
420
 16711680
370
    25
100
AcDbLine
 10
-775.044932177324
 20
-393.550088031322
 30
0.0
 11
-794.084152260272
 21
-374.510867948374
 31
0.0
  0
LINE
  5
DD
330
D4
100
AcDbEntity
  8
Layer4
  6
AUSGEZOGEN
 62
     1
420
 16711680
370
    25
100
AcDbLine
 10
-722.397708910681
 20
-403.770904426771
 30
0.0
 11
-746.760660929862
 21
-379.407952407591
 31
0.0
  0
LINE
  5
DE
330
D4
100
AcDbEntity
  8
Layer4
  6
AUSGEZOGEN
 62
     1
420
 16711680
370
    25
100
AcDbLine
 10
-679.971302039488
 20
-403.770904426772
 30
0.0
 11
-683.121050623073
 21
-400.621155843187
 31
0.0
  0
LINE
  5
DF
330
D4
100
AcDbEntity
  8
Layer4
  6
AUSGEZOGEN
 62
     1
420
 16711680
370
    25
100
AcDbLine
 10
-690.192118434938
 20
-393.550088031321
 30
0.0
 11
-708.715006179189
 21
-375.027200287071
 31
0.0
  0
LINE
  5
E0
330
D4
100
AcDbEntity
  8
Layer4
  6
AUSGEZOGEN
 62
     1
420
 16711680
370
    25
100
AcDbLine
 10
-653.421550310801
 20
-387.894249284267
 30
0.0
 11
-661.907847187477
 21
-379.407952407591
 31
0.0
  0
LINE
  5
E1
330
D4
100
AcDbEntity
  8
Layer4
  6
AUSGEZOGEN
 62
     1
420
 16711680
370
    25
100
AcDbLine
 10
-42.075198971595
 20
-405.270904426771
 30
0.0
 11
-67.938150990777
 21
-379.407952407591
 31
0.0
  0
LINE
  5
E2
330
D4
100
AcDbEntity
  8
Layer4
  6
AUSGEZOGEN
 62
     1
420
 16711680
370
    25
100
AcDbLine
 10
0.351207899596
 20
-405.270904426771
 30
0.0
 11
-4.298540683987
 21
-400.621155843187
 31
0.0
  0
LINE
  5
E3
330
D4
100
AcDbEntity
  8
Layer4
  6
AUSGEZOGEN
 62
     1
420
 16711680
370
    25
100
AcDbLine
 10
-11.369608495853
 20
-393.550088031322
 30
0.0
 11
-29.648792100404
 21
-375.270904426772
 31
0.0
  0
LINE
  5
E4
330
D4
100
AcDbEntity
  8
Layer4
  6
AUSGEZOGEN
 62
     1
420
 16711680
370
    25
100
AcDbLine
 10
42.77761477079
 20
-405.270904426772
 30
0.0
 11
16.914662751608
 21
-379.407952407591
 31
0.0
  0
LINE
  5
E5
330
D4
100
AcDbEntity
  8
Layer4
  6
AUSGEZOGEN
 62
     1
420
 16711680
370
    25
100
AcDbLine
 10
85.204021641983
 20
-405.270904426772
 30
0.0
 11
80.554273058398
 21
-400.621155843187
 31
0.0
  0
LINE
  5
E6
330
D4
100
AcDbEntity
  8
Layer4
  6
AUSGEZOGEN
 62
     1
420
 16711680
370
    25
100
AcDbLine
 10
73.483205246533
 20
-393.550088031322
 30
0.0
 11
55.204021641983
 21
-375.270904426772
 31
0.0
  0
LINE
  5
E7
330
D4
100
AcDbEntity
  8
Layer4
  6
AUSGEZOGEN
 62
     1
420
 16711680
370
    25
100
AcDbLine
 10
127.630428513176
 20
-405.270904426772
 30
0.0
 11
101.767476493995
 21
-379.407952407591
 31
0.0
  0
LINE
  5
E8
330
D4
100
AcDbEntity
  8
Layer4
  6
AUSGEZOGEN
 62
     1
420
 16711680
370
    25
100
AcDbLine
 10
157.823391695604
 20
-393.037460738008
 30
0.0
 11
140.056835384368
 21
-375.270904426772
 31
0.0
  0
LINE
  5
E9
330
D4
100
AcDbEntity
  8
Layer4
  6
AUSGEZOGEN
 62
     1
420
 16711680
370
    25
100
AcDbLine
 10
-877.961200771722
 20
-403.770904426772
 30
0.0
 11
-888.182017167172
 21
-393.550088031322
 31
0.0
  0
LINE
  5
EA
330
D4
100
AcDbEntity
  8
Layer4
  6
AUSGEZOGEN
 62
     1
420
 16711680
370
    25
100
AcDbLine
 10
-893.485318026071
 20
-388.246787172422
 30
0.0
 11
-904.09191974387
 21
-377.640185454624
 31
0.0
  0
LINE
  5
EB
330
D4
100
AcDbEntity
  8
Layer4
  6
AUSGEZOGEN
 62
     1
420
 16711680
370
    25
100
AcDbLine
 10
-835.534793900529
 20
-403.770904426772
 30
0.0
 11
-840.45230943708
 21
-398.85338889022
 31
0.0
  0
LINE
  5
EC
330
D4
100
AcDbEntity
  8
Layer4
  6
AUSGEZOGEN
 62
     1
420
 16711680
370
    25
100
AcDbLine
 10
-845.755610295979
 20
-393.550088031321
 30
0.0
 11
-865.22510732784
 21
-374.08059099946
 31
0.0
  0
LINE
  5
ED
330
D4
100
AcDbEntity
  8
Layer4
  6
AUSGEZOGEN
 62
     1
420
 16711680
370
    25
100
AcDbLine
 10
-793.108387029336
 20
-403.770904426772
 30
0.0
 11
-803.329203424786
 21
-393.550088031321
 31
0.0
  0
LINE
  5
EE
330
D4
100
AcDbEntity
  8
Layer4
  6
AUSGEZOGEN
 62
     1
420
 16711680
370
    25
100
AcDbLine
 10
-808.632504283685
 20
-388.246787172422
 30
0.0
 11
-819.239106001483
 21
-377.640185454624
 31
0.0
  0
LINE
  5
EF
330
D4
100
AcDbEntity
  8
Layer4
  6
AUSGEZOGEN
 62
     1
420
 16711680
370
    25
100
AcDbLine
 10
-750.681980158143
 20
-403.770904426772
 30
0.0
 11
-755.599495694694
 21
-398.853388890221
 31
0.0
  0
LINE
  5
F0
330
D4
100
AcDbEntity
  8
Layer4
  6
AUSGEZOGEN
 62
     1
420
 16711680
370
    25
100
AcDbLine
 10
-760.902796553593
 20
-393.550088031322
 30
0.0
 11
-779.855961246758
 21
-374.596923338157
 31
0.0
  0
LINE
  5
F1
330
D4
100
AcDbEntity
  8
Layer4
  6
AUSGEZOGEN
 62
     1
420
 16711680
370
    25
100
AcDbLine
 10
-708.25557328695
 20
-403.770904426772
 30
0.0
 11
-718.4763896824
 21
-393.550088031322
 31
0.0
  0
LINE
  5
F2
330
D4
100
AcDbEntity
  8
Layer4
  6
AUSGEZOGEN
 62
     1
420
 16711680
370
    25
100
AcDbLine
 10
-723.7796905413
 20
-388.246787172422
 30
0.0
 11
-734.386292259098
 21
-377.640185454624
 31
0.0
  0
LINE
  5
F3
330
D4
100
AcDbEntity
  8
Layer4
  6
AUSGEZOGEN
 62
     1
420
 16711680
370
    25
100
AcDbLine
 10
-665.829166415758
 20
-403.770904426772
 30
0.0
 11
-670.746681952308
 21
-398.853388890221
 31
0.0
  0
LINE
  5
F4
330
D4
100
AcDbEntity
  8
Layer4
  6
AUSGEZOGEN
 62
     1
420
 16711680
370
    25
100
AcDbLine
 10
-676.049982811207
 20
-393.550088031322
 30
0.0
 11
-694.486815165675
 21
-375.113255676854
 31
0.0
  0
LINE
  5
F5
330
D4
100
AcDbEntity
  8
Layer4
  6
AUSGEZOGEN
 62
     1
420
 16711680
370
    25
100
AcDbLine
 10
-27.933063347865
 20
-405.270904426772
 30
0.0
 11
-39.653879743315
 21
-393.550088031322
 31
0.0
  0
LINE
  5
F6
330
D4
100
AcDbEntity
  8
Layer4
  6
AUSGEZOGEN
 62
     1
420
 16711680
370
    25
100
AcDbLine
 10
-44.957180602214
 20
-388.246787172423
 30
0.0
 11
-55.563782320012
 21
-377.640185454625
 31
0.0
  0
LINE
  5
F7
330
D4
100
AcDbEntity
  8
Layer4
  6
AUSGEZOGEN
 62
     1
420
 16711680
370
    25
100
AcDbLine
 10
14.493343523328
 20
-405.270904426772
 30
0.0
 11
8.075827986777
 21
-398.853388890221
 31
0.0
  0
LINE
  5
F8
330
D4
100
AcDbEntity
  8
Layer4
  6
AUSGEZOGEN
 62
     1
420
 16711680
370
    25
100
AcDbLine
 10
2.772527127878
 20
-393.550088031322
 30
0.0
 11
-15.506656476672
 21
-375.270904426772
 31
0.0
  0
LINE
  5
F9
330
D4
100
AcDbEntity
  8
Layer4
  6
AUSGEZOGEN
 62
     1
420
 16711680
370
    25
100
AcDbLine
 10
56.919750394521
 20
-405.270904426772
 30
0.0
 11
45.198933999071
 21
-393.550088031322
 31
0.0
  0
LINE
  5
FA
330
D4
100
AcDbEntity
  8
Layer4
  6
AUSGEZOGEN
 62
     1
420
 16711680
370
    25
100
AcDbLine
 10
39.895633140171
 20
-388.246787172423
 30
0.0
 11
29.289031422373
 21
-377.640185454625
 31
0.0
  0
LINE
  5
FB
330
D4
100
AcDbEntity
  8
Layer4
  6
AUSGEZOGEN
 62
     1
420
 16711680
370
    25
100
AcDbLine
 10
99.346157265713
 20
-405.270904426772
 30
0.0
 11
92.928641729163
 21
-398.853388890222
 31
0.0
  0
LINE
  5
FC
330
D4
100
AcDbEntity
  8
Layer4
  6
AUSGEZOGEN
 62
     1
420
 16711680
370
    25
100
AcDbLine
 10
87.625340870264
 20
-393.550088031322
 30
0.0
 11
69.346157265713
 21
-375.270904426772
 31
0.0
  0
LINE
  5
FD
330
D4
100
AcDbEntity
  8
Layer4
  6
AUSGEZOGEN
 62
     1
420
 16711680
370
    25
100
AcDbLine
 10
141.772564136906
 20
-405.270904426771
 30
0.0
 11
130.051747741457
 21
-393.550088031322
 31
0.0
  0
LINE
  5
FE
330
D4
100
AcDbEntity
  8
Layer4
  6
AUSGEZOGEN
 62
     1
420
 16711680
370
    25
100
AcDbLine
 10
124.748446882558
 20
-388.246787172423
 30
0.0
 11
114.14184516476
 21
-377.640185454625
 31
0.0
  0
LINE
  5
FF
330
D4
100
AcDbEntity
  8
Layer4
  6
AUSGEZOGEN
 62
     1
420
 16711680
370
    25
100
AcDbLine
 10
160.355131372622
 20
-381.427064791294
 30
0.0
 11
154.1989710081
 21
-375.270904426771
 31
0.0
  0
LINE
  5
100
330
D4
100
AcDbEntity
  8
Layer4
  6
AUSGEZOGEN
 62
     1
420
 16711680
370
    25
100
AcDbLine
 10
-912.930754508701
 20
-397.085621937255
 30
0.0
 11
-917.829263776708
 21
-392.187112669247
 31
0.0
  0
LINE
  5
101
330
D4
100
AcDbEntity
  8
Layer4
  6
AUSGEZOGEN
 62
     1
420
 16711680
370
    25
100
AcDbLine
 10
-863.819065147991
 20
-403.770904426772
 30
0.0
 11
-884.646483261239
 21
-382.943486313524
 31
0.0
  0
LINE
  5
102
330
D4
100
AcDbEntity
  8
Layer4
  6
AUSGEZOGEN
 62
     1
420
 16711680
370
    25
100
AcDbLine
 10
-891.717551073104
 20
-375.872418501658
 30
0.0
 11
-893.681489354868
 21
-373.908480219895
 31
0.0
  0
LINE
  5
103
330
D4
100
AcDbEntity
  8
Layer4
  6
AUSGEZOGEN
 62
     1
420
 16711680
370
    25
100
AcDbLine
 10
-828.077940766315
 20
-397.085621937255
 30
0.0
 11
-850.996916314327
 21
-374.166646389243
 31
0.0
  0
LINE
  5
104
330
D4
100
AcDbEntity
  8
Layer4
  6
AUSGEZOGEN
 62
     1
420
 16711680
370
    25
100
AcDbLine
 10
-778.966251405605
 20
-403.770904426772
 30
0.0
 11
-799.793669518853
 21
-382.943486313524
 31
0.0
  0
LINE
  5
105
330
D4
100
AcDbEntity
  8
Layer4
  6
AUSGEZOGEN
 62
     1
420
 16711680
370
    25
100
AcDbLine
 10
-806.864737330718
 20
-375.872418501658
 30
0.0
 11
-808.312343273786
 21
-374.424812558592
 31
0.0
  0
LINE
  5
106
330
D4
100
AcDbEntity
  8
Layer4
  6
AUSGEZOGEN
 62
     1
420
 16711680
370
    25
100
AcDbLine
 10
-743.225127023929
 20
-397.085621937255
 30
0.0
 11
-765.627770233244
 21
-374.68297872794
 31
0.0
  0
LINE
  5
107
330
D4
100
AcDbEntity
  8
Layer4
  6
AUSGEZOGEN
 62
     1
420
 16711680
370
    25
100
AcDbLine
 10
-694.11343766322
 20
-403.770904426771
 30
0.0
 11
-714.940855776468
 21
-382.943486313524
 31
0.0
  0
LINE
  5
108
330
D4
100
AcDbEntity
  8
Layer4
  6
AUSGEZOGEN
 62
     1
420
 16711680
370
    25
100
AcDbLine
 10
-722.011923588333
 20
-375.872418501658
 30
0.0
 11
-722.943197192703
 21
-374.941144897288
 31
0.0
  0
LINE
  5
109
330
D4
100
AcDbEntity
  8
Layer4
  6
AUSGEZOGEN
 62
     1
420
 16711680
370
    25
100
AcDbLine
 10
-658.372313281544
 20
-397.085621937255
 30
0.0
 11
-680.258624152162
 21
-375.199311066636
 31
0.0
  0
LINE
  5
10A
330
D4
100
AcDbEntity
  8
Layer4
  6
AUSGEZOGEN
 62
     1
420
 16711680
370
    25
100
AcDbLine
 10
-56.217334595327
 20
-405.270904426772
 30
0.0
 11
-57.331549272979
 21
-404.15668974912
 31
0.0
  0
LINE
  5
10B
330
D4
100
AcDbEntity
  8
Layer4
  6
AUSGEZOGEN
 62
     1
420
 16711680
370
    25
100
AcDbLine
 10
-64.402617084844
 20
-397.085621937255
 30
0.0
 11
-68.421550310801
 21
-393.066688711298
 31
0.0
  0
LINE
  5
10C
330
D4
100
AcDbEntity
  8
Layer4
  6
AUSGEZOGEN
 62
     1
420
 16711680
370
    25
100
AcDbLine
 10
-13.790927724134
 20
-405.270904426772
 30
0.0
 11
-36.118345837383
 21
-382.943486313524
 31
0.0
  0
LINE
  5
10D
330
D4
100
AcDbEntity
  8
Layer4
  6
AUSGEZOGEN
 62
     1
420
 16711680
370
    25
100
AcDbLine
 10
-43.189413649248
 20
-375.872418501658
 30
0.0
 11
-43.790927724134
 21
-375.270904426772
 31
0.0
  0
LINE
  5
10E
330
D4
100
AcDbEntity
  8
Layer4
  6
AUSGEZOGEN
 62
     1
420
 16711680
370
    25
100
AcDbLine
 10
28.635479147059
 20
-405.270904426771
 30
0.0
 11
27.521264469407
 21
-404.15668974912
 31
0.0
  0
LINE
  5
10F
330
D4
100
AcDbEntity
  8
Layer4
  6
AUSGEZOGEN
 62
     1
420
 16711680
370
    25
100
AcDbLine
 10
20.450196657542
 20
-397.085621937255
 30
0.0
 11
-1.364520852941
 21
-375.270904426771
 31
0.0
  0
LINE
  5
110
330
D4
100
AcDbEntity
  8
Layer4
  6
AUSGEZOGEN
 62
     1
420
 16711680
370
    25
100
AcDbLine
 10
71.061886018251
 20
-405.270904426771
 30
0.0
 11
48.734467905004
 21
-382.943486313524
 31
0.0
  0
LINE
  5
111
330
D4
100
AcDbEntity
  8
Layer4
  6
AUSGEZOGEN
 62
     1
420
 16711680
370
    25
100
AcDbLine
 10
41.663400093138
 20
-375.872418501658
 30
0.0
 11
41.061886018251
 21
-375.270904426771
 31
0.0
  0
LINE
  5
112
330
D4
100
AcDbEntity
  8
Layer4
  6
AUSGEZOGEN
 62
     1
420
 16711680
370
    25
100
AcDbLine
 10
113.488292889444
 20
-405.270904426771
 30
0.0
 11
112.374078211793
 21
-404.156689749121
 31
0.0
  0
LINE
  5
113
330
D4
100
AcDbEntity
  8
Layer4
  6
AUSGEZOGEN
 62
     1
420
 16711680
370
    25
100
AcDbLine
 10
105.303010399927
 20
-397.085621937255
 30
0.0
 11
83.488292889444
 21
-375.270904426772
 31
0.0
  0
LINE
  5
114
330
D4
100
AcDbEntity
  8
Layer4
  6
AUSGEZOGEN
 62
     1
420
 16711680
370
    25
100
AcDbLine
 10
155.914699760637
 20
-405.270904426772
 30
0.0
 11
133.58728164739
 21
-382.943486313524
 31
0.0
  0
LINE
  5
115
330
D4
100
AcDbEntity
  8
Layer4
  6
AUSGEZOGEN
 62
     1
420
 16711680
370
    25
100
AcDbLine
 10
126.516213835524
 20
-375.872418501658
 30
0.0
 11
125.914699760638
 21
-375.270904426772
 31
0.0
  0
ENDBLK
  5
D6
330
D4
100
AcDbEntity
  8
0
100
AcDbBlockEnd
  0
BLOCK
  5
1FE
330
1FD
100
AcDbEntity
  8
0
100
AcDbBlockBegin
  2
*D7
 70
     1
 10
0.0
 20
0.0
 30
0.0
  3
*D7
  1

  0
HATCH
  5
200
330
1FD
100
AcDbEntity
  8
Layer2
  6
AUSGEZOGEN
 62
    18
420
        0
370
    25
100
AcDbHatch
 10
0.0
 20
0.0
 30
0.0
210
0.0
220
0.0
230
1.0
  2
SOLID
 70
     1
 71
     0
 91
        1
 92
        2
 72
     0
 73
     1
 93
        3
 10
-172.7643280919729
 20
-904.7353742626128
 10
-185.2643280919729
 20
-902.2353742626128
 10
-185.2643280919729
 20
-907.2353742626128
 97
        0
 75
     0
 76
     1
 98
        0
  0
HATCH
  5
201
330
1FD
100
AcDbEntity
  8
Layer2
  6
AUSGEZOGEN
 62
    18
420
        0
370
    25
100
AcDbHatch
 10
0.0
 20
0.0
 30
0.0
210
0.0
220
0.0
230
1.0
  2
SOLID
 70
     1
 71
     0
 91
        1
 92
        2
 72
     0
 73
     1
 93
        3
 10
-672.7643280919733
 20
-904.7353742626128
 10
-660.2643280919733
 20
-907.2353742626128
 10
-660.2643280919733
 20
-902.2353742626128
 97
        0
 75
     0
 76
     1
 98
        0
  0
LINE
  5
202
330
1FD
100
AcDbEntity
  8
Layer2
  6
AUSGEZOGEN
 62
    18
420
        0
370
    25
100
AcDbLine
 10
-660.264328091973
 20
-904.735374262613
 30
0.0
 11
-185.264328091973
 21
-904.735374262613
 31
0.0
  0
LINE
  5
203
330
1FD
100
AcDbEntity
  8
Layer2
  6
AUSGEZOGEN
 62
    18
420
        0
370
    18
100
AcDbLine
 10
-672.764328091973
 20
-750.923929516423
 30
0.0
 11
-672.764328091973
 21
-909.735374262613
 31
0.0
  0
LINE
  5
204
330
1FD
100
AcDbEntity
  8
Layer2
  6
AUSGEZOGEN
 62
    18
420
        0
370
    18
100
AcDbLine
 10
-172.764328091973
 20
-740.314922480241
 30
0.0
 11
-172.764328091973
 21
-909.735374262613
 31
0.0
  0
TEXT
  5
205
330
1FD
100
AcDbEntity
  8
Layer2
  6
AUSGEZOGEN
 62
    18
420
        0
370
    18
100
AcDbText
 10
-462.389896273791
 20
-900.985374262613
 30
0.0
 40
37.5
  1
500
 41
0.907802249297
  7
Arial
 72
     5
 11
-383.138759910155
 21
-900.985374262613
 31
0.0
100
AcDbText
  0
ENDBLK
  5
1FF
330
1FD
100
AcDbEntity
  8
0
100
AcDbBlockEnd
  0
BLOCK
  5
208
330
207
100
AcDbEntity
  8
0
100
AcDbBlockBegin
  2
*D8
 70
     1
 10
0.0
 20
0.0
 30
0.0
  3
*D8
  1

  0
HATCH
  5
20A
330
207
100
AcDbEntity
  8
Layer2
  6
AUSGEZOGEN
 62
    18
420
        0
370
    25
100
AcDbHatch
 10
0.0
 20
0.0
 30
0.0
210
0.0
220
0.0
230
1.0
  2
SOLID
 70
     1
 71
     0
 91
        1
 92
        2
 72
     0
 73
     1
 93
        3
 10
-976.4279398483841
 20
-403.7709044267718
 10
-973.9279398483841
 20
-391.2709044267718
 10
-978.9279398483841
 20
-391.2709044267718
 97
        0
 75
     0
 76
     1
 98
        0
  0
HATCH
  5
20B
330
207
100
AcDbEntity
  8
Layer2
  6
AUSGEZOGEN
 62
    18
420
        0
370
    25
100
AcDbHatch
 10
0.0
 20
0.0
 30
0.0
210
0.0
220
0.0
230
1.0
  2
SOLID
 70
     1
 71
     0
 91
        1
 92
        2
 72
     0
 73
     1
 93
        3
 10
-976.4279398483841
 20
-373.7709044267718
 10
-978.9279398483841
 20
-386.2709044267718
 10
-973.9279398483841
 20
-386.2709044267718
 97
        0
 75
     0
 76
     1
 98
        0
  0
LINE
  5
20C
330
207
100
AcDbEntity
  8
Layer2
  6
AUSGEZOGEN
 62
    18
420
        0
370
    18
100
AcDbLine
 10
-916.427939848402
 20
-373.770904426772
 30
0.0
 11
-961.427939848384
 21
-373.770904426772
 31
0.0
  0
LINE
  5
20D
330
207
100
AcDbEntity
  8
Layer2
  6
AUSGEZOGEN
 62
    18
420
        0
370
    18
100
AcDbLine
 10
-916.427939848402
 20
-403.770904426772
 30
0.0
 11
-961.427939848384
 21
-403.770904426772
 31
0.0
  0
TEXT
  5
20E
330
207
100
AcDbEntity
  8
Layer2
  6
AUSGEZOGEN
 62
    18
420
        0
370
    18
100
AcDbText
 10
-980.177939848384
 20
-415.187949881317
 30
0.0
 40
37.5
  1
30
 50
90.0
 41
0.907802249297
  7
Arial
 72
     5
 11
-980.177939848384
 21
-362.353858972226
 31
0.0
100
AcDbText
  0
ENDBLK
  5
209
330
207
100
AcDbEntity
  8
0
100
AcDbBlockEnd
  0
BLOCK
  5
211
330
210
100
AcDbEntity
  8
0
100
AcDbBlockBegin
  2
*D9
 70
     1
 10
0.0
 20
0.0
 30
0.0
  3
*D9
  1

  0
HATCH
  5
213
330
210
100
AcDbEntity
  8
Layer2
  6
AUSGEZOGEN
 62
    18
420
        0
370
    25
100
AcDbHatch
 10
0.0
 20
0.0
 30
0.0
210
0.0
220
0.0
230
1.0
  2
SOLID
 70
     1
 71
     0
 91
        1
 92
        2
 72
     0
 73
     1
 93
        3
 10
-746.1040001229662
 20
-365.7709044267729
 10
-748.6040001229662
 20
-378.2709044267729
 10
-743.6040001229662
 20
-378.2709044267729
 97
        0
 75
     0
 76
     1
 98
        0
  0
HATCH
  5
214
330
210
100
AcDbEntity
  8
Layer2
  6
AUSGEZOGEN
 62
    18
420
        0
370
    25
100
AcDbHatch
 10
0.0
 20
0.0
 30
0.0
210
0.0
220
0.0
230
1.0
  2
SOLID
 70
     1
 71
     0
 91
        1
 92
        2
 72
     0
 73
     1
 93
        3
 10
-746.1040001229662
 20
-373.7709044267729
 10
-743.6040001229662
 20
-361.2709044267729
 10
-748.6040001229662
 20
-361.2709044267729
 97
        0
 75
     0
 76
     1
 98
        0
  0
LINE
  5
215
330
210
100
AcDbEntity
  8
Layer2
  6
AUSGEZOGEN
 62
    18
420
        0
370
    25
100
AcDbLine
 10
-746.104000122966
 20
-361.270904426773
 30
0.0
 11
-746.104000122966
 21
-378.270904426773
 31
0.0
  0
LINE
  5
216
330
210
100
AcDbEntity
  8
Layer2
  6
AUSGEZOGEN
 62
    18
420
        0
370
    18
100
AcDbLine
 10
-668.42154957146
 20
-373.770904426773
 30
0.0
 11
-751.104000122966
 21
-373.770904426773
 31
0.0
  0
LINE
  5
217
330
210
100
AcDbEntity
  8
Layer2
  6
AUSGEZOGEN
 62
    18
420
        0
370
    18
100
AcDbLine
 10
-663.42154957146
 20
-365.770904426773
 30
0.0
 11
-751.104000122966
 21
-365.770904426773
 31
0.0
  0
TEXT
  5
218
330
210
100
AcDbEntity
  8
Layer2
  6
AUSGEZOGEN
 62
    18
420
        0
370
    18
100
AcDbText
 10
-749.854000122965
 20
-354.08659666106
 30
0.0
 40
37.5
  1
8
 50
90.0
 41
0.951030927835
  7
Arial
 72
     5
 11
-749.854000122965
 21
-326.41159666106
 31
0.0
100
AcDbText
  0
TEXT
  5
219
330
210
100
AcDbEntity
  8
Layer2
  6
AUSGEZOGEN
 62
    18
420
        0
370
    18
100
AcDbText
 10
-776.479000122965
 20
-326.41159666106
 30
0.0
 40
26.25
  1
+4
 50
90.0
 41
0.949806949807
  7
Arial
 72
     5
 11
-776.479000122965
 21
-286.74409666106
 31
0.0
100
AcDbText
  0
TEXT
  5
21A
330
210
100
AcDbEntity
  8
Layer2
  6
AUSGEZOGEN
 62
    18
420
        0
370
    18
100
AcDbText
 10
-734.479000122965
 20
-326.41159666106
 30
0.0
 40
26.25
  1
-2
 50
90.0
 41
0.948658915621
  7
Arial
 72
     5
 11
-734.479000122965
 21
-295.50784666106
 31
0.0
100
AcDbText
  0
ENDBLK
  5
212
330
210
100
AcDbEntity
  8
0
100
AcDbBlockEnd
  0
BLOCK
  5
21D
330
21C
100
AcDbEntity
  8
0
100
AcDbBlockBegin
  2
*D10
 70
     1
 10
0.0
 20
0.0
 30
0.0
  3
*D10
  1

  0
HATCH
  5
21F
330
21C
100
AcDbEntity
  8
Layer2
  6
AUSGEZOGEN
 62
    18
420
        0
370
    25
100
AcDbHatch
 10
0.0
 20
0.0
 30
0.0
210
0.0
220
0.0
230
1.0
  2
SOLID
 70
     1
 71
     0
 91
        1
 92
        2
 72
     0
 73
     1
 93
        3
 10
-488.129148143194
 20
-365.7709044267729
 10
-490.629148143194
 20
-378.2709044267729
 10
-485.629148143194
 20
-378.2709044267729
 97
        0
 75
     0
 76
     1
 98
        0
  0
HATCH
  5
220
330
21C
100
AcDbEntity
  8
Layer2
  6
AUSGEZOGEN
 62
    18
420
        0
370
    25
100
AcDbHatch
 10
0.0
 20
0.0
 30
0.0
210
0.0
220
0.0
230
1.0
  2
SOLID
 70
     1
 71
     0
 91
        1
 92
        2
 72
     0
 73
     1
 93
        3
 10
-488.129148143194
 20
-550.7709044267729
 10
-485.629148143194
 20
-538.2709044267729
 10
-490.629148143194
 20
-538.2709044267729
 97
        0
 75
     0
 76
     1
 98
        0
  0
LINE
  5
221
330
21C
100
AcDbEntity
  8
Layer2
  6
AUSGEZOGEN
 62
    18
420
        0
370
    25
100
AcDbLine
 10
-488.129148143194
 20
-538.270904426773
 30
0.0
 11
-488.129148143194
 21
-378.270904426773
 31
0.0
  0
LINE
  5
222
330
21C
100
AcDbEntity
  8
Layer2
  6
AUSGEZOGEN
 62
    18
420
        0
370
    18
100
AcDbLine
 10
-467.921556744976
 20
-550.770904426773
 30
0.0
 11
-493.129148143194
 21
-550.770904426773
 31
0.0
  0
LINE
  5
223
330
21C
100
AcDbEntity
  8
Layer2
  6
AUSGEZOGEN
 62
    18
420
        0
370
    18
100
AcDbLine
 10
-452.981422716589
 20
-365.770904426773
 30
0.0
 11
-493.129148143194
 21
-365.770904426773
 31
0.0
  0
TEXT
  5
224
330
21C
100
AcDbEntity
  8
Layer2
  6
AUSGEZOGEN
 62
    18
420
        0
370
    18
100
AcDbText
 10
-491.879148143195
 20
-497.896472608591
 30
0.0
 40
37.5
  1
185
 50
90.0
 41
0.907802249297
  7
Arial
 72
     5
 11
-491.879148143195
 21
-418.645336244955
 31
0.0
100
AcDbText
  0
ENDBLK
  5
21E
330
21C
100
AcDbEntity
  8
0
100
AcDbBlockEnd
  0
BLOCK
  5
227
330
226
100
AcDbEntity
  8
0
100
AcDbBlockBegin
  2
*D11
 70
     1
 10
0.0
 20
0.0
 30
0.0
  3
*D11
  1

  0
HATCH
  5
229
330
226
100
AcDbEntity
  8
Layer2
  6
AUSGEZOGEN
 62
    18
420
        0
370
    25
100
AcDbHatch
 10
0.0
 20
0.0
 30
0.0
210
0.0
220
0.0
230
1.0
  2
SOLID
 70
     1
 71
     0
 91
        1
 92
        2
 72
     0
 73
     1
 93
        3
 10
-201.4695713632809
 20
-821.4180061262418
 10
-213.9695713632809
 20
-818.9180061262418
 10
-213.9695713632809
 20
-823.9180061262418
 97
        0
 75
     0
 76
     1
 98
        0
  0
HATCH
  5
22A
330
226
100
AcDbEntity
  8
Layer2
  6
AUSGEZOGEN
 62
    18
420
        0
370
    25
100
AcDbHatch
 10
0.0
 20
0.0
 30
0.0
210
0.0
220
0.0
230
1.0
  2
SOLID
 70
     1
 71
     0
 91
        1
 92
        2
 72
     0
 73
     1
 93
        3
 10
-644.0590848206662
 20
-821.4180061262418
 10
-631.5590848206662
 20
-823.9180061262418
 10
-631.5590848206662
 20
-818.9180061262418
 97
        0
 75
     0
 76
     1
 98
        0
  0
LINE
  5
22B
330
226
100
AcDbEntity
  8
Layer2
  6
AUSGEZOGEN
 62
    18
420
        0
370
    25
100
AcDbLine
 10
-631.559084820666
 20
-821.418006126242
 30
0.0
 11
-213.969571363281
 21
-821.418006126242
 31
0.0
  0
LINE
  5
22C
330
226
100
AcDbEntity
  8
Layer2
  6
AUSGEZOGEN
 62
    18
420
        0
370
    18
100
AcDbLine
 10
-644.059084820666
 20
-388.248262110433
 30
0.0
 11
-644.059084820666
 21
-826.418006126242
 31
0.0
  0
LINE
  5
22D
330
226
100
AcDbEntity
  8
Layer2
  6
AUSGEZOGEN
 62
    18
420
        0
370
    18
100
AcDbLine
 10
-201.469571363281
 20
-394.934496264713
 30
0.0
 11
-201.469571363281
 21
-826.418006126242
 31
0.0
  0
TEXT
  5
22E
330
226
100
AcDbEntity
  8
Layer2
  6
AUSGEZOGEN
 62
    18
420
        0
370
    18
100
AcDbText
 10
-462.389896273792
 20
-817.668006126242
 30
0.0
 40
37.5
  1
443
 41
0.907802249297
  7
Arial
 72
     5
 11
-383.138759910156
 21
-817.668006126242
 31
0.0
100
AcDbText
  0
ENDBLK
  5
228
330
226
100
AcDbEntity
  8
0
100
AcDbBlockEnd
  0
BLOCK
  5
231
330
230
100
AcDbEntity
  8
0
100
AcDbBlockBegin
  2
*D12
 70
     1
 10
0.0
 20
0.0
 30
0.0
  3
*D12
  1

  0
HATCH
  5
233
330
230
100
AcDbEntity
  8
Layer2
  6
AUSGEZOGEN
 62
    18
420
        0
370
    25
100
AcDbHatch
 10
0.0
 20
0.0
 30
0.0
210
0.0
220
0.0
230
1.0
  2
SOLID
 70
     1
 71
     0
 91
        1
 92
        2
 72
     0
 73
     1
 93
        3
 10
229.6498494531834
 20
-393.8853398936009
 10
232.1498494531834
 20
-381.3853398936009
 10
227.1498494531834
 20
-381.3853398936009
 97
        0
 75
     0
 76
     1
 98
        0
  0
HATCH
  5
234
330
230
100
AcDbEntity
  8
Layer2
  6
AUSGEZOGEN
 62
    18
420
        0
370
    25
100
AcDbHatch
 10
0.0
 20
0.0
 30
0.0
210
0.0
220
0.0
230
1.0
  2
SOLID
 70
     1
 71
     0
 91
        1
 92
        2
 72
     0
 73
     1
 93
        3
 10
229.6498494531834
 20
-365.7709044267708
 10
227.1498494531834
 20
-378.2709044267708
 10
232.1498494531834
 20
-378.2709044267708
 97
        0
 75
     0
 76
     1
 98
        0
  0
LINE
  5
235
330
230
100
AcDbEntity
  8
Layer2
  6
AUSGEZOGEN
 62
    18
420
        0
370
    18
100
AcDbLine
 10
-60.220185807113
 20
-365.770904426771
 30
0.0
 11
169.649849453183
 21
-365.770904426771
 31
0.0
  0
LINE
  5
236
330
230
100
AcDbEntity
  8
Layer2
  6
AUSGEZOGEN
 62
    18
420
        0
370
    18
100
AcDbLine
 10
-198.841256484739
 20
-393.885339893601
 30
0.0
 11
169.649849453183
 21
-393.885339893601
 31
0.0
  0
TEXT
  5
237
330
230
100
AcDbEntity
  8
Layer2
  6
AUSGEZOGEN
 62
    18
420
        0
370
    18
100
AcDbText
 10
225.899849453183
 20
-406.978122160186
 30
0.0
 40
37.5
  1
26
 50
90.0
 41
0.932989690722
  7
Arial
 72
     5
 11
225.899849453183
 21
-352.678122160186
 31
0.0
100
AcDbText
  0
ENDBLK
  5
232
330
230
100
AcDbEntity
  8
0
100
AcDbBlockEnd
  0
BLOCK
  5
23A
330
239
100
AcDbEntity
  8
0
100
AcDbBlockBegin
  2
*D13
 70
     1
 10
0.0
 20
0.0
 30
0.0
  3
*D13
  1

  0
HATCH
  5
23C
330
239
100
AcDbEntity
  8
Layer2
  6
AUSGEZOGEN
 62
    18
420
        0
370
    25
100
AcDbHatch
 10
0.0
 20
0.0
 30
0.0
210
0.0
220
0.0
230
1.0
  2
SOLID
 70
     1
 71
     0
 91
        1
 92
        2
 72
     0
 73
     1
 93
        3
 10
-1069.447757457436
 20
-365.7709044267729
 10
-1071.947757457436
 20
-378.2709044267729
 10
-1066.947757457436
 20
-378.2709044267729
 97
        0
 75
     0
 76
     1
 98
        0
  0
HATCH
  5
23D
330
239
100
AcDbEntity
  8
Layer2
  6
AUSGEZOGEN
 62
    18
420
        0
370
    25
100
AcDbHatch
 10
0.0
 20
0.0
 30
0.0
210
0.0
220
0.0
230
1.0
  2
SOLID
 70
     1
 71
     0
 91
        1
 92
        2
 72
     0
 73
     1
 93
        3
 10
-1069.447757457436
 20
-565.7709044267729
 10
-1066.947757457436
 20
-553.2709044267729
 10
-1071.947757457436
 20
-553.2709044267729
 97
        0
 75
     0
 76
     1
 98
        0
  0
LINE
  5
23E
330
239
100
AcDbEntity
  8
Layer2
  6
AUSGEZOGEN
 62
    18
420
        0
370
    25
100
AcDbLine
 10
-1069.447757457436
 20
-553.270904426773
 30
0.0
 11
-1069.447757457436
 21
-378.270904426773
 31
0.0
  0
LINE
  5
23F
330
239
100
AcDbEntity
  8
Layer2
  6
AUSGEZOGEN
 62
    18
420
        0
370
    18
100
AcDbLine
 10
-586.683329352858
 20
-565.770904426773
 30
0.0
 11
-1074.447757457436
 21
-565.770904426773
 31
0.0
  0
LINE
  5
240
330
239
100
AcDbEntity
  8
Layer2
  6
AUSGEZOGEN
 62
    18
420
        0
370
    18
100
AcDbLine
 10
-663.421550310801
 20
-365.770904426773
 30
0.0
 11
-1074.447757457436
 21
-365.770904426773
 31
0.0
  0
TEXT
  5
241
330
239
100
AcDbEntity
  8
Layer2
  6
AUSGEZOGEN
 62
    18
420
        0
370
    18
100
AcDbText
 10
-1073.197757457436
 20
-507.395904426773
 30
0.0
 40
37.5
  1
200
 50
90.0
 41
0.953608247423
  7
Arial
 72
     5
 11
-1073.197757457436
 21
-424.145904426773
 31
0.0
100
AcDbText
  0
ENDBLK
  5
23B
330
239
100
AcDbEntity
  8
0
100
AcDbBlockEnd
  0
BLOCK
  5
244
330
243
100
AcDbEntity
  8
0
100
AcDbBlockBegin
  2
*D14
 70
     1
 10
0.0
 20
0.0
 30
0.0
  3
*D14
  1

  0
HATCH
  5
246
330
243
100
AcDbEntity
  8
Layer2
  6
AUSGEZOGEN
 62
    18
420
        0
370
    25
100
AcDbHatch
 10
0.0
 20
0.0
 30
0.0
210
0.0
220
0.0
230
1.0
  2
SOLID
 70
     1
 71
     0
 91
        1
 92
        2
 72
     0
 73
     1
 93
        3
 10
-1069.447757457436
 20
-565.7709044267729
 10
-1071.947757457436
 20
-578.2709044267729
 10
-1066.947757457436
 20
-578.2709044267729
 97
        0
 75
     0
 76
     1
 98
        0
  0
HATCH
  5
247
330
243
100
AcDbEntity
  8
Layer2
  6
AUSGEZOGEN
 62
    18
420
        0
370
    25
100
AcDbHatch
 10
0.0
 20
0.0
 30
0.0
210
0.0
220
0.0
230
1.0
  2
SOLID
 70
     1
 71
     0
 91
        1
 92
        2
 72
     0
 73
     1
 93
        3
 10
-1069.447757457436
 20
-678.7709044267718
 10
-1066.947757457436
 20
-666.2709044267718
 10
-1071.947757457436
 20
-666.2709044267718
 97
        0
 75
     0
 76
     1
 98
        0
  0
LINE
  5
248
330
243
100
AcDbEntity
  8
Layer2
  6
AUSGEZOGEN
 62
    18
420
        0
370
    25
100
AcDbLine
 10
-1069.447757457436
 20
-666.270904426772
 30
0.0
 11
-1069.447757457436
 21
-578.270904426773
 31
0.0
  0
LINE
  5
249
330
243
100
AcDbEntity
  8
Layer2
  6
AUSGEZOGEN
 62
    18
420
        0
370
    18
100
AcDbLine
 10
-473.421550310801
 20
-678.770904426772
 30
0.0
 11
-1074.447757457436
 21
-678.770904426772
 31
0.0
  0
LINE
  5
24A
330
243
100
AcDbEntity
  8
Layer2
  6
AUSGEZOGEN
 62
    18
420
        0
370
    18
100
AcDbLine
 10
-663.421550310801
 20
-565.770904426773
 30
0.0
 11
-1074.447757457436
 21
-565.770904426773
 31
0.0
  0
TEXT
  5
24B
330
243
100
AcDbEntity
  8
Layer2
  6
AUSGEZOGEN
 62
    18
420
        0
370
    18
100
AcDbText
 10
-1073.197757457436
 20
-661.814654426772
 30
0.0
 40
37.5
  1
120
 50
90.0
 41
0.905927835052
  7
Arial
 72
     5
 11
-1073.197757457436
 21
-582.727154426772
 31
0.0
100
AcDbText
  0
ENDBLK
  5
245
330
243
100
AcDbEntity
  8
0
100
AcDbBlockEnd
  0
BLOCK
  5
24E
330
24D
100
AcDbEntity
  8
0
100
AcDbBlockBegin
  2
A4-NABER_nNn014
 70
     0
 10
0.0
 20
0.0
 30
0.0
  3
A4-NABER_nNn014
  1

  0
INSERT
  5
2C1
330
24D
100
AcDbEntity
  8
0
100
AcDbBlockReference
  2
A4-NABER_nNn015
 10
0.0
 20
0.0
 30
0.0
  0
TEXT
  5
2C2
330
24D
100
AcDbEntity
  8
Layer100
  6
AUSGEZOGEN
 62
    18
420
        0
370
    18
100
AcDbText
 10
-344.213821864688
 20
-1291.099671958011
 30
0.0
 40
31.75
  1
Einbaumaße
 41
0.90372298842
  7
Arial
 72
     5
 11
-117.164491630861
 21
-1291.099671958011
 31
0.0
100
AcDbText
  0
ENDBLK
  5
24F
330
24D
100
AcDbEntity
  8
0
100
AcDbBlockEnd
  0
BLOCK
  5
251
330
250
100
AcDbEntity
  8
0
100
AcDbBlockBegin
  2
A4-NABER_nNn015
 70
     0
 10
0.0
 20
0.0
 30
0.0
  3
A4-NABER_nNn015
  1

  0
INSERT
  5
263
330
250
100
AcDbEntity
  8
0
100
AcDbBlockReference
  2
A4-Textliste_nNn016
 10
0.0
 20
0.0
 30
0.0
  0
LINE
  5
264
330
250
100
AcDbEntity
  8
Layer1
  6
AUSGEZOGEN
 62
    18
420
        0
370
    18
100
AcDbLine
 10
-1353.305658776257
 20
-1692.748821377853
 30
0.0
 11
-1353.305658776257
 21
970.351178622147
 31
0.0
  0
LINE
  5
265
330
250
100
AcDbEntity
  8
Layer1
  6
AUSGEZOGEN
 62
    18
420
        0
370
    18
100
AcDbLine
 10
-1353.305658776257
 20
-1692.748821377853
 30
0.0
 11
446.694341223743
 21
-1692.748821377853
 31
0.0
  0
LINE
  5
266
330
250
100
AcDbEntity
  8
Layer1
  6
AUSGEZOGEN
 62
    18
420
        0
370
    18
100
AcDbLine
 10
446.694341223743
 20
-1692.748821377853
 30
0.0
 11
446.694341223743
 21
970.351178622147
 31
0.0
  0
LINE
  5
267
330
250
100
AcDbEntity
  8
Layer1
  6
AUSGEZOGEN
 62
    18
420
        0
370
    18
100
AcDbLine
 10
-1353.305658776257
 20
970.351178622147
 30
0.0
 11
446.694341223743
 21
970.351178622147
 31
0.0
  0
LINE
  5
268
330
250
100
AcDbEntity
  8
Layer100
  6
AUSGEZOGEN
 62
    18
420
        0
370
    50
100
AcDbLine
 10
-1308.305658776257
 20
-1647.748821377853
 30
0.0
 11
-1308.305658776257
 21
-1150.49398616638
 31
0.0
  0
TEXT
  5
269
330
250
100
AcDbEntity
  8
Layer100
  6
AUSGEZOGEN
 62
    18
420
        0
370
    50
100
AcDbText
 10
-688.901326445159
 20
-1186.491985950996
 30
0.0
 40
12.7
  1
Weitergabe und Vervielfältigung,
 50
0.000002504478
 41
1.085122205146
  7
Arial
 72
     5
 11
-410.92372644516
 21
-1186.491973800209
 31
0.0
100
AcDbText
  0
TEXT
  5
26A
330
250
100
AcDbEntity
  8
Layer100
  6
AUSGEZOGEN
 62
    18
420
        0
370
    50
100
AcDbText
 10
-688.815600556944
 20
-1206.811985947249
 30
0.0
 40
12.7
  1
sowie Verwertung und Mitteilung
 50
0.000002504478
 41
1.084506693109
  7
Arial
 72
     5
 11
-411.009450556944
 21
-1206.811973803957
 31
0.0
100
AcDbText
  0
TEXT
  5
26B
330
250
100
AcDbEntity
  8
Layer100
  6
AUSGEZOGEN
 62
    18
420
        0
370
    50
100
AcDbText
 10
-701.464799668729
 20
-1227.131986500163
 30
0.0
 40
12.7
  1
dieser Zeichnung ist nicht gestattet,
 50
0.000002504478
 41
1.087014938969
  7
Arial
 72
     5
 11
-398.360249668729
 21
-1227.131973251042
 31
0.0
100
AcDbText
  0
TEXT
  5
26C
330
250
100
AcDbEntity
  8
Layer100
  6
AUSGEZOGEN
 62
    18
420
        0
370
    50
100
AcDbText
 10
-691.177798780513
 20
-1247.451986050504
 30
0.0
 40
12.7
  1
soweit nicht ausdrücklich erlaubt.
 50
0.000002504478
 41
1.086254882812
  7
Arial
 72
     5
 11
-408.647248780514
 21
-1247.451973700702
 31
0.0
100
AcDbText
  0
TEXT
  5
26D
330
250
100
AcDbEntity
  8
Layer100
  6
AUSGEZOGEN
 62
    18
420
        0
370
    50
100
AcDbText
 10
-654.658947892298
 20
-1267.771984454214
 30
0.0
 40
12.7
  1
Alle Rechte vorbehalten!
 50
0.000002504478
 41
1.084802051822
  7
Arial
 72
     5
 11
-445.166097892298
 21
-1267.771975296991
 31
0.0
100
AcDbText
  0
LINE
  5
26E
330
250
100
AcDbEntity
  8
Layer100
  6
AUSGEZOGEN
 62
    18
420
        0
370
    50
100
AcDbLine
 10
401.694341223743
 20
-1150.498821377853
 30
0.0
 11
-1308.305658776257
 21
-1150.49398616638
 31
0.0
  0
INSERT
  5
2A8
330
250
100
AcDbEntity
  8
0
100
AcDbBlockReference
  2
Schriftfeld_nNn019
 10
0.0
 20
0.0
 30
0.0
  0
INSERT
  5
2B4
330
250
100
AcDbEntity
  8
0
100
AcDbBlockReference
  2
Beschriftung_nNn020
 10
0.0
 20
0.0
 30
0.0
  0
TEXT
  5
2B5
330
250
100
AcDbEntity
  8
Layer100
  6
AUSGEZOGEN
 62
    18
420
        0
370
    18
100
AcDbText
 10
-1230.175203946331
 20
-1331.991171953093
 30
0.0
 40
19.049998998642
  1
-
 41
0.967741971819
  7
Arial
 72
     5
 11
-1221.602704075077
 21
-1331.991171953093
 31
0.0
100
AcDbText
  0
TEXT
  5
2B6
330
250
100
AcDbEntity
  8
Layer100
  6
AUSGEZOGEN
 62
    18
420
        0
370
    18
100
AcDbText
 10
-1159.063731732941
 20
-1331.667817480357
 30
0.0
 40
19.049998998642
  1
-
 41
0.967741971819
  7
Arial
 72
     5
 11
-1150.491231861687
 21
-1331.667817480357
 31
0.0
100
AcDbText
  0
TEXT
  5
2B7
330
250
100
AcDbEntity
  8
Layer100
  6
AUSGEZOGEN
 62
    18
420
        0
370
    18
100
AcDbText
 10
-931.983805666377
 20
-1331.652046487785
 30
0.0
 40
19.049998998642
  1
-
 41
0.967741971819
  7
Arial
 72
     5
 11
-923.411305795123
 21
-1331.652046487785
 31
0.0
100
AcDbText
  0
TEXT
  5
2B8
330
250
100
AcDbEntity
  8
Layer100
  6
AUSGEZOGEN
 62
    18
420
        0
370
    18
100
AcDbText
 10
-807.165767026091
 20
-1331.652046487785
 30
0.0
 40
19.049998998642
  1
-
 41
0.967741971819
  7
Arial
 72
     5
 11
-798.593267154837
 21
-1331.652046487785
 31
0.0
100
AcDbText
  0
TEXT
  5
2B9
330
250
100
AcDbEntity
  8
Layer100
  6
AUSGEZOGEN
 62
    18
420
        0
370
    18
100
AcDbText
 10
-745.011911894777
 20
-1489.4307372611
 30
0.0
 40
11.620141834909
  1
Naber GmbH
 41
0.96475869975
  7
Arial
 72
     5
 11
-652.838087964434
 21
-1489.4307372611
 31
0.0
100
AcDbText
  0
TEXT
  5
2BA
330
250
100
AcDbEntity
  8
Layer100
  6
AUSGEZOGEN
 62
    18
420
        0
370
    18
100
AcDbText
 10
-745.011911894777
 20
-1504.53692109239
 30
0.0
 40
11.620141834909
  1
Enschedestr. 24
 41
0.976824042946
  7
Arial
 72
     5
 11
-630.52740090929
 21
-1504.53692109239
 31
0.0
100
AcDbText
  0
TEXT
  5
2BB
330
250
100
AcDbEntity
  8
Layer100
  6
AUSGEZOGEN
 62
    18
420
        0
370
    18
100
AcDbText
 10
-745.011911894777
 20
-1519.643104923679
 30
0.0
 40
11.620141834909
  1
48529 Nordhorn
 41
0.972993785506
  7
Arial
 72
     5
 11
-630.976309956045
 21
-1519.643104923679
 31
0.0
100
AcDbText
  0
TEXT
  5
2BC
330
250
100
AcDbEntity
  8
Layer100
  6
AUSGEZOGEN
 62
    18
420
        0
370
    18
100
AcDbText
 10
-745.011911894777
 20
-1549.855472586259
 30
0.0
 40
11.620141834909
  1
0049-(0)5921-704-0
 41
0.975798499711
  7
Arial
 72
     5
 11
-604.261935559481
 21
-1549.855472586259
 31
0.0
100
AcDbText
  0
IMAGE
  5
2BF
330
250
100
AcDbEntity
  8
Layer0
  6
AUSGEZOGEN
 62
    18
420
        0
370
    18
160
               140
310
8C00000001000000840000000600000005000000C2D186B2890782C0A91536F3D13298C00000000000000000989EE2E8DF7B76C0A91536F3D13298C00000000000000000989EE2E8DF7B76C03F36B06E87EC96C00000000000000000C2D186B2890782C03F36B06E87EC96C00000000000000000C2D186B2890782C0A91536
310
F3D13298C00000000000000000
100
AcDbRasterImage
 90
        0
 10
-576.942235043789
 20
-1548.705029339859
 30
0.0
 11
0.05744513874312334
 21
0.0
 31
0.0
 12
0.0
 22
0.08650346888642409
 32
0.0
 13
3781.0
 23
943.0
340
2BE
 70
     7
280
     0
281
    50
282
    50
283
     0
360
2C0
 71
     1
 91
        2
 14
-0.5
 24
-0.5
 14
3780.5
 24
942.5
290
     0
  0
ENDBLK
  5
252
330
250
100
AcDbEntity
  8
0
100
AcDbBlockEnd
  0
BLOCK
  5
254
330
253
100
AcDbEntity
  8
0
100
AcDbBlockBegin
  2
A4-Textliste_nNn016
 70
     0
 10
0.0
 20
0.0
 30
0.0
  3
A4-Textliste_nNn016
  1

  0
INSERT
  5
25B
330
253
100
AcDbEntity
  8
0
100
AcDbBlockReference
  2
Zeichnungskoordinaten_nNn017
 10
0.0
 20
0.0
 30
0.0
  0
INSERT
  5
262
330
253
100
AcDbEntity
  8
0
100
AcDbBlockReference
  2
Zeichnungsrahmen_nNn018
 10
0.0
 20
0.0
 30
0.0
  0
ENDBLK
  5
255
330
253
100
AcDbEntity
  8
0
100
AcDbBlockEnd
  0
BLOCK
  5
257
330
256
100
AcDbEntity
  8
0
100
AcDbBlockBegin
  2
Zeichnungskoordinaten_nNn017
 70
     0
 10
0.0
 20
0.0
 30
0.0
  3
Zeichnungskoordinaten_nNn017
  1

  0
LINE
  5
259
330
256
100
AcDbEntity
  8
Layer100
  6
AUSGEZOGEN
 62
    18
420
        0
370
    18
100
AcDbLine
 10
-1308.305658776257
 20
-1647.748821377853
 30
0.0
 11
-1308.305658776257
 21
925.351178622147
 31
0.0
  0
LINE
  5
25A
330
256
100
AcDbEntity
  8
Layer100
  6
AUSGEZOGEN
 62
    18
420
        0
370
    18
100
AcDbLine
 10
-1308.305658776257
 20
925.351178622147
 30
0.0
 11
-1263.305658776257
 21
925.351178622147
 31
0.0
  0
ENDBLK
  5
258
330
256
100
AcDbEntity
  8
0
100
AcDbBlockEnd
  0
BLOCK
  5
25D
330
25C
100
AcDbEntity
  8
0
100
AcDbBlockBegin
  2
Zeichnungsrahmen_nNn018
 70
     0
 10
0.0
 20
0.0
 30
0.0
  3
Zeichnungsrahmen_nNn018
  1

  0
LINE
  5
25F
330
25C
100
AcDbEntity
  8
Layer100
  6
AUSGEZOGEN
 62
    18
420
        0
370
    50
100
AcDbLine
 10
401.694341223743
 20
-1647.748821377853
 30
0.0
 11
401.694341223743
 21
925.351178622147
 31
0.0
  0
LINE
  5
260
330
25C
100
AcDbEntity
  8
Layer100
  6
AUSGEZOGEN
 62
    18
420
        0
370
    50
100
AcDbLine
 10
-1308.305658776257
 20
-1647.748821377853
 30
0.0
 11
401.694341223743
 21
-1647.748821377853
 31
0.0
  0
LINE
  5
261
330
25C
100
AcDbEntity
  8
Layer100
  6
AUSGEZOGEN
 62
    18
420
        0
370
    50
100
AcDbLine
 10
-1263.305658776257
 20
925.351178622147
 30
0.0
 11
401.694341223743
 21
925.351178622147
 31
0.0
  0
ENDBLK
  5
25E
330
25C
100
AcDbEntity
  8
0
100
AcDbBlockEnd
  0
BLOCK
  5
270
330
26F
100
AcDbEntity
  8
0
100
AcDbBlockBegin
  2
Schriftfeld_nNn019
 70
     0
 10
0.0
 20
0.0
 30
0.0
  3
Schriftfeld_nNn019
  1

  0
LINE
  5
272
330
26F
100
AcDbEntity
  8
Layer100
  6
AUSGEZOGEN
 62
    18
420
        0
370
    50
100
AcDbLine
 10
-752.825658776257
 20
-1150.498935582115
 30
0.0
 11
-752.825658776257
 21
-1647.748935582115
 31
0.0
  0
LINE
  5
273
330
26F
100
AcDbEntity
  8
Layer100
  6
AUSGEZOGEN
 62
    18
420
        0
370
    50
100
AcDbLine
 10
-355.025658776257
 20
-1150.498882725645
 30
0.0
 11
-355.025658776257
 21
-1647.748882725645
 31
0.0
  0
LINE
  5
274
330
26F
100
AcDbEntity
  8
Layer100
  6
AUSGEZOGEN
 62
    18
420
        0
370
    18
100
AcDbLine
 10
-1174.025658776256
 20
-1303.498948624271
 30
0.0
 11
-1174.025658776256
 21
-1647.748948624271
 31
0.0
  0
LINE
  5
275
330
26F
100
AcDbEntity
  8
Layer100
  6
AUSGEZOGEN
 62
    18
420
        0
370
    18
100
AcDbLine
 10
-823.025658776256
 20
-1303.499212993099
 30
0.0
 11
-823.025658776256
 21
-1647.749212993099
 31
0.0
  0
LINE
  5
276
330
26F
100
AcDbEntity
  8
Layer100
  6
AUSGEZOGEN
 62
    18
420
        0
370
    18
100
AcDbLine
 10
-940.025658776256
 20
-1647.749212993099
 30
0.0
 11
-940.025658776256
 21
-1150.499212993099
 31
0.0
  0
TEXT
  5
277
330
26F
100
AcDbEntity
  8
Layer100
  6
AUSGEZOGEN
 62
    18
420
        0
370
    18
100
AcDbText
 10
-347.105658776257
 20
-1231.390821416476
 30
0.0
 40
14.85
  1
Rohstoff/Raw material
 41
1.084377276038
  7
Arial
 72
     5
 11
-126.011433776257
 21
-1231.390821416476
 31
0.0
100
AcDbText
  0
TEXT
  5
278
330
26F
100
AcDbEntity
  8
Layer100
  6
AUSGEZOGEN
 62
    18
420
        0
370
    18
100
AcDbText
 10
-347.105658776257
 20
-1327.015821416476
 30
0.0
 40
14.85
  1
Benennung/Designation
 41
1.081895683695
  7
Arial
 72
     5
 11
-107.768208776257
 21
-1327.015821416476
 31
0.0
100
AcDbText
  0
TEXT
  5
279
330
26F
100
AcDbEntity
  8
Layer100
  6
AUSGEZOGEN
 62
    18
420
        0
370
    18
100
AcDbText
 10
-348.275658776257
 20
-1516.353321416477
 30
0.0
 40
14.85
  1
Sachnummer/Part-No.
 41
1.080626575441
  7
Arial
 72
     5
 11
-125.458833776257
 21
-1516.353321416477
 31
0.0
100
AcDbText
  0
LINE
  5
27A
330
26F
100
AcDbEntity
  8
Layer100
  6
AUSGEZOGEN
 62
    18
420
        0
370
    18
100
AcDbLine
 10
-659.225658776257
 20
-1303.498821377853
 30
0.0
 11
-659.225658776257
 21
-1418.248821377853
 31
0.0
  0
TEXT
  5
27B
330
26F
100
AcDbEntity
  8
Layer100
  6
AUSGEZOGEN
 62
    18
420
        0
370
    18
100
AcDbText
 10
-746.078750394612
 20
-1398.730431872317
 30
0.0
 40
14.85
  1
Gepr.
 41
1.076768834145
  7
Arial
 72
     5
 11
-690.257600394612
 21
-1398.730431872317
 31
0.0
100
AcDbText
  0
TEXT
  5
27C
330
26F
100
AcDbEntity
  8
Layer100
  6
AUSGEZOGEN
 62
    18
420
        0
370
    18
100
AcDbText
 10
-746.078750394612
 20
-1418.035431872317
 30
0.0
 40
14.85
  1
Check.
 41
1.077923572744
  7
Arial
 72
     5
 11
-676.543625394612
 21
-1418.035431872317
 31
0.0
100
AcDbText
  0
TEXT
  5
27D
330
26F
100
AcDbEntity
  8
Layer100
  6
AUSGEZOGEN
 62
    18
420
        0
370
    18
100
AcDbText
 10
-652.478840547665
 20
-1322.2227626821
 30
0.0
 40
14.85
  1
Datum
 41
1.075650693262
  7
Arial
 72
     5
 11
-586.812140547665
 21
-1322.2227626821
 31
0.0
100
AcDbText
  0
TEXT
  5
27E
330
26F
100
AcDbEntity
  8
Layer100
  6
AUSGEZOGEN
 62
    18
420
        0
370
    18
100
AcDbText
 10
-652.478840547665
 20
-1341.5277626821
 30
0.0
 40
14.85
  1
Date
 41
1.076492537313
  7
Arial
 72
     5
 11
-605.352365547665
 21
-1341.5277626821
 31
0.0
100
AcDbText
  0
TEXT
  5
27F
330
26F
100
AcDbEntity
  8
Layer100
  6
AUSGEZOGEN
 62
    18
420
        0
370
    18
100
AcDbText
 10
-512.075658776257
 20
-1322.227821261981
 30
0.0
 40
14.85
  1
Name
 41
1.072387859253
  7
Arial
 72
     5
 11
-452.787033776257
 21
-1322.227821261981
 31
0.0
100
AcDbText
  0
TEXT
  5
280
330
26F
100
AcDbEntity
  8
Layer100
  6
AUSGEZOGEN
 62
    18
420
        0
370
    18
100
AcDbText
 10
-512.075658776257
 20
-1341.532821261981
 30
0.0
 40
14.85
  1
Name
 41
1.072387859253
  7
Arial
 72
     5
 11
-452.787033776257
 21
-1341.532821261981
 31
0.0
100
AcDbText
  0
TEXT
  5
281
330
26F
100
AcDbEntity
  8
Layer100
  6
AUSGEZOGEN
 62
    18
420
        0
370
    18
100
AcDbText
 10
-746.098367382676
 20
-1360.4672863526
 30
0.0
 40
14.85
  1
Bearb.
 41
1.078672178988
  7
Arial
 72
     5
 11
-680.231192382676
 21
-1360.4672863526
 31
0.0
100
AcDbText
  0
TEXT
  5
282
330
26F
100
AcDbEntity
  8
Layer100
  6
AUSGEZOGEN
 62
    18
420
        0
370
    18
100
AcDbText
 10
-746.098367382676
 20
-1379.7722863526
 30
0.0
 40
14.85
  1
Drawn
 41
1.075502107612
  7
Arial
 72
     5
 11
-681.686492382676
 21
-1379.7722863526
 31
0.0
100
AcDbText
  0
TEXT
  5
283
330
26F
100
AcDbEntity
  8
Layer100
  6
AUSGEZOGEN
 62
    18
420
        0
370
    18
100
AcDbText
 10
-1293.5379875
 20
-1627.7725
 30
0.0
 40
14.85
  1
Ausg.
 41
1.076912300364
  7
Arial
 72
     5
 11
-1236.4620125
 21
-1627.7725
 31
0.0
100
AcDbText
  0
TEXT
  5
284
330
26F
100
AcDbEntity
  8
Layer100
  6
AUSGEZOGEN
 62
    18
420
        0
370
    18
100
AcDbText
 10
-1293.5379875
 20
-1647.0775
 30
0.0
 40
14.85
  1
Issue
 41
1.078087529976
  7
Arial
 72
     5
 11
-1240.1299625
 21
-1647.0775
 31
0.0
100
AcDbText
  0
TEXT
  5
285
330
26F
100
AcDbEntity
  8
Layer100
  6
AUSGEZOGEN
 62
    18
420
        0
370
    18
100
AcDbText
 10
-1166.105658776257
 20
-1628.227821261981
 30
0.0
 40
14.85
  1
Änderung
 41
1.077825512227
  7
Arial
 72
     5
 11
-1069.239108776257
 21
-1628.227821261981
 31
0.0
100
AcDbText
  0
TEXT
  5
286
330
26F
100
AcDbEntity
  8
Layer100
  6
AUSGEZOGEN
 62
    18
420
        0
370
    18
100
AcDbText
 10
-1166.105658776257
 20
-1647.532821261981
 30
0.0
 40
14.85
  1
Modification
 41
1.083926413321
  7
Arial
 72
     5
 11
-1046.236458776257
 21
-1647.532821261981
 31
0.0
100
AcDbText
  0
TEXT
  5
287
330
26F
100
AcDbEntity
  8
Layer100
  6
AUSGEZOGEN
 62
    18
420
        0
370
    18
100
AcDbText
 10
-933.275658776257
 20
-1628.227821261981
 30
0.0
 40
14.85
  1
Datum
 41
1.075650693262
  7
Arial
 72
     5
 11
-867.608958776257
 21
-1628.227821261981
 31
0.0
100
AcDbText
  0
TEXT
  5
288
330
26F
100
AcDbEntity
  8
Layer100
  6
AUSGEZOGEN
 62
    18
420
        0
370
    18
100
AcDbText
 10
-933.275658776257
 20
-1647.532821261981
 30
0.0
 40
14.85
  1
Date
 41
1.076492537313
  7
Arial
 72
     5
 11
-886.149183776257
 21
-1647.532821261981
 31
0.0
100
AcDbText
  0
TEXT
  5
289
330
26F
100
AcDbEntity
  8
Layer100
  6
AUSGEZOGEN
 62
    18
420
        0
370
    18
100
AcDbText
 10
-816.275658776257
 20
-1628.227821261981
 30
0.0
 40
14.85
  1
Name
 41
1.072387859253
  7
Arial
 72
     5
 11
-756.987033776257
 21
-1628.227821261981
 31
0.0
100
AcDbText
  0
TEXT
  5
28A
330
26F
100
AcDbEntity
  8
Layer100
  6
AUSGEZOGEN
 62
    18
420
        0
370
    18
100
AcDbText
 10
-816.275658776257
 20
-1647.532821261981
 30
0.0
 40
14.85
  1
Name
 41
1.072387859253
  7
Arial
 72
     5
 11
-756.987033776257
 21
-1647.532821261981
 31
0.0
100
AcDbText
  0
LINE
  5
28B
330
26F
100
AcDbEntity
  8
Layer100
  6
AUSGEZOGEN
 62
    18
420
        0
370
    18
100
AcDbLine
 10
-518.825658776257
 20
-1303.498821377853
 30
0.0
 11
-518.825658776257
 21
-1418.248821377853
 31
0.0
  0
TEXT
  5
28C
330
26F
100
AcDbEntity
  8
Layer100
  6
AUSGEZOGEN
 62
    18
420
        0
370
    18
100
AcDbText
 10
119.724341223743
 20
-1173.268821377853
 30
0.0
 40
14.85
  1
Menge
 41
1.074408249356
  7
Arial
 72
     5
 11
187.804166223743
 21
-1173.268821377853
 31
0.0
100
AcDbText
  0
TEXT
  5
28D
330
26F
100
AcDbEntity
  8
Layer100
  6
AUSGEZOGEN
 62
    18
420
        0
370
    18
100
AcDbText
 10
119.724341223743
 20
-1192.573821377853
 30
0.0
 40
14.85
  1
Quantity
 41
1.081088880339
  7
Arial
 72
     5
 11
203.173916223743
 21
-1192.573821377853
 31
0.0
100
AcDbText
  0
TEXT
  5
28E
330
26F
100
AcDbEntity
  8
Layer100
  6
AUSGEZOGEN
 62
    18
420
        0
370
    18
100
AcDbText
 10
-345.935658776257
 20
-1173.052821261981
 30
0.0
 40
14.85
  1
Maßstab
 41
1.076703499079
  7
Arial
 72
     5
 11
-259.115133776257
 21
-1173.052821261981
 31
0.0
100
AcDbText
  0
TEXT
  5
28F
330
26F
100
AcDbEntity
  8
Layer100
  6
AUSGEZOGEN
 62
    18
420
        0
370
    18
100
AcDbText
 10
-345.935658776257
 20
-1192.357821261981
 30
0.0
 40
14.85
  1
Scale
 41
1.076768834145
  7
Arial
 72
     5
 11
-290.114508776257
 21
-1192.357821261981
 31
0.0
100
AcDbText
  0
TEXT
  5
290
330
26F
100
AcDbEntity
  8
Layer100
  6
AUSGEZOGEN
 62
    18
420
        0
370
    18
100
AcDbText
 10
-927.425658776257
 20
-1171.693821377853
 30
0.0
 40
14.85
  1
 Maße in mm
 41
1.079690569745
  7
Arial
 72
     5
 11
-796.849608776257
 21
-1171.693821377853
 31
0.0
100
AcDbText
  0
TEXT
  5
291
330
26F
100
AcDbEntity
  8
Layer100
  6
AUSGEZOGEN
 62
    18
420
        0
370
    18
100
AcDbText
 10
-927.425658776257
 20
-1190.998821377853
 30
0.0
 40
14.85
  1
Dimensions in
 41
1.081916714204
  7
Arial
 72
     5
 11
-786.603108776257
 21
-1190.998821377853
 31
0.0
100
AcDbText
  0
TEXT
  5
292
330
26F
100
AcDbEntity
  8
Layer100
  6
AUSGEZOGEN
 62
    18
420
        0
370
    18
100
AcDbText
 10
-927.425658776257
 20
-1210.303821377853
 30
0.0
 40
14.85
  1
 millimeters
 41
1.084880260734
  7
Arial
 72
     5
 11
-813.734058776257
 21
-1210.303821377853
 31
0.0
100
AcDbText
  0
CIRCLE
  5
293
330
26F
100
AcDbEntity
  8
Layer100
  6
AUSGEZOGEN
 62
    18
420
        0
370
    18
100
AcDbCircle
 10
-817.303414265205
 20
-1265.075608908507
 30
0.0
 40
25.2528123672159
  0
CIRCLE
  5
294
330
26F
100
AcDbEntity
  8
Layer100
  6
AUSGEZOGEN
 62
    18
420
        0
370
    18
100
AcDbCircle
 10
-817.303414265205
 20
-1265.075608908507
 30
0.0
 40
16.94010152284265
  0
LINE
  5
295
330
26F
100
AcDbEntity
  8
Layer100
  6
AUSGEZOGEN
 62
    18
420
        0
370
    18
100
AcDbLine
 10
-913.297322894646
 20
-1282.01571043135
 30
0.0
 11
-913.297322894646
 21
-1248.135507385664
 31
0.0
  0
LINE
  5
296
330
26F
100
AcDbEntity
  8
Layer100
  6
AUSGEZOGEN
 62
    18
420
        0
370
    18
100
AcDbLine
 10
-859.653668072311
 20
-1290.328421275722
 30
0.0
 11
-859.653668072311
 21
-1239.822796541292
 31
0.0
  0
LINE
  5
297
330
26F
100
AcDbEntity
  8
Layer100
  6
AUSGEZOGEN
 62
    18
420
        0
370
    18
100
AcDbLine
 10
-913.297322894646
 20
-1248.135507385664
 30
0.0
 11
-859.653668072311
 21
-1239.822796541292
 31
0.0
  0
LINE
  5
298
330
26F
100
AcDbEntity
  8
Layer100
  6
AUSGEZOGEN
 62
    18
420
        0
370
    18
100
AcDbLine
 10
-859.653668072311
 20
-1290.328421275722
 30
0.0
 11
-913.297322894646
 21
-1282.01571043135
 31
0.0
  0
LINE
  5
299
330
26F
100
AcDbEntity
  8
Layer100
  6
DASHDOT
 62
    18
420
        0
370
    18
100
AcDbLine
 10
-817.303414265205
 20
-1296.132461660512
 30
0.0
 11
-817.303414265205
 21
-1237.213630057604
 31
0.0
  0
LINE
  5
29A
330
26F
100
AcDbEntity
  8
Layer100
  6
DASHDOT
 62
    18
420
        0
370
    18
100
AcDbLine
 10
-845.419092846855
 20
-1265.075608908507
 30
0.0
 11
-789.056324167675
 21
-1265.075608908507
 31
0.0
  0
LINE
  5
29B
330
26F
100
AcDbEntity
  8
Layer100
  6
DASHDOT
 62
    18
420
        0
370
    18
100
AcDbLine
 10
-915.878584195156
 20
-1265.075608908507
 30
0.0
 11
-857.239599619102
 21
-1265.075608908507
 31
0.0
  0
LINE
  5
29C
330
26F
100
AcDbEntity
  8
Layer100
  6
AUSGEZOGEN
 62
    18
420
        0
370
    50
100
AcDbLine
 10
-1308.305658776257
 20
-1609.498821377853
 30
0.0
 11
401.694341223743
 21
-1609.498821377853
 31
0.0
  0
LINE
  5
29D
330
26F
100
AcDbEntity
  8
Layer100
  6
AUSGEZOGEN
 62
    18
420
        0
370
    18
100
AcDbLine
 10
-1308.305658776257
 20
-1571.248821377853
 30
0.0
 11
-752.825658776257
 21
-1571.248821377853
 31
0.0
  0
LINE
  5
29E
330
26F
100
AcDbEntity
  8
Layer100
  6
AUSGEZOGEN
 62
    18
420
        0
370
    18
100
AcDbLine
 10
-1308.305658776257
 20
-1532.998821377853
 30
0.0
 11
-752.825658776257
 21
-1532.998821377853
 31
0.0
  0
LINE
  5
29F
330
26F
100
AcDbEntity
  8
Layer100
  6
AUSGEZOGEN
 62
    18
420
        0
370
    50
100
AcDbLine
 10
-355.025658776257
 20
-1494.748821377853
 30
0.0
 11
401.694341223743
 21
-1494.748821377853
 31
0.0
  0
LINE
  5
2A0
330
26F
100
AcDbEntity
  8
Layer100
  6
AUSGEZOGEN
 62
    18
420
        0
370
    18
100
AcDbLine
 10
-1308.305658776257
 20
-1494.748821377853
 30
0.0
 11
-752.825658776257
 21
-1494.748821377853
 31
0.0
  0
LINE
  5
2A1
330
26F
100
AcDbEntity
  8
Layer100
  6
AUSGEZOGEN
 62
    18
420
        0
370
    18
100
AcDbLine
 10
-1308.305658776257
 20
-1456.498821377853
 30
0.0
 11
-752.825658776257
 21
-1456.498821377853
 31
0.0
  0
LINE
  5
2A2
330
26F
100
AcDbEntity
  8
Layer100
  6
AUSGEZOGEN
 62
    18
420
        0
370
    18
100
AcDbLine
 10
-1308.305658776257
 20
-1418.248821377853
 30
0.0
 11
-355.025658776257
 21
-1418.248821377853
 31
0.0
  0
LINE
  5
2A3
330
26F
100
AcDbEntity
  8
Layer100
  6
AUSGEZOGEN
 62
    18
420
        0
370
    18
100
AcDbLine
 10
-1308.305658776257
 20
-1379.998821377853
 30
0.0
 11
-355.025658776257
 21
-1379.998821377853
 31
0.0
  0
LINE
  5
2A4
330
26F
100
AcDbEntity
  8
Layer100
  6
AUSGEZOGEN
 62
    18
420
        0
370
    18
100
AcDbLine
 10
-1308.305658776257
 20
-1341.748821377853
 30
0.0
 11
-355.025658776257
 21
-1341.748821377853
 31
0.0
  0
LINE
  5
2A5
330
26F
100
AcDbEntity
  8
Layer100
  6
AUSGEZOGEN
 62
    18
420
        0
370
    50
100
AcDbLine
 10
-1308.305658776257
 20
-1303.498821377853
 30
0.0
 11
401.694341223743
 21
-1303.498821377853
 31
0.0
  0
LINE
  5
2A6
330
26F
100
AcDbEntity
  8
Layer100
  6
AUSGEZOGEN
 62
    18
420
        0
370
    50
100
AcDbLine
 10
112.974341223743
 20
-1150.498882725645
 30
0.0
 11
112.974341223743
 21
-1207.872973229017
 31
0.0
  0
LINE
  5
2A7
330
26F
100
AcDbEntity
  8
Layer100
  6
AUSGEZOGEN
 62
    18
420
        0
370
    50
100
AcDbLine
 10
401.694172677908
 20
-1207.873821377605
 30
0.0
 11
-355.025658776257
 21
-1207.871598423769
 31
0.0
  0
ENDBLK
  5
271
330
26F
100
AcDbEntity
  8
0
100
AcDbBlockEnd
  0
BLOCK
  5
2AA
330
2A9
100
AcDbEntity
  8
0
100
AcDbBlockBegin
  2
Beschriftung_nNn020
 70
     0
 10
0.0
 20
0.0
 30
0.0
  3
Beschriftung_nNn020
  1

  0
TEXT
  5
2AC
330
2A9
100
AcDbEntity
  8
Layer100
  6
AUSGEZOGEN
 62
    18
420
        0
370
    18
100
AcDbText
 10
-1240.001787386355
 20
-1240.915820915797
 30
0.0
 40
19.049998998642
  1
Kundenzeichnung
 41
1.032581817144
  7
Arial
 72
     5
 11
-1020.221250890908
 21
-1240.915820915797
 31
0.0
100
AcDbText
  0
TEXT
  5
2AD
330
2A9
100
AcDbEntity
  8
Layer100
  6
AUSGEZOGEN
 62
    18
420
        0
370
    18
100
AcDbText
 10
-235.955658776257
 20
-1188.748821377852
 30
0.0
 40
19.049998998642
  1
1:1
 41
1.022756754879
  7
Arial
 72
     5
 11
-198.157639373038
 21
-1188.748821377852
 31
0.0
100
AcDbText
  0
TEXT
  5
2AE
330
2A9
100
AcDbEntity
  8
Layer100
  6
AUSGEZOGEN
 62
    18
420
        0
370
    18
100
AcDbText
 10
246.084341223744
 20
-1186.836321377853
 30
0.0
 40
19.049998998642
  1
1
 41
0.974226840702
  7
Arial
 72
     5
 11
260.48614100745
 21
-1186.836321377853
 31
0.0
100
AcDbText
  0
TEXT
  5
2AF
330
2A9
100
AcDbEntity
  8
Layer100
  6
AUSGEZOGEN
 62
    18
420
        0
370
    18
100
AcDbText
 10
-345.305658776257
 20
-1397.698821377853
 30
0.0
 40
31.75
  1
Einbauspüle
 41
0.911214686759
  7
Arial
 72
     5
 11
-123.086138490706
 21
-1397.698821377853
 31
0.0
100
AcDbText
  0
TEXT
  5
2B0
330
2A9
100
AcDbEntity
  8
Layer100
  6
AUSGEZOGEN
 62
    18
420
        0
370
    18
100
AcDbText
 10
-345.305658776257
 20
-1460.698821377853
 30
0.0
 40
31.75
  1
LineUP 2E
 41
0.906912471044
  7
Arial
 72
     5
 11
-153.188948560099
 21
-1460.698821377853
 31
0.0
100
AcDbText
  0
TEXT
  5
2B1
330
2A9
100
AcDbEntity
  8
Layer100
  6
AUSGEZOGEN
 62
    18
420
        0
370
    18
100
AcDbText
 10
-345.305658776257
 20
-1586.698821377853
 30
0.0
 40
31.75
  1
1091041 - 1091045
 41
0.912730277945
  7
Arial
 72
     5
 11
5.487391684699
 21
-1586.698821377853
 31
0.0
100
AcDbText
  0
TEXT
  5
2B2
330
2A9
100
AcDbEntity
  8
Layer100
  6
AUSGEZOGEN
 62
    18
420
        0
370
    18
100
AcDbText
 10
-653.645658776257
 20
-1372.348821377853
 30
0.0
 40
19.049998998642
  1
02.03.21
 41
1.034889233423
  7
Arial
 72
     5
 11
-546.555740486476
 21
-1372.348821377853
 31
0.0
100
AcDbText
  0
TEXT
  5
2B3
330
2A9
100
AcDbEntity
  8
Layer100
  6
AUSGEZOGEN
 62
    18
420
        0
370
    18
100
AcDbText
 10
-510.905658776257
 20
-1372.348821377853
 30
0.0
 40
19.049998998642
  1
CM
 41
0.997270426658
  7
Arial
 72
     5
 11
-469.660999410245
 21
-1372.348821377853
 31
0.0
100
AcDbText
  0
ENDBLK
  5
2AB
330
2A9
100
AcDbEntity
  8
0
100
AcDbBlockEnd
  0
ENDSEC
  0
SECTION
  2
ENTITIES
  0
LWPOLYLINE
  5
7A
330
1F
100
AcDbEntity
  8
Layer5
  6
AUSGEZOGEN
 62
     7
370
    70
100
AcDbPolyline
 90
        2
 70
     0
 43
0.0
 10
-859.809025103043
 20
71.764494748178
 10
-83.346569747016
 20
71.764494748179
  0
LINE
  5
7B
330
1F
100
AcDbEntity
  8
Layer6
  6
AUSGEZOGEN
 62
     6
420
 16711935
370
    25
100
AcDbLine
 10
-763.145944948802
 20
671.764494748178
 30
0.0
 11
-763.145944948802
 21
71.764494748178
 31
0.0
  0
LINE
  5
7C
330
1F
100
AcDbEntity
  8
Layer6
  6
AUSGEZOGEN
 62
     6
420
 16711935
370
    25
100
AcDbLine
 10
-263.145944948802
 20
671.764494748178
 30
0.0
 11
-263.145944948802
 21
611.764494748178
 31
0.0
  0
LINE
  5
7D
330
1F
100
AcDbEntity
  8
Layer6
  6
AUSGEZOGEN
 62
     6
420
 16711935
370
    25
100
AcDbLine
 10
-263.145944948802
 20
131.764494748178
 30
0.0
 11
-263.145944948802
 21
71.764494748178
 31
0.0
  0
LINE
  5
7E
330
1F
100
AcDbEntity
  8
Layer6
  6
AUSGEZOGEN
 62
     6
420
 16711935
370
    25
100
AcDbLine
 10
-743.145944948802
 20
671.764494748178
 30
0.0
 11
-743.145944948801
 21
611.412523367842
 31
0.0
  0
LINE
  5
7F
330
1F
100
AcDbEntity
  8
Layer6
  6
AUSGEZOGEN
 62
     6
420
 16711935
370
    25
100
AcDbLine
 10
-743.145944948801
 20
132.116466128514
 30
0.0
 11
-743.145944948802
 21
71.764494748178
 31
0.0
  0
LINE
  5
80
330
1F
100
AcDbEntity
  8
Layer6
  6
AUSGEZOGEN
 62
     6
420
 16711935
370
    25
100
AcDbLine
 10
-283.145944948802
 20
671.764494748178
 30
0.0
 11
-283.145944948802
 21
611.764494748178
 31
0.0
  0
LINE
  5
81
330
1F
100
AcDbEntity
  8
Layer6
  6
AUSGEZOGEN
 62
     6
420
 16711935
370
    25
100
AcDbLine
 10
-283.145944948802
 20
131.764494748178
 30
0.0
 11
-283.145944948802
 21
71.764494748178
 31
0.0
  0
LINE
  5
82
330
1F
100
AcDbEntity
  8
Layer5
  6
AUSGEZOGEN
 62
     7
370
    70
100
AcDbLine
 10
-158.803167167629
 20
136.764494748178
 30
0.0
 11
-158.803167167629
 21
606.764494748178
 31
0.0
  0
ARC
  5
83
330
1F
100
AcDbEntity
  8
Layer5
  6
AUSGEZOGEN
 62
     7
370
    70
100
AcDbCircle
 10
-163.803167167629
 20
606.764494748178
 30
0.0
 40
5.0
100
AcDbArc
 50
0.0
 51
90.0
  0
LINE
  5
84
330
1F
100
AcDbEntity
  8
Layer5
  6
AUSGEZOGEN
 62
     7
370
    70
100
AcDbLine
 10
-163.803167167629
 20
611.764494748178
 30
0.0
 11
-738.803167167629
 21
611.764494748178
 31
0.0
  0
ARC
  5
85
330
1F
100
AcDbEntity
  8
Layer5
  6
AUSGEZOGEN
 62
     7
370
    70
100
AcDbCircle
 10
-738.803167167629
 20
606.764494748178
 30
0.0
 40
5.0
100
AcDbArc
 50
90.0
 51
180.0
  0
LINE
  5
86
330
1F
100
AcDbEntity
  8
Layer5
  6
AUSGEZOGEN
 62
     7
370
    70
100
AcDbLine
 10
-743.803167167629
 20
606.764494748178
 30
0.0
 11
-743.803167167629
 21
136.764494748178
 31
0.0
  0
ARC
  5
87
330
1F
100
AcDbEntity
  8
Layer5
  6
AUSGEZOGEN
 62
     7
370
    70
100
AcDbCircle
 10
-738.803167167629
 20
136.764494748178
 30
0.0
 40
5.0
100
AcDbArc
 50
180.0
 51
270.0
  0
LINE
  5
88
330
1F
100
AcDbEntity
  8
Layer5
  6
AUSGEZOGEN
 62
     7
370
    70
100
AcDbLine
 10
-738.803167167629
 20
131.764494748178
 30
0.0
 11
-163.803167167629
 21
131.764494748178
 31
0.0
  0
ARC
  5
89
330
1F
100
AcDbEntity
  8
Layer5
  6
AUSGEZOGEN
 62
     7
370
    70
100
AcDbCircle
 10
-163.803167167629
 20
136.764494748178
 30
0.0
 40
5.0
100
AcDbArc
 50
270.0
 51
0.0
  0
LWPOLYLINE
  5
8A
330
1F
100
AcDbEntity
  8
Layer3
  6
AUSGEZOGEN
 62
    18
420
        0
370
    25
100
AcDbPolyline
 90
       25
 70
     0
 43
0.0
 10
-827.268811581185
 20
671.764494748178
 10
-842.489079548492
 20
624.244686665451
 10
-851.071371348923
 20
584.838119439608
 10
-854.343282202071
 20
552.393823190355
 10
-853.632407327528
 20
525.760828037396
 10
-850.266341944885
 20
503.788164100436
 10
-845.572681273735
 20
485.32486149918
 10
-840.879020533669
 20
469.219950353333
 10
-837.512954944279
 20
454.322460782601
 10
-836.476359886203
 20
439.657668206119
 10
-837.468231384263
 20
424.955829240753
 10
-839.861845624328
 20
410.1234458028
 10
-843.030478792263
 20
395.067019808556
 10
-846.34740707394
 20
379.693053174318
 10
-849.185906655226
 20
363.908047816385
 10
-850.919253721988
 20
347.61850565105
 10
-850.920724460095
 20
330.730928594612
 10
-848.84959298562
 20
312.973856080418
 10
-845.509125135463
 20
293.363977610008
 10
-841.988584676728
 20
270.740020201976
 10
-839.377235376521
 20
243.940710874912
 10
-838.764341001943
 20
211.804776647409
 10
-841.239165320101
 20
173.170944538058
 10
-847.8909720981
 20
126.87794156545
 10
-859.809025103043
 20
71.764494748178
  0
LWPOLYLINE
  5
8B
330
1F
100
AcDbEntity
  8
Layer3
  6
AUSGEZOGEN
 62
    18
420
        0
370
    25
100
AcDbPolyline
 90
       25
 70
     0
 43
0.0
 10
-43.575198971594
 20
671.764494748178
 10
-56.763175080393
 20
616.094181860357
 10
-64.508363749242
 20
568.577684514086
 10
-67.89296695338
 20
528.189284974041
 10
-67.999186668046
 20
493.903265504899
 10
-65.909224868481
 20
464.693908371336
 10
-62.705283529922
 20
439.53549583803
 10
-59.46956462761
 20
417.402310169657
 10
-57.284270136783
 20
397.268633630894
 10
-56.968554572845
 20
378.264706467411
 10
-58.289382611843
 20
360.144600848851
 10
-60.75067146999
 20
342.818346925851
 10
-63.856338363498
 20
326.195974849046
 10
-67.110300508577
 20
310.187514769073
 10
-70.01647512144
 20
294.702996836569
 10
-72.078779418299
 20
279.652451202171
 10
-72.801130615364
 20
264.945908016514
 10
-71.907240606979
 20
250.342778730989
 10
-70.0
 20
235.0
 10
-67.902094079415
 20
217.923889778705
 10
-66.436208130215
 20
198.120766022262
 10
-66.425027437387
 20
174.596946685831
 10
-68.691237285918
 20
146.358749724568
 10
-74.057522960799
 20
112.41249309363
 10
-83.346569747016
 20
71.764494748178
  0
LWPOLYLINE
  5
8C
330
1F
100
AcDbEntity
  8
Layer5
  6
AUSGEZOGEN
 62
     7
370
    70
100
AcDbPolyline
 90
        2
 70
     0
 43
0.0
 10
-43.575198971594
 20
671.764494748178
 10
-827.268811581185
 20
671.764494748178
  0
DIMENSION
  5
96
330
1F
100
AcDbEntity
  8
Layer2
  6
AUSGEZOGEN
 62
    18
420
        0
370
    25
100
AcDbDimension
280
     0
  2
*D1
 10
-158.803167167629
 20
719.268978687478
 30
0.0
 11
-451.303167167629
 21
768.018978687478
 31
0.0
 70
    32
 71
     5
 42
-1.0
 73
     0
 74
     0
 75
     0
  3
ISO-25
100
AcDbAlignedDimension
 13
-743.803167167629
 23
695.409293286771
 33
0.0
 14
-158.803167167629
 24
693.602840800227
 34
0.0
100
AcDbRotatedDimension
1001
ACAD
1000
DSTYLE
1002
{
1070
     3
1000
<>
1070
   340
1005
6F
1070
    44
1040
5.0
1070
   280
1070
     0
1070
    77
1070
     1
1070
   179
1070
     1
1070
   271
1070
     1
1070
   173
1070
     1
1070
    41
1040
12.5
1070
   147
1040
5.357142857143
1070
   140
1040
37.5
1070
   178
1070
    18
1070
   177
1070
    18
1070
   176
1070
    18
1002
}
  0
DIMENSION
  5
A0
330
1F
100
AcDbEntity
  8
Layer2
  6
AUSGEZOGEN
 62
    18
420
        0
370
    25
100
AcDbDimension
280
     0
  2
*D2
 10
-897.772597743851
 20
131.764494748178
 30
0.0
 11
-946.522597743851
 21
371.764494748178
 31
0.0
 70
    32
 71
     5
 42
-1.0
 73
     0
 74
     0
 75
     0
 53
90.0
  3
ISO-25
100
AcDbAlignedDimension
 13
-870.669480927205
 23
611.764494748178
 33
0.0
 14
-870.669480927205
 24
131.764494748178
 34
0.0
 50
-90.0
100
AcDbRotatedDimension
1001
ACAD
1000
DSTYLE
1002
{
1070
     3
1000
<>
1070
   340
1005
6F
1070
    44
1040
5.0
1070
   280
1070
     0
1070
    77
1070
     1
1070
   179
1070
     1
1070
   271
1070
     1
1070
   173
1070
     1
1070
    41
1040
12.5
1070
   147
1040
5.357142857143
1070
   140
1040
37.5
1070
   178
1070
    18
1070
   177
1070
    18
1070
   176
1070
    18
1002
}
  0
DIMENSION
  5
AA
330
1F
100
AcDbEntity
  8
Layer2
  6
AUSGEZOGEN
 62
    18
420
        0
370
    25
100
AcDbDimension
280
     0
  2
*D3
 10
-263.145944948802
 20
11.764494748178
 30
0.0
 11
-521.421556735394
 21
-27.457732421413
 31
0.0
 70
   160
 71
     5
 42
-1.0
 73
     0
 74
     0
 75
     0
  3
ISO-25
100
AcDbAlignedDimension
 13
-763.145944948802
 23
36.764494748178
 33
0.0
 14
-263.145944948802
 24
36.764494748178
 34
0.0
100
AcDbRotatedDimension
1001
ACAD
1000
DSTYLE
1002
{
1070
     3
1000
<>
1070
   340
1005
6F
1070
    44
1040
5.0
1070
   280
1070
     3
1070
    77
1070
     1
1070
   179
1070
     1
1070
   271
1070
     1
1070
   173
1070
     1
1070
    41
1040
12.5
1070
   147
1040
5.357142857143
1070
   140
1040
37.5
1070
   178
1070
    18
1070
   177
1070
    18
1070
   176
1070
    18
1002
}
  0
DIMENSION
  5
B1
330
1F
100
AcDbEntity
  8
Layer2
  6
AUSGEZOGEN
 62
    18
420
        0
370
    25
100
AcDbDimension
280
     0
  2
*D4
 10
-763.145944948802
 20
-57.899237776719
 30
0.0
 11
-753.474556058215
 21
-26.399237776719
 31
0.0
 70
    32
 71
     5
 42
-1.0
 73
     0
 74
     0
 75
     0
  3
ISO-25
100
AcDbAlignedDimension
 13
-743.803167167629
 23
-34.190692879586
 33
0.0
 14
-763.145944948802
 24
-34.190692879586
 34
0.0
 50
180.0
100
AcDbRotatedDimension
1001
ACAD
1000
DSTYLE
1002
{
1070
     3
1000
<>
1070
   340
1005
6F
1070
    44
1040
5.0
1070
   280
1070
     0
1070
    77
1070
     0
1070
   179
1070
     0
1070
   271
1070
     0
1070
   173
1070
     1
1070
    41
1040
12.5
1070
   147
1040
5.357142857143
1070
   140
1040
37.5
1070
   178
1070
    18
1070
   177
1070
    18
1070
   176
1070
    18
1002
}
  0
INSERT
  5
B9
330
1F
100
AcDbEntity
  8
0
100
AcDbBlockReference
  2
AnonymMegaMac_002_nNn04
 10
0.0
 20
0.0
 30
0.0
  0
LINE
  5
BA
330
1F
100
AcDbEntity
  8
Layer5
  6
AUSGEZOGEN
 62
     7
370
    70
100
AcDbLine
 10
-743.145944948801
 20
132.116466128514
 30
0.0
 11
-743.145944948801
 21
611.764494748178
 31
0.0
  0
LINE
  5
BB
330
1F
100
AcDbEntity
  8
Layer5
  6
AUSGEZOGEN
 62
     7
370
    70
100
AcDbLine
 10
-283.145944948802
 20
611.764494748178
 30
0.0
 11
-283.145944948802
 21
131.764494748178
 31
0.0
  0
LINE
  5
BC
330
1F
100
AcDbEntity
  8
Layer5
  6
AUSGEZOGEN
 62
     7
370
    70
100
AcDbLine
 10
-263.145944948802
 20
131.764494748178
 30
0.0
 11
-263.145944948802
 21
611.764494748178
 31
0.0
  0
LINE
  5
BD
330
1F
100
AcDbEntity
  8
Layer4
  6
AUSGEZOGEN
 62
     1
420
 16711680
370
    25
100
AcDbLine
 10
-653.421550310801
 20
-375.255621060965
 30
0.0
 11
-643.936833676608
 21
-365.770904426772
 31
0.0
  0
LINE
  5
BE
330
1F
100
AcDbEntity
  8
Layer4
  6
AUSGEZOGEN
 62
     1
420
 16711680
370
    25
100
AcDbLine
 10
-644.049998797114
 20
-388.334709849951
 30
0.0
 11
-627.761942498358
 21
-372.046653551195
 31
0.0
  0
LINE
  5
BF
330
1F
100
AcDbEntity
  8
Layer4
  6
AUSGEZOGEN
 62
     1
420
 16711680
370
    25
100
AcDbLine
 10
-641.914763671832
 20
-408.650115027342
 30
0.0
 11
-625.626707373073
 21
-392.362058728583
 31
0.0
  0
LINE
  5
C0
330
1F
100
AcDbEntity
  8
Layer4
  6
AUSGEZOGEN
 62
     1
420
 16711680
370
    25
100
AcDbLine
 10
-639.77952854655
 20
-428.965520204733
 30
0.0
 11
-623.491472247789
 21
-412.677463905971
 31
0.0
  0
LINE
  5
C1
330
1F
100
AcDbEntity
  8
Layer4
  6
AUSGEZOGEN
 62
     1
420
 16711680
370
    25
100
AcDbLine
 10
-637.644293421268
 20
-449.280925382123
 30
0.0
 11
-621.356237122503
 21
-432.992869083358
 31
0.0
  0
LINE
  5
C2
330
1F
100
AcDbEntity
  8
Layer4
  6
AUSGEZOGEN
 62
     1
420
 16711680
370
    25
100
AcDbLine
 10
-635.509058295985
 20
-469.596330559514
 30
0.0
 11
-619.221001997218
 21
-453.308274260746
 31
0.0
  0
LINE
  5
C3
330
1F
100
AcDbEntity
  8
Layer4
  6
AUSGEZOGEN
 62
     1
420
 16711680
370
    25
100
AcDbLine
 10
-633.373823170704
 20
-489.911735736905
 30
0.0
 11
-617.085766871933
 21
-473.623679438134
 31
0.0
  0
LINE
  5
C4
330
1F
100
AcDbEntity
  8
Layer4
  6
AUSGEZOGEN
 62
     1
420
 16711680
370
    25
100
AcDbLine
 10
-631.238588045422
 20
-510.227140914296
 30
0.0
 11
-614.950531746647
 21
-493.939084615522
 31
0.0
  0
LINE
  5
C5
330
1F
100
AcDbEntity
  8
Layer4
  6
AUSGEZOGEN
 62
     1
420
 16711680
370
    25
100
AcDbLine
 10
-629.103352920139
 20
-530.542546091687
 30
0.0
 11
-612.815296621363
 21
-514.254489792909
 31
0.0
  0
LINE
  5
C6
330
1F
100
AcDbEntity
  8
Layer4
  6
AUSGEZOGEN
 62
     1
420
 16711680
370
    25
100
AcDbLine
 10
-622.650920861687
 20
-546.540754335907
 30
0.0
 11
-609.464956069621
 21
-533.354789543841
 31
0.0
  0
LINE
  5
C7
330
1F
100
AcDbEntity
  8
Layer4
  6
AUSGEZOGEN
 62
     1
420
 16711680
370
    25
100
AcDbLine
 10
-611.586444890115
 20
-557.926918667009
 30
0.0
 11
-598.526443352347
 21
-544.86691712924
 31
0.0
  0
LINE
  5
C8
330
1F
100
AcDbEntity
  8
Layer4
  6
AUSGEZOGEN
 62
     1
420
 16711680
370
    25
100
AcDbLine
 10
-595.998014767399
 20
-564.789128846965
 30
0.0
 11
-579.38739558291
 21
-548.178509662476
 31
0.0
  0
LINE
  5
C9
330
1F
100
AcDbEntity
  8
Layer4
  6
AUSGEZOGEN
 62
     1
420
 16711680
370
    25
100
AcDbLine
 10
-574.529150044534
 20
-565.770904426773
 30
0.0
 11
-558.054751768776
 21
-549.296506151015
 31
0.0
  0
LINE
  5
CA
330
1F
100
AcDbEntity
  8
Layer4
  6
AUSGEZOGEN
 62
     1
420
 16711680
370
    25
100
AcDbLine
 10
-552.078509741861
 20
-565.770904426772
 30
0.0
 11
-536.722107954642
 21
-550.414502639553
 31
0.0
  0
LINE
  5
CB
330
1F
100
AcDbEntity
  8
Layer4
  6
AUSGEZOGEN
 62
     1
420
 16711680
370
    25
100
AcDbLine
 10
-529.627869439188
 20
-565.770904426773
 30
0.0
 11
-519.92183811862
 21
-556.064873106204
 31
0.0
  0
LINE
  5
CC
330
1F
100
AcDbEntity
  8
Layer4
  6
AUSGEZOGEN
 62
     1
420
 16711680
370
    25
100
AcDbLine
 10
-236.440439180798
 20
-407.287315984419
 30
0.0
 11
-224.92402762315
 21
-395.770904426772
 31
0.0
  0
LINE
  5
CD
330
1F
100
AcDbEntity
  8
Layer4
  6
AUSGEZOGEN
 62
     1
420
 16711680
370
    25
100
AcDbLine
 10
-211.293135083051
 20
-404.590652189346
 30
0.0
 11
-205.646523362238
 21
-398.944040468533
 31
0.0
  0
LINE
  5
CE
330
1F
100
AcDbEntity
  8
Layer4
  6
AUSGEZOGEN
 62
     1
420
 16711680
370
    25
100
AcDbLine
 10
-211.293135083051
 20
-404.590652189346
 30
0.0
 11
-205.646523362238
 21
-398.944040468533
 31
0.0
  0
LINE
  5
CF
330
1F
100
AcDbEntity
  8
Layer4
  6
AUSGEZOGEN
 62
     1
420
 16711680
370
    25
100
AcDbLine
 10
-201.820645187551
 20
-395.118162293846
 30
0.0
 11
-181.18829579773
 21
-374.485812904025
 31
0.0
  0
LINE
  5
D0
330
1F
100
AcDbEntity
  8
Layer4
  6
AUSGEZOGEN
 62
     1
420
 16711680
370
    25
100
AcDbLine
 10
-176.110158901113
 20
-391.85831631008
 30
0.0
 11
-156.261370584629
 21
-372.009527993596
 31
0.0
  0
LINE
  5
D1
330
1F
100
AcDbEntity
  8
Layer4
  6
AUSGEZOGEN
 62
     1
420
 16711680
370
    25
100
AcDbLine
 10
-151.252381765855
 20
-389.451179477495
 30
0.0
 11
-131.334445371527
 21
-369.533243083167
 31
0.0
  0
LINE
  5
D2
330
1F
100
AcDbEntity
  8
Layer4
  6
AUSGEZOGEN
 62
     1
420
 16711680
370
    25
100
AcDbLine
 10
-126.394604630597
 20
-387.04404264491
 30
0.0
 11
-106.407520158426
 21
-367.056958172739
 31
0.0
  0
LINE
  5
D3
330
1F
100
AcDbEntity
  8
Layer4
  6
AUSGEZOGEN
 62
     1
420
 16711680
370
    25
100
AcDbLine
 10
-101.536827495339
 20
-384.636905812325
 30
0.0
 11
-82.670826109786
 21
-365.770904426772
 31
0.0
  0
INSERT
  5
116
330
1F
100
AcDbEntity
  8
0
100
AcDbBlockReference
  2
AnonymMegaMac_nNn05
 10
0.0
 20
0.0
 30
0.0
  0
LINE
  5
117
330
1F
100
AcDbEntity
  8
Layer4
  6
AUSGEZOGEN
 62
     1
420
 16711680
370
    25
100
AcDbLine
 10
-78.220185807113
 20
-383.770904426772
 30
0.0
 11
-68.421550310801
 21
-373.97226893046
 31
0.0
  0
LINE
  5
118
330
1F
100
AcDbEntity
  8
Layer4
  6
AUSGEZOGEN
 62
     1
420
 16711680
370
    25
100
AcDbLine
 10
-68.220185807113
 20
-373.770904426771
 30
0.0
 11
-60.220185807113
 21
-365.770904426771
 31
0.0
  0
LINE
  5
119
330
1F
100
AcDbEntity
  8
Layer5
  6
AUSGEZOGEN
 62
     7
370
    70
100
AcDbLine
 10
-663.421550310801
 20
-365.770904426772
 30
0.0
 11
-58.421550310801
 21
-365.770904426772
 31
0.0
  0
LINE
  5
11A
330
1F
100
AcDbEntity
  8
Layer5
  6
AUSGEZOGEN
 62
     7
370
    70
100
AcDbLine
 10
-272.91460723678
 20
-395.770904426772
 30
0.0
 11
-221.966271124813
 21
-395.770904426772
 31
0.0
  0
LINE
  5
11B
330
1F
100
AcDbEntity
  8
Layer0
  6
AUSGEZOGEN
 62
     7
370
    18
100
AcDbLine
 10
-422.921556756289
 20
-565.770904426772
 30
0.0
 11
-512.921556734013
 21
-565.770904426772
 31
0.0
  0
LINE
  5
11C
330
1F
100
AcDbEntity
  8
Layer0
  6
AUSGEZOGEN
 62
     7
370
    18
100
AcDbLine
 10
-467.921556744976
 20
-559.770904426772
 30
0.0
 11
-422.921556756113
 21
-559.770904426772
 31
0.0
  0
LINE
  5
11D
330
1F
100
AcDbEntity
  8
Layer0
  6
AUSGEZOGEN
 62
     7
370
    18
100
AcDbLine
 10
-467.921556005636
 20
-550.770904426772
 30
0.0
 11
-405.92155675295
 21
-550.770904426772
 31
0.0
  0
LINE
  5
11E
330
1F
100
AcDbEntity
  8
Layer0
  6
AUSGEZOGEN
 62
     7
370
    18
100
AcDbLine
 10
-512.921556733663
 20
-559.770904426772
 30
0.0
 11
-467.921556744976
 21
-559.770904426772
 31
0.0
  0
LINE
  5
11F
330
1F
100
AcDbEntity
  8
Layer0
  6
AUSGEZOGEN
 62
     7
370
    18
100
AcDbLine
 10
-529.921556736979
 20
-550.770904426772
 30
0.0
 11
-467.921556005636
 21
-550.770904426772
 31
0.0
  0
LINE
  5
120
330
1F
100
AcDbEntity
  8
Layer0
  6
AUSGEZOGEN
 62
     7
370
    18
100
AcDbLine
 10
-512.921556733865
 20
-565.770904426773
 30
0.0
 11
-587.790890355325
 21
-565.770904426773
 31
0.0
  0
LINE
  5
121
330
1F
100
AcDbEntity
  8
Layer0
  6
AUSGEZOGEN
 62
     7
370
    18
100
AcDbLine
 10
-512.921556733865
 20
-559.770904426772
 30
0.0
 11
-512.921556733865
 21
-565.770904426773
 31
0.0
  0
LINE
  5
122
330
1F
100
AcDbEntity
  8
Layer4
  6
AUSGEZOGEN
 62
     1
420
 16711680
370
    25
100
AcDbLine
 10
-308.684594163325
 20
-389.728909756255
 30
0.0
 11
-302.151833683183
 21
-383.196149276113
 31
0.0
  0
LINE
  5
123
330
1F
100
AcDbEntity
  8
Layer4
  6
AUSGEZOGEN
 62
     1
420
 16711680
370
    25
100
AcDbLine
 10
-311.743994945566
 20
-415.238950841169
 30
0.0
 11
-280.999583688718
 21
-384.494539584321
 31
0.0
  0
LINE
  5
124
330
1F
100
AcDbEntity
  8
Layer4
  6
AUSGEZOGEN
 62
     1
420
 16711680
370
    25
100
AcDbLine
 10
-314.605649792682
 20
-440.551245990958
 30
0.0
 11
-295.246544051058
 21
-421.192140249333
 31
0.0
  0
LINE
  5
125
330
1F
100
AcDbEntity
  8
Layer4
  6
AUSGEZOGEN
 62
     1
420
 16711680
370
    25
100
AcDbLine
 10
-280.351481075439
 20
-406.297077273715
 30
0.0
 11
-269.825308228495
 21
-395.770904426772
 31
0.0
  0
LINE
  5
126
330
1F
100
AcDbEntity
  8
Layer4
  6
AUSGEZOGEN
 62
     1
420
 16711680
370
    25
100
AcDbLine
 10
-417.374667925824
 20
-565.770904426773
 30
0.0
 11
-402.178503491029
 21
-550.574739991977
 31
0.0
  0
LINE
  5
127
330
1F
100
AcDbEntity
  8
Layer4
  6
AUSGEZOGEN
 62
     1
420
 16711680
370
    25
100
AcDbLine
 10
-259.374667925823
 20
-407.770904426772
 30
0.0
 11
-258.440439180798
 21
-406.836675681746
 31
0.0
  0
LINE
  5
128
330
1F
100
AcDbEntity
  8
Layer4
  6
AUSGEZOGEN
 62
     1
420
 16711680
370
    25
100
AcDbLine
 10
-317.467304639798
 20
-465.863541140747
 30
0.0
 11
-297.883339835802
 21
-446.279576336751
 31
0.0
  0
LINE
  5
129
330
1F
100
AcDbEntity
  8
Layer4
  6
AUSGEZOGEN
 62
     1
420
 16711680
370
    25
100
AcDbLine
 10
-394.924027623151
 20
-565.770904426773
 30
0.0
 11
-378.486202296654
 21
-549.333079100276
 31
0.0
  0
LINE
  5
12A
330
1F
100
AcDbEntity
  8
Layer4
  6
AUSGEZOGEN
 62
     1
420
 16711680
370
    25
100
AcDbLine
 10
-300.520135620547
 20
-471.367012424169
 30
0.0
 11
-320.328959486914
 21
-491.175836290536
 31
0.0
  0
LINE
  5
12B
330
1F
100
AcDbEntity
  8
Layer4
  6
AUSGEZOGEN
 62
     1
420
 16711680
370
    25
100
AcDbLine
 10
-372.473387320478
 20
-565.770904426773
 30
0.0
 11
-354.793901102281
 21
-548.091418208575
 31
0.0
  0
LINE
  5
12C
330
1F
100
AcDbEntity
  8
Layer4
  6
AUSGEZOGEN
 62
     1
420
 16711680
370
    25
100
AcDbLine
 10
-323.19061433403
 20
-516.488131440324
 30
0.0
 11
-303.156931405292
 21
-496.454448511587
 31
0.0
  0
LINE
  5
12D
330
1F
100
AcDbEntity
  8
Layer4
  6
AUSGEZOGEN
 62
     1
420
 16711680
370
    25
100
AcDbLine
 10
-350.022747017805
 20
-565.770904426773
 30
0.0
 11
-305.793727190037
 21
-521.541884599004
 31
0.0
  0
LINE
  5
12E
330
1F
100
AcDbEntity
  8
Layer0
  6
AUSGEZOGEN
 62
     7
370
    18
100
AcDbLine
 10
-422.921556756088
 20
-565.770904426773
 30
0.0
 11
-422.921556756088
 21
-559.770904426772
 31
0.0
  0
LINE
  5
12F
330
1F
100
AcDbEntity
  8
Layer0
  6
AUSGEZOGEN
 62
     7
370
    18
100
AcDbLine
 10
-422.921556756122
 20
-559.770904426772
 30
0.0
 11
-414.421556754273
 21
-555.27090442673
 31
0.0
  0
LINE
  5
130
330
1F
100
AcDbEntity
  8
Layer0
  6
AUSGEZOGEN
 62
     7
370
    18
100
AcDbLine
 10
-414.421556754273
 20
-555.27090442673
 30
0.0
 11
-405.921556753066
 21
-550.770904426772
 31
0.0
  0
LINE
  5
131
330
1F
100
AcDbEntity
  8
Layer0
  6
AUSGEZOGEN
 62
     7
370
    18
100
AcDbLine
 10
-529.921556736886
 20
-550.770904426772
 30
0.0
 11
-521.421556735394
 21
-555.270904426881
 31
0.0
  0
LINE
  5
132
330
1F
100
AcDbEntity
  8
Layer0
  6
AUSGEZOGEN
 62
     7
370
    18
100
AcDbLine
 10
-521.421556735394
 20
-555.270904426881
 30
0.0
 11
-512.92155673383
 21
-559.770904426772
 31
0.0
  0
LINE
  5
133
330
1F
100
AcDbEntity
  8
Layer1
  6
AUSGEZOGEN
 62
     4
420
    65535
370
    25
100
AcDbLine
 10
-467.9215503108
 20
-540.84657987047
 30
0.0
 11
-467.921570307861
 21
-575.695228983073
 31
0.0
  0
LINE
  5
134
330
1F
100
AcDbEntity
  8
Layer5
  6
AUSGEZOGEN
 62
     7
370
    70
100
AcDbLine
 10
-529.921556736886
 20
-550.770904426772
 30
0.0
 11
-521.421556735394
 21
-555.270904426881
 31
0.0
  0
LINE
  5
135
330
1F
100
AcDbEntity
  8
Layer5
  6
AUSGEZOGEN
 62
     7
370
    70
100
AcDbLine
 10
-521.421556735394
 20
-555.270904426881
 30
0.0
 11
-512.92155673383
 21
-559.770904426772
 31
0.0
  0
LINE
  5
136
330
1F
100
AcDbEntity
  8
Layer5
  6
AUSGEZOGEN
 62
     7
370
    70
100
AcDbLine
 10
-524.921556744976
 20
-568.770904426773
 30
0.0
 11
-410.921556744976
 21
-568.770904426773
 31
0.0
  0
ARC
  5
137
330
1F
100
AcDbEntity
  8
Layer5
  6
AUSGEZOGEN
 62
     7
370
    70
100
AcDbCircle
 10
-524.921556744976
 20
-570.770904426773
 30
0.0
 40
2.0
100
AcDbArc
 50
90.0
 51
180.0
  0
LINE
  5
138
330
1F
100
AcDbEntity
  8
Layer5
  6
AUSGEZOGEN
 62
     7
370
    70
100
AcDbLine
 10
-524.421556744976
 20
-565.770904426773
 30
0.0
 11
-524.421556744976
 21
-568.770904426773
 31
0.0
  0
LINE
  5
139
330
1F
100
AcDbEntity
  8
Layer5
  6
AUSGEZOGEN
 62
     7
370
    70
100
AcDbLine
 10
-411.421556744976
 20
-565.770904426773
 30
0.0
 11
-411.421556744976
 21
-568.770904426773
 31
0.0
  0
LINE
  5
13A
330
1F
100
AcDbEntity
  8
Layer5
  6
AUSGEZOGEN
 62
     7
370
    70
100
AcDbLine
 10
-526.921556744976
 20
-570.770904426773
 30
0.0
 11
-526.921556744976
 21
-576.770904426773
 31
0.0
  0
ARC
  5
13B
330
1F
100
AcDbEntity
  8
Layer5
  6
AUSGEZOGEN
 62
     7
370
    70
100
AcDbCircle
 10
-524.921556744976
 20
-576.770904426773
 30
0.0
 40
2.0
100
AcDbArc
 50
180.0
 51
270.0
  0
LINE
  5
13C
330
1F
100
AcDbEntity
  8
Layer5
  6
AUSGEZOGEN
 62
     7
370
    70
100
AcDbLine
 10
-408.921556744976
 20
-570.770904426773
 30
0.0
 11
-408.921556744976
 21
-576.770904426773
 31
0.0
  0
ARC
  5
13D
330
1F
100
AcDbEntity
  8
Layer5
  6
AUSGEZOGEN
 62
     7
370
    70
100
AcDbCircle
 10
-410.921556744976
 20
-570.770904426773
 30
0.0
 40
2.0
100
AcDbArc
 50
0.0
 51
90.0
  0
LINE
  5
13E
330
1F
100
AcDbEntity
  8
Layer5
  6
AUSGEZOGEN
 62
     7
370
    70
100
AcDbLine
 10
-410.921556744976
 20
-578.770904426773
 30
0.0
 11
-524.921556744976
 21
-578.770904426773
 31
0.0
  0
ARC
  5
13F
330
1F
100
AcDbEntity
  8
Layer5
  6
AUSGEZOGEN
 62
     7
370
    70
100
AcDbCircle
 10
-517.421556744976
 20
-580.770904426773
 30
0.0
 40
2.0
100
AcDbArc
 50
0.0
 51
90.0
  0
ARC
  5
140
330
1F
100
AcDbEntity
  8
Layer5
  6
AUSGEZOGEN
 62
     7
370
    70
100
AcDbCircle
 10
-418.421556744976
 20
-580.770904426773
 30
0.0
 40
2.0
100
AcDbArc
 50
90.0
 51
180.0
  0
ARC
  5
141
330
1F
100
AcDbEntity
  8
Layer5
  6
AUSGEZOGEN
 62
     7
370
    70
100
AcDbCircle
 10
-410.921556744976
 20
-576.770904426773
 30
0.0
 40
2.0
100
AcDbArc
 50
270.0
 51
0.0
  0
LINE
  5
142
330
1F
100
AcDbEntity
  8
Layer5
  6
AUSGEZOGEN
 62
     7
370
    70
100
AcDbLine
 10
-444.421556744976
 20
-613.770904426773
 30
0.0
 11
-491.421556744976
 21
-613.770904426773
 31
0.0
  0
LINE
  5
143
330
1F
100
AcDbEntity
  8
Layer5
  6
AUSGEZOGEN
 62
     7
370
    70
100
AcDbLine
 10
-515.421556744976
 20
-580.770904426773
 30
0.0
 11
-515.421556744976
 21
-599.562413267421
 31
0.0
  0
ARC
  5
144
330
1F
100
AcDbEntity
  8
Layer5
  6
AUSGEZOGEN
 62
     7
370
    70
100
AcDbCircle
 10
-510.421556744976
 20
-599.562413267421
 30
0.0
 40
5.0
100
AcDbArc
 50
180.0
 51
245.37643521383
  0
LINE
  5
145
330
1F
100
AcDbEntity
  8
Layer5
  6
AUSGEZOGEN
 62
     7
370
    70
100
AcDbLine
 10
-420.421556744976
 20
-599.562413267421
 30
0.0
 11
-420.421556744976
 21
-580.770904426773
 31
0.0
  0
ARC
  5
146
330
1F
100
AcDbEntity
  8
Layer5
  6
AUSGEZOGEN
 62
     7
370
    70
100
AcDbCircle
 10
-425.421556744976
 20
-599.562413267421
 30
0.0
 40
5.0
100
AcDbArc
 50
294.62356478617
 51
0.0
  0
LINE
  5
147
330
1F
100
AcDbEntity
  8
Layer5
  6
AUSGEZOGEN
 62
     7
370
    70
100
AcDbLine
 10
-512.504830297442
 20
-604.107737381892
 30
0.0
 11
-492.58824732399
 21
-613.236171244724
 31
0.0
  0
ARC
  5
148
330
1F
100
AcDbEntity
  8
Layer5
  6
AUSGEZOGEN
 62
     7
370
    70
100
AcDbCircle
 10
-493.421556744976
 20
-615.054300890513
 30
0.0
 40
2.0
100
AcDbArc
 50
0.0
 51
65.37643521383
  0
LINE
  5
149
330
1F
100
AcDbEntity
  8
Layer5
  6
AUSGEZOGEN
 62
     7
370
    70
100
AcDbLine
 10
-443.254866165963
 20
-613.236171244724
 30
0.0
 11
-423.33828319251
 21
-604.107737381892
 31
0.0
  0
ARC
  5
14A
330
1F
100
AcDbEntity
  8
Layer5
  6
AUSGEZOGEN
 62
     7
370
    70
100
AcDbCircle
 10
-442.421556744976
 20
-615.054300890513
 30
0.0
 40
2.0
100
AcDbArc
 50
114.62356478617
 51
180.0
  0
LINE
  5
14B
330
1F
100
AcDbEntity
  8
Layer5
  6
AUSGEZOGEN
 62
     7
370
    70
100
AcDbLine
 10
-512.504830297442
 20
-602.26274956478
 30
0.0
 11
-423.33828319251
 21
-602.26274956478
 31
0.0
  0
LINE
  5
14C
330
1F
100
AcDbEntity
  8
Layer5
  6
AUSGEZOGEN
 62
     7
370
    70
100
AcDbLine
 10
-491.421556744976
 20
-615.054300890513
 30
0.0
 11
-491.421556744976
 21
-618.770904426773
 31
0.0
  0
LINE
  5
14D
330
1F
100
AcDbEntity
  8
Layer5
  6
AUSGEZOGEN
 62
     7
370
    70
100
AcDbLine
 10
-444.421556744976
 20
-615.054300890513
 30
0.0
 11
-444.421556744976
 21
-618.770904426773
 31
0.0
  0
LINE
  5
14E
330
1F
100
AcDbEntity
  8
Layer5
  6
AUSGEZOGEN
 62
     7
370
    70
100
AcDbLine
 10
-431.921556744976
 20
-618.770904426773
 30
0.0
 11
-503.921556744976
 21
-618.770904426773
 31
0.0
  0
LINE
  5
14F
330
1F
100
AcDbEntity
  8
Layer5
  6
AUSGEZOGEN
 62
     7
370
    70
100
AcDbLine
 10
-440.421556744976
 20
-638.770904426773
 30
0.0
 11
-495.421556744976
 21
-638.770904426773
 31
0.0
  0
LINE
  5
150
330
1F
100
AcDbEntity
  8
Layer5
  6
AUSGEZOGEN
 62
     7
370
    70
100
AcDbLine
 10
-441.921556744976
 20
-634.770904426773
 30
0.0
 11
-444.671556744976
 21
-634.770904426773
 31
0.0
  0
LINE
  5
151
330
1F
100
AcDbEntity
  8
Layer5
  6
AUSGEZOGEN
 62
     7
370
    70
100
AcDbLine
 10
-446.171556744976
 20
-634.770904426773
 30
0.0
 11
-452.171556744976
 21
-634.770904426773
 31
0.0
  0
LINE
  5
152
330
1F
100
AcDbEntity
  8
Layer5
  6
AUSGEZOGEN
 62
     7
370
    70
100
AcDbLine
 10
-453.671556744976
 20
-634.770904426773
 30
0.0
 11
-461.671556744976
 21
-634.770904426773
 31
0.0
  0
LINE
  5
153
330
1F
100
AcDbEntity
  8
Layer5
  6
AUSGEZOGEN
 62
     7
370
    70
100
AcDbLine
 10
-463.171556744976
 20
-634.770904426773
 30
0.0
 11
-472.671556744976
 21
-634.770904426773
 31
0.0
  0
LINE
  5
154
330
1F
100
AcDbEntity
  8
Layer5
  6
AUSGEZOGEN
 62
     7
370
    70
100
AcDbLine
 10
-474.171556744976
 20
-634.770904426773
 30
0.0
 11
-482.171556744976
 21
-634.770904426773
 31
0.0
  0
LINE
  5
155
330
1F
100
AcDbEntity
  8
Layer5
  6
AUSGEZOGEN
 62
     7
370
    70
100
AcDbLine
 10
-483.671556744976
 20
-634.770904426773
 30
0.0
 11
-489.671556744976
 21
-634.770904426773
 31
0.0
  0
LINE
  5
156
330
1F
100
AcDbEntity
  8
Layer5
  6
AUSGEZOGEN
 62
     7
370
    70
100
AcDbLine
 10
-491.171556744976
 20
-634.770904426773
 30
0.0
 11
-493.921556744976
 21
-634.770904426773
 31
0.0
  0
LINE
  5
157
330
1F
100
AcDbEntity
  8
Layer5
  6
AUSGEZOGEN
 62
     7
370
    70
100
AcDbLine
 10
-503.921556744976
 20
-618.770904426773
 30
0.0
 11
-503.921556744976
 21
-627.770904426773
 31
0.0
  0
LINE
  5
158
330
1F
100
AcDbEntity
  8
Layer5
  6
AUSGEZOGEN
 62
     7
370
    70
100
AcDbLine
 10
-431.921556744976
 20
-618.770904426773
 30
0.0
 11
-431.921556744976
 21
-627.770904426773
 31
0.0
  0
LINE
  5
159
330
1F
100
AcDbEntity
  8
Layer5
  6
AUSGEZOGEN
 62
     7
370
    70
100
AcDbLine
 10
-503.921556744976
 20
-627.770904426773
 30
0.0
 11
-495.421556744976
 21
-627.770904426773
 31
0.0
  0
LINE
  5
15A
330
1F
100
AcDbEntity
  8
Layer5
  6
AUSGEZOGEN
 62
     7
370
    70
100
AcDbLine
 10
-431.921556744976
 20
-627.770904426773
 30
0.0
 11
-440.421556744976
 21
-627.770904426773
 31
0.0
  0
LINE
  5
15B
330
1F
100
AcDbEntity
  8
Layer5
  6
AUSGEZOGEN
 62
     7
370
    70
100
AcDbLine
 10
-495.421556744976
 20
-618.770904426773
 30
0.0
 11
-495.421556744976
 21
-638.770904426773
 31
0.0
  0
LINE
  5
15C
330
1F
100
AcDbEntity
  8
Layer5
  6
AUSGEZOGEN
 62
     7
370
    70
100
AcDbLine
 10
-493.921556744976
 20
-618.770904426773
 30
0.0
 11
-493.921556744975
 21
-634.770904426773
 31
0.0
  0
LINE
  5
15D
330
1F
100
AcDbEntity
  8
Layer5
  6
AUSGEZOGEN
 62
     7
370
    70
100
AcDbLine
 10
-440.421556744976
 20
-618.770904426773
 30
0.0
 11
-440.421556744976
 21
-638.770904426773
 31
0.0
  0
LINE
  5
15E
330
1F
100
AcDbEntity
  8
Layer5
  6
AUSGEZOGEN
 62
     7
370
    70
100
AcDbLine
 10
-441.921556744976
 20
-618.770904426773
 30
0.0
 11
-441.921556744976
 21
-634.770904426773
 31
0.0
  0
LINE
  5
15F
330
1F
100
AcDbEntity
  8
Layer5
  6
AUSGEZOGEN
 62
     7
370
    70
100
AcDbLine
 10
-472.671556744976
 20
-618.770904426773
 30
0.0
 11
-472.671556744976
 21
-634.770904426773
 31
0.0
  0
LINE
  5
160
330
1F
100
AcDbEntity
  8
Layer5
  6
AUSGEZOGEN
 62
     7
370
    70
100
AcDbLine
 10
-474.171556744976
 20
-618.770904426773
 30
0.0
 11
-474.171556744976
 21
-634.770904426773
 31
0.0
  0
LINE
  5
161
330
1F
100
AcDbEntity
  8
Layer5
  6
AUSGEZOGEN
 62
     7
370
    70
100
AcDbLine
 10
-482.171556744976
 20
-618.770904426773
 30
0.0
 11
-482.171556744976
 21
-634.770904426773
 31
0.0
  0
LINE
  5
162
330
1F
100
AcDbEntity
  8
Layer5
  6
AUSGEZOGEN
 62
     7
370
    70
100
AcDbLine
 10
-483.671556744976
 20
-618.770904426773
 30
0.0
 11
-483.671556744976
 21
-634.770904426773
 31
0.0
  0
LINE
  5
163
330
1F
100
AcDbEntity
  8
Layer5
  6
AUSGEZOGEN
 62
     7
370
    70
100
AcDbLine
 10
-489.671556744976
 20
-618.770904426773
 30
0.0
 11
-489.671556744976
 21
-634.770904426773
 31
0.0
  0
LINE
  5
164
330
1F
100
AcDbEntity
  8
Layer5
  6
AUSGEZOGEN
 62
     7
370
    70
100
AcDbLine
 10
-491.171556744976
 20
-618.770904426773
 30
0.0
 11
-491.171556744976
 21
-634.770904426773
 31
0.0
  0
LINE
  5
165
330
1F
100
AcDbEntity
  8
Layer5
  6
AUSGEZOGEN
 62
     7
370
    70
100
AcDbLine
 10
-463.171556744976
 20
-634.770904426773
 30
0.0
 11
-463.171556744976
 21
-618.770904426773
 31
0.0
  0
LINE
  5
166
330
1F
100
AcDbEntity
  8
Layer5
  6
AUSGEZOGEN
 62
     7
370
    70
100
AcDbLine
 10
-461.671556744976
 20
-634.770904426773
 30
0.0
 11
-461.671556744976
 21
-618.770904426773
 31
0.0
  0
LINE
  5
167
330
1F
100
AcDbEntity
  8
Layer5
  6
AUSGEZOGEN
 62
     7
370
    70
100
AcDbLine
 10
-453.671556744976
 20
-634.770904426773
 30
0.0
 11
-453.671556744976
 21
-618.770904426773
 31
0.0
  0
LINE
  5
168
330
1F
100
AcDbEntity
  8
Layer5
  6
AUSGEZOGEN
 62
     7
370
    70
100
AcDbLine
 10
-452.171556744976
 20
-634.770904426773
 30
0.0
 11
-452.171556744976
 21
-618.770904426773
 31
0.0
  0
LINE
  5
169
330
1F
100
AcDbEntity
  8
Layer5
  6
AUSGEZOGEN
 62
     7
370
    70
100
AcDbLine
 10
-446.171556744976
 20
-634.770904426773
 30
0.0
 11
-446.171556744976
 21
-618.770904426773
 31
0.0
  0
LINE
  5
16A
330
1F
100
AcDbEntity
  8
Layer5
  6
AUSGEZOGEN
 62
     7
370
    70
100
AcDbLine
 10
-444.671556744976
 20
-634.770904426773
 30
0.0
 11
-444.671556744976
 21
-618.770904426773
 31
0.0
  0
LINE
  5
16B
330
1F
100
AcDbEntity
  8
Layer5
  6
AUSGEZOGEN
 62
     7
370
    70
100
AcDbLine
 10
-487.921556744976
 20
-638.770904426773
 30
0.0
 11
-487.921556744976
 21
-641.770904426773
 31
0.0
  0
LINE
  5
16C
330
1F
100
AcDbEntity
  8
Layer5
  6
AUSGEZOGEN
 62
     7
370
    70
100
AcDbLine
 10
-447.921556744976
 20
-638.770904426773
 30
0.0
 11
-447.921556744976
 21
-641.770904426773
 31
0.0
  0
ARC
  5
16D
330
1F
100
AcDbEntity
  8
Layer5
  6
AUSGEZOGEN
 62
     7
370
    70
100
AcDbCircle
 10
-467.921556744976
 20
-658.770904426773
 30
0.0
 40
20.0
100
AcDbArc
 50
180.0
 51
0.0
  0
LINE
  5
16E
330
1F
100
AcDbEntity
  8
Layer5
  6
AUSGEZOGEN
 62
     7
370
    70
100
AcDbLine
 10
-447.921556744976
 20
-641.770904426773
 30
0.0
 11
-447.921556744976
 21
-658.770904426773
 31
0.0
  0
LINE
  5
16F
330
1F
100
AcDbEntity
  8
Layer5
  6
AUSGEZOGEN
 62
     7
370
    70
100
AcDbLine
 10
-487.921556744976
 20
-641.770904426773
 30
0.0
 11
-487.921556744976
 21
-658.770904426773
 31
0.0
  0
LINE
  5
170
330
1F
100
AcDbEntity
  8
Layer0
  6
AUSGEZOGEN
 62
     7
370
    18
100
AcDbLine
 10
-649.031694297508
 20
-383.770904426772
 30
0.0
 11
-653.421550310801
 21
-383.770904426772
 31
0.0
  0
ARC
  5
171
330
1F
100
AcDbEntity
  8
Layer0
  6
AUSGEZOGEN
 62
     7
370
    18
100
AcDbCircle
 10
-649.031694297508
 20
-388.770904426772
 30
0.0
 40
5.000000000000001
100
AcDbArc
 50
6.000000000035
 51
90.0
  0
LINE
  5
172
330
1F
100
AcDbEntity
  8
Layer0
  6
AUSGEZOGEN
 62
     7
370
    18
100
AcDbLine
 10
-668.421550310801
 20
-373.770904426772
 30
0.0
 11
-653.421550310801
 21
-373.770904426772
 31
0.0
  0
ARC
  5
173
330
1F
100
AcDbEntity
  8
Layer0
  6
AUSGEZOGEN
 62
     7
370
    18
100
AcDbCircle
 10
-663.421550310801
 20
-370.770904426772
 30
0.0
 40
4.999999999999999
100
AcDbArc
 50
90.0
 51
180.0
  0
LINE
  5
174
330
1F
100
AcDbEntity
  8
Layer0
  6
AUSGEZOGEN
 62
     7
370
    18
100
AcDbLine
 10
-668.421550310801
 20
-373.770904426772
 30
0.0
 11
-668.421550310801
 21
-370.770904426772
 31
0.0
  0
LINE
  5
175
330
1F
100
AcDbEntity
  8
Layer0
  6
AUSGEZOGEN
 62
     7
370
    18
100
AcDbLine
 10
-653.421550310801
 20
-403.770904426772
 30
0.0
 11
-653.421550310801
 21
-373.770904426772
 31
0.0
  0
ARC
  5
176
330
1F
100
AcDbEntity
  8
Layer0
  6
AUSGEZOGEN
 62
     7
370
    18
100
AcDbCircle
 10
-632.92357053229
 20
-370.770904426772
 30
0.0
 40
5.0
100
AcDbArc
 50
6.000000000035
 51
90.0
  0
LINE
  5
177
330
1F
100
AcDbEntity
  8
Layer5
  6
AUSGEZOGEN
 62
     7
370
    70
100
AcDbLine
 10
-644.059084820666
 20
-388.248262110434
 30
0.0
 11
-629.10173917457
 21
-530.55789985517
 31
0.0
  0
LINE
  5
178
330
1F
100
AcDbEntity
  8
Layer0
  6
AUSGEZOGEN
 62
     7
370
    18
100
AcDbLine
 10
-422.921543887736
 20
-565.770904426773
 30
0.0
 11
-348.05221026627
 21
-565.770904426773
 31
0.0
  0
LINE
  5
179
330
1F
100
AcDbEntity
  8
Layer5
  6
AUSGEZOGEN
 62
     7
370
    70
100
AcDbLine
 10
-405.921543884622
 20
-550.770904426773
 30
0.0
 11
-346.568116353366
 21
-547.660323097024
 31
0.0
  0
LINE
  5
17A
330
1F
100
AcDbEntity
  8
Layer5
  6
AUSGEZOGEN
 62
     7
370
    70
100
AcDbLine
 10
-309.020874781151
 20
-391.152041338623
 30
0.0
 11
-324.354053059001
 21
-526.779136459629
 31
0.0
  0
LINE
  5
17B
330
1F
100
AcDbEntity
  8
Layer5
  6
AUSGEZOGEN
 62
     7
370
    70
100
AcDbLine
 10
-294.60460778382
 20
-415.084524646454
 30
0.0
 11
-306.741331405599
 21
-530.557736464218
 31
0.0
  0
LINE
  5
17C
330
1F
100
AcDbEntity
  8
Layer5
  6
AUSGEZOGEN
 62
     7
370
    70
100
AcDbLine
 10
-300.303527449711
 20
-382.80108100719
 30
0.0
 11
-286.01817278327
 21
-381.911387963036
 31
0.0
  0
LINE
  5
17D
330
1F
100
AcDbEntity
  8
Layer5
  6
AUSGEZOGEN
 62
     7
370
    70
100
AcDbLine
 10
-227.440439180797
 20
-395.770904426772
 30
0.0
 11
-267.440439180797
 21
-395.770904426772
 31
0.0
  0
LINE
  5
17E
330
1F
100
AcDbEntity
  8
Layer1
  6
AUSGEZOGEN
 62
     4
420
    65535
370
    25
100
AcDbLine
 10
-247.440439180797
 20
-380.770904426772
 30
0.0
 11
-247.440439180797
 21
-422.770904426772
 31
0.0
  0
LINE
  5
17F
330
1F
100
AcDbEntity
  8
Layer5
  6
AUSGEZOGEN
 62
     7
370
    70
100
AcDbLine
 10
-236.440439180797
 20
-402.770904426773
 30
0.0
 11
-258.440439180797
 21
-402.770904426773
 31
0.0
  0
LINE
  5
180
330
1F
100
AcDbEntity
  8
Layer5
  6
AUSGEZOGEN
 62
     7
370
    70
100
AcDbLine
 10
-228.440439180797
 20
-395.770904426772
 30
0.0
 11
-266.440439180797
 21
-395.770904426772
 31
0.0
  0
LINE
  5
181
330
1F
100
AcDbEntity
  8
Layer5
  6
AUSGEZOGEN
 62
     7
370
    70
100
AcDbLine
 10
-228.440439180797
 20
-395.770904426772
 30
0.0
 11
-236.440439180797
 21
-402.770904426772
 31
0.0
  0
LINE
  5
182
330
1F
100
AcDbEntity
  8
Layer5
  6
AUSGEZOGEN
 62
     7
370
    70
100
AcDbLine
 10
-236.440439180797
 20
-402.770904426772
 30
0.0
 11
-236.440439180798
 21
-407.770904426772
 31
0.0
  0
LINE
  5
183
330
1F
100
AcDbEntity
  8
Layer5
  6
AUSGEZOGEN
 62
     7
370
    70
100
AcDbLine
 10
-258.440439180798
 20
-407.770904426772
 30
0.0
 11
-258.440439180797
 21
-402.770904426772
 31
0.0
  0
LINE
  5
184
330
1F
100
AcDbEntity
  8
Layer5
  6
AUSGEZOGEN
 62
     7
370
    70
100
AcDbLine
 10
-258.440439180797
 20
-402.770904426772
 30
0.0
 11
-266.440439180797
 21
-395.770904426772
 31
0.0
  0
LINE
  5
185
330
1F
100
AcDbEntity
  8
Layer5
  6
AUSGEZOGEN
 62
     7
370
    70
100
AcDbLine
 10
-280.415819657428
 20
-386.448382653892
 30
0.0
 11
-280.413532983885
 21
-388.39783999866
 31
0.0
  0
LINE
  5
186
330
1F
100
AcDbEntity
  8
Layer5
  6
AUSGEZOGEN
 62
     7
370
    70
100
AcDbLine
 10
-272.91460723678
 20
-395.770904426772
 30
0.0
 11
-266.440439180797
 21
-395.770904426772
 31
0.0
  0
ARC
  5
187
330
1F
100
AcDbEntity
  8
Layer5
  6
AUSGEZOGEN
 62
     7
370
    70
100
AcDbCircle
 10
-299.146789832405
 20
-392.733953607033
 30
0.0
 40
10.0
100
AcDbArc
 50
96.642488108248
 51
170.898075873092
  0
LINE
  5
188
330
1F
100
AcDbEntity
  8
Layer5
  6
AUSGEZOGEN
 62
     7
370
    70
100
AcDbLine
 10
-194.421550310801
 20
-375.800427850972
 30
0.0
 11
-93.421550310801
 21
-365.766908922539
 31
0.0
  0
LINE
  5
189
330
1F
100
AcDbEntity
  8
Layer5
  6
AUSGEZOGEN
 62
     7
370
    70
100
AcDbLine
 10
-197.042620988427
 20
-393.885339893601
 30
0.0
 11
-92.593891992256
 21
-383.770904426771
 31
0.0
  0
LINE
  5
18A
330
1F
100
AcDbEntity
  8
Layer5
  6
AUSGEZOGEN
 62
     7
370
    70
100
AcDbLine
 10
-209.680506980765
 20
-377.69611195169
 30
0.0
 11
-194.421550310801
 21
-375.800427850971
 31
0.0
  0
LINE
  5
18B
330
1F
100
AcDbEntity
  8
Layer5
  6
AUSGEZOGEN
 62
     7
370
    70
100
AcDbLine
 10
-214.444152154223
 20
-382.64896100855
 30
0.0
 11
-214.467068227696
 21
-388.161561352639
 31
0.0
  0
ARC
  5
18C
330
1F
100
AcDbEntity
  8
Layer5
  6
AUSGEZOGEN
 62
     7
370
    70
100
AcDbCircle
 10
-272.91460723678
 20
-388.270904426772
 30
0.0
 40
7.5
100
AcDbArc
 50
179.16465085048
 51
270.0
  0
ARC
  5
18D
330
1F
100
AcDbEntity
  8
Layer5
  6
AUSGEZOGEN
 62
     7
370
    70
100
AcDbCircle
 10
-272.91460723678
 20
-388.270904426772
 30
0.0
 40
19.5
100
AcDbArc
 50
242.937572925962
 51
270.0
  0
ARC
  5
18E
330
1F
100
AcDbEntity
  8
Layer5
  6
AUSGEZOGEN
 62
     7
370
    70
100
AcDbCircle
 10
-285.397778365506
 20
-386.872749748515
 30
0.0
 40
5.0
100
AcDbArc
 50
4.868746004956
 51
97.127565590766
  0
ARC
  5
18F
330
1F
100
AcDbEntity
  8
Layer5
  6
AUSGEZOGEN
 62
     7
370
    70
100
AcDbCircle
 10
-221.966271124813
 20
-388.270904426772
 30
0.0
 40
7.5
100
AcDbArc
 50
270.0
 51
0.83534914952
  0
ARC
  5
190
330
1F
100
AcDbEntity
  8
Layer5
  6
AUSGEZOGEN
 62
     7
370
    70
100
AcDbCircle
 10
-221.966271124813
 20
-388.270904426772
 30
0.0
 40
19.5
100
AcDbArc
 50
270.0
 51
330.624228046647
  0
ARC
  5
191
330
1F
100
AcDbEntity
  8
Layer5
  6
AUSGEZOGEN
 62
     7
370
    70
100
AcDbCircle
 10
-209.444324960651
 20
-382.690530641926
 30
0.0
 40
5.0
100
AcDbArc
 50
92.7074540742
 51
180.000000001199
  0
LINE
  5
192
330
1F
100
AcDbEntity
  8
Layer5
  6
AUSGEZOGEN
 62
     7
370
    70
100
AcDbLine
 10
-285.397778365506
 20
-381.872749748515
 30
0.0
 11
-209.680506980762
 21
-377.69611195169
 31
0.0
  0
LINE
  5
193
330
1F
100
AcDbEntity
  8
Layer0
  6
AUSGEZOGEN
 62
     7
370
    18
100
AcDbLine
 10
-53.421550310801
 20
-373.770904426772
 30
0.0
 11
-68.421550310801
 21
-373.770904426772
 31
0.0
  0
ARC
  5
194
330
1F
100
AcDbEntity
  8
Layer0
  6
AUSGEZOGEN
 62
     7
370
    18
100
AcDbCircle
 10
-58.421550310801
 20
-370.770904426772
 30
0.0
 40
4.999999999999999
100
AcDbArc
 50
0.0
 51
90.0
  0
LINE
  5
195
330
1F
100
AcDbEntity
  8
Layer0
  6
AUSGEZOGEN
 62
     7
370
    18
100
AcDbLine
 10
-53.421550310801
 20
-373.770904426772
 30
0.0
 11
-53.421550310801
 21
-370.770904426772
 31
0.0
  0
LINE
  5
196
330
1F
100
AcDbEntity
  8
Layer0
  6
AUSGEZOGEN
 62
     7
370
    18
100
AcDbLine
 10
-68.421550310801
 20
-403.770904426772
 30
0.0
 11
-68.421550310801
 21
-373.770904426772
 31
0.0
  0
LINE
  5
197
330
1F
100
AcDbEntity
  8
Layer5
  6
AUSGEZOGEN
 62
     7
370
    70
100
AcDbLine
 10
-68.421550310801
 20
-383.770904426772
 30
0.0
 11
-92.593891992256
 21
-383.770904426772
 31
0.0
  0
LINE
  5
198
330
1F
100
AcDbEntity
  8
Layer5
  6
AUSGEZOGEN
 62
     7
370
    70
100
AcDbLine
 10
-272.91460723678
 20
-407.770904426772
 30
0.0
 11
-221.966271124813
 21
-407.770904426772
 31
0.0
  0
ARC
  5
199
330
1F
100
AcDbEntity
  8
Layer5
  6
AUSGEZOGEN
 62
     7
370
    70
100
AcDbCircle
 10
-284.605669183074
 20
-415.230219047586
 30
0.0
 40
10.0
100
AcDbArc
 50
73.62444287024
 51
179.165203036322
  0
ARC
  5
19A
330
1F
100
AcDbEntity
  8
Layer5
  6
AUSGEZOGEN
 62
     7
370
    70
100
AcDbCircle
 10
-197.010499501339
 20
-403.885288303971
 30
0.0
 40
10.0
100
AcDbArc
 50
90.184042880674
 51
142.778746908514
  0
LINE
  5
19B
330
1F
100
AcDbEntity
  8
Layer4
  6
AUSGEZOGEN
 62
     1
420
 16711680
370
    25
100
AcDbLine
 10
-529.921556736886
 20
-550.770904426772
 30
0.0
 11
-521.421556735394
 21
-555.270904426881
 31
0.0
  0
LINE
  5
19C
330
1F
100
AcDbEntity
  8
Layer4
  6
AUSGEZOGEN
 62
     1
420
 16711680
370
    25
100
AcDbLine
 10
-521.421556735394
 20
-555.270904426881
 30
0.0
 11
-512.92155673383
 21
-559.770904426772
 31
0.0
  0
LINE
  5
19D
330
1F
100
AcDbEntity
  8
Layer4
  6
AUSGEZOGEN
 62
     1
420
 16711680
370
    25
100
AcDbLine
 10
-529.921556736886
 20
-550.770904426772
 30
0.0
 11
-521.421556735394
 21
-555.270904426881
 31
0.0
  0
LINE
  5
19E
330
1F
100
AcDbEntity
  8
Layer4
  6
AUSGEZOGEN
 62
     1
420
 16711680
370
    25
100
AcDbLine
 10
-521.421556735394
 20
-555.270904426881
 30
0.0
 11
-512.92155673383
 21
-559.770904426772
 31
0.0
  0
LINE
  5
19F
330
1F
100
AcDbEntity
  8
Layer4
  6
AUSGEZOGEN
 62
     1
420
 16711680
370
    25
100
AcDbLine
 10
-529.921556736886
 20
-550.770904426772
 30
0.0
 11
-521.421556735394
 21
-555.270904426881
 31
0.0
  0
LINE
  5
1A0
330
1F
100
AcDbEntity
  8
Layer4
  6
AUSGEZOGEN
 62
     1
420
 16711680
370
    25
100
AcDbLine
 10
-521.421556735394
 20
-555.270904426881
 30
0.0
 11
-512.92155673383
 21
-559.770904426772
 31
0.0
  0
LINE
  5
1A1
330
1F
100
AcDbEntity
  8
Layer4
  6
AUSGEZOGEN
 62
     1
420
 16711680
370
    25
100
AcDbLine
 10
-529.921556736886
 20
-550.770904426772
 30
0.0
 11
-521.421556735394
 21
-555.270904426881
 31
0.0
  0
LINE
  5
1A2
330
1F
100
AcDbEntity
  8
Layer4
  6
AUSGEZOGEN
 62
     1
420
 16711680
370
    25
100
AcDbLine
 10
-521.421556735394
 20
-555.270904426881
 30
0.0
 11
-512.92155673383
 21
-559.770904426772
 31
0.0
  0
LINE
  5
1A3
330
1F
100
AcDbEntity
  8
Layer4
  6
AUSGEZOGEN
 62
     1
420
 16711680
370
    25
100
AcDbLine
 10
-529.921556736886
 20
-550.770904426772
 30
0.0
 11
-521.421556735394
 21
-555.270904426881
 31
0.0
  0
LINE
  5
1A4
330
1F
100
AcDbEntity
  8
Layer4
  6
AUSGEZOGEN
 62
     1
420
 16711680
370
    25
100
AcDbLine
 10
-521.421556735394
 20
-555.270904426881
 30
0.0
 11
-512.92155673383
 21
-559.770904426772
 31
0.0
  0
LINE
  5
1A5
330
1F
100
AcDbEntity
  8
Layer5
  6
AUSGEZOGEN
 62
     7
370
    70
100
AcDbLine
 10
-529.921556736886
 20
-550.770904426772
 30
0.0
 11
-521.421556735394
 21
-555.270904426881
 31
0.0
  0
LINE
  5
1A6
330
1F
100
AcDbEntity
  8
Layer5
  6
AUSGEZOGEN
 62
     7
370
    70
100
AcDbLine
 10
-521.421556735394
 20
-555.270904426881
 30
0.0
 11
-512.92155673383
 21
-559.770904426772
 31
0.0
  0
LINE
  5
1A7
330
1F
100
AcDbEntity
  8
Layer5
  6
AUSGEZOGEN
 62
     7
370
    70
100
AcDbLine
 10
-422.921556756122
 20
-559.770904426772
 30
0.0
 11
-414.421556754273
 21
-555.27090442673
 31
0.0
  0
LINE
  5
1A8
330
1F
100
AcDbEntity
  8
Layer5
  6
AUSGEZOGEN
 62
     7
370
    70
100
AcDbLine
 10
-414.421556754273
 20
-555.27090442673
 30
0.0
 11
-405.921556753066
 21
-550.770904426772
 31
0.0
  0
LINE
  5
1A9
330
1F
100
AcDbEntity
  8
Layer5
  6
AUSGEZOGEN
 62
     7
370
    70
100
AcDbLine
 10
-627.950961055449
 20
-370.248262110432
 30
0.0
 11
-611.518448006259
 21
-526.593180158936
 31
0.0
  0
LINE
  5
1AA
330
1F
100
AcDbEntity
  8
Layer5
  6
AUSGEZOGEN
 62
     7
370
    70
100
AcDbLine
 10
-589.274984268482
 20
-547.660323097
 30
0.0
 11
-529.921556736979
 21
-550.770904426773
 31
0.0
  0
ARC
  5
1AB
330
1F
100
AcDbEntity
  8
Layer5
  6
AUSGEZOGEN
 62
     7
370
    70
100
AcDbCircle
 10
-586.810645448846
 20
-522.782078902884
 30
0.0
 40
25.0
100
AcDbArc
 50
188.768589509697
 51
264.342964776789
  0
ARC
  5
1AC
330
1F
100
AcDbEntity
  8
Layer5
  6
AUSGEZOGEN
 62
     7
370
    70
100
AcDbCircle
 10
-586.810645448846
 20
-522.782078902884
 30
0.0
 40
43.0
100
AcDbArc
 50
190.418286094586
 51
268.693749728635
  0
ARC
  5
1AD
330
1F
100
AcDbEntity
  8
Layer5
  6
AUSGEZOGEN
 62
     7
370
    70
100
AcDbCircle
 10
-349.032455172754
 20
-522.782078902884
 30
0.0
 40
25.0
100
AcDbArc
 50
275.657035223238
 51
350.79993530715
  0
ARC
  5
1AE
330
1F
100
AcDbEntity
  8
Layer5
  6
AUSGEZOGEN
 62
     7
370
    70
100
AcDbCircle
 10
-349.032455172754
 20
-522.782078902884
 30
0.0
 40
43.0
100
AcDbArc
 50
271.306250271365
 51
349.581935266655
  0
LINE
  5
1AF
330
1F
100
AcDbEntity
  8
Layer5
  6
AUSGEZOGEN
 62
     7
370
    70
100
AcDbLine
 10
-668.421550310801
 20
-373.770904426772
 30
0.0
 11
-916.427939848402
 21
-373.770904426772
 31
0.0
  0
LINE
  5
1B0
330
1F
100
AcDbEntity
  8
Layer4
  6
AUSGEZOGEN
 62
     1
420
 16711680
370
    25
100
AcDbLine
 10
-672.764328091972
 20
-419.424583587268
 30
0.0
 11
-663.124070851118
 21
-409.784326346414
 31
0.0
  0
LINE
  5
1B1
330
1F
100
AcDbEntity
  8
Layer4
  6
AUSGEZOGEN
 62
     1
420
 16711680
370
    25
100
AcDbLine
 10
-672.764328091972
 20
-440.977198277834
 30
0.0
 11
-663.124070851118
 21
-431.33694103698
 31
0.0
  0
LINE
  5
1B2
330
1F
100
AcDbEntity
  8
Layer4
  6
AUSGEZOGEN
 62
     1
420
 16711680
370
    25
100
AcDbLine
 10
-672.764328091973
 20
-462.529812968401
 30
0.0
 11
-663.124070851118
 21
-452.889555727546
 31
0.0
  0
LINE
  5
1B3
330
1F
100
AcDbEntity
  8
Layer4
  6
AUSGEZOGEN
 62
     1
420
 16711680
370
    25
100
AcDbLine
 10
-672.764328091973
 20
-484.082427658967
 30
0.0
 11
-663.124070851118
 21
-474.442170418112
 31
0.0
  0
LINE
  5
1B4
330
1F
100
AcDbEntity
  8
Layer4
  6
AUSGEZOGEN
 62
     1
420
 16711680
370
    25
100
AcDbLine
 10
-672.764328091972
 20
-505.635042349532
 30
0.0
 11
-663.124070851118
 21
-495.994785108678
 31
0.0
  0
LINE
  5
1B5
330
1F
100
AcDbEntity
  8
Layer4
  6
AUSGEZOGEN
 62
     1
420
 16711680
370
    25
100
AcDbLine
 10
-672.764328091973
 20
-527.187657040098
 30
0.0
 11
-663.124070851118
 21
-517.547399799244
 31
0.0
  0
LINE
  5
1B6
330
1F
100
AcDbEntity
  8
Layer4
  6
AUSGEZOGEN
 62
     1
420
 16711680
370
    25
100
AcDbLine
 10
-672.764328091973
 20
-548.740271730664
 30
0.0
 11
-663.124070851118
 21
-539.10001448981
 31
0.0
  0
LINE
  5
1B7
330
1F
100
AcDbEntity
  8
Layer4
  6
AUSGEZOGEN
 62
     1
420
 16711680
370
    25
100
AcDbLine
 10
-672.764328091972
 20
-570.29288642123
 30
0.0
 11
-663.124070851118
 21
-560.652629180376
 31
0.0
  0
LINE
  5
1B8
330
1F
100
AcDbEntity
  8
Layer4
  6
AUSGEZOGEN
 62
     1
420
 16711680
370
    25
100
AcDbLine
 10
-672.764328091973
 20
-591.845501111797
 30
0.0
 11
-663.124070851118
 21
-582.205243870942
 31
0.0
  0
LINE
  5
1B9
330
1F
100
AcDbEntity
  8
Layer4
  6
AUSGEZOGEN
 62
     1
420
 16711680
370
    25
100
AcDbLine
 10
-672.764328091972
 20
-613.398115802362
 30
0.0
 11
-663.124070851118
 21
-603.757858561508
 31
0.0
  0
LINE
  5
1BA
330
1F
100
AcDbEntity
  8
Layer4
  6
AUSGEZOGEN
 62
     1
420
 16711680
370
    25
100
AcDbLine
 10
-672.764328091973
 20
-634.950730492928
 30
0.0
 11
-663.124070851118
 21
-625.310473252074
 31
0.0
  0
LINE
  5
1BB
330
1F
100
AcDbEntity
  8
Layer4
  6
AUSGEZOGEN
 62
     1
420
 16711680
370
    25
100
AcDbLine
 10
-672.764328091973
 20
-656.503345183494
 30
0.0
 11
-663.124070851118
 21
-646.86308794264
 31
0.0
  0
LINE
  5
1BC
330
1F
100
AcDbEntity
  8
Layer4
  6
AUSGEZOGEN
 62
     1
420
 16711680
370
    25
100
AcDbLine
 10
-672.764328091973
 20
-678.05595987406
 30
0.0
 11
-663.124070851118
 21
-668.415702633206
 31
0.0
  0
LINE
  5
1BD
330
1F
100
AcDbEntity
  8
Layer4
  6
AUSGEZOGEN
 62
     1
420
 16711680
370
    25
100
AcDbLine
 10
-672.764328091973
 20
-699.608574564626
 30
0.0
 11
-663.124070851118
 21
-689.968317323772
 31
0.0
  0
LINE
  5
1BE
330
1F
100
AcDbEntity
  8
Layer4
  6
AUSGEZOGEN
 62
     1
420
 16711680
370
    25
100
AcDbLine
 10
-672.764328091973
 20
-721.161189255192
 30
0.0
 11
-663.124070851118
 21
-711.520932014338
 31
0.0
  0
LINE
  5
1BF
330
1F
100
AcDbEntity
  8
Layer4
  6
AUSGEZOGEN
 62
     1
420
 16711680
370
    25
100
AcDbLine
 10
-672.764328091972
 20
-742.713803945758
 30
0.0
 11
-663.124070851118
 21
-733.073546704904
 31
0.0
  0
LINE
  5
1C0
330
1F
100
AcDbEntity
  8
Layer4
  6
AUSGEZOGEN
 62
     1
420
 16711680
370
    25
100
AcDbLine
 10
-178.190240313384
 20
-743.849854050187
 30
0.0
 11
-172.764328091972
 21
-738.423941828775
 31
0.0
  0
LINE
  5
1C1
330
1F
100
AcDbEntity
  8
Layer4
  6
AUSGEZOGEN
 62
     1
420
 16711680
370
    25
100
AcDbLine
 10
-668.051736540831
 20
-749.698510396321
 30
0.0
 11
-672.764328091973
 21
-744.985918845179
 31
0.0
  0
LINE
  5
1C2
330
1F
100
AcDbEntity
  8
Layer4
  6
AUSGEZOGEN
 62
     1
420
 16711680
370
    25
100
AcDbLine
 10
-656.764328091973
 20
-739.433304154613
 30
0.0
 11
-672.764328091973
 21
-723.433304154614
 31
0.0
  0
LINE
  5
1C3
330
1F
100
AcDbEntity
  8
Layer4
  6
AUSGEZOGEN
 62
     1
420
 16711680
370
    25
100
AcDbLine
 10
-656.764328091973
 20
-717.880689464048
 30
0.0
 11
-672.764328091974
 21
-701.880689464048
 31
0.0
  0
LINE
  5
1C4
330
1F
100
AcDbEntity
  8
Layer4
  6
AUSGEZOGEN
 62
     1
420
 16711680
370
    25
100
AcDbLine
 10
-656.764328091973
 20
-696.328074773482
 30
0.0
 11
-672.764328091973
 21
-680.328074773481
 31
0.0
  0
LINE
  5
1C5
330
1F
100
AcDbEntity
  8
Layer4
  6
AUSGEZOGEN
 62
     1
420
 16711680
370
    25
100
AcDbLine
 10
-656.764328091973
 20
-674.775460082916
 30
0.0
 11
-672.764328091974
 21
-658.775460082915
 31
0.0
  0
LINE
  5
1C6
330
1F
100
AcDbEntity
  8
Layer4
  6
AUSGEZOGEN
 62
     1
420
 16711680
370
    25
100
AcDbLine
 10
-656.764328091973
 20
-653.22284539235
 30
0.0
 11
-672.764328091973
 21
-637.22284539235
 31
0.0
  0
LINE
  5
1C7
330
1F
100
AcDbEntity
  8
Layer4
  6
AUSGEZOGEN
 62
     1
420
 16711680
370
    25
100
AcDbLine
 10
-656.764328091973
 20
-631.670230701783
 30
0.0
 11
-672.764328091973
 21
-615.670230701784
 31
0.0
  0
LINE
  5
1C8
330
1F
100
AcDbEntity
  8
Layer4
  6
AUSGEZOGEN
 62
     1
420
 16711680
370
    25
100
AcDbLine
 10
-656.764328091973
 20
-610.117616011217
 30
0.0
 11
-672.764328091973
 21
-594.117616011218
 31
0.0
  0
LINE
  5
1C9
330
1F
100
AcDbEntity
  8
Layer4
  6
AUSGEZOGEN
 62
     1
420
 16711680
370
    25
100
AcDbLine
 10
-656.764328091973
 20
-588.565001320651
 30
0.0
 11
-672.764328091972
 21
-572.565001320652
 31
0.0
  0
LINE
  5
1CA
330
1F
100
AcDbEntity
  8
Layer4
  6
AUSGEZOGEN
 62
     1
420
 16711680
370
    25
100
AcDbLine
 10
-656.764328091973
 20
-567.012386630087
 30
0.0
 11
-672.764328091973
 21
-551.012386630086
 31
0.0
  0
LINE
  5
1CB
330
1F
100
AcDbEntity
  8
Layer4
  6
AUSGEZOGEN
 62
     1
420
 16711680
370
    25
100
AcDbLine
 10
-656.764328091973
 20
-545.45977193952
 30
0.0
 11
-672.764328091973
 21
-529.45977193952
 31
0.0
  0
LINE
  5
1CC
330
1F
100
AcDbEntity
  8
Layer4
  6
AUSGEZOGEN
 62
     1
420
 16711680
370
    25
100
AcDbLine
 10
-656.764328091973
 20
-523.907157248954
 30
0.0
 11
-672.764328091972
 21
-507.907157248955
 31
0.0
  0
LINE
  5
1CD
330
1F
100
AcDbEntity
  8
Layer4
  6
AUSGEZOGEN
 62
     1
420
 16711680
370
    25
100
AcDbLine
 10
-656.764328091973
 20
-502.354542558388
 30
0.0
 11
-672.764328091972
 21
-486.354542558389
 31
0.0
  0
LINE
  5
1CE
330
1F
100
AcDbEntity
  8
Layer4
  6
AUSGEZOGEN
 62
     1
420
 16711680
370
    25
100
AcDbLine
 10
-656.764328091973
 20
-480.801927867822
 30
0.0
 11
-672.764328091972
 21
-464.801927867822
 31
0.0
  0
LINE
  5
1CF
330
1F
100
AcDbEntity
  8
Layer4
  6
AUSGEZOGEN
 62
     1
420
 16711680
370
    25
100
AcDbLine
 10
-656.764328091973
 20
-459.249313177256
 30
0.0
 11
-672.764328091972
 21
-443.249313177257
 31
0.0
  0
LINE
  5
1D0
330
1F
100
AcDbEntity
  8
Layer4
  6
AUSGEZOGEN
 62
     1
420
 16711680
370
    25
100
AcDbLine
 10
-656.764328091973
 20
-437.69669848669
 30
0.0
 11
-672.764328091972
 21
-421.69669848669
 31
0.0
  0
LINE
  5
1D1
330
1F
100
AcDbEntity
  8
Layer4
  6
AUSGEZOGEN
 62
     1
420
 16711680
370
    25
100
AcDbLine
 10
-656.764328091973
 20
-416.144083796123
 30
0.0
 11
-670.637507461324
 21
-402.270904426772
 31
0.0
  0
LINE
  5
1D2
330
1F
100
AcDbEntity
  8
Layer4
  6
AUSGEZOGEN
 62
     1
420
 16711680
370
    25
100
AcDbLine
 10
-172.764328091973
 20
-749.275780962162
 30
0.0
 11
-188.764328091973
 21
-733.275780962162
 31
0.0
  0
LINE
  5
1D3
330
1F
100
AcDbEntity
  8
Layer4
  6
AUSGEZOGEN
 62
     1
420
 16711680
370
    25
100
AcDbLine
 10
-172.764328091973
 20
-727.723166271596
 30
0.0
 11
-188.764328091972
 21
-711.723166271597
 31
0.0
  0
LINE
  5
1D4
330
1F
100
AcDbEntity
  8
Layer4
  6
AUSGEZOGEN
 62
     1
420
 16711680
370
    25
100
AcDbLine
 10
-172.764328091973
 20
-706.170551581031
 30
0.0
 11
-188.764328091972
 21
-690.170551581031
 31
0.0
  0
LINE
  5
1D5
330
1F
100
AcDbEntity
  8
Layer4
  6
AUSGEZOGEN
 62
     1
420
 16711680
370
    25
100
AcDbLine
 10
-172.764328091973
 20
-684.617936890464
 30
0.0
 11
-188.764328091972
 21
-668.617936890465
 31
0.0
  0
LINE
  5
1D6
330
1F
100
AcDbEntity
  8
Layer4
  6
AUSGEZOGEN
 62
     1
420
 16711680
370
    25
100
AcDbLine
 10
-172.764328091973
 20
-663.065322199899
 30
0.0
 11
-188.764328091972
 21
-647.065322199899
 31
0.0
  0
LINE
  5
1D7
330
1F
100
AcDbEntity
  8
Layer4
  6
AUSGEZOGEN
 62
     1
420
 16711680
370
    25
100
AcDbLine
 10
-172.764328091973
 20
-641.512707509333
 30
0.0
 11
-188.764328091972
 21
-625.512707509334
 31
0.0
  0
LINE
  5
1D8
330
1F
100
AcDbEntity
  8
Layer4
  6
AUSGEZOGEN
 62
     1
420
 16711680
370
    25
100
AcDbLine
 10
-172.764328091973
 20
-619.960092818766
 30
0.0
 11
-188.764328091973
 21
-603.960092818766
 31
0.0
  0
LINE
  5
1D9
330
1F
100
AcDbEntity
  8
Layer4
  6
AUSGEZOGEN
 62
     1
420
 16711680
370
    25
100
AcDbLine
 10
-172.764328091973
 20
-598.4074781282
 30
0.0
 11
-188.764328091972
 21
-582.407478128201
 31
0.0
  0
LINE
  5
1DA
330
1F
100
AcDbEntity
  8
Layer4
  6
AUSGEZOGEN
 62
     1
420
 16711680
370
    25
100
AcDbLine
 10
-172.764328091973
 20
-576.854863437634
 30
0.0
 11
-188.764328091973
 21
-560.854863437634
 31
0.0
  0
LINE
  5
1DB
330
1F
100
AcDbEntity
  8
Layer4
  6
AUSGEZOGEN
 62
     1
420
 16711680
370
    25
100
AcDbLine
 10
-172.764328091973
 20
-555.302248747068
 30
0.0
 11
-188.764328091972
 21
-539.302248747069
 31
0.0
  0
LINE
  5
1DC
330
1F
100
AcDbEntity
  8
Layer4
  6
AUSGEZOGEN
 62
     1
420
 16711680
370
    25
100
AcDbLine
 10
-172.764328091973
 20
-533.749634056503
 30
0.0
 11
-188.764328091972
 21
-517.749634056503
 31
0.0
  0
LINE
  5
1DD
330
1F
100
AcDbEntity
  8
Layer4
  6
AUSGEZOGEN
 62
     1
420
 16711680
370
    25
100
AcDbLine
 10
-172.764328091973
 20
-512.197019365937
 30
0.0
 11
-188.764328091972
 21
-496.197019365937
 31
0.0
  0
LINE
  5
1DE
330
1F
100
AcDbEntity
  8
Layer4
  6
AUSGEZOGEN
 62
     1
420
 16711680
370
    25
100
AcDbLine
 10
-172.764328091973
 20
-490.644404675371
 30
0.0
 11
-188.764328091972
 21
-474.644404675371
 31
0.0
  0
LINE
  5
1DF
330
1F
100
AcDbEntity
  8
Layer4
  6
AUSGEZOGEN
 62
     1
420
 16711680
370
    25
100
AcDbLine
 10
-172.764328091973
 20
-469.091789984805
 30
0.0
 11
-188.764328091972
 21
-453.091789984806
 31
0.0
  0
LINE
  5
1E0
330
1F
100
AcDbEntity
  8
Layer4
  6
AUSGEZOGEN
 62
     1
420
 16711680
370
    25
100
AcDbLine
 10
-172.764328091973
 20
-447.539175294238
 30
0.0
 11
-188.764328091972
 21
-431.539175294239
 31
0.0
  0
LINE
  5
1E1
330
1F
100
AcDbEntity
  8
Layer4
  6
AUSGEZOGEN
 62
     1
420
 16711680
370
    25
100
AcDbLine
 10
-172.764328091973
 20
-425.986560603672
 30
0.0
 11
-188.764328091973
 21
-409.986560603672
 31
0.0
  0
LINE
  5
1E2
330
1F
100
AcDbEntity
  8
Layer4
  6
AUSGEZOGEN
 62
     1
420
 16711680
370
    25
100
AcDbLine
 10
-172.764328091973
 20
-404.433945913107
 30
0.0
 11
-173.427369578309
 21
-403.770904426771
 31
0.0
  0
LINE
  5
1E3
330
1F
100
AcDbEntity
  8
Layer5
  6
AUSGEZOGEN
 62
     7
370
    70
100
AcDbLine
 10
-642.585245723604
 20
-403.770904426772
 30
0.0
 11
-916.427939848402
 21
-403.770904426772
 31
0.0
  0
LINE
  5
1E4
330
1F
100
AcDbEntity
  8
Layer5
  6
AUSGEZOGEN
 62
     7
370
    70
100
AcDbLine
 10
-53.421550310801
 20
-373.770904426772
 30
0.0
 11
158.74878246811
 21
-373.770904426772
 31
0.0
  0
LINE
  5
1E5
330
1F
100
AcDbEntity
  8
Layer5
  6
AUSGEZOGEN
 62
     7
370
    70
100
AcDbLine
 10
-210.473387320477
 20
-403.770904426772
 30
0.0
 11
158.74878246811
 21
-403.770904426772
 31
0.0
  0
LWPOLYLINE
  5
1E6
330
1F
100
AcDbEntity
  8
Layer3
  6
AUSGEZOGEN
 62
     3
420
    65280
370
    25
100
AcDbPolyline
 90
        9
 70
     0
 43
0.0
 10
-916.427939848402
 20
-373.770904426772
 10
-918.775542792566
 20
-377.118360995328
 10
-919.709729473023
 20
-380.748620763593
 10
-919.601836172459
 20
-384.577788336206
 10
-918.823199173564
 20
-388.521968317802
 10
-917.745154759023
 20
-392.49726531302
 10
-916.739039211524
 20
-396.419783926496
 10
-916.176188813755
 20
-400.205628762867
 10
-916.427939848402
 20
-403.770904426772
  0
LWPOLYLINE
  5
1E7
330
1F
100
AcDbEntity
  8
Layer3
  6
AUSGEZOGEN
 62
     3
420
    65280
370
    25
100
AcDbPolyline
 90
        9
 70
     0
 43
0.0
 10
158.74878246811
 20
-373.770904426772
 10
160.284890878035
 20
-378.100316147226
 10
160.439454294115
 20
-382.120055934194
 10
159.683801154713
 20
-385.902186651496
 10
158.48925989819
 20
-389.518771162954
 10
157.327158962906
 20
-393.041872332389
 10
156.668826787224
 20
-396.543553023622
 10
156.985591809505
 20
-400.095876100476
 10
158.74878246811
 20
-403.770904426772
  0
LINE
  5
1E8
330
1F
100
AcDbEntity
  8
Layer5
  6
AUSGEZOGEN
 62
     7
370
    70
100
AcDbLine
 10
-672.764328091973
 20
-403.770904426772
 30
0.0
 11
-672.764328091973
 21
-750.923929516423
 31
0.0
  0
LINE
  5
1E9
330
1F
100
AcDbEntity
  8
Layer5
  6
AUSGEZOGEN
 62
     7
370
    70
100
AcDbLine
 10
-656.764328091973
 20
-403.770904426772
 30
0.0
 11
-656.764328091973
 21
-746.763436142691
 31
0.0
  0
LINE
  5
1EA
330
1F
100
AcDbEntity
  8
Layer5
  6
AUSGEZOGEN
 62
     7
370
    70
100
AcDbLine
 10
-172.764328091973
 20
-403.770904426772
 30
0.0
 11
-172.764328091973
 21
-752.869503050006
 31
0.0
  0
LINE
  5
1EB
330
1F
100
AcDbEntity
  8
Layer5
  6
AUSGEZOGEN
 62
     7
370
    70
100
AcDbLine
 10
-188.764328091973
 20
-403.77090442677
 30
0.0
 11
-188.764328091973
 21
-752.751972535213
 31
0.0
  0
LWPOLYLINE
  5
1EC
330
1F
100
AcDbEntity
  8
Layer3
  6
AUSGEZOGEN
 62
    18
420
        0
370
    25
100
AcDbPolyline
 90
       25
 70
     0
 43
0.0
 10
-672.764328091973
 20
-750.923929516423
 10
-645.457831869487
 20
-743.823398479329
 10
-618.380448491434
 20
-740.192626332993
 10
-591.6467184684
 20
-739.275137880411
 10
-565.371182310972
 20
-740.314457924578
 10
-539.668380529735
 20
-742.55411126849
 10
-514.652853635275
 20
-745.237622715141
 10
-490.439142138177
 20
-747.608517067527
 10
-467.141786549028
 20
-748.910319128643
 10
-444.863508645153
 20
-748.588231217858
 10
-423.659755270838
 20
-746.894165720045
 10
-403.574154537109
 20
-744.28171253645
 10
-384.650334554989
 20
-741.204461568318
 10
-366.931923435506
 20
-738.116002716896
 10
-350.462549289684
 20
-735.46992588343
 10
-335.285840228549
 20
-733.719820969168
 10
-321.445424363126
 20
-733.319277875354
 10
-308.806610082338
 20
-734.565127824016
 10
-296.521426886699
 20
-737.1271673203
 10
-283.563584554619
 20
-740.518434190134
 10
-268.906792864508
 20
-744.251966259445
 10
-251.524761594777
 20
-747.840801354161
 10
-230.391200523838
 20
-750.797977300208
 10
-204.479819430099
 20
-752.636531923514
 10
-172.764328091973
 20
-752.869503050006
  0
LINE
  5
1ED
330
1F
100
AcDbEntity
  8
Layer4
  6
AUSGEZOGEN
 62
     1
420
 16711680
370
    25
100
AcDbLine
 10
-188.764328091972
 20
-429.302319678157
 30
0.0
 11
-179.124070851119
 21
-419.662062437303
 31
0.0
  0
LINE
  5
1EE
330
1F
100
AcDbEntity
  8
Layer4
  6
AUSGEZOGEN
 62
     1
420
 16711680
370
    25
100
AcDbLine
 10
-188.764328091972
 20
-450.854934368723
 30
0.0
 11
-179.124070851119
 21
-441.214677127868
 31
0.0
  0
LINE
  5
1EF
330
1F
100
AcDbEntity
  8
Layer4
  6
AUSGEZOGEN
 62
     1
420
 16711680
370
    25
100
AcDbLine
 10
-188.764328091973
 20
-472.407549059289
 30
0.0
 11
-179.124070851119
 21
-462.767291818435
 31
0.0
  0
LINE
  5
1F0
330
1F
100
AcDbEntity
  8
Layer4
  6
AUSGEZOGEN
 62
     1
420
 16711680
370
    25
100
AcDbLine
 10
-188.764328091973
 20
-493.960163749855
 30
0.0
 11
-179.124070851119
 21
-484.319906509001
 31
0.0
  0
LINE
  5
1F1
330
1F
100
AcDbEntity
  8
Layer4
  6
AUSGEZOGEN
 62
     1
420
 16711680
370
    25
100
AcDbLine
 10
-188.764328091971
 20
-515.512778440421
 30
0.0
 11
-179.124070851119
 21
-505.872521199566
 31
0.0
  0
LINE
  5
1F2
330
1F
100
AcDbEntity
  8
Layer4
  6
AUSGEZOGEN
 62
     1
420
 16711680
370
    25
100
AcDbLine
 10
-188.764328091973
 20
-537.065393130987
 30
0.0
 11
-179.124070851119
 21
-527.425135890133
 31
0.0
  0
LINE
  5
1F3
330
1F
100
AcDbEntity
  8
Layer4
  6
AUSGEZOGEN
 62
     1
420
 16711680
370
    25
100
AcDbLine
 10
-188.764328091973
 20
-558.618007821553
 30
0.0
 11
-179.124070851119
 21
-548.977750580698
 31
0.0
  0
LINE
  5
1F4
330
1F
100
AcDbEntity
  8
Layer4
  6
AUSGEZOGEN
 62
     1
420
 16711680
370
    25
100
AcDbLine
 10
-188.764328091972
 20
-580.170622512119
 30
0.0
 11
-179.124070851119
 21
-570.530365271265
 31
0.0
  0
LINE
  5
1F5
330
1F
100
AcDbEntity
  8
Layer4
  6
AUSGEZOGEN
 62
     1
420
 16711680
370
    25
100
AcDbLine
 10
-188.764328091973
 20
-601.723237202685
 30
0.0
 11
-179.124070851119
 21
-592.082979961831
 31
0.0
  0
LINE
  5
1F6
330
1F
100
AcDbEntity
  8
Layer4
  6
AUSGEZOGEN
 62
     1
420
 16711680
370
    25
100
AcDbLine
 10
-188.764328091972
 20
-623.275851893251
 30
0.0
 11
-179.124070851119
 21
-613.635594652396
 31
0.0
  0
LINE
  5
1F7
330
1F
100
AcDbEntity
  8
Layer4
  6
AUSGEZOGEN
 62
     1
420
 16711680
370
    25
100
AcDbLine
 10
-188.764328091973
 20
-644.828466583817
 30
0.0
 11
-179.124070851119
 21
-635.188209342963
 31
0.0
  0
LINE
  5
1F8
330
1F
100
AcDbEntity
  8
Layer4
  6
AUSGEZOGEN
 62
     1
420
 16711680
370
    25
100
AcDbLine
 10
-188.764328091973
 20
-666.381081274383
 30
0.0
 11
-179.124070851119
 21
-656.740824033529
 31
0.0
  0
LINE
  5
1F9
330
1F
100
AcDbEntity
  8
Layer4
  6
AUSGEZOGEN
 62
     1
420
 16711680
370
    25
100
AcDbLine
 10
-188.764328091973
 20
-687.933695964949
 30
0.0
 11
-179.124070851119
 21
-678.293438724095
 31
0.0
  0
LINE
  5
1FA
330
1F
100
AcDbEntity
  8
Layer4
  6
AUSGEZOGEN
 62
     1
420
 16711680
370
    25
100
AcDbLine
 10
-188.764328091973
 20
-709.486310655515
 30
0.0
 11
-179.124070851119
 21
-699.84605341466
 31
0.0
  0
LINE
  5
1FB
330
1F
100
AcDbEntity
  8
Layer4
  6
AUSGEZOGEN
 62
     1
420
 16711680
370
    25
100
AcDbLine
 10
-188.764328091973
 20
-731.038925346081
 30
0.0
 11
-179.124070851119
 21
-721.398668105226
 31
0.0
  0
LINE
  5
1FC
330
1F
100
AcDbEntity
  8
Layer4
  6
AUSGEZOGEN
 62
     1
420
 16711680
370
    25
100
AcDbLine
 10
-188.764328091972
 20
-752.591540036647
 30
0.0
 11
-179.124070851119
 21
-742.951282795792
 31
0.0
  0
DIMENSION
  5
206
330
1F
100
AcDbEntity
  8
Layer2
  6
AUSGEZOGEN
 62
    18
420
        0
370
    25
100
AcDbDimension
280
     0
  2
*D7
 10
-172.764328091973
 20
-904.735374262613
 30
0.0
 11
-422.764328091973
 21
-882.235374262613
 31
0.0
 70
    32
 71
     5
 42
-1.0
 73
     0
 74
     0
 75
     0
  3
ISO-25
100
AcDbAlignedDimension
 13
-672.764328091973
 23
-750.923929516423
 33
0.0
 14
-172.764328091973
 24
-740.314922480241
 34
0.0
100
AcDbRotatedDimension
1001
ACAD
1000
DSTYLE
1002
{
1070
     3
1000
<>
1070
   340
1005
6F
1070
    44
1040
5.0
1070
   280
1070
     0
1070
    77
1070
     1
1070
   179
1070
     0
1070
   271
1070
     0
1070
   173
1070
     1
1070
    41
1040
12.5
1070
   147
1040
5.357142857143
1070
   140
1040
37.5
1070
   178
1070
    18
1070
   177
1070
    18
1070
   176
1070
    18
1002
}
  0
DIMENSION
  5
20F
330
1F
100
AcDbEntity
  8
Layer2
  6
AUSGEZOGEN
 62
    18
420
        0
370
    25
100
AcDbDimension
280
     0
  2
*D8
 10
-976.427939848384
 20
-403.770904426772
 30
0.0
 11
-998.927939848384
 21
-388.770904426772
 31
0.0
 70
    32
 71
     5
 42
-1.0
 73
     0
 74
     0
 75
     0
 53
90.0
  3
ISO-25
100
AcDbAlignedDimension
 13
-916.427939848402
 23
-373.770904426772
 33
0.0
 14
-916.427939848402
 24
-403.770904426772
 34
0.0
 50
-90.0
100
AcDbRotatedDimension
1001
ACAD
1000
DSTYLE
1002
{
1070
     3
1000
<>
1070
   340
1005
6F
1070
    44
1040
5.0
1070
   280
1070
     0
1070
    77
1070
     0
1070
   179
1070
     0
1070
   271
1070
     0
1070
   173
1070
     1
1070
    41
1040
12.5
1070
   147
1040
5.357142857143
1070
   140
1040
37.5
1070
   178
1070
    18
1070
   177
1070
    18
1070
   176
1070
    18
1002
}
  0
DIMENSION
  5
21B
330
1F
100
AcDbEntity
  8
Layer2
  6
AUSGEZOGEN
 62
    18
420
        0
370
    25
100
AcDbDimension
280
     0
  2
*D9
 10
-746.104000122966
 20
-365.770904426773
 30
0.0
 11
-768.604000122965
 21
-320.41534666106
 31
0.0
 70
    32
  1
8\S+4^ -2
 71
     5
 42
-1.0
 73
     0
 74
     0
 75
     0
 53
90.0
  3
ISO-25
100
AcDbAlignedDimension
 13
-668.42154957146
 23
-373.770904426773
 33
0.0
 14
-663.42154957146
 24
-365.770904426773
 34
0.0
 50
90.0
100
AcDbRotatedDimension
1001
ACAD
1000
DSTYLE
1002
{
1070
   340
1005
6F
1070
    44
1040
5.0
1070
   280
1070
     0
1070
    77
1070
     1
1070
   179
1070
     0
1070
   271
1070
     0
1070
   173
1070
     1
1070
    41
1040
12.5
1070
   147
1040
5.357142857143
1070
   140
1040
37.5
1070
   178
1070
    18
1070
   177
1070
    18
1070
   176
1070
    18
1002
}
  0
DIMENSION
  5
225
330
1F
100
AcDbEntity
  8
Layer2
  6
AUSGEZOGEN
 62
    18
420
        0
370
    25
100
AcDbDimension
280
     0
  2
*D10
 10
-488.129148143194
 20
-365.770904426773
 30
0.0
 11
-510.629148143195
 21
-458.270904426773
 31
0.0
 70
    32
 71
     5
 42
-1.0
 73
     0
 74
     0
 75
     0
 53
90.0
  3
ISO-25
100
AcDbAlignedDimension
 13
-467.921556744976
 23
-550.770904426773
 33
0.0
 14
-452.981422716589
 24
-365.770904426773
 34
0.0
 50
90.0
100
AcDbRotatedDimension
1001
ACAD
1000
DSTYLE
1002
{
1070
     3
1000
<>
1070
   340
1005
6F
1070
    44
1040
5.0
1070
   280
1070
     0
1070
    77
1070
     1
1070
   179
1070
     0
1070
   271
1070
     0
1070
   173
1070
     1
1070
    41
1040
12.5
1070
   147
1040
5.357142857143
1070
   140
1040
37.5
1070
   178
1070
    18
1070
   177
1070
    18
1070
   176
1070
    18
1002
}
  0
DIMENSION
  5
22F
330
1F
100
AcDbEntity
  8
Layer2
  6
AUSGEZOGEN
 62
    18
420
        0
370
    25
100
AcDbDimension
280
     0
  2
*D11
 10
-201.469571363281
 20
-821.418006126242
 30
0.0
 11
-422.764328091974
 21
-798.918006126242
 31
0.0
 70
    32
 71
     5
 42
-1.0
 73
     0
 74
     0
 75
     0
  3
ISO-25
100
AcDbAlignedDimension
 13
-644.059084820666
 23
-388.248262110433
 33
0.0
 14
-201.469571363281
 24
-394.934496264713
 34
0.0
100
AcDbRotatedDimension
1001
ACAD
1000
DSTYLE
1002
{
1070
     3
1000
<>
1070
   340
1005
6F
1070
    44
1040
5.0
1070
   280
1070
     0
1070
    77
1070
     1
1070
   179
1070
     0
1070
   271
1070
     0
1070
   173
1070
     1
1070
    41
1040
12.5
1070
   147
1040
5.357142857143
1070
   140
1040
37.5
1070
   178
1070
    18
1070
   177
1070
    18
1070
   176
1070
    18
1002
}
  0
DIMENSION
  5
238
330
1F
100
AcDbEntity
  8
Layer2
  6
AUSGEZOGEN
 62
    18
420
        0
370
    25
100
AcDbDimension
280
     0
  2
*D12
 10
229.649849453183
 20
-393.885339893601
 30
0.0
 11
207.149849453183
 21
-379.828122160186
 31
0.0
 70
    32
  1
26
 71
     5
 42
-1.0
 73
     0
 74
     0
 75
     0
 53
90.0
  3
ISO-25
100
AcDbAlignedDimension
 13
-60.220185807113
 23
-365.770904426771
 33
0.0
 14
-198.841256484739
 24
-393.885339893601
 34
0.0
 50
-90.0
100
AcDbRotatedDimension
1001
ACAD
1000
DSTYLE
1002
{
1070
   340
1005
6F
1070
    44
1040
5.0
1070
   280
1070
     0
1070
    77
1070
     0
1070
   179
1070
     0
1070
   271
1070
     0
1070
   173
1070
     1
1070
    41
1040
12.5
1070
   147
1040
5.357142857143
1070
   140
1040
37.5
1070
   178
1070
    18
1070
   177
1070
    18
1070
   176
1070
    18
1002
}
  0
DIMENSION
  5
242
330
1F
100
AcDbEntity
  8
Layer2
  6
AUSGEZOGEN
 62
    18
420
        0
370
    25
100
AcDbDimension
280
     0
  2
*D13
 10
-1069.447757457436
 20
-365.770904426773
 30
0.0
 11
-1091.947757457436
 21
-465.770904426773
 31
0.0
 70
    32
  1
200
 71
     5
 42
-1.0
 73
     0
 74
     0
 75
     0
 53
90.0
  3
ISO-25
100
AcDbAlignedDimension
 13
-586.683329352858
 23
-565.770904426773
 33
0.0
 14
-663.421550310801
 24
-365.770904426773
 34
0.0
 50
90.0
100
AcDbRotatedDimension
1001
ACAD
1000
DSTYLE
1002
{
1070
   340
1005
6F
1070
    44
1040
5.0
1070
   280
1070
     0
1070
    77
1070
     1
1070
   179
1070
     0
1070
   271
1070
     0
1070
   173
1070
     1
1070
    41
1040
12.5
1070
   147
1040
5.357142857143
1070
   140
1040
37.5
1070
   178
1070
    18
1070
   177
1070
    18
1070
   176
1070
    18
1002
}
  0
DIMENSION
  5
24C
330
1F
100
AcDbEntity
  8
Layer2
  6
AUSGEZOGEN
 62
    18
420
        0
370
    25
100
AcDbDimension
280
     0
  2
*D14
 10
-1069.447757457436
 20
-565.770904426773
 30
0.0
 11
-1091.947757457436
 21
-622.270904426772
 31
0.0
 70
    32
  1
120
 71
     5
 42
-1.0
 73
     0
 74
     0
 75
     0
 53
90.0
  3
ISO-25
100
AcDbAlignedDimension
 13
-473.421550310801
 23
-678.770904426772
 33
0.0
 14
-663.421550310801
 24
-565.770904426773
 34
0.0
 50
90.0
100
AcDbRotatedDimension
1001
ACAD
1000
DSTYLE
1002
{
1070
   340
1005
6F
1070
    44
1040
5.0
1070
   280
1070
     0
1070
    77
1070
     1
1070
   179
1070
     0
1070
   271
1070
     0
1070
   173
1070
     1
1070
    41
1040
12.5
1070
   147
1040
5.357142857143
1070
   140
1040
37.5
1070
   178
1070
    18
1070
   177
1070
    18
1070
   176
1070
    18
1002
}
  0
INSERT
  5
2C3
330
1F
100
AcDbEntity
  8
0
100
AcDbBlockReference
  2
A4-NABER_nNn014
 10
0.0
 20
0.0
 30
0.0
  0
ENDSEC
  0
SECTION
  2
OBJECTS
  0
DICTIONARY
  5
C
330
0
100
AcDbDictionary
281
     1
  3
ACAD_DETAILVIEWSTYLE
350
2FC
  3
ACAD_GROUP
350
D
  3
ACAD_IMAGE_DICT
350
2BD
  3
ACAD_LAYOUT
350
1A
  3
ACAD_MATERIAL
350
43
  3
ACAD_MLEADERSTYLE
350
6B
  3
ACAD_MLINESTYLE
350
17
  3
ACAD_PLOTSETTINGS
350
19
  3
ACAD_PLOTSTYLENAME
350
E
  3
ACAD_SCALELIST
350
47
  3
ACAD_SECTIONVIEWSTYLE
350
2FD
  3
ACAD_TABLESTYLE
350
69
  3
ACAD_VISUALSTYLE
350
2A
  3
ACAD_WIPEOUT_VARS
350
2F9
  3
ACDB_RECOMPOSE_DATA
350
2F8
  3
AcDbVariableDictionary
350
2C4
  0
SUN
  5
6D
330
29
100
AcDbSun
 90
        1
290
     0
 63
     7
421
 16777215
 40
1.0
291
     1
 91
  2455826
 92
 54000000
292
     0
 70
     2
 71
   256
280
     1
  0
IMAGEDEF_REACTOR
  5
2C0
330
2BF
100
AcDbRasterImageDefReactor
 90
        2
330
2BF
  0
DICTIONARY
  5
2FC
102
{ACAD_REACTORS
330
C
102
}
330
C
100
AcDbDictionary
281
     1
  0
DICTIONARY
  5
D
102
{ACAD_REACTORS
330
C
102
}
330
C
100
AcDbDictionary
281
     1
  0
DICTIONARY
  5
2BD
102
{ACAD_REACTORS
330
C
102
}
330
C
100
AcDbDictionary
281
     1
  3
NABER.JPG
350
2BE
  0
DICTIONARY
  5
1A
102
{ACAD_REACTORS
330
C
102
}
330
C
100
AcDbDictionary
281
     1
  3
Layout1
350
1E
  3
Layout2
350
26
  3
Model
350
22
  0
DICTIONARY
  5
43
102
{ACAD_REACTORS
330
C
102
}
330
C
100
AcDbDictionary
281
     1
  3
ByBlock
350
45
  3
ByLayer
350
44
  3
Global
350
46
  0
DICTIONARY
  5
6B
102
{ACAD_REACTORS
330
C
102
}
330
C
100
AcDbDictionary
281
     1
  3
Standard
350
6C
  0
DICTIONARY
  5
17
102
{ACAD_REACTORS
330
C
102
}
330
C
100
AcDbDictionary
281
     1
  3
Standard
350
18
  0
DICTIONARY
  5
19
102
{ACAD_REACTORS
330
C
102
}
330
C
100
AcDbDictionary
281
     1
  0
ACDBDICTIONARYWDFLT
  5
E
102
{ACAD_REACTORS
330
C
102
}
330
C
100
AcDbDictionary
281
     1
  3
Normal
350
F
100
AcDbDictionaryWithDefault
340
F
  0
DICTIONARY
  5
47
102
{ACAD_REACTORS
330
C
102
}
330
C
100
AcDbDictionary
281
     1
  3
A0
350
48
  3
A1
350
49
  3
A2
350
4A
  3
A3
350
4B
  3
A4
350
4C
  3
A5
350
4D
  3
A6
350
4E
  3
A7
350
4F
  3
A8
350
50
  3
A9
350
51
  3
B0
350
52
  3
B1
350
53
  3
B2
350
54
  3
B3
350
55
  3
B4
350
56
  3
B5
350
57
  3
B6
350
58
  3
B7
350
59
  3
B8
350
5A
  3
B9
350
5B
  3
C0
350
5C
  3
C1
350
5D
  3
C2
350
5E
  3
C3
350
5F
  3
C4
350
60
  3
C5
350
61
  3
C6
350
62
  3
C7
350
63
  3
C8
350
64
  3
C9
350
65
  3
D0
350
66
  3
D1
350
67
  3
D2
350
68
  0
DICTIONARY
  5
2FD
102
{ACAD_REACTORS
330
C
102
}
330
C
100
AcDbDictionary
281
     1
  0
DICTIONARY
  5
69
102
{ACAD_REACTORS
330
C
102
}
330
C
100
AcDbDictionary
281
     1
  3
Standard
350
6A
  0
DICTIONARY
  5
2A
102
{ACAD_REACTORS
330
C
102
}
330
C
100
AcDbDictionary
281
     1
  3
2dWireframe
350
2F
  3
Basic
350
32
  3
Brighten
350
36
  3
ColorChange
350
3A
  3
Conceptual
350
34
  3
Dim
350
35
  3
EdgeColorOff
350
3D
  3
Facepattern
350
39
  3
Flat
350
2B
  3
FlatWithEdges
350
2C
  3
Gouraud
350
2D
  3
GouraudWithEdges
350
2E
  3
Hidden
350
31
  3
JitterOff
350
3B
  3
Linepattern
350
38
  3
OverhangOff
350
3C
  3
Realistic
350
33
  3
Shaded
350
42
  3
Shaded with edges
350
41
  3
Shades of Gray
350
3E
  3
Sketchy
350
3F
  3
Thicken
350
37
  3
Wireframe
350
30
  3
X-Ray
350
40
  0
WIPEOUTVARIABLES
  5
2F9
102
{ACAD_REACTORS
330
C
102
}
330
C
100
AcDbWipeoutVariables
 70
     0
  0
XRECORD
  5
2F8
102
{ACAD_REACTORS
330
C
102
}
330
C
100
AcDbXrecord
280
     1
 90
        1
330
6A
  0
DICTIONARY
  5
2C4
102
{ACAD_REACTORS
330
C
102
}
330
C
100
AcDbDictionary
281
     1
  3
CANNOSCALE
350
2C5
  3
CENTEREXE
350
2FF
  3
CENTERLTYPEFILE
350
300
  3
CMLEADERSTYLE
350
2FB
  3
CTABLESTYLE
350
2FA
  3
WIPEOUTFRAME
350
2FE
  0
IMAGEDEF
  5
2BE
102
{ACAD_REACTORS
330
2BD
330
2C0
102
}
330
2BD
100
AcDbRasterImageDef
 90
        0
  1
NABER.JPG
 10
3781.0
 20
943.0
 11
0.0002644802962179318
 21
0.0002644802962179318
280
     1
281
     0
  0
LAYOUT
  5
1E
102
{ACAD_REACTORS
330
1A
102
}
330
1A
100
AcDbPlotSettings
  1

  2
none_device
  4

  6

 40
0.0
 41
0.0
 42
0.0
 43
0.0
 44
0.0
 45
0.0
 46
0.0
 47
0.0
 48
0.0
 49
0.0
140
0.0
141
0.0
142
1.0
143
1.0
 70
   688
 72
     1
 73
     0
 74
     5
  7

 75
    16
 76
     0
 77
     2
 78
   300
147
1.0
148
0.0
149
0.0
100
AcDbLayout
  1
Layout1
 70
     1
 71
     1
 10
0.0
 20
0.0
 11
420.0
 21
297.0
 12
0.0
 22
0.0
 32
0.0
 14
1.000000000000E+20
 24
1.000000000000E+20
 34
1.000000000000E+20
 15
-1.000000000000E+20
 25
-1.000000000000E+20
 35
-1.000000000000E+20
146
0.0
 13
0.0
 23
0.0
 33
0.0
 16
1.0
 26
0.0
 36
0.0
 17
0.0
 27
1.0
 37
0.0
 76
     0
330
1B
  0
LAYOUT
  5
26
102
{ACAD_REACTORS
330
1A
102
}
330
1A
100
AcDbPlotSettings
  1

  2
none_device
  4

  6

 40
0.0
 41
0.0
 42
0.0
 43
0.0
 44
0.0
 45
0.0
 46
0.0
 47
0.0
 48
0.0
 49
0.0
140
0.0
141
0.0
142
1.0
143
1.0
 70
   688
 72
     1
 73
     0
 74
     5
  7

 75
    16
 76
     0
 77
     2
 78
   300
147
1.0
148
0.0
149
0.0
100
AcDbLayout
  1
Layout2
 70
     1
 71
     2
 10
0.0
 20
0.0
 11
0.0
 21
0.0
 12
0.0
 22
0.0
 32
0.0
 14
0.0
 24
0.0
 34
0.0
 15
0.0
 25
0.0
 35
0.0
146
0.0
 13
0.0
 23
0.0
 33
0.0
 16
1.0
 26
0.0
 36
0.0
 17
0.0
 27
1.0
 37
0.0
 76
     0
330
23
  0
LAYOUT
  5
22
102
{ACAD_REACTORS
330
1A
102
}
330
1A
100
AcDbPlotSettings
  1

  2
none_device
  4
Letter_(8.50_x_11.00_Inches)
  6

 40
6.35
 41
6.35
 42
6.35000508
 43
6.35000508
 44
215.9
 45
279.4
 46
0.0
 47
0.0
 48
0.0
 49
0.0
140
0.0
141
0.0
142
1.0
143
1.0
 70
  1712
 72
     1
 73
     0
 74
     0
  7

 75
     0
 76
     0
 77
     2
 78
   300
147
1.0
148
0.0
149
0.0
100
AcDbLayout
  1
Model
 70
     1
 71
     0
 10
0.0
 20
0.0
 11
420.0
 21
297.0
 12
0.0
 22
0.0
 32
0.0
 14
-4169.584620032632
 24
-1825.903821377853
 34
0.0
 15
3262.973302480119
 25
1103.506178622147
 35
0.0
146
0.0
 13
0.0
 23
0.0
 33
0.0
 16
1.0
 26
0.0
 36
0.0
 17
0.0
 27
1.0
 37
0.0
 76
     0
330
1F
331
29
  0
MATERIAL
  5
45
102
{ACAD_REACTORS
330
43
102
}
330
43
100
AcDbMaterial
  1
ByBlock
 72
     1
 94
      127
  0
MATERIAL
  5
44
102
{ACAD_REACTORS
330
43
102
}
330
43
100
AcDbMaterial
  1
ByLayer
 72
     1
 94
      127
  0
MATERIAL
  5
46
102
{ACAD_REACTORS
330
43
102
}
330
43
100
AcDbMaterial
  1
Global
 72
     1
 94
      127
  0
MLEADERSTYLE
  5
6C
102
{ACAD_REACTORS
330
6B
102
}
330
6B
100
AcDbMLeaderStyle
179
     2
170
     2
171
     1
172
     0
 90
        2
 40
0.0
 41
0.0
173
     1
 91
-1056964608
340
14
 92
       -2
290
     1
 42
2.0
291
     1
 43
8.0
  3
Standard
341
0
 44
4.0
300

342
11
174
     1
178
     6
175
     1
176
     0
 93
-1056964608
 45
4.0
292
     0
297
     0
 46
4.0
343
0
 94
-1056964608
 47
1.0
 49
1.0
140
1.0
293
     1
141
0.0
294
     1
177
     0
142
1.0
295
     0
296
     0
143
3.75
271
     0
272
     9
273
     9
  0
MLINESTYLE
  5
18
102
{ACAD_REACTORS
330
17
102
}
330
17
100
AcDbMlineStyle
  2
Standard
 70
     0
  3

 62
   256
 51
90.0
 52
90.0
 71
     2
 49
0.5
 62
   256
  6
BYLAYER
 49
-0.5
 62
   256
  6
BYLAYER
  0
ACDBPLACEHOLDER
  5
F
102
{ACAD_REACTORS
330
E
102
}
330
E
  0
SCALE
  5
48
102
{ACAD_REACTORS
330
47
102
}
330
47
100
AcDbScale
 70
     0
300
1:1
140
1.0
141
1.0
290
     1
  0
SCALE
  5
49
102
{ACAD_REACTORS
330
47
102
}
330
47
100
AcDbScale
 70
     0
300
1:2
140
1.0
141
2.0
290
     0
  0
SCALE
  5
4A
102
{ACAD_REACTORS
330
47
102
}
330
47
100
AcDbScale
 70
     0
300
1:4
140
1.0
141
4.0
290
     0
  0
SCALE
  5
4B
102
{ACAD_REACTORS
330
47
102
}
330
47
100
AcDbScale
 70
     0
300
1:5
140
1.0
141
5.0
290
     0
  0
SCALE
  5
4C
102
{ACAD_REACTORS
330
47
102
}
330
47
100
AcDbScale
 70
     0
300
1:8
140
1.0
141
8.0
290
     0
  0
SCALE
  5
4D
102
{ACAD_REACTORS
330
47
102
}
330
47
100
AcDbScale
 70
     0
300
1:10
140
1.0
141
10.0
290
     0
  0
SCALE
  5
4E
102
{ACAD_REACTORS
330
47
102
}
330
47
100
AcDbScale
 70
     0
300
1:16
140
1.0
141
16.0
290
     0
  0
SCALE
  5
4F
102
{ACAD_REACTORS
330
47
102
}
330
47
100
AcDbScale
 70
     0
300
1:20
140
1.0
141
20.0
290
     0
  0
SCALE
  5
50
102
{ACAD_REACTORS
330
47
102
}
330
47
100
AcDbScale
 70
     0
300
1:30
140
1.0
141
30.0
290
     0
  0
SCALE
  5
51
102
{ACAD_REACTORS
330
47
102
}
330
47
100
AcDbScale
 70
     0
300
1:40
140
1.0
141
40.0
290
     0
  0
SCALE
  5
52
102
{ACAD_REACTORS
330
47
102
}
330
47
100
AcDbScale
 70
     0
300
1:50
140
1.0
141
50.0
290
     0
  0
SCALE
  5
53
102
{ACAD_REACTORS
330
47
102
}
330
47
100
AcDbScale
 70
     0
300
1:100
140
1.0
141
100.0
290
     0
  0
SCALE
  5
54
102
{ACAD_REACTORS
330
47
102
}
330
47
100
AcDbScale
 70
     0
300
2:1
140
2.0
141
1.0
290
     0
  0
SCALE
  5
55
102
{ACAD_REACTORS
330
47
102
}
330
47
100
AcDbScale
 70
     0
300
4:1
140
4.0
141
1.0
290
     0
  0
SCALE
  5
56
102
{ACAD_REACTORS
330
47
102
}
330
47
100
AcDbScale
 70
     0
300
8:1
140
8.0
141
1.0
290
     0
  0
SCALE
  5
57
102
{ACAD_REACTORS
330
47
102
}
330
47
100
AcDbScale
 70
     0
300
10:1
140
10.0
141
1.0
290
     0
  0
SCALE
  5
58
102
{ACAD_REACTORS
330
47
102
}
330
47
100
AcDbScale
 70
     0
300
100:1
140
100.0
141
1.0
290
     0
  0
SCALE
  5
59
102
{ACAD_REACTORS
330
47
102
}
330
47
100
AcDbScale
 70
     0
300
1/128" = 1'-0"
140
0.0078125
141
12.0
290
     0
  0
SCALE
  5
5A
102
{ACAD_REACTORS
330
47
102
}
330
47
100
AcDbScale
 70
     0
300
1/64" = 1'-0"
140
0.015625
141
12.0
290
     0
  0
SCALE
  5
5B
102
{ACAD_REACTORS
330
47
102
}
330
47
100
AcDbScale
 70
     0
300
1/32" = 1'-0"
140
0.03125
141
12.0
290
     0
  0
SCALE
  5
5C
102
{ACAD_REACTORS
330
47
102
}
330
47
100
AcDbScale
 70
     0
300
1/16" = 1'-0"
140
0.0625
141
12.0
290
     0
  0
SCALE
  5
5D
102
{ACAD_REACTORS
330
47
102
}
330
47
100
AcDbScale
 70
     0
300
3/32" = 1'-0"
140
0.09375
141
12.0
290
     0
  0
SCALE
  5
5E
102
{ACAD_REACTORS
330
47
102
}
330
47
100
AcDbScale
 70
     0
300
1/8" = 1'-0"
140
0.125
141
12.0
290
     0
  0
SCALE
  5
5F
102
{ACAD_REACTORS
330
47
102
}
330
47
100
AcDbScale
 70
     0
300
3/16" = 1'-0"
140
0.1875
141
12.0
290
     0
  0
SCALE
  5
60
102
{ACAD_REACTORS
330
47
102
}
330
47
100
AcDbScale
 70
     0
300
1/4" = 1'-0"
140
0.25
141
12.0
290
     0
  0
SCALE
  5
61
102
{ACAD_REACTORS
330
47
102
}
330
47
100
AcDbScale
 70
     0
300
3/8" = 1'-0"
140
0.375
141
12.0
290
     0
  0
SCALE
  5
62
102
{ACAD_REACTORS
330
47
102
}
330
47
100
AcDbScale
 70
     0
300
1/2" = 1'-0"
140
0.5
141
12.0
290
     0
  0
SCALE
  5
63
102
{ACAD_REACTORS
330
47
102
}
330
47
100
AcDbScale
 70
     0
300
3/4" = 1'-0"
140
0.75
141
12.0
290
     0
  0
SCALE
  5
64
102
{ACAD_REACTORS
330
47
102
}
330
47
100
AcDbScale
 70
     0
300
1" = 1'-0"
140
1.0
141
12.0
290
     0
  0
SCALE
  5
65
102
{ACAD_REACTORS
330
47
102
}
330
47
100
AcDbScale
 70
     0
300
1-1/2" = 1'-0"
140
1.5
141
12.0
290
     0
  0
SCALE
  5
66
102
{ACAD_REACTORS
330
47
102
}
330
47
100
AcDbScale
 70
     0
300
3" = 1'-0"
140
3.0
141
12.0
290
     0
  0
SCALE
  5
67
102
{ACAD_REACTORS
330
47
102
}
330
47
100
AcDbScale
 70
     0
300
6" = 1'-0"
140
6.0
141
12.0
290
     0
  0
SCALE
  5
68
102
{ACAD_REACTORS
330
47
102
}
330
47
100
AcDbScale
 70
     0
300
1'-0" = 1'-0"
140
12.0
141
12.0
290
     0
  0
TABLESTYLE
  5
6A
102
{ACAD_REACTORS
330
69
102
}
102
{ACAD_XDICTIONARY
360
2F6
102
}
330
69
100
AcDbTableStyle
  3
Standard
 70
     0
 71
     0
 40
0.06
 41
0.06
280
     0
281
     0
  7
Standard
140
4.5
170
     2
 62
     0
 63
   257
283
     0
 90
        4
 91
        0
  1

274
    -2
284
     1
 64
     0
275
    -2
285
     1
 65
     0
276
    -2
286
     1
 66
     0
277
    -2
287
     1
 67
     0
278
    -2
288
     1
 68
     0
279
    -2
289
     1
 69
     0
  7
Standard
140
6.0
170
     5
 62
     0
 63
   257
283
     0
 90
        4
 91
        0
  1

274
    -2
284
     1
 64
     0
275
    -2
285
     1
 65
     0
276
    -2
286
     1
 66
     0
277
    -2
287
     1
 67
     0
278
    -2
288
     1
 68
     0
279
    -2
289
     1
 69
     0
  7
Standard
140
4.5
170
     5
 62
     0
 63
   257
283
     0
 90
        4
 91
        0
  1

274
    -2
284
     1
 64
     0
275
    -2
285
     1
 65
     0
276
    -2
286
     1
 66
     0
277
    -2
287
     1
 67
     0
278
    -2
288
     1
 68
     0
279
    -2
289
     1
 69
     0
  0
VISUALSTYLE
  5
2F
102
{ACAD_REACTORS
330
2A
102
}
102
{ACAD_XDICTIONARY
360
2CE
102
}
330
2A
100
AcDbVisualStyle
  2
2dWireframe
 70
     4
177
     2
291
     0
 71
     0
176
     1
 72
     2
176
     1
 73
     0
176
     1
 90
        0
176
     1
 40
0.6
176
     1
 41
30.0
176
     1
 62
     5
 63
     7
421
 16777215
176
     1
 74
     1
176
     1
 91
        4
176
     1
 64
     7
176
     1
 65
   257
176
     1
 75
     1
176
     1
175
     1
176
     1
 42
1.0
176
     1
 92
        0
176
     1
 66
   257
176
     1
 43
1.0
176
     1
 76
     1
176
     1
 77
     6
176
     1
 78
     2
176
     1
 67
     7
176
     1
 79
     5
176
     1
170
     0
176
     1
171
     0
176
     1
290
     0
176
     1
 93
        1
176
     1
 44
0.0
176
     1
173
     0
176
     1
  0
VISUALSTYLE
  5
32
102
{ACAD_REACTORS
330
2A
102
}
102
{ACAD_XDICTIONARY
360
2D4
102
}
330
2A
100
AcDbVisualStyle
  2
Basic
 70
     7
177
     2
291
     1
 71
     1
176
     1
 72
     0
176
     1
 73
     1
176
     1
 90
        0
176
     1
 40
0.6
176
     1
 41
30.0
176
     1
 62
     5
 63
     7
421
 16777215
176
     1
 74
     0
176
     1
 91
        4
176
     1
 64
     7
176
     1
 65
   257
176
     1
 75
     1
176
     1
175
     1
176
     1
 42
1.0
176
     1
 92
        8
176
     1
 66
     7
176
     1
 43
1.0
176
     1
 76
     1
176
     1
 77
     6
176
     1
 78
     2
176
     1
 67
     7
176
     1
 79
     5
176
     1
170
     0
176
     1
171
     0
176
     1
290
     0
176
     1
 93
        1
176
     1
 44
0.0
176
     1
173
     0
176
     1
  0
VISUALSTYLE
  5
36
102
{ACAD_REACTORS
330
2A
102
}
102
{ACAD_XDICTIONARY
360
2DC
102
}
330
2A
100
AcDbVisualStyle
  2
Brighten
 70
    12
177
     2
291
     1
 71
     2
176
     1
 72
     2
176
     1
 73
     0
176
     1
 90
        0
176
     1
 40
0.6
176
     1
 41
30.0
176
     1
 62
     5
 63
     7
421
 16777215
176
     1
 74
     1
176
     1
 91
        4
176
     1
 64
     7
176
     1
 65
   257
176
     1
 75
     1
176
     1
175
     1
176
     1
 42
1.0
176
     1
 92
        8
176
     1
 66
     7
176
     1
 43
1.0
176
     1
 76
     1
176
     1
 77
     6
176
     1
 78
     2
176
     1
 67
     7
176
     1
 79
     5
176
     1
170
     0
176
     1
171
     0
176
     1
290
     0
176
     1
 93
        1
176
     1
 44
50.0
176
     1
173
     0
176
     1
  0
VISUALSTYLE
  5
3A
102
{ACAD_REACTORS
330
2A
102
}
102
{ACAD_XDICTIONARY
360
2E4
102
}
330
2A
100
AcDbVisualStyle
  2
ColorChange
 70
    16
177
     2
291
     1
 71
     2
176
     1
 72
     2
176
     1
 73
     3
176
     1
 90
        0
176
     1
 40
0.6
176
     1
 41
30.0
176
     1
 62
     5
 63
     8
421
  8421504
176
     1
 74
     1
176
     1
 91
        4
176
     1
 64
     7
176
     1
 65
   257
176
     1
 75
     1
176
     1
175
     1
176
     1
 42
1.0
176
     1
 92
        8
176
     1
 66
     8
424
  8421504
176
     1
 43
1.0
176
     1
 76
     1
176
     1
 77
     6
176
     1
 78
     2
176
     1
 67
     7
176
     1
 79
     5
176
     1
170
     0
176
     1
171
     0
176
     1
290
     0
176
     1
 93
        1
176
     1
 44
0.0
176
     1
173
     0
176
     1
  0
VISUALSTYLE
  5
34
102
{ACAD_REACTORS
330
2A
102
}
102
{ACAD_XDICTIONARY
360
2D8
102
}
330
2A
100
AcDbVisualStyle
  2
Conceptual
 70
     9
177
     2
291
     0
 71
     3
176
     1
 72
     2
176
     1
 73
     0
176
     1
 90
        0
176
     1
 40
0.6
176
     1
 41
30.0
176
     1
 62
     5
 63
     7
421
 16777215
176
     1
 74
     2
176
     1
 91
        2
176
     1
 64
     7
176
     1
 65
   257
176
     1
 75
     1
176
     1
175
     1
176
     1
 42
179.0
176
     1
 92
        8
176
     1
 66
     7
176
     1
 43
1.0
176
     1
 76
     1
176
     1
 77
     6
176
     1
 78
     2
176
     1
 67
     7
176
     1
 79
     3
176
     1
170
     0
176
     1
171
     0
176
     1
290
     0
176
     1
 93
        1
176
     1
 44
0.0
176
     1
173
     0
176
     1
  0
VISUALSTYLE
  5
35
102
{ACAD_REACTORS
330
2A
102
}
102
{ACAD_XDICTIONARY
360
2DA
102
}
330
2A
100
AcDbVisualStyle
  2
Dim
 70
    11
177
     2
291
     1
 71
     2
176
     1
 72
     2
176
     1
 73
     0
176
     1
 90
        0
176
     1
 40
0.6
176
     1
 41
30.0
176
     1
 62
     5
 63
     7
421
 16777215
176
     1
 74
     1
176
     1
 91
        4
176
     1
 64
     7
176
     1
 65
   257
176
     1
 75
     1
176
     1
175
     1
176
     1
 42
1.0
176
     1
 92
        8
176
     1
 66
     7
176
     1
 43
1.0
176
     1
 76
     1
176
     1
 77
     6
176
     1
 78
     2
176
     1
 67
     7
176
     1
 79
     5
176
     1
170
     0
176
     1
171
     0
176
     1
290
     0
176
     1
 93
        1
176
     1
 44
-50.0
176
     1
173
     0
176
     1
  0
VISUALSTYLE
  5
3D
102
{ACAD_REACTORS
330
2A
102
}
102
{ACAD_XDICTIONARY
360
2EA
102
}
330
2A
100
AcDbVisualStyle
  2
EdgeColorOff
 70
    22
177
     2
291
     1
 71
     2
176
     0
 72
     2
176
     0
 73
     0
176
     0
 90
        0
176
     0
 40
0.6
176
     0
 41
30.0
176
     0
 62
     5
 63
     7
421
 16777215
176
     0
 74
     1
176
     0
 91
        4
176
     0
 64
     7
176
     0
 65
   257
176
     0
 75
     1
176
     0
175
     1
176
     0
 42
1.0
176
     0
 92
        8
176
     2
 66
     7
176
     0
 43
1.0
176
     0
 76
     1
176
     0
 77
     6
176
     0
 78
     2
176
     0
 67
     7
176
     0
 79
     5
176
     0
170
     0
176
     0
171
     0
176
     0
290
     0
176
     0
 93
        1
176
     0
 44
0.0
176
     0
173
     0
176
     0
  0
VISUALSTYLE
  5
39
102
{ACAD_REACTORS
330
2A
102
}
102
{ACAD_XDICTIONARY
360
2E2
102
}
330
2A
100
AcDbVisualStyle
  2
Facepattern
 70
    15
177
     2
291
     1
 71
     2
176
     1
 72
     2
176
     1
 73
     0
176
     1
 90
        0
176
     1
 40
0.6
176
     1
 41
30.0
176
     1
 62
     5
 63
     7
421
 16777215
176
     1
 74
     1
176
     1
 91
        4
176
     1
 64
     7
176
     1
 65
   257
176
     1
 75
     1
176
     1
175
     1
176
     1
 42
1.0
176
     1
 92
        8
176
     1
 66
     7
176
     1
 43
1.0
176
     1
 76
     1
176
     1
 77
     6
176
     1
 78
     2
176
     1
 67
     7
176
     1
 79
     5
176
     1
170
     0
176
     1
171
     0
176
     1
290
     0
176
     1
 93
        1
176
     1
 44
0.0
176
     1
173
     0
176
     1
  0
VISUALSTYLE
  5
2B
102
{ACAD_REACTORS
330
2A
102
}
102
{ACAD_XDICTIONARY
360
2C6
102
}
330
2A
100
AcDbVisualStyle
  2
Flat
 70
     0
177
     2
291
     1
 71
     2
176
     1
 72
     1
176
     1
 73
     1
176
     1
 90
        2
176
     1
 40
0.6
176
     1
 41
30.0
176
     1
 62
     5
 63
     7
421
 16777215
176
     1
 74
     0
176
     1
 91
        0
176
     1
 64
     7
176
     1
 65
   257
176
     1
 75
     1
176
     1
175
     1
176
     1
 42
1.0
176
     1
 92
        8
176
     1
 66
     7
176
     1
 43
1.0
176
     1
 76
     1
176
     1
 77
     6
176
     1
 78
     2
176
     1
 67
     7
176
     1
 79
     5
176
     1
170
     0
176
     1
171
     0
176
     1
290
     0
176
     1
 93
       13
176
     1
 44
0.0
176
     1
173
     0
176
     1
  0
VISUALSTYLE
  5
2C
102
{ACAD_REACTORS
330
2A
102
}
102
{ACAD_XDICTIONARY
360
2C8
102
}
330
2A
100
AcDbVisualStyle
  2
FlatWithEdges
 70
     1
177
     2
291
     1
 71
     2
176
     1
 72
     1
176
     1
 73
     1
176
     1
 90
        2
176
     1
 40
0.6
176
     1
 41
30.0
176
     1
 62
     5
 63
     7
421
 16777215
176
     1
 74
     1
176
     1
 91
        0
176
     1
 64
     7
176
     1
 65
   257
176
     1
 75
     1
176
     1
175
     1
176
     1
 42
1.0
176
     1
 92
        0
176
     1
 66
   257
176
     1
 43
1.0
176
     1
 76
     1
176
     1
 77
     6
176
     1
 78
     2
176
     1
 67
     7
176
     1
 79
     5
176
     1
170
     0
176
     1
171
     0
176
     1
290
     0
176
     1
 93
       13
176
     1
 44
0.0
176
     1
173
     0
176
     1
  0
VISUALSTYLE
  5
2D
102
{ACAD_REACTORS
330
2A
102
}
102
{ACAD_XDICTIONARY
360
2CA
102
}
330
2A
100
AcDbVisualStyle
  2
Gouraud
 70
     2
177
     2
291
     1
 71
     2
176
     1
 72
     2
176
     1
 73
     1
176
     1
 90
        2
176
     1
 40
0.6
176
     1
 41
30.0
176
     1
 62
     5
 63
     7
421
 16777215
176
     1
 74
     0
176
     1
 91
        0
176
     1
 64
     7
176
     1
 65
   257
176
     1
 75
     1
176
     1
175
     1
176
     1
 42
1.0
176
     1
 92
        0
176
     1
 66
     7
176
     1
 43
1.0
176
     1
 76
     1
176
     1
 77
     6
176
     1
 78
     2
176
     1
 67
     7
176
     1
 79
     5
176
     1
170
     0
176
     1
171
     0
176
     1
290
     0
176
     1
 93
       13
176
     1
 44
0.0
176
     1
173
     0
176
     1
  0
VISUALSTYLE
  5
2E
102
{ACAD_REACTORS
330
2A
102
}
102
{ACAD_XDICTIONARY
360
2CC
102
}
330
2A
100
AcDbVisualStyle
  2
GouraudWithEdges
 70
     3
177
     2
291
     1
 71
     2
176
     1
 72
     2
176
     1
 73
     1
176
     1
 90
        2
176
     1
 40
0.6
176
     1
 41
30.0
176
     1
 62
     5
 63
     7
421
 16777215
176
     1
 74
     1
176
     1
 91
        0
176
     1
 64
     7
176
     1
 65
   257
176
     1
 75
     1
176
     1
175
     1
176
     1
 42
1.0
176
     1
 92
        0
176
     1
 66
   257
176
     1
 43
1.0
176
     1
 76
     1
176
     1
 77
     6
176
     1
 78
     2
176
     1
 67
     7
176
     1
 79
     5
176
     1
170
     0
176
     1
171
     0
176
     1
290
     0
176
     1
 93
       13
176
     1
 44
0.0
176
     1
173
     0
176
     1
  0
VISUALSTYLE
  5
31
102
{ACAD_REACTORS
330
2A
102
}
102
{ACAD_XDICTIONARY
360
2D2
102
}
330
2A
100
AcDbVisualStyle
  2
Hidden
 70
     6
177
     2
291
     0
 71
     1
176
     1
 72
     2
176
     1
 73
     2
176
     1
 90
        0
176
     1
 40
0.6
176
     1
 41
30.0
176
     1
 62
     5
 63
     7
421
 16777215
176
     1
 74
     2
176
     1
 91
        2
176
     1
 64
     7
176
     1
 65
   257
176
     1
 75
     2
176
     1
175
     1
176
     1
 42
40.0
176
     1
 92
        0
176
     1
 66
   257
176
     1
 43
1.0
176
     1
 76
     1
176
     1
 77
     6
176
     1
 78
     2
176
     1
 67
     7
176
     1
 79
     3
176
     1
170
     0
176
     1
171
     0
176
     1
290
     0
176
     1
 93
        1
176
     1
 44
0.0
176
     1
173
     0
176
     1
  0
VISUALSTYLE
  5
3B
102
{ACAD_REACTORS
330
2A
102
}
102
{ACAD_XDICTIONARY
360
2E6
102
}
330
2A
100
AcDbVisualStyle
  2
JitterOff
 70
    20
177
     2
291
     1
 71
     2
176
     0
 72
     2
176
     0
 73
     0
176
     0
 90
        0
176
     0
 40
0.6
176
     0
 41
30.0
176
     0
 62
     5
 63
     7
421
 16777215
176
     0
 74
     1
176
     0
 91
        4
176
     0
 64
     7
176
     0
 65
   257
176
     0
 75
     1
176
     0
175
     1
176
     0
 42
1.0
176
     0
 92
       10
176
     2
 66
     7
176
     0
 43
1.0
176
     0
 76
     1
176
     0
 77
     6
176
     0
 78
     2
176
     0
 67
     7
176
     0
 79
     5
176
     0
170
     0
176
     0
171
     0
176
     0
290
     0
176
     0
 93
        1
176
     0
 44
0.0
176
     0
173
     0
176
     0
  0
VISUALSTYLE
  5
38
102
{ACAD_REACTORS
330
2A
102
}
102
{ACAD_XDICTIONARY
360
2E0
102
}
330
2A
100
AcDbVisualStyle
  2
Linepattern
 70
    14
177
     2
291
     1
 71
     2
176
     1
 72
     2
176
     1
 73
     0
176
     1
 90
        0
176
     1
 40
0.6
176
     1
 41
30.0
176
     1
 62
     5
 63
     7
421
 16777215
176
     1
 74
     1
176
     1
 91
        4
176
     1
 64
     7
176
     1
 65
   257
176
     1
 75
     7
176
     1
175
     7
176
     1
 42
1.0
176
     1
 92
        8
176
     1
 66
     7
176
     1
 43
1.0
176
     1
 76
     1
176
     1
 77
     6
176
     1
 78
     2
176
     1
 67
     7
176
     1
 79
     5
176
     1
170
     0
176
     1
171
     0
176
     1
290
     0
176
     1
 93
        1
176
     1
 44
0.0
176
     1
173
     0
176
     1
  0
VISUALSTYLE
  5
3C
102
{ACAD_REACTORS
330
2A
102
}
102
{ACAD_XDICTIONARY
360
2E8
102
}
330
2A
100
AcDbVisualStyle
  2
OverhangOff
 70
    21
177
     2
291
     1
 71
     2
176
     0
 72
     2
176
     0
 73
     0
176
     0
 90
        0
176
     0
 40
0.6
176
     0
 41
30.0
176
     0
 62
     5
 63
     7
421
 16777215
176
     0
 74
     1
176
     0
 91
        4
176
     0
 64
     7
176
     0
 65
   257
176
     0
 75
     1
176
     0
175
     1
176
     0
 42
1.0
176
     0
 92
        9
176
     2
 66
     7
176
     0
 43
1.0
176
     0
 76
     1
176
     0
 77
     6
176
     0
 78
     2
176
     0
 67
     7
176
     0
 79
     5
176
     0
170
     0
176
     0
171
     0
176
     0
290
     0
176
     0
 93
        1
176
     0
 44
0.0
176
     0
173
     0
176
     0
  0
VISUALSTYLE
  5
33
102
{ACAD_REACTORS
330
2A
102
}
102
{ACAD_XDICTIONARY
360
2D6
102
}
330
2A
100
AcDbVisualStyle
  2
Realistic
 70
     8
177
     2
291
     0
 71
     2
176
     1
 72
     3
176
     1
 73
     0
176
     1
 90
        2
176
     1
 40
0.6
176
     1
 41
30.0
176
     1
 62
     5
 63
     7
421
 16777215
176
     1
 74
     0
176
     1
 91
        0
176
     1
 64
     7
176
     1
 65
   257
176
     1
 75
     1
176
     1
175
     1
176
     1
 42
1.0
176
     1
 92
        8
176
     1
 66
   257
176
     1
 43
1.0
176
     1
 76
     1
176
     1
 77
     6
176
     1
 78
     2
176
     1
 67
     7
176
     1
 79
     3
176
     1
170
     0
176
     1
171
     0
176
     1
290
     0
176
     1
 93
       13
176
     1
 44
0.0
176
     1
173
     0
176
     1
  0
VISUALSTYLE
  5
42
102
{ACAD_REACTORS
330
2A
102
}
102
{ACAD_XDICTIONARY
360
2F4
102
}
330
2A
100
AcDbVisualStyle
  2
Shaded
 70
    27
177
     2
291
     0
 71
     2
176
     1
 72
     2
176
     1
 73
     1
176
     1
 90
        2
176
     1
 40
0.6
176
     1
 41
30.0
176
     1
 62
     5
 63
     7
421
 16777215
176
     1
 74
     0
176
     1
 91
        4
176
     1
 64
     7
176
     1
 65
   257
176
     1
 75
     1
176
     1
175
     1
176
     1
 42
1.0
176
     1
 92
        8
176
     1
 66
   257
176
     1
 43
1.0
176
     1
 76
     1
176
     1
 77
     6
176
     1
 78
     2
176
     1
 67
     8
425
  7895160
176
     1
 79
     3
176
     1
170
     0
176
     1
171
     0
176
     1
290
     0
176
     1
 93
        5
176
     1
 44
0.0
176
     1
173
     0
176
     1
  0
VISUALSTYLE
  5
41
102
{ACAD_REACTORS
330
2A
102
}
102
{ACAD_XDICTIONARY
360
2F2
102
}
330
2A
100
AcDbVisualStyle
  2
Shaded with edges
 70
    26
177
     2
291
     0
 71
     2
176
     1
 72
     2
176
     1
 73
     1
176
     1
 90
        2
176
     1
 40
0.6
176
     1
 41
30.0
176
     1
 62
     5
 63
     7
421
 16777215
176
     1
 74
     1
176
     1
 91
       10
176
     1
 64
     7
176
     1
 65
   257
176
     1
 75
     2
176
     1
175
     1
176
     1
 42
1.0
176
     1
 92
        8
176
     1
 66
   257
176
     1
 43
1.0
176
     1
 76
     1
176
     1
 77
     6
176
     1
 78
     2
176
     1
 67
     7
176
     1
 79
     3
176
     1
170
     0
176
     1
171
     0
176
     1
290
     0
176
     1
 93
        5
176
     1
 44
0.0
176
     1
173
     0
176
     1
  0
VISUALSTYLE
  5
3E
102
{ACAD_REACTORS
330
2A
102
}
102
{ACAD_XDICTIONARY
360
2EC
102
}
330
2A
100
AcDbVisualStyle
  2
Shades of Gray
 70
    23
177
     2
291
     0
 71
     2
176
     1
 72
     2
176
     1
 73
     3
176
     1
 90
        0
176
     1
 40
0.6
176
     1
 41
30.0
176
     1
 62
     5
 63
     7
421
 16777215
176
     1
 74
     2
176
     1
 91
        2
176
     1
 64
     7
176
     1
 65
     7
176
     1
 75
     1
176
     1
175
     1
176
     1
 42
40.0
176
     1
 92
        8
176
     1
 66
     7
176
     1
 43
1.0
176
     1
 76
     1
176
     1
 77
     6
176
     1
 78
     2
176
     1
 67
     7
176
     1
 79
     3
176
     1
170
     0
176
     1
171
     0
176
     1
290
     0
176
     1
 93
        1
176
     1
 44
0.0
176
     1
173
     0
176
     1
  0
VISUALSTYLE
  5
3F
102
{ACAD_REACTORS
330
2A
102
}
102
{ACAD_XDICTIONARY
360
2EE
102
}
330
2A
100
AcDbVisualStyle
  2
Sketchy
 70
    24
177
     2
291
     0
 71
     1
176
     1
 72
     2
176
     1
 73
     2
176
     1
 90
        0
176
     1
 40
0.6
176
     1
 41
30.0
176
     1
 62
     5
 63
     7
421
 16777215
176
     1
 74
     2
176
     1
 91
        2
176
     1
 64
     7
176
     1
 65
     7
176
     1
 75
     1
176
     1
175
     1
176
     1
 42
40.0
176
     1
 92
       11
176
     1
 66
     7
176
     1
 43
1.0
176
     1
 76
     1
176
     1
 77
     6
176
     1
 78
     2
176
     1
 67
     7
176
     1
 79
     6
176
     1
170
     0
176
     1
171
     0
176
     1
290
     0
176
     1
 93
        1
176
     1
 44
0.0
176
     1
173
     0
176
     1
  0
VISUALSTYLE
  5
37
102
{ACAD_REACTORS
330
2A
102
}
102
{ACAD_XDICTIONARY
360
2DE
102
}
330
2A
100
AcDbVisualStyle
  2
Thicken
 70
    13
177
     2
291
     1
 71
     2
176
     1
 72
     2
176
     1
 73
     0
176
     1
 90
        0
176
     1
 40
0.6
176
     1
 41
30.0
176
     1
 62
     5
 63
     7
421
 16777215
176
     1
 74
     1
176
     1
 91
        4
176
     1
 64
     7
176
     1
 65
   257
176
     1
 75
     1
176
     1
175
     1
176
     1
 42
1.0
176
     1
 92
       12
176
     1
 66
     7
176
     1
 43
1.0
176
     1
 76
     1
176
     1
 77
     6
176
     1
 78
     2
176
     1
 67
     7
176
     1
 79
     5
176
     1
170
     0
176
     1
171
     0
176
     1
290
     0
176
     1
 93
        1
176
     1
 44
0.0
176
     1
173
     0
176
     1
  0
VISUALSTYLE
  5
30
102
{ACAD_REACTORS
330
2A
102
}
102
{ACAD_XDICTIONARY
360
2D0
102
}
330
2A
100
AcDbVisualStyle
  2
Wireframe
 70
     5
177
     2
291
     0
 71
     0
176
     1
 72
     2
176
     1
 73
     0
176
     1
 90
        0
176
     1
 40
0.6
176
     1
 41
30.0
176
     1
 62
     5
 63
     7
421
 16777215
176
     1
 74
     1
176
     1
 91
        4
176
     1
 64
     7
176
     1
 65
   257
176
     1
 75
     1
176
     1
175
     1
176
     1
 42
1.0
176
     1
 92
        0
176
     1
 66
   257
176
     1
 43
1.0
176
     1
 76
     1
176
     1
 77
     6
176
     1
 78
     2
176
     1
 67
     7
176
     1
 79
     3
176
     1
170
     0
176
     1
171
     0
176
     1
290
     0
176
     1
 93
        1
176
     1
 44
0.0
176
     1
173
     0
176
     1
  0
VISUALSTYLE
  5
40
102
{ACAD_REACTORS
330
2A
102
}
102
{ACAD_XDICTIONARY
360
2F0
102
}
330
2A
100
AcDbVisualStyle
  2
X-Ray
 70
    25
177
     2
291
     0
 71
     2
176
     1
 72
     2
176
     1
 73
     1
176
     1
 90
        1
176
     1
 40
0.5
176
     1
 41
30.0
176
     1
 62
     5
 63
     7
421
 16777215
176
     1
 74
     1
176
     1
 91
        0
176
     1
 64
     7
176
     1
 65
   257
176
     1
 75
     1
176
     1
175
     1
176
     1
 42
1.0
176
     1
 92
        8
176
     1
 66
     7
176
     1
 43
1.0
176
     1
 76
     1
176
     1
 77
     6
176
     1
 78
     2
176
     1
 67
     7
176
     1
 79
     3
176
     1
170
     0
176
     1
171
     0
176
     1
290
     0
176
     1
 93
       13
176
     1
 44
0.0
176
     1
173
     0
176
     1
  0
DICTIONARYVAR
  5
2C5
102
{ACAD_REACTORS
330
2C4
102
}
330
2C4
100
DictionaryVariables
280
     0
  1
1:1
  0
DICTIONARYVAR
  5
2FF
102
{ACAD_REACTORS
330
2C4
102
}
330
2C4
100
DictionaryVariables
280
     0
  1
3.500000
  0
DICTIONARYVAR
  5
300
102
{ACAD_REACTORS
330
2C4
102
}
330
2C4
100
DictionaryVariables
280
     0
  1
acadiso.lin
  0
DICTIONARYVAR
  5
2FB
102
{ACAD_REACTORS
330
2C4
102
}
330
2C4
100
DictionaryVariables
280
     0
  1
Standard
  0
DICTIONARYVAR
  5
2FA
102
{ACAD_REACTORS
330
2C4
102
}
330
2C4
100
DictionaryVariables
280
     0
  1
Standard
  0
DICTIONARYVAR
  5
2FE
102
{ACAD_REACTORS
330
2C4
102
}
330
2C4
100
DictionaryVariables
280
     0
  1
0
  0
DICTIONARY
  5
2F6
330
6A
100
AcDbDictionary
280
     1
281
     1
  3
ACAD_ROUNDTRIP_2008_TABLESTYLE_CELLSTYLEMAP
360
2F7
  0
DICTIONARY
  5
2CE
330
2F
100
AcDbDictionary
280
     1
281
     1
  3
ACAD_XREC_ROUNDTRIP
360
2CF
  0
DICTIONARY
  5
2D4
330
32
100
AcDbDictionary
280
     1
281
     1
  3
ACAD_XREC_ROUNDTRIP
360
2D5
  0
DICTIONARY
  5
2DC
330
36
100
AcDbDictionary
280
     1
281
     1
  3
ACAD_XREC_ROUNDTRIP
360
2DD
  0
DICTIONARY
  5
2E4
330
3A
100
AcDbDictionary
280
     1
281
     1
  3
ACAD_XREC_ROUNDTRIP
360
2E5
  0
DICTIONARY
  5
2D8
330
34
100
AcDbDictionary
280
     1
281
     1
  3
ACAD_XREC_ROUNDTRIP
360
2D9
  0
DICTIONARY
  5
2DA
330
35
100
AcDbDictionary
280
     1
281
     1
  3
ACAD_XREC_ROUNDTRIP
360
2DB
  0
DICTIONARY
  5
2EA
330
3D
100
AcDbDictionary
280
     1
281
     1
  3
ACAD_XREC_ROUNDTRIP
360
2EB
  0
DICTIONARY
  5
2E2
330
39
100
AcDbDictionary
280
     1
281
     1
  3
ACAD_XREC_ROUNDTRIP
360
2E3
  0
DICTIONARY
  5
2C6
330
2B
100
AcDbDictionary
280
     1
281
     1
  3
ACAD_XREC_ROUNDTRIP
360
2C7
  0
DICTIONARY
  5
2C8
330
2C
100
AcDbDictionary
280
     1
281
     1
  3
ACAD_XREC_ROUNDTRIP
360
2C9
  0
DICTIONARY
  5
2CA
330
2D
100
AcDbDictionary
280
     1
281
     1
  3
ACAD_XREC_ROUNDTRIP
360
2CB
  0
DICTIONARY
  5
2CC
330
2E
100
AcDbDictionary
280
     1
281
     1
  3
ACAD_XREC_ROUNDTRIP
360
2CD
  0
DICTIONARY
  5
2D2
330
31
100
AcDbDictionary
280
     1
281
     1
  3
ACAD_XREC_ROUNDTRIP
360
2D3
  0
DICTIONARY
  5
2E6
330
3B
100
AcDbDictionary
280
     1
281
     1
  3
ACAD_XREC_ROUNDTRIP
360
2E7
  0
DICTIONARY
  5
2E0
330
38
100
AcDbDictionary
280
     1
281
     1
  3
ACAD_XREC_ROUNDTRIP
360
2E1
  0
DICTIONARY
  5
2E8
330
3C
100
AcDbDictionary
280
     1
281
     1
  3
ACAD_XREC_ROUNDTRIP
360
2E9
  0
DICTIONARY
  5
2D6
330
33
100
AcDbDictionary
280
     1
281
     1
  3
ACAD_XREC_ROUNDTRIP
360
2D7
  0
DICTIONARY
  5
2F4
330
42
100
AcDbDictionary
280
     1
281
     1
  3
ACAD_XREC_ROUNDTRIP
360
2F5
  0
DICTIONARY
  5
2F2
330
41
100
AcDbDictionary
280
     1
281
     1
  3
ACAD_XREC_ROUNDTRIP
360
2F3
  0
DICTIONARY
  5
2EC
330
3E
100
AcDbDictionary
280
     1
281
     1
  3
ACAD_XREC_ROUNDTRIP
360
2ED
  0
DICTIONARY
  5
2EE
330
3F
100
AcDbDictionary
280
     1
281
     1
  3
ACAD_XREC_ROUNDTRIP
360
2EF
  0
DICTIONARY
  5
2DE
330
37
100
AcDbDictionary
280
     1
281
     1
  3
ACAD_XREC_ROUNDTRIP
360
2DF
  0
DICTIONARY
  5
2D0
330
30
100
AcDbDictionary
280
     1
281
     1
  3
ACAD_XREC_ROUNDTRIP
360
2D1
  0
DICTIONARY
  5
2F0
330
40
100
AcDbDictionary
280
     1
281
     1
  3
ACAD_XREC_ROUNDTRIP
360
2F1
  0
CELLSTYLEMAP
  5
2F7
102
{ACAD_REACTORS
330
2F6
102
}
330
2F6
100
AcDbCellStyleMap
 90
        3
300
CELLSTYLE
  1
TABLEFORMAT_BEGIN
 90
        5
170
     1
 91
        0
 92
    32768
 62
   257
 93
        1
300
CONTENTFORMAT
  1
CONTENTFORMAT_BEGIN
 90
        0
 91
        0
 92
        4
 93
        0
300

 40
0.0
140
1.0
 94
        5
 62
     0
340
11
144
6.0
309
CONTENTFORMAT_END
171
     1
301
MARGIN
  1
CELLMARGIN_BEGIN
 40
1.5
 40
1.5
 40
1.5
 40
1.5
 40
1.5
 40
1.5
309
CELLMARGIN_END
 94
        6
 95
        1
302
GRIDFORMAT
  1
GRIDFORMAT_BEGIN
 90
        0
 91
        1
 62
     0
 92
       -2
340
14
 93
        0
 40
0.045
309
GRIDFORMAT_END
 95
        2
302
GRIDFORMAT
  1
GRIDFORMAT_BEGIN
 90
        0
 91
        1
 62
     0
 92
       -2
340
14
 93
        0
 40
0.045
309
GRIDFORMAT_END
 95
        4
302
GRIDFORMAT
  1
GRIDFORMAT_BEGIN
 90
        0
 91
        1
 62
     0
 92
       -2
340
14
 93
        0
 40
0.045
309
GRIDFORMAT_END
 95
        8
302
GRIDFORMAT
  1
GRIDFORMAT_BEGIN
 90
        0
 91
        1
 62
     0
 92
       -2
340
14
 93
        0
 40
0.045
309
GRIDFORMAT_END
 95
       16
302
GRIDFORMAT
  1
GRIDFORMAT_BEGIN
 90
        0
 91
        1
 62
     0
 92
       -2
340
14
 93
        0
 40
0.045
309
GRIDFORMAT_END
 95
       32
302
GRIDFORMAT
  1
GRIDFORMAT_BEGIN
 90
        0
 91
        1
 62
     0
 92
       -2
340
14
 93
        0
 40
0.045
309
GRIDFORMAT_END
309
TABLEFORMAT_END
  1
CELLSTYLE_BEGIN
 90
        1
 91
        1
300
_TITLE
309
CELLSTYLE_END
300
CELLSTYLE
  1
TABLEFORMAT_BEGIN
 90
        5
170
     1
 91
        0
 92
        0
 62
   257
 93
        1
300
CONTENTFORMAT
  1
CONTENTFORMAT_BEGIN
 90
        0
 91
        0
 92
        4
 93
        0
300

 40
0.0
140
1.0
 94
        5
 62
     0
340
11
144
4.5
309
CONTENTFORMAT_END
171
     1
301
MARGIN
  1
CELLMARGIN_BEGIN
 40
1.5
 40
1.5
 40
1.5
 40
1.5
 40
1.5
 40
1.5
309
CELLMARGIN_END
 94
        6
 95
        1
302
GRIDFORMAT
  1
GRIDFORMAT_BEGIN
 90
        0
 91
        1
 62
     0
 92
       -2
340
14
 93
        0
 40
0.045
309
GRIDFORMAT_END
 95
        2
302
GRIDFORMAT
  1
GRIDFORMAT_BEGIN
 90
        0
 91
        1
 62
     0
 92
       -2
340
14
 93
        0
 40
0.045
309
GRIDFORMAT_END
 95
        4
302
GRIDFORMAT
  1
GRIDFORMAT_BEGIN
 90
        0
 91
        1
 62
     0
 92
       -2
340
14
 93
        0
 40
0.045
309
GRIDFORMAT_END
 95
        8
302
GRIDFORMAT
  1
GRIDFORMAT_BEGIN
 90
        0
 91
        1
 62
     0
 92
       -2
340
14
 93
        0
 40
0.045
309
GRIDFORMAT_END
 95
       16
302
GRIDFORMAT
  1
GRIDFORMAT_BEGIN
 90
        0
 91
        1
 62
     0
 92
       -2
340
14
 93
        0
 40
0.045
309
GRIDFORMAT_END
 95
       32
302
GRIDFORMAT
  1
GRIDFORMAT_BEGIN
 90
        0
 91
        1
 62
     0
 92
       -2
340
14
 93
        0
 40
0.045
309
GRIDFORMAT_END
309
TABLEFORMAT_END
  1
CELLSTYLE_BEGIN
 90
        2
 91
        1
300
_HEADER
309
CELLSTYLE_END
300
CELLSTYLE
  1
TABLEFORMAT_BEGIN
 90
        5
170
     1
 91
        0
 92
        0
 62
   257
 93
        1
300
CONTENTFORMAT
  1
CONTENTFORMAT_BEGIN
 90
        0
 91
        0
 92
        4
 93
        0
300

 40
0.0
140
1.0
 94
        2
 62
     0
340
11
144
4.5
309
CONTENTFORMAT_END
171
     1
301
MARGIN
  1
CELLMARGIN_BEGIN
 40
1.5
 40
1.5
 40
1.5
 40
1.5
 40
1.5
 40
1.5
309
CELLMARGIN_END
 94
        6
 95
        1
302
GRIDFORMAT
  1
GRIDFORMAT_BEGIN
 90
        0
 91
        1
 62
     0
 92
       -2
340
14
 93
        0
 40
0.045
309
GRIDFORMAT_END
 95
        2
302
GRIDFORMAT
  1
GRIDFORMAT_BEGIN
 90
        0
 91
        1
 62
     0
 92
       -2
340
14
 93
        0
 40
0.045
309
GRIDFORMAT_END
 95
        4
302
GRIDFORMAT
  1
GRIDFORMAT_BEGIN
 90
        0
 91
        1
 62
     0
 92
       -2
340
14
 93
        0
 40
0.045
309
GRIDFORMAT_END
 95
        8
302
GRIDFORMAT
  1
GRIDFORMAT_BEGIN
 90
        0
 91
        1
 62
     0
 92
       -2
340
14
 93
        0
 40
0.045
309
GRIDFORMAT_END
 95
       16
302
GRIDFORMAT
  1
GRIDFORMAT_BEGIN
 90
        0
 91
        1
 62
     0
 92
       -2
340
14
 93
        0
 40
0.045
309
GRIDFORMAT_END
 95
       32
302
GRIDFORMAT
  1
GRIDFORMAT_BEGIN
 90
        0
 91
        1
 62
     0
 92
       -2
340
14
 93
        0
 40
0.045
309
GRIDFORMAT_END
309
TABLEFORMAT_END
  1
CELLSTYLE_BEGIN
 90
        3
 91
        2
300
_DATA
309
CELLSTYLE_END
  0
XRECORD
  5
2CF
102
{ACAD_REACTORS
330
2CE
102
}
330
2CE
100
AcDbXrecord
280
     1
102
RTVSPost2010Prop28
280
     1
102
RTVSPost2010PropOp28
 70
     1
102
RTVSPost2010Prop29
280
     1
102
RTVSPost2010PropOp29
 70
     1
102
RTVSPost2010Prop30
280
     0
102
RTVSPost2010PropOp30
 70
     1
102
RTVSPost2010Prop31
280
     0
102
RTVSPost2010PropOp31
 70
     1
102
RTVSPost2010Prop32
280
     0
102
RTVSPost2010PropOp32
 70
     1
102
RTVSPost2010Prop33
280
     0
102
RTVSPost2010PropOp33
 70
     1
102
RTVSPost2010Prop34
280
     0
102
RTVSPost2010PropOp34
 70
     1
102
RTVSPost2010Prop35
280
     0
102
RTVSPost2010PropOp35
 70
     1
102
RTVSPost2010Prop36
280
     0
102
RTVSPost2010PropOp36
 70
     1
102
RTVSPost2010Prop37
 90
       50
102
RTVSPost2010PropOp37
 70
     1
102
RTVSPost2010Prop38
140
0.0
102
RTVSPost2010PropOp38
 70
     1
102
RTVSPost2010Prop39
140
1.0
102
RTVSPost2010PropOp39
 70
     1
102
RTVSPost2010Prop40
 90
        0
102
RTVSPost2010PropOp40
 70
     1
102
RTVSPost2010Prop41ColorIndex
 90
       18
102
RTVSPost2010Prop41ColorRGB
 90
        0
102
RTVSPost2010PropOp41
 70
     1
102
RTVSPost2010Prop42
 90
       50
102
RTVSPost2010PropOp42
 70
     1
102
RTVSPost2010Prop43
 90
        3
102
RTVSPost2010PropOp43
 70
     1
102
RTVSPost2010Prop44ColorIndex
 90
        5
102
RTVSPost2010Prop44ColorRGB
 90
      255
102
RTVSPost2010PropOp44
 70
     1
102
RTVSPost2010Prop45
280
     0
102
RTVSPost2010PropOp45
 70
     1
102
RTVSPost2010Prop46
 90
       50
102
RTVSPost2010PropOp46
 70
     1
102
RTVSPost2010Prop47
 90
       50
102
RTVSPost2010PropOp47
 70
     1
102
RTVSPost2010Prop48
 90
       50
102
RTVSPost2010PropOp48
 70
     1
102
RTVSPost2010Prop49
280
     0
102
RTVSPost2010PropOp49
 70
     1
102
RTVSPost2010Prop50
 90
       50
102
RTVSPost2010PropOp50
 70
     1
102
RTVSPost2010Prop51ColorIndex
 90
      256
102
RTVSPost2010Prop51ColorRGB
 90
-16777216
102
RTVSPost2010PropOp51
 70
     0
102
RTVSPost2010Prop52
140
1.0
102
RTVSPost2010PropOp52
 70
     0
102
RTVSPost2010Prop53
 90
        2
102
RTVSPost2010PropOp53
 70
     1
102
RTVSPost2010Prop54
  1
strokes_ogs.tif
102
RTVSPost2010PropOp54
 70
     1
102
RTVSPost2010Prop55
280
     0
102
RTVSPost2010PropOp55
 70
     1
102
RTVSPost2010Prop56
140
1.0
102
RTVSPost2010PropOp56
 70
     1
102
RTVSPost2010Prop57
140
1.0
102
RTVSPost2010PropOp57
 70
     1
  0
XRECORD
  5
2D5
102
{ACAD_REACTORS
330
2D4
102
}
330
2D4
100
AcDbXrecord
280
     1
102
RTVSPost2010Prop28
280
     0
102
RTVSPost2010PropOp28
 70
     1
102
RTVSPost2010Prop29
280
     1
102
RTVSPost2010PropOp29
 70
     1
102
RTVSPost2010Prop30
280
     1
102
RTVSPost2010PropOp30
 70
     1
102
RTVSPost2010Prop31
280
     0
102
RTVSPost2010PropOp31
 70
     1
102
RTVSPost2010Prop32
280
     0
102
RTVSPost2010PropOp32
 70
     1
102
RTVSPost2010Prop33
280
     0
102
RTVSPost2010PropOp33
 70
     1
102
RTVSPost2010Prop34
280
     0
102
RTVSPost2010PropOp34
 70
     1
102
RTVSPost2010Prop35
280
     0
102
RTVSPost2010PropOp35
 70
     1
102
RTVSPost2010Prop36
280
     0
102
RTVSPost2010PropOp36
 70
     1
102
RTVSPost2010Prop37
 90
       50
102
RTVSPost2010PropOp37
 70
     1
102
RTVSPost2010Prop38
140
0.0
102
RTVSPost2010PropOp38
 70
     1
102
RTVSPost2010Prop39
140
1.0
102
RTVSPost2010PropOp39
 70
     1
102
RTVSPost2010Prop40
 90
        0
102
RTVSPost2010PropOp40
 70
     1
102
RTVSPost2010Prop41ColorIndex
 90
       18
102
RTVSPost2010Prop41ColorRGB
 90
        0
102
RTVSPost2010PropOp41
 70
     1
102
RTVSPost2010Prop42
 90
       50
102
RTVSPost2010PropOp42
 70
     1
102
RTVSPost2010Prop43
 90
        3
102
RTVSPost2010PropOp43
 70
     1
102
RTVSPost2010Prop44ColorIndex
 90
        5
102
RTVSPost2010Prop44ColorRGB
 90
      255
102
RTVSPost2010PropOp44
 70
     1
102
RTVSPost2010Prop45
280
     0
102
RTVSPost2010PropOp45
 70
     1
102
RTVSPost2010Prop46
 90
       50
102
RTVSPost2010PropOp46
 70
     1
102
RTVSPost2010Prop47
 90
       50
102
RTVSPost2010PropOp47
 70
     1
102
RTVSPost2010Prop48
 90
       50
102
RTVSPost2010PropOp48
 70
     1
102
RTVSPost2010Prop49
280
     0
102
RTVSPost2010PropOp49
 70
     1
102
RTVSPost2010Prop50
 90
       50
102
RTVSPost2010PropOp50
 70
     1
102
RTVSPost2010Prop51ColorIndex
 90
      256
102
RTVSPost2010Prop51ColorRGB
 90
-16777216
102
RTVSPost2010PropOp51
 70
     0
102
RTVSPost2010Prop52
140
1.0
102
RTVSPost2010PropOp52
 70
     0
102
RTVSPost2010Prop53
 90
        2
102
RTVSPost2010PropOp53
 70
     1
102
RTVSPost2010Prop54
  1
strokes_ogs.tif
102
RTVSPost2010PropOp54
 70
     1
102
RTVSPost2010Prop55
280
     0
102
RTVSPost2010PropOp55
 70
     1
102
RTVSPost2010Prop56
140
1.0
102
RTVSPost2010PropOp56
 70
     1
102
RTVSPost2010Prop57
140
1.0
102
RTVSPost2010PropOp57
 70
     1
  0
XRECORD
  5
2DD
102
{ACAD_REACTORS
330
2DC
102
}
330
2DC
100
AcDbXrecord
280
     1
102
RTVSPost2010Prop28
280
     0
102
RTVSPost2010PropOp28
 70
     1
102
RTVSPost2010Prop29
280
     1
102
RTVSPost2010PropOp29
 70
     1
102
RTVSPost2010Prop30
280
     1
102
RTVSPost2010PropOp30
 70
     1
102
RTVSPost2010Prop31
280
     0
102
RTVSPost2010PropOp31
 70
     1
102
RTVSPost2010Prop32
280
     0
102
RTVSPost2010PropOp32
 70
     1
102
RTVSPost2010Prop33
280
     0
102
RTVSPost2010PropOp33
 70
     1
102
RTVSPost2010Prop34
280
     0
102
RTVSPost2010PropOp34
 70
     1
102
RTVSPost2010Prop35
280
     0
102
RTVSPost2010PropOp35
 70
     1
102
RTVSPost2010Prop36
280
     0
102
RTVSPost2010PropOp36
 70
     1
102
RTVSPost2010Prop37
 90
       50
102
RTVSPost2010PropOp37
 70
     1
102
RTVSPost2010Prop38
140
0.0
102
RTVSPost2010PropOp38
 70
     1
102
RTVSPost2010Prop39
140
1.0
102
RTVSPost2010PropOp39
 70
     1
102
RTVSPost2010Prop40
 90
        0
102
RTVSPost2010PropOp40
 70
     1
102
RTVSPost2010Prop41ColorIndex
 90
       18
102
RTVSPost2010Prop41ColorRGB
 90
        0
102
RTVSPost2010PropOp41
 70
     1
102
RTVSPost2010Prop42
 90
       50
102
RTVSPost2010PropOp42
 70
     1
102
RTVSPost2010Prop43
 90
        3
102
RTVSPost2010PropOp43
 70
     1
102
RTVSPost2010Prop44ColorIndex
 90
        5
102
RTVSPost2010Prop44ColorRGB
 90
      255
102
RTVSPost2010PropOp44
 70
     1
102
RTVSPost2010Prop45
280
     0
102
RTVSPost2010PropOp45
 70
     1
102
RTVSPost2010Prop46
 90
       50
102
RTVSPost2010PropOp46
 70
     1
102
RTVSPost2010Prop47
 90
       50
102
RTVSPost2010PropOp47
 70
     1
102
RTVSPost2010Prop48
 90
       50
102
RTVSPost2010PropOp48
 70
     1
102
RTVSPost2010Prop49
280
     0
102
RTVSPost2010PropOp49
 70
     1
102
RTVSPost2010Prop50
 90
       50
102
RTVSPost2010PropOp50
 70
     1
102
RTVSPost2010Prop51ColorIndex
 90
      256
102
RTVSPost2010Prop51ColorRGB
 90
-16777216
102
RTVSPost2010PropOp51
 70
     0
102
RTVSPost2010Prop52
140
1.0
102
RTVSPost2010PropOp52
 70
     0
102
RTVSPost2010Prop53
 90
        2
102
RTVSPost2010PropOp53
 70
     1
102
RTVSPost2010Prop54
  1
strokes_ogs.tif
102
RTVSPost2010PropOp54
 70
     1
102
RTVSPost2010Prop55
280
     0
102
RTVSPost2010PropOp55
 70
     1
102
RTVSPost2010Prop56
140
1.0
102
RTVSPost2010PropOp56
 70
     1
102
RTVSPost2010Prop57
140
1.0
102
RTVSPost2010PropOp57
 70
     1
  0
XRECORD
  5
2E5
102
{ACAD_REACTORS
330
2E4
102
}
330
2E4
100
AcDbXrecord
280
     1
102
RTVSPost2010Prop28
280
     0
102
RTVSPost2010PropOp28
 70
     1
102
RTVSPost2010Prop29
280
     1
102
RTVSPost2010PropOp29
 70
     1
102
RTVSPost2010Prop30
280
     1
102
RTVSPost2010PropOp30
 70
     1
102
RTVSPost2010Prop31
280
     0
102
RTVSPost2010PropOp31
 70
     1
102
RTVSPost2010Prop32
280
     0
102
RTVSPost2010PropOp32
 70
     1
102
RTVSPost2010Prop33
280
     0
102
RTVSPost2010PropOp33
 70
     1
102
RTVSPost2010Prop34
280
     0
102
RTVSPost2010PropOp34
 70
     1
102
RTVSPost2010Prop35
280
     0
102
RTVSPost2010PropOp35
 70
     1
102
RTVSPost2010Prop36
280
     0
102
RTVSPost2010PropOp36
 70
     1
102
RTVSPost2010Prop37
 90
       50
102
RTVSPost2010PropOp37
 70
     1
102
RTVSPost2010Prop38
140
0.0
102
RTVSPost2010PropOp38
 70
     1
102
RTVSPost2010Prop39
140
1.0
102
RTVSPost2010PropOp39
 70
     1
102
RTVSPost2010Prop40
 90
        0
102
RTVSPost2010PropOp40
 70
     1
102
RTVSPost2010Prop41ColorIndex
 90
       18
102
RTVSPost2010Prop41ColorRGB
 90
        0
102
RTVSPost2010PropOp41
 70
     1
102
RTVSPost2010Prop42
 90
       50
102
RTVSPost2010PropOp42
 70
     1
102
RTVSPost2010Prop43
 90
        3
102
RTVSPost2010PropOp43
 70
     1
102
RTVSPost2010Prop44ColorIndex
 90
        5
102
RTVSPost2010Prop44ColorRGB
 90
      255
102
RTVSPost2010PropOp44
 70
     1
102
RTVSPost2010Prop45
280
     0
102
RTVSPost2010PropOp45
 70
     1
102
RTVSPost2010Prop46
 90
       50
102
RTVSPost2010PropOp46
 70
     1
102
RTVSPost2010Prop47
 90
       50
102
RTVSPost2010PropOp47
 70
     1
102
RTVSPost2010Prop48
 90
       50
102
RTVSPost2010PropOp48
 70
     1
102
RTVSPost2010Prop49
280
     0
102
RTVSPost2010PropOp49
 70
     1
102
RTVSPost2010Prop50
 90
       50
102
RTVSPost2010PropOp50
 70
     1
102
RTVSPost2010Prop51ColorIndex
 90
      256
102
RTVSPost2010Prop51ColorRGB
 90
-16777216
102
RTVSPost2010PropOp51
 70
     0
102
RTVSPost2010Prop52
140
1.0
102
RTVSPost2010PropOp52
 70
     0
102
RTVSPost2010Prop53
 90
        2
102
RTVSPost2010PropOp53
 70
     1
102
RTVSPost2010Prop54
  1
strokes_ogs.tif
102
RTVSPost2010PropOp54
 70
     1
102
RTVSPost2010Prop55
280
     0
102
RTVSPost2010PropOp55
 70
     1
102
RTVSPost2010Prop56
140
1.0
102
RTVSPost2010PropOp56
 70
     1
102
RTVSPost2010Prop57
140
1.0
102
RTVSPost2010PropOp57
 70
     1
  0
XRECORD
  5
2D9
102
{ACAD_REACTORS
330
2D8
102
}
330
2D8
100
AcDbXrecord
280
     1
102
RTVSPost2010Prop28
280
     0
102
RTVSPost2010PropOp28
 70
     1
102
RTVSPost2010Prop29
280
     1
102
RTVSPost2010PropOp29
 70
     1
102
RTVSPost2010Prop30
280
     1
102
RTVSPost2010PropOp30
 70
     1
102
RTVSPost2010Prop31
280
     0
102
RTVSPost2010PropOp31
 70
     1
102
RTVSPost2010Prop32
280
     0
102
RTVSPost2010PropOp32
 70
     1
102
RTVSPost2010Prop33
280
     0
102
RTVSPost2010PropOp33
 70
     1
102
RTVSPost2010Prop34
280
     0
102
RTVSPost2010PropOp34
 70
     1
102
RTVSPost2010Prop35
280
     0
102
RTVSPost2010PropOp35
 70
     1
102
RTVSPost2010Prop36
280
     0
102
RTVSPost2010PropOp36
 70
     1
102
RTVSPost2010Prop37
 90
       50
102
RTVSPost2010PropOp37
 70
     1
102
RTVSPost2010Prop38
140
0.0
102
RTVSPost2010PropOp38
 70
     1
102
RTVSPost2010Prop39
140
1.0
102
RTVSPost2010PropOp39
 70
     1
102
RTVSPost2010Prop40
 90
        0
102
RTVSPost2010PropOp40
 70
     1
102
RTVSPost2010Prop41ColorIndex
 90
       18
102
RTVSPost2010Prop41ColorRGB
 90
        0
102
RTVSPost2010PropOp41
 70
     1
102
RTVSPost2010Prop42
 90
       50
102
RTVSPost2010PropOp42
 70
     1
102
RTVSPost2010Prop43
 90
        3
102
RTVSPost2010PropOp43
 70
     1
102
RTVSPost2010Prop44ColorIndex
 90
        5
102
RTVSPost2010Prop44ColorRGB
 90
      255
102
RTVSPost2010PropOp44
 70
     1
102
RTVSPost2010Prop45
280
     0
102
RTVSPost2010PropOp45
 70
     1
102
RTVSPost2010Prop46
 90
       50
102
RTVSPost2010PropOp46
 70
     1
102
RTVSPost2010Prop47
 90
       50
102
RTVSPost2010PropOp47
 70
     1
102
RTVSPost2010Prop48
 90
       50
102
RTVSPost2010PropOp48
 70
     1
102
RTVSPost2010Prop49
280
     0
102
RTVSPost2010PropOp49
 70
     1
102
RTVSPost2010Prop50
 90
       50
102
RTVSPost2010PropOp50
 70
     1
102
RTVSPost2010Prop51ColorIndex
 90
      256
102
RTVSPost2010Prop51ColorRGB
 90
-16777216
102
RTVSPost2010PropOp51
 70
     0
102
RTVSPost2010Prop52
140
1.0
102
RTVSPost2010PropOp52
 70
     0
102
RTVSPost2010Prop53
 90
        2
102
RTVSPost2010PropOp53
 70
     1
102
RTVSPost2010Prop54
  1
strokes_ogs.tif
102
RTVSPost2010PropOp54
 70
     1
102
RTVSPost2010Prop55
280
     0
102
RTVSPost2010PropOp55
 70
     1
102
RTVSPost2010Prop56
140
1.0
102
RTVSPost2010PropOp56
 70
     1
102
RTVSPost2010Prop57
140
1.0
102
RTVSPost2010PropOp57
 70
     1
  0
XRECORD
  5
2DB
102
{ACAD_REACTORS
330
2DA
102
}
330
2DA
100
AcDbXrecord
280
     1
102
RTVSPost2010Prop28
280
     0
102
RTVSPost2010PropOp28
 70
     1
102
RTVSPost2010Prop29
280
     1
102
RTVSPost2010PropOp29
 70
     1
102
RTVSPost2010Prop30
280
     1
102
RTVSPost2010PropOp30
 70
     1
102
RTVSPost2010Prop31
280
     0
102
RTVSPost2010PropOp31
 70
     1
102
RTVSPost2010Prop32
280
     0
102
RTVSPost2010PropOp32
 70
     1
102
RTVSPost2010Prop33
280
     0
102
RTVSPost2010PropOp33
 70
     1
102
RTVSPost2010Prop34
280
     0
102
RTVSPost2010PropOp34
 70
     1
102
RTVSPost2010Prop35
280
     0
102
RTVSPost2010PropOp35
 70
     1
102
RTVSPost2010Prop36
280
     0
102
RTVSPost2010PropOp36
 70
     1
102
RTVSPost2010Prop37
 90
       50
102
RTVSPost2010PropOp37
 70
     1
102
RTVSPost2010Prop38
140
0.0
102
RTVSPost2010PropOp38
 70
     1
102
RTVSPost2010Prop39
140
1.0
102
RTVSPost2010PropOp39
 70
     1
102
RTVSPost2010Prop40
 90
        0
102
RTVSPost2010PropOp40
 70
     1
102
RTVSPost2010Prop41ColorIndex
 90
       18
102
RTVSPost2010Prop41ColorRGB
 90
        0
102
RTVSPost2010PropOp41
 70
     1
102
RTVSPost2010Prop42
 90
       50
102
RTVSPost2010PropOp42
 70
     1
102
RTVSPost2010Prop43
 90
        3
102
RTVSPost2010PropOp43
 70
     1
102
RTVSPost2010Prop44ColorIndex
 90
        5
102
RTVSPost2010Prop44ColorRGB
 90
      255
102
RTVSPost2010PropOp44
 70
     1
102
RTVSPost2010Prop45
280
     0
102
RTVSPost2010PropOp45
 70
     1
102
RTVSPost2010Prop46
 90
       50
102
RTVSPost2010PropOp46
 70
     1
102
RTVSPost2010Prop47
 90
       50
102
RTVSPost2010PropOp47
 70
     1
102
RTVSPost2010Prop48
 90
       50
102
RTVSPost2010PropOp48
 70
     1
102
RTVSPost2010Prop49
280
     0
102
RTVSPost2010PropOp49
 70
     1
102
RTVSPost2010Prop50
 90
       50
102
RTVSPost2010PropOp50
 70
     1
102
RTVSPost2010Prop51ColorIndex
 90
      256
102
RTVSPost2010Prop51ColorRGB
 90
-16777216
102
RTVSPost2010PropOp51
 70
     0
102
RTVSPost2010Prop52
140
1.0
102
RTVSPost2010PropOp52
 70
     0
102
RTVSPost2010Prop53
 90
        2
102
RTVSPost2010PropOp53
 70
     1
102
RTVSPost2010Prop54
  1
strokes_ogs.tif
102
RTVSPost2010PropOp54
 70
     1
102
RTVSPost2010Prop55
280
     0
102
RTVSPost2010PropOp55
 70
     1
102
RTVSPost2010Prop56
140
1.0
102
RTVSPost2010PropOp56
 70
     1
102
RTVSPost2010Prop57
140
1.0
102
RTVSPost2010PropOp57
 70
     1
  0
XRECORD
  5
2EB
102
{ACAD_REACTORS
330
2EA
102
}
330
2EA
100
AcDbXrecord
280
     1
102
RTVSPost2010Prop28
280
     0
102
RTVSPost2010PropOp28
 70
     0
102
RTVSPost2010Prop29
280
     1
102
RTVSPost2010PropOp29
 70
     0
102
RTVSPost2010Prop30
280
     1
102
RTVSPost2010PropOp30
 70
     0
102
RTVSPost2010Prop31
280
     0
102
RTVSPost2010PropOp31
 70
     0
102
RTVSPost2010Prop32
280
     0
102
RTVSPost2010PropOp32
 70
     0
102
RTVSPost2010Prop33
280
     0
102
RTVSPost2010PropOp33
 70
     0
102
RTVSPost2010Prop34
280
     0
102
RTVSPost2010PropOp34
 70
     0
102
RTVSPost2010Prop35
280
     0
102
RTVSPost2010PropOp35
 70
     0
102
RTVSPost2010Prop36
280
     0
102
RTVSPost2010PropOp36
 70
     0
102
RTVSPost2010Prop37
 90
       50
102
RTVSPost2010PropOp37
 70
     0
102
RTVSPost2010Prop38
140
0.0
102
RTVSPost2010PropOp38
 70
     0
102
RTVSPost2010Prop39
140
1.0
102
RTVSPost2010PropOp39
 70
     0
102
RTVSPost2010Prop40
 90
        0
102
RTVSPost2010PropOp40
 70
     0
102
RTVSPost2010Prop41ColorIndex
 90
       18
102
RTVSPost2010Prop41ColorRGB
 90
        0
102
RTVSPost2010PropOp41
 70
     0
102
RTVSPost2010Prop42
 90
       50
102
RTVSPost2010PropOp42
 70
     0
102
RTVSPost2010Prop43
 90
        3
102
RTVSPost2010PropOp43
 70
     0
102
RTVSPost2010Prop44ColorIndex
 90
        5
102
RTVSPost2010Prop44ColorRGB
 90
      255
102
RTVSPost2010PropOp44
 70
     0
102
RTVSPost2010Prop45
280
     0
102
RTVSPost2010PropOp45
 70
     0
102
RTVSPost2010Prop46
 90
       50
102
RTVSPost2010PropOp46
 70
     0
102
RTVSPost2010Prop47
 90
       50
102
RTVSPost2010PropOp47
 70
     0
102
RTVSPost2010Prop48
 90
       50
102
RTVSPost2010PropOp48
 70
     0
102
RTVSPost2010Prop49
280
     0
102
RTVSPost2010PropOp49
 70
     0
102
RTVSPost2010Prop50
 90
       50
102
RTVSPost2010PropOp50
 70
     0
102
RTVSPost2010Prop51ColorIndex
 90
      256
102
RTVSPost2010Prop51ColorRGB
 90
-16777216
102
RTVSPost2010PropOp51
 70
     0
102
RTVSPost2010Prop52
140
1.0
102
RTVSPost2010PropOp52
 70
     0
102
RTVSPost2010Prop53
 90
        2
102
RTVSPost2010PropOp53
 70
     0
102
RTVSPost2010Prop54
  1
strokes_ogs.tif
102
RTVSPost2010PropOp54
 70
     0
102
RTVSPost2010Prop55
280
     0
102
RTVSPost2010PropOp55
 70
     0
102
RTVSPost2010Prop56
140
1.0
102
RTVSPost2010PropOp56
 70
     0
102
RTVSPost2010Prop57
140
1.0
102
RTVSPost2010PropOp57
 70
     0
  0
XRECORD
  5
2E3
102
{ACAD_REACTORS
330
2E2
102
}
330
2E2
100
AcDbXrecord
280
     1
102
RTVSPost2010Prop28
280
     0
102
RTVSPost2010PropOp28
 70
     1
102
RTVSPost2010Prop29
280
     1
102
RTVSPost2010PropOp29
 70
     1
102
RTVSPost2010Prop30
280
     1
102
RTVSPost2010PropOp30
 70
     1
102
RTVSPost2010Prop31
280
     0
102
RTVSPost2010PropOp31
 70
     1
102
RTVSPost2010Prop32
280
     0
102
RTVSPost2010PropOp32
 70
     1
102
RTVSPost2010Prop33
280
     0
102
RTVSPost2010PropOp33
 70
     1
102
RTVSPost2010Prop34
280
     0
102
RTVSPost2010PropOp34
 70
     1
102
RTVSPost2010Prop35
280
     0
102
RTVSPost2010PropOp35
 70
     1
102
RTVSPost2010Prop36
280
     0
102
RTVSPost2010PropOp36
 70
     1
102
RTVSPost2010Prop37
 90
       50
102
RTVSPost2010PropOp37
 70
     1
102
RTVSPost2010Prop38
140
0.0
102
RTVSPost2010PropOp38
 70
     1
102
RTVSPost2010Prop39
140
1.0
102
RTVSPost2010PropOp39
 70
     1
102
RTVSPost2010Prop40
 90
        0
102
RTVSPost2010PropOp40
 70
     1
102
RTVSPost2010Prop41ColorIndex
 90
       18
102
RTVSPost2010Prop41ColorRGB
 90
        0
102
RTVSPost2010PropOp41
 70
     1
102
RTVSPost2010Prop42
 90
       50
102
RTVSPost2010PropOp42
 70
     1
102
RTVSPost2010Prop43
 90
        3
102
RTVSPost2010PropOp43
 70
     1
102
RTVSPost2010Prop44ColorIndex
 90
        5
102
RTVSPost2010Prop44ColorRGB
 90
      255
102
RTVSPost2010PropOp44
 70
     1
102
RTVSPost2010Prop45
280
     0
102
RTVSPost2010PropOp45
 70
     1
102
RTVSPost2010Prop46
 90
       50
102
RTVSPost2010PropOp46
 70
     1
102
RTVSPost2010Prop47
 90
       50
102
RTVSPost2010PropOp47
 70
     1
102
RTVSPost2010Prop48
 90
       50
102
RTVSPost2010PropOp48
 70
     1
102
RTVSPost2010Prop49
280
     0
102
RTVSPost2010PropOp49
 70
     1
102
RTVSPost2010Prop50
 90
       50
102
RTVSPost2010PropOp50
 70
     1
102
RTVSPost2010Prop51ColorIndex
 90
      256
102
RTVSPost2010Prop51ColorRGB
 90
-16777216
102
RTVSPost2010PropOp51
 70
     0
102
RTVSPost2010Prop52
140
1.0
102
RTVSPost2010PropOp52
 70
     0
102
RTVSPost2010Prop53
 90
        2
102
RTVSPost2010PropOp53
 70
     1
102
RTVSPost2010Prop54
  1
strokes_ogs.tif
102
RTVSPost2010PropOp54
 70
     1
102
RTVSPost2010Prop55
280
     0
102
RTVSPost2010PropOp55
 70
     1
102
RTVSPost2010Prop56
140
1.0
102
RTVSPost2010PropOp56
 70
     1
102
RTVSPost2010Prop57
140
1.0
102
RTVSPost2010PropOp57
 70
     1
  0
XRECORD
  5
2C7
102
{ACAD_REACTORS
330
2C6
102
}
330
2C6
100
AcDbXrecord
280
     1
102
RTVSPost2010Prop28
280
     0
102
RTVSPost2010PropOp28
 70
     1
102
RTVSPost2010Prop29
280
     1
102
RTVSPost2010PropOp29
 70
     1
102
RTVSPost2010Prop30
280
     1
102
RTVSPost2010PropOp30
 70
     1
102
RTVSPost2010Prop31
280
     0
102
RTVSPost2010PropOp31
 70
     1
102
RTVSPost2010Prop32
280
     0
102
RTVSPost2010PropOp32
 70
     1
102
RTVSPost2010Prop33
280
     0
102
RTVSPost2010PropOp33
 70
     1
102
RTVSPost2010Prop34
280
     0
102
RTVSPost2010PropOp34
 70
     1
102
RTVSPost2010Prop35
280
     0
102
RTVSPost2010PropOp35
 70
     1
102
RTVSPost2010Prop36
280
     0
102
RTVSPost2010PropOp36
 70
     1
102
RTVSPost2010Prop37
 90
       50
102
RTVSPost2010PropOp37
 70
     1
102
RTVSPost2010Prop38
140
0.0
102
RTVSPost2010PropOp38
 70
     1
102
RTVSPost2010Prop39
140
1.0
102
RTVSPost2010PropOp39
 70
     1
102
RTVSPost2010Prop40
 90
        0
102
RTVSPost2010PropOp40
 70
     1
102
RTVSPost2010Prop41ColorIndex
 90
       18
102
RTVSPost2010Prop41ColorRGB
 90
        0
102
RTVSPost2010PropOp41
 70
     1
102
RTVSPost2010Prop42
 90
       50
102
RTVSPost2010PropOp42
 70
     1
102
RTVSPost2010Prop43
 90
        3
102
RTVSPost2010PropOp43
 70
     1
102
RTVSPost2010Prop44ColorIndex
 90
        5
102
RTVSPost2010Prop44ColorRGB
 90
      255
102
RTVSPost2010PropOp44
 70
     1
102
RTVSPost2010Prop45
280
     0
102
RTVSPost2010PropOp45
 70
     1
102
RTVSPost2010Prop46
 90
       50
102
RTVSPost2010PropOp46
 70
     1
102
RTVSPost2010Prop47
 90
       50
102
RTVSPost2010PropOp47
 70
     1
102
RTVSPost2010Prop48
 90
       50
102
RTVSPost2010PropOp48
 70
     1
102
RTVSPost2010Prop49
280
     0
102
RTVSPost2010PropOp49
 70
     1
102
RTVSPost2010Prop50
 90
       50
102
RTVSPost2010PropOp50
 70
     1
102
RTVSPost2010Prop51ColorIndex
 90
      256
102
RTVSPost2010Prop51ColorRGB
 90
-16777216
102
RTVSPost2010PropOp51
 70
     0
102
RTVSPost2010Prop52
140
1.0
102
RTVSPost2010PropOp52
 70
     0
102
RTVSPost2010Prop53
 90
        2
102
RTVSPost2010PropOp53
 70
     1
102
RTVSPost2010Prop54
  1
strokes_ogs.tif
102
RTVSPost2010PropOp54
 70
     1
102
RTVSPost2010Prop55
280
     0
102
RTVSPost2010PropOp55
 70
     1
102
RTVSPost2010Prop56
140
1.0
102
RTVSPost2010PropOp56
 70
     1
102
RTVSPost2010Prop57
140
1.0
102
RTVSPost2010PropOp57
 70
     1
  0
XRECORD
  5
2C9
102
{ACAD_REACTORS
330
2C8
102
}
330
2C8
100
AcDbXrecord
280
     1
102
RTVSPost2010Prop28
280
     0
102
RTVSPost2010PropOp28
 70
     1
102
RTVSPost2010Prop29
280
     1
102
RTVSPost2010PropOp29
 70
     1
102
RTVSPost2010Prop30
280
     1
102
RTVSPost2010PropOp30
 70
     1
102
RTVSPost2010Prop31
280
     0
102
RTVSPost2010PropOp31
 70
     1
102
RTVSPost2010Prop32
280
     0
102
RTVSPost2010PropOp32
 70
     1
102
RTVSPost2010Prop33
280
     0
102
RTVSPost2010PropOp33
 70
     1
102
RTVSPost2010Prop34
280
     0
102
RTVSPost2010PropOp34
 70
     1
102
RTVSPost2010Prop35
280
     0
102
RTVSPost2010PropOp35
 70
     1
102
RTVSPost2010Prop36
280
     0
102
RTVSPost2010PropOp36
 70
     1
102
RTVSPost2010Prop37
 90
       50
102
RTVSPost2010PropOp37
 70
     1
102
RTVSPost2010Prop38
140
0.0
102
RTVSPost2010PropOp38
 70
     1
102
RTVSPost2010Prop39
140
1.0
102
RTVSPost2010PropOp39
 70
     1
102
RTVSPost2010Prop40
 90
        0
102
RTVSPost2010PropOp40
 70
     1
102
RTVSPost2010Prop41ColorIndex
 90
       18
102
RTVSPost2010Prop41ColorRGB
 90
        0
102
RTVSPost2010PropOp41
 70
     1
102
RTVSPost2010Prop42
 90
       50
102
RTVSPost2010PropOp42
 70
     1
102
RTVSPost2010Prop43
 90
        3
102
RTVSPost2010PropOp43
 70
     1
102
RTVSPost2010Prop44ColorIndex
 90
        5
102
RTVSPost2010Prop44ColorRGB
 90
      255
102
RTVSPost2010PropOp44
 70
     1
102
RTVSPost2010Prop45
280
     0
102
RTVSPost2010PropOp45
 70
     1
102
RTVSPost2010Prop46
 90
       50
102
RTVSPost2010PropOp46
 70
     1
102
RTVSPost2010Prop47
 90
       50
102
RTVSPost2010PropOp47
 70
     1
102
RTVSPost2010Prop48
 90
       50
102
RTVSPost2010PropOp48
 70
     1
102
RTVSPost2010Prop49
280
     0
102
RTVSPost2010PropOp49
 70
     1
102
RTVSPost2010Prop50
 90
       50
102
RTVSPost2010PropOp50
 70
     1
102
RTVSPost2010Prop51ColorIndex
 90
      256
102
RTVSPost2010Prop51ColorRGB
 90
-16777216
102
RTVSPost2010PropOp51
 70
     0
102
RTVSPost2010Prop52
140
1.0
102
RTVSPost2010PropOp52
 70
     0
102
RTVSPost2010Prop53
 90
        2
102
RTVSPost2010PropOp53
 70
     1
102
RTVSPost2010Prop54
  1
strokes_ogs.tif
102
RTVSPost2010PropOp54
 70
     1
102
RTVSPost2010Prop55
280
     0
102
RTVSPost2010PropOp55
 70
     1
102
RTVSPost2010Prop56
140
1.0
102
RTVSPost2010PropOp56
 70
     1
102
RTVSPost2010Prop57
140
1.0
102
RTVSPost2010PropOp57
 70
     1
  0
XRECORD
  5
2CB
102
{ACAD_REACTORS
330
2CA
102
}
330
2CA
100
AcDbXrecord
280
     1
102
RTVSPost2010Prop28
280
     0
102
RTVSPost2010PropOp28
 70
     1
102
RTVSPost2010Prop29
280
     1
102
RTVSPost2010PropOp29
 70
     1
102
RTVSPost2010Prop30
280
     1
102
RTVSPost2010PropOp30
 70
     1
102
RTVSPost2010Prop31
280
     0
102
RTVSPost2010PropOp31
 70
     1
102
RTVSPost2010Prop32
280
     0
102
RTVSPost2010PropOp32
 70
     1
102
RTVSPost2010Prop33
280
     0
102
RTVSPost2010PropOp33
 70
     1
102
RTVSPost2010Prop34
280
     0
102
RTVSPost2010PropOp34
 70
     1
102
RTVSPost2010Prop35
280
     0
102
RTVSPost2010PropOp35
 70
     1
102
RTVSPost2010Prop36
280
     0
102
RTVSPost2010PropOp36
 70
     1
102
RTVSPost2010Prop37
 90
       50
102
RTVSPost2010PropOp37
 70
     1
102
RTVSPost2010Prop38
140
0.0
102
RTVSPost2010PropOp38
 70
     1
102
RTVSPost2010Prop39
140
1.0
102
RTVSPost2010PropOp39
 70
     1
102
RTVSPost2010Prop40
 90
        0
102
RTVSPost2010PropOp40
 70
     1
102
RTVSPost2010Prop41ColorIndex
 90
       18
102
RTVSPost2010Prop41ColorRGB
 90
        0
102
RTVSPost2010PropOp41
 70
     1
102
RTVSPost2010Prop42
 90
       50
102
RTVSPost2010PropOp42
 70
     1
102
RTVSPost2010Prop43
 90
        3
102
RTVSPost2010PropOp43
 70
     1
102
RTVSPost2010Prop44ColorIndex
 90
        5
102
RTVSPost2010Prop44ColorRGB
 90
      255
102
RTVSPost2010PropOp44
 70
     1
102
RTVSPost2010Prop45
280
     0
102
RTVSPost2010PropOp45
 70
     1
102
RTVSPost2010Prop46
 90
       50
102
RTVSPost2010PropOp46
 70
     1
102
RTVSPost2010Prop47
 90
       50
102
RTVSPost2010PropOp47
 70
     1
102
RTVSPost2010Prop48
 90
       50
102
RTVSPost2010PropOp48
 70
     1
102
RTVSPost2010Prop49
280
     0
102
RTVSPost2010PropOp49
 70
     1
102
RTVSPost2010Prop50
 90
       50
102
RTVSPost2010PropOp50
 70
     1
102
RTVSPost2010Prop51ColorIndex
 90
      256
102
RTVSPost2010Prop51ColorRGB
 90
-16777216
102
RTVSPost2010PropOp51
 70
     0
102
RTVSPost2010Prop52
140
1.0
102
RTVSPost2010PropOp52
 70
     0
102
RTVSPost2010Prop53
 90
        2
102
RTVSPost2010PropOp53
 70
     1
102
RTVSPost2010Prop54
  1
strokes_ogs.tif
102
RTVSPost2010PropOp54
 70
     1
102
RTVSPost2010Prop55
280
     0
102
RTVSPost2010PropOp55
 70
     1
102
RTVSPost2010Prop56
140
1.0
102
RTVSPost2010PropOp56
 70
     1
102
RTVSPost2010Prop57
140
1.0
102
RTVSPost2010PropOp57
 70
     1
  0
XRECORD
  5
2CD
102
{ACAD_REACTORS
330
2CC
102
}
330
2CC
100
AcDbXrecord
280
     1
102
RTVSPost2010Prop28
280
     0
102
RTVSPost2010PropOp28
 70
     1
102
RTVSPost2010Prop29
280
     1
102
RTVSPost2010PropOp29
 70
     1
102
RTVSPost2010Prop30
280
     1
102
RTVSPost2010PropOp30
 70
     1
102
RTVSPost2010Prop31
280
     0
102
RTVSPost2010PropOp31
 70
     1
102
RTVSPost2010Prop32
280
     0
102
RTVSPost2010PropOp32
 70
     1
102
RTVSPost2010Prop33
280
     0
102
RTVSPost2010PropOp33
 70
     1
102
RTVSPost2010Prop34
280
     0
102
RTVSPost2010PropOp34
 70
     1
102
RTVSPost2010Prop35
280
     0
102
RTVSPost2010PropOp35
 70
     1
102
RTVSPost2010Prop36
280
     0
102
RTVSPost2010PropOp36
 70
     1
102
RTVSPost2010Prop37
 90
       50
102
RTVSPost2010PropOp37
 70
     1
102
RTVSPost2010Prop38
140
0.0
102
RTVSPost2010PropOp38
 70
     1
102
RTVSPost2010Prop39
140
1.0
102
RTVSPost2010PropOp39
 70
     1
102
RTVSPost2010Prop40
 90
        0
102
RTVSPost2010PropOp40
 70
     1
102
RTVSPost2010Prop41ColorIndex
 90
       18
102
RTVSPost2010Prop41ColorRGB
 90
        0
102
RTVSPost2010PropOp41
 70
     1
102
RTVSPost2010Prop42
 90
       50
102
RTVSPost2010PropOp42
 70
     1
102
RTVSPost2010Prop43
 90
        3
102
RTVSPost2010PropOp43
 70
     1
102
RTVSPost2010Prop44ColorIndex
 90
        5
102
RTVSPost2010Prop44ColorRGB
 90
      255
102
RTVSPost2010PropOp44
 70
     1
102
RTVSPost2010Prop45
280
     0
102
RTVSPost2010PropOp45
 70
     1
102
RTVSPost2010Prop46
 90
       50
102
RTVSPost2010PropOp46
 70
     1
102
RTVSPost2010Prop47
 90
       50
102
RTVSPost2010PropOp47
 70
     1
102
RTVSPost2010Prop48
 90
       50
102
RTVSPost2010PropOp48
 70
     1
102
RTVSPost2010Prop49
280
     0
102
RTVSPost2010PropOp49
 70
     1
102
RTVSPost2010Prop50
 90
       50
102
RTVSPost2010PropOp50
 70
     1
102
RTVSPost2010Prop51ColorIndex
 90
      256
102
RTVSPost2010Prop51ColorRGB
 90
-16777216
102
RTVSPost2010PropOp51
 70
     0
102
RTVSPost2010Prop52
140
1.0
102
RTVSPost2010PropOp52
 70
     0
102
RTVSPost2010Prop53
 90
        2
102
RTVSPost2010PropOp53
 70
     1
102
RTVSPost2010Prop54
  1
strokes_ogs.tif
102
RTVSPost2010PropOp54
 70
     1
102
RTVSPost2010Prop55
280
     0
102
RTVSPost2010PropOp55
 70
     1
102
RTVSPost2010Prop56
140
1.0
102
RTVSPost2010PropOp56
 70
     1
102
RTVSPost2010Prop57
140
1.0
102
RTVSPost2010PropOp57
 70
     1
  0
XRECORD
  5
2D3
102
{ACAD_REACTORS
330
2D2
102
}
330
2D2
100
AcDbXrecord
280
     1
102
RTVSPost2010Prop28
280
     0
102
RTVSPost2010PropOp28
 70
     1
102
RTVSPost2010Prop29
280
     1
102
RTVSPost2010PropOp29
 70
     1
102
RTVSPost2010Prop30
280
     1
102
RTVSPost2010PropOp30
 70
     1
102
RTVSPost2010Prop31
280
     0
102
RTVSPost2010PropOp31
 70
     1
102
RTVSPost2010Prop32
280
     0
102
RTVSPost2010PropOp32
 70
     1
102
RTVSPost2010Prop33
280
     0
102
RTVSPost2010PropOp33
 70
     1
102
RTVSPost2010Prop34
280
     0
102
RTVSPost2010PropOp34
 70
     1
102
RTVSPost2010Prop35
280
     0
102
RTVSPost2010PropOp35
 70
     1
102
RTVSPost2010Prop36
280
     0
102
RTVSPost2010PropOp36
 70
     1
102
RTVSPost2010Prop37
 90
       50
102
RTVSPost2010PropOp37
 70
     1
102
RTVSPost2010Prop38
140
0.0
102
RTVSPost2010PropOp38
 70
     1
102
RTVSPost2010Prop39
140
1.0
102
RTVSPost2010PropOp39
 70
     1
102
RTVSPost2010Prop40
 90
        0
102
RTVSPost2010PropOp40
 70
     1
102
RTVSPost2010Prop41ColorIndex
 90
       18
102
RTVSPost2010Prop41ColorRGB
 90
        0
102
RTVSPost2010PropOp41
 70
     1
102
RTVSPost2010Prop42
 90
       50
102
RTVSPost2010PropOp42
 70
     1
102
RTVSPost2010Prop43
 90
        3
102
RTVSPost2010PropOp43
 70
     1
102
RTVSPost2010Prop44ColorIndex
 90
        5
102
RTVSPost2010Prop44ColorRGB
 90
      255
102
RTVSPost2010PropOp44
 70
     1
102
RTVSPost2010Prop45
280
     0
102
RTVSPost2010PropOp45
 70
     1
102
RTVSPost2010Prop46
 90
       50
102
RTVSPost2010PropOp46
 70
     1
102
RTVSPost2010Prop47
 90
       50
102
RTVSPost2010PropOp47
 70
     1
102
RTVSPost2010Prop48
 90
       50
102
RTVSPost2010PropOp48
 70
     1
102
RTVSPost2010Prop49
280
     0
102
RTVSPost2010PropOp49
 70
     1
102
RTVSPost2010Prop50
 90
       50
102
RTVSPost2010PropOp50
 70
     1
102
RTVSPost2010Prop51ColorIndex
 90
      256
102
RTVSPost2010Prop51ColorRGB
 90
-16777216
102
RTVSPost2010PropOp51
 70
     0
102
RTVSPost2010Prop52
140
1.0
102
RTVSPost2010PropOp52
 70
     0
102
RTVSPost2010Prop53
 90
        2
102
RTVSPost2010PropOp53
 70
     1
102
RTVSPost2010Prop54
  1
strokes_ogs.tif
102
RTVSPost2010PropOp54
 70
     1
102
RTVSPost2010Prop55
280
     0
102
RTVSPost2010PropOp55
 70
     1
102
RTVSPost2010Prop56
140
1.0
102
RTVSPost2010PropOp56
 70
     1
102
RTVSPost2010Prop57
140
1.0
102
RTVSPost2010PropOp57
 70
     1
  0
XRECORD
  5
2E7
102
{ACAD_REACTORS
330
2E6
102
}
330
2E6
100
AcDbXrecord
280
     1
102
RTVSPost2010Prop28
280
     0
102
RTVSPost2010PropOp28
 70
     0
102
RTVSPost2010Prop29
280
     1
102
RTVSPost2010PropOp29
 70
     0
102
RTVSPost2010Prop30
280
     1
102
RTVSPost2010PropOp30
 70
     0
102
RTVSPost2010Prop31
280
     0
102
RTVSPost2010PropOp31
 70
     0
102
RTVSPost2010Prop32
280
     0
102
RTVSPost2010PropOp32
 70
     0
102
RTVSPost2010Prop33
280
     0
102
RTVSPost2010PropOp33
 70
     0
102
RTVSPost2010Prop34
280
     0
102
RTVSPost2010PropOp34
 70
     0
102
RTVSPost2010Prop35
280
     0
102
RTVSPost2010PropOp35
 70
     0
102
RTVSPost2010Prop36
280
     0
102
RTVSPost2010PropOp36
 70
     0
102
RTVSPost2010Prop37
 90
       50
102
RTVSPost2010PropOp37
 70
     0
102
RTVSPost2010Prop38
140
0.0
102
RTVSPost2010PropOp38
 70
     0
102
RTVSPost2010Prop39
140
1.0
102
RTVSPost2010PropOp39
 70
     0
102
RTVSPost2010Prop40
 90
        0
102
RTVSPost2010PropOp40
 70
     0
102
RTVSPost2010Prop41ColorIndex
 90
       18
102
RTVSPost2010Prop41ColorRGB
 90
        0
102
RTVSPost2010PropOp41
 70
     0
102
RTVSPost2010Prop42
 90
       50
102
RTVSPost2010PropOp42
 70
     0
102
RTVSPost2010Prop43
 90
        3
102
RTVSPost2010PropOp43
 70
     0
102
RTVSPost2010Prop44ColorIndex
 90
        5
102
RTVSPost2010Prop44ColorRGB
 90
      255
102
RTVSPost2010PropOp44
 70
     0
102
RTVSPost2010Prop45
280
     0
102
RTVSPost2010PropOp45
 70
     0
102
RTVSPost2010Prop46
 90
       50
102
RTVSPost2010PropOp46
 70
     0
102
RTVSPost2010Prop47
 90
       50
102
RTVSPost2010PropOp47
 70
     0
102
RTVSPost2010Prop48
 90
       50
102
RTVSPost2010PropOp48
 70
     0
102
RTVSPost2010Prop49
280
     0
102
RTVSPost2010PropOp49
 70
     0
102
RTVSPost2010Prop50
 90
       50
102
RTVSPost2010PropOp50
 70
     0
102
RTVSPost2010Prop51ColorIndex
 90
      256
102
RTVSPost2010Prop51ColorRGB
 90
-16777216
102
RTVSPost2010PropOp51
 70
     0
102
RTVSPost2010Prop52
140
1.0
102
RTVSPost2010PropOp52
 70
     0
102
RTVSPost2010Prop53
 90
        2
102
RTVSPost2010PropOp53
 70
     0
102
RTVSPost2010Prop54
  1
strokes_ogs.tif
102
RTVSPost2010PropOp54
 70
     0
102
RTVSPost2010Prop55
280
     0
102
RTVSPost2010PropOp55
 70
     0
102
RTVSPost2010Prop56
140
1.0
102
RTVSPost2010PropOp56
 70
     0
102
RTVSPost2010Prop57
140
1.0
102
RTVSPost2010PropOp57
 70
     0
  0
XRECORD
  5
2E1
102
{ACAD_REACTORS
330
2E0
102
}
330
2E0
100
AcDbXrecord
280
     1
102
RTVSPost2010Prop28
280
     0
102
RTVSPost2010PropOp28
 70
     1
102
RTVSPost2010Prop29
280
     1
102
RTVSPost2010PropOp29
 70
     1
102
RTVSPost2010Prop30
280
     1
102
RTVSPost2010PropOp30
 70
     1
102
RTVSPost2010Prop31
280
     0
102
RTVSPost2010PropOp31
 70
     1
102
RTVSPost2010Prop32
280
     0
102
RTVSPost2010PropOp32
 70
     1
102
RTVSPost2010Prop33
280
     0
102
RTVSPost2010PropOp33
 70
     1
102
RTVSPost2010Prop34
280
     0
102
RTVSPost2010PropOp34
 70
     1
102
RTVSPost2010Prop35
280
     0
102
RTVSPost2010PropOp35
 70
     1
102
RTVSPost2010Prop36
280
     0
102
RTVSPost2010PropOp36
 70
     1
102
RTVSPost2010Prop37
 90
       50
102
RTVSPost2010PropOp37
 70
     1
102
RTVSPost2010Prop38
140
0.0
102
RTVSPost2010PropOp38
 70
     1
102
RTVSPost2010Prop39
140
1.0
102
RTVSPost2010PropOp39
 70
     1
102
RTVSPost2010Prop40
 90
        0
102
RTVSPost2010PropOp40
 70
     1
102
RTVSPost2010Prop41ColorIndex
 90
       18
102
RTVSPost2010Prop41ColorRGB
 90
        0
102
RTVSPost2010PropOp41
 70
     1
102
RTVSPost2010Prop42
 90
       50
102
RTVSPost2010PropOp42
 70
     1
102
RTVSPost2010Prop43
 90
        3
102
RTVSPost2010PropOp43
 70
     1
102
RTVSPost2010Prop44ColorIndex
 90
        5
102
RTVSPost2010Prop44ColorRGB
 90
      255
102
RTVSPost2010PropOp44
 70
     1
102
RTVSPost2010Prop45
280
     0
102
RTVSPost2010PropOp45
 70
     1
102
RTVSPost2010Prop46
 90
       50
102
RTVSPost2010PropOp46
 70
     1
102
RTVSPost2010Prop47
 90
       50
102
RTVSPost2010PropOp47
 70
     1
102
RTVSPost2010Prop48
 90
       50
102
RTVSPost2010PropOp48
 70
     1
102
RTVSPost2010Prop49
280
     0
102
RTVSPost2010PropOp49
 70
     1
102
RTVSPost2010Prop50
 90
       50
102
RTVSPost2010PropOp50
 70
     1
102
RTVSPost2010Prop51ColorIndex
 90
      256
102
RTVSPost2010Prop51ColorRGB
 90
-16777216
102
RTVSPost2010PropOp51
 70
     0
102
RTVSPost2010Prop52
140
1.0
102
RTVSPost2010PropOp52
 70
     0
102
RTVSPost2010Prop53
 90
        2
102
RTVSPost2010PropOp53
 70
     1
102
RTVSPost2010Prop54
  1
strokes_ogs.tif
102
RTVSPost2010PropOp54
 70
     1
102
RTVSPost2010Prop55
280
     0
102
RTVSPost2010PropOp55
 70
     1
102
RTVSPost2010Prop56
140
1.0
102
RTVSPost2010PropOp56
 70
     1
102
RTVSPost2010Prop57
140
1.0
102
RTVSPost2010PropOp57
 70
     1
  0
XRECORD
  5
2E9
102
{ACAD_REACTORS
330
2E8
102
}
330
2E8
100
AcDbXrecord
280
     1
102
RTVSPost2010Prop28
280
     0
102
RTVSPost2010PropOp28
 70
     0
102
RTVSPost2010Prop29
280
     1
102
RTVSPost2010PropOp29
 70
     0
102
RTVSPost2010Prop30
280
     1
102
RTVSPost2010PropOp30
 70
     0
102
RTVSPost2010Prop31
280
     0
102
RTVSPost2010PropOp31
 70
     0
102
RTVSPost2010Prop32
280
     0
102
RTVSPost2010PropOp32
 70
     0
102
RTVSPost2010Prop33
280
     0
102
RTVSPost2010PropOp33
 70
     0
102
RTVSPost2010Prop34
280
     0
102
RTVSPost2010PropOp34
 70
     0
102
RTVSPost2010Prop35
280
     0
102
RTVSPost2010PropOp35
 70
     0
102
RTVSPost2010Prop36
280
     0
102
RTVSPost2010PropOp36
 70
     0
102
RTVSPost2010Prop37
 90
       50
102
RTVSPost2010PropOp37
 70
     0
102
RTVSPost2010Prop38
140
0.0
102
RTVSPost2010PropOp38
 70
     0
102
RTVSPost2010Prop39
140
1.0
102
RTVSPost2010PropOp39
 70
     0
102
RTVSPost2010Prop40
 90
        0
102
RTVSPost2010PropOp40
 70
     0
102
RTVSPost2010Prop41ColorIndex
 90
       18
102
RTVSPost2010Prop41ColorRGB
 90
        0
102
RTVSPost2010PropOp41
 70
     0
102
RTVSPost2010Prop42
 90
       50
102
RTVSPost2010PropOp42
 70
     0
102
RTVSPost2010Prop43
 90
        3
102
RTVSPost2010PropOp43
 70
     0
102
RTVSPost2010Prop44ColorIndex
 90
        5
102
RTVSPost2010Prop44ColorRGB
 90
      255
102
RTVSPost2010PropOp44
 70
     0
102
RTVSPost2010Prop45
280
     0
102
RTVSPost2010PropOp45
 70
     0
102
RTVSPost2010Prop46
 90
       50
102
RTVSPost2010PropOp46
 70
     0
102
RTVSPost2010Prop47
 90
       50
102
RTVSPost2010PropOp47
 70
     0
102
RTVSPost2010Prop48
 90
       50
102
RTVSPost2010PropOp48
 70
     0
102
RTVSPost2010Prop49
280
     0
102
RTVSPost2010PropOp49
 70
     0
102
RTVSPost2010Prop50
 90
       50
102
RTVSPost2010PropOp50
 70
     0
102
RTVSPost2010Prop51ColorIndex
 90
      256
102
RTVSPost2010Prop51ColorRGB
 90
-16777216
102
RTVSPost2010PropOp51
 70
     0
102
RTVSPost2010Prop52
140
1.0
102
RTVSPost2010PropOp52
 70
     0
102
RTVSPost2010Prop53
 90
        2
102
RTVSPost2010PropOp53
 70
     0
102
RTVSPost2010Prop54
  1
strokes_ogs.tif
102
RTVSPost2010PropOp54
 70
     0
102
RTVSPost2010Prop55
280
     0
102
RTVSPost2010PropOp55
 70
     0
102
RTVSPost2010Prop56
140
1.0
102
RTVSPost2010PropOp56
 70
     0
102
RTVSPost2010Prop57
140
1.0
102
RTVSPost2010PropOp57
 70
     0
  0
XRECORD
  5
2D7
102
{ACAD_REACTORS
330
2D6
102
}
330
2D6
100
AcDbXrecord
280
     1
102
RTVSPost2010Prop28
280
     0
102
RTVSPost2010PropOp28
 70
     1
102
RTVSPost2010Prop29
280
     1
102
RTVSPost2010PropOp29
 70
     1
102
RTVSPost2010Prop30
280
     1
102
RTVSPost2010PropOp30
 70
     1
102
RTVSPost2010Prop31
280
     0
102
RTVSPost2010PropOp31
 70
     1
102
RTVSPost2010Prop32
280
     0
102
RTVSPost2010PropOp32
 70
     1
102
RTVSPost2010Prop33
280
     0
102
RTVSPost2010PropOp33
 70
     1
102
RTVSPost2010Prop34
280
     0
102
RTVSPost2010PropOp34
 70
     1
102
RTVSPost2010Prop35
280
     0
102
RTVSPost2010PropOp35
 70
     1
102
RTVSPost2010Prop36
280
     0
102
RTVSPost2010PropOp36
 70
     1
102
RTVSPost2010Prop37
 90
       50
102
RTVSPost2010PropOp37
 70
     1
102
RTVSPost2010Prop38
140
0.0
102
RTVSPost2010PropOp38
 70
     1
102
RTVSPost2010Prop39
140
1.0
102
RTVSPost2010PropOp39
 70
     1
102
RTVSPost2010Prop40
 90
        0
102
RTVSPost2010PropOp40
 70
     1
102
RTVSPost2010Prop41ColorIndex
 90
       18
102
RTVSPost2010Prop41ColorRGB
 90
        0
102
RTVSPost2010PropOp41
 70
     1
102
RTVSPost2010Prop42
 90
       50
102
RTVSPost2010PropOp42
 70
     1
102
RTVSPost2010Prop43
 90
        3
102
RTVSPost2010PropOp43
 70
     1
102
RTVSPost2010Prop44ColorIndex
 90
        5
102
RTVSPost2010Prop44ColorRGB
 90
      255
102
RTVSPost2010PropOp44
 70
     1
102
RTVSPost2010Prop45
280
     0
102
RTVSPost2010PropOp45
 70
     1
102
RTVSPost2010Prop46
 90
       50
102
RTVSPost2010PropOp46
 70
     1
102
RTVSPost2010Prop47
 90
       50
102
RTVSPost2010PropOp47
 70
     1
102
RTVSPost2010Prop48
 90
       50
102
RTVSPost2010PropOp48
 70
     1
102
RTVSPost2010Prop49
280
     0
102
RTVSPost2010PropOp49
 70
     1
102
RTVSPost2010Prop50
 90
       50
102
RTVSPost2010PropOp50
 70
     1
102
RTVSPost2010Prop51ColorIndex
 90
      256
102
RTVSPost2010Prop51ColorRGB
 90
-16777216
102
RTVSPost2010PropOp51
 70
     0
102
RTVSPost2010Prop52
140
1.0
102
RTVSPost2010PropOp52
 70
     0
102
RTVSPost2010Prop53
 90
        2
102
RTVSPost2010PropOp53
 70
     1
102
RTVSPost2010Prop54
  1
strokes_ogs.tif
102
RTVSPost2010PropOp54
 70
     1
102
RTVSPost2010Prop55
280
     0
102
RTVSPost2010PropOp55
 70
     1
102
RTVSPost2010Prop56
140
1.0
102
RTVSPost2010PropOp56
 70
     1
102
RTVSPost2010Prop57
140
1.0
102
RTVSPost2010PropOp57
 70
     1
  0
XRECORD
  5
2F5
102
{ACAD_REACTORS
330
2F4
102
}
330
2F4
100
AcDbXrecord
280
     1
102
RTVSPost2010Prop28
280
     0
102
RTVSPost2010PropOp28
 70
     1
102
RTVSPost2010Prop29
280
     1
102
RTVSPost2010PropOp29
 70
     1
102
RTVSPost2010Prop30
280
     1
102
RTVSPost2010PropOp30
 70
     1
102
RTVSPost2010Prop31
280
     0
102
RTVSPost2010PropOp31
 70
     1
102
RTVSPost2010Prop32
280
     0
102
RTVSPost2010PropOp32
 70
     1
102
RTVSPost2010Prop33
280
     0
102
RTVSPost2010PropOp33
 70
     1
102
RTVSPost2010Prop34
280
     0
102
RTVSPost2010PropOp34
 70
     1
102
RTVSPost2010Prop35
280
     0
102
RTVSPost2010PropOp35
 70
     1
102
RTVSPost2010Prop36
280
     0
102
RTVSPost2010PropOp36
 70
     1
102
RTVSPost2010Prop37
 90
       50
102
RTVSPost2010PropOp37
 70
     1
102
RTVSPost2010Prop38
140
0.0
102
RTVSPost2010PropOp38
 70
     1
102
RTVSPost2010Prop39
140
1.0
102
RTVSPost2010PropOp39
 70
     1
102
RTVSPost2010Prop40
 90
        0
102
RTVSPost2010PropOp40
 70
     1
102
RTVSPost2010Prop41ColorIndex
 90
       18
102
RTVSPost2010Prop41ColorRGB
 90
        0
102
RTVSPost2010PropOp41
 70
     1
102
RTVSPost2010Prop42
 90
       50
102
RTVSPost2010PropOp42
 70
     1
102
RTVSPost2010Prop43
 90
        3
102
RTVSPost2010PropOp43
 70
     1
102
RTVSPost2010Prop44ColorIndex
 90
        5
102
RTVSPost2010Prop44ColorRGB
 90
      255
102
RTVSPost2010PropOp44
 70
     1
102
RTVSPost2010Prop45
280
     0
102
RTVSPost2010PropOp45
 70
     1
102
RTVSPost2010Prop46
 90
       50
102
RTVSPost2010PropOp46
 70
     1
102
RTVSPost2010Prop47
 90
       50
102
RTVSPost2010PropOp47
 70
     1
102
RTVSPost2010Prop48
 90
       50
102
RTVSPost2010PropOp48
 70
     1
102
RTVSPost2010Prop49
280
     0
102
RTVSPost2010PropOp49
 70
     1
102
RTVSPost2010Prop50
 90
       50
102
RTVSPost2010PropOp50
 70
     1
102
RTVSPost2010Prop51ColorIndex
 90
      256
102
RTVSPost2010Prop51ColorRGB
 90
-16777216
102
RTVSPost2010PropOp51
 70
     0
102
RTVSPost2010Prop52
140
1.0
102
RTVSPost2010PropOp52
 70
     0
102
RTVSPost2010Prop53
 90
        2
102
RTVSPost2010PropOp53
 70
     1
102
RTVSPost2010Prop54
  1
strokes_ogs.tif
102
RTVSPost2010PropOp54
 70
     1
102
RTVSPost2010Prop55
280
     0
102
RTVSPost2010PropOp55
 70
     1
102
RTVSPost2010Prop56
140
1.0
102
RTVSPost2010PropOp56
 70
     1
102
RTVSPost2010Prop57
140
1.0
102
RTVSPost2010PropOp57
 70
     1
  0
XRECORD
  5
2F3
102
{ACAD_REACTORS
330
2F2
102
}
330
2F2
100
AcDbXrecord
280
     1
102
RTVSPost2010Prop28
280
     0
102
RTVSPost2010PropOp28
 70
     1
102
RTVSPost2010Prop29
280
     1
102
RTVSPost2010PropOp29
 70
     1
102
RTVSPost2010Prop30
280
     1
102
RTVSPost2010PropOp30
 70
     1
102
RTVSPost2010Prop31
280
     0
102
RTVSPost2010PropOp31
 70
     1
102
RTVSPost2010Prop32
280
     0
102
RTVSPost2010PropOp32
 70
     1
102
RTVSPost2010Prop33
280
     0
102
RTVSPost2010PropOp33
 70
     1
102
RTVSPost2010Prop34
280
     0
102
RTVSPost2010PropOp34
 70
     1
102
RTVSPost2010Prop35
280
     0
102
RTVSPost2010PropOp35
 70
     1
102
RTVSPost2010Prop36
280
     0
102
RTVSPost2010PropOp36
 70
     1
102
RTVSPost2010Prop37
 90
       50
102
RTVSPost2010PropOp37
 70
     1
102
RTVSPost2010Prop38
140
0.0
102
RTVSPost2010PropOp38
 70
     1
102
RTVSPost2010Prop39
140
1.0
102
RTVSPost2010PropOp39
 70
     1
102
RTVSPost2010Prop40
 90
        0
102
RTVSPost2010PropOp40
 70
     1
102
RTVSPost2010Prop41ColorIndex
 90
       18
102
RTVSPost2010Prop41ColorRGB
 90
        0
102
RTVSPost2010PropOp41
 70
     1
102
RTVSPost2010Prop42
 90
       50
102
RTVSPost2010PropOp42
 70
     1
102
RTVSPost2010Prop43
 90
        3
102
RTVSPost2010PropOp43
 70
     1
102
RTVSPost2010Prop44ColorIndex
 90
        5
102
RTVSPost2010Prop44ColorRGB
 90
      255
102
RTVSPost2010PropOp44
 70
     1
102
RTVSPost2010Prop45
280
     0
102
RTVSPost2010PropOp45
 70
     1
102
RTVSPost2010Prop46
 90
       50
102
RTVSPost2010PropOp46
 70
     1
102
RTVSPost2010Prop47
 90
       50
102
RTVSPost2010PropOp47
 70
     1
102
RTVSPost2010Prop48
 90
       50
102
RTVSPost2010PropOp48
 70
     1
102
RTVSPost2010Prop49
280
     0
102
RTVSPost2010PropOp49
 70
     1
102
RTVSPost2010Prop50
 90
       50
102
RTVSPost2010PropOp50
 70
     1
102
RTVSPost2010Prop51ColorIndex
 90
      256
102
RTVSPost2010Prop51ColorRGB
 90
-16777216
102
RTVSPost2010PropOp51
 70
     0
102
RTVSPost2010Prop52
140
1.0
102
RTVSPost2010PropOp52
 70
     0
102
RTVSPost2010Prop53
 90
        2
102
RTVSPost2010PropOp53
 70
     1
102
RTVSPost2010Prop54
  1
strokes_ogs.tif
102
RTVSPost2010PropOp54
 70
     1
102
RTVSPost2010Prop55
280
     0
102
RTVSPost2010PropOp55
 70
     1
102
RTVSPost2010Prop56
140
1.0
102
RTVSPost2010PropOp56
 70
     1
102
RTVSPost2010Prop57
140
1.0
102
RTVSPost2010PropOp57
 70
     1
  0
XRECORD
  5
2ED
102
{ACAD_REACTORS
330
2EC
102
}
330
2EC
100
AcDbXrecord
280
     1
102
RTVSPost2010Prop28
280
     0
102
RTVSPost2010PropOp28
 70
     1
102
RTVSPost2010Prop29
280
     1
102
RTVSPost2010PropOp29
 70
     1
102
RTVSPost2010Prop30
280
     1
102
RTVSPost2010PropOp30
 70
     1
102
RTVSPost2010Prop31
280
     0
102
RTVSPost2010PropOp31
 70
     1
102
RTVSPost2010Prop32
280
     0
102
RTVSPost2010PropOp32
 70
     1
102
RTVSPost2010Prop33
280
     0
102
RTVSPost2010PropOp33
 70
     1
102
RTVSPost2010Prop34
280
     0
102
RTVSPost2010PropOp34
 70
     1
102
RTVSPost2010Prop35
280
     0
102
RTVSPost2010PropOp35
 70
     1
102
RTVSPost2010Prop36
280
     0
102
RTVSPost2010PropOp36
 70
     1
102
RTVSPost2010Prop37
 90
       50
102
RTVSPost2010PropOp37
 70
     1
102
RTVSPost2010Prop38
140
0.0
102
RTVSPost2010PropOp38
 70
     1
102
RTVSPost2010Prop39
140
1.0
102
RTVSPost2010PropOp39
 70
     1
102
RTVSPost2010Prop40
 90
        0
102
RTVSPost2010PropOp40
 70
     1
102
RTVSPost2010Prop41ColorIndex
 90
       18
102
RTVSPost2010Prop41ColorRGB
 90
        0
102
RTVSPost2010PropOp41
 70
     1
102
RTVSPost2010Prop42
 90
       50
102
RTVSPost2010PropOp42
 70
     1
102
RTVSPost2010Prop43
 90
        3
102
RTVSPost2010PropOp43
 70
     1
102
RTVSPost2010Prop44ColorIndex
 90
        5
102
RTVSPost2010Prop44ColorRGB
 90
      255
102
RTVSPost2010PropOp44
 70
     1
102
RTVSPost2010Prop45
280
     0
102
RTVSPost2010PropOp45
 70
     1
102
RTVSPost2010Prop46
 90
       50
102
RTVSPost2010PropOp46
 70
     1
102
RTVSPost2010Prop47
 90
       50
102
RTVSPost2010PropOp47
 70
     1
102
RTVSPost2010Prop48
 90
       50
102
RTVSPost2010PropOp48
 70
     1
102
RTVSPost2010Prop49
280
     0
102
RTVSPost2010PropOp49
 70
     1
102
RTVSPost2010Prop50
 90
       50
102
RTVSPost2010PropOp50
 70
     1
102
RTVSPost2010Prop51ColorIndex
 90
      256
102
RTVSPost2010Prop51ColorRGB
 90
-16777216
102
RTVSPost2010PropOp51
 70
     0
102
RTVSPost2010Prop52
140
1.0
102
RTVSPost2010PropOp52
 70
     0
102
RTVSPost2010Prop53
 90
        2
102
RTVSPost2010PropOp53
 70
     1
102
RTVSPost2010Prop54
  1
strokes_ogs.tif
102
RTVSPost2010PropOp54
 70
     1
102
RTVSPost2010Prop55
280
     0
102
RTVSPost2010PropOp55
 70
     1
102
RTVSPost2010Prop56
140
1.0
102
RTVSPost2010PropOp56
 70
     1
102
RTVSPost2010Prop57
140
1.0
102
RTVSPost2010PropOp57
 70
     1
  0
XRECORD
  5
2EF
102
{ACAD_REACTORS
330
2EE
102
}
330
2EE
100
AcDbXrecord
280
     1
102
RTVSPost2010Prop28
280
     0
102
RTVSPost2010PropOp28
 70
     1
102
RTVSPost2010Prop29
280
     1
102
RTVSPost2010PropOp29
 70
     1
102
RTVSPost2010Prop30
280
     1
102
RTVSPost2010PropOp30
 70
     1
102
RTVSPost2010Prop31
280
     0
102
RTVSPost2010PropOp31
 70
     1
102
RTVSPost2010Prop32
280
     0
102
RTVSPost2010PropOp32
 70
     1
102
RTVSPost2010Prop33
280
     0
102
RTVSPost2010PropOp33
 70
     1
102
RTVSPost2010Prop34
280
     0
102
RTVSPost2010PropOp34
 70
     1
102
RTVSPost2010Prop35
280
     0
102
RTVSPost2010PropOp35
 70
     1
102
RTVSPost2010Prop36
280
     0
102
RTVSPost2010PropOp36
 70
     1
102
RTVSPost2010Prop37
 90
       50
102
RTVSPost2010PropOp37
 70
     1
102
RTVSPost2010Prop38
140
0.0
102
RTVSPost2010PropOp38
 70
     1
102
RTVSPost2010Prop39
140
1.0
102
RTVSPost2010PropOp39
 70
     1
102
RTVSPost2010Prop40
 90
        0
102
RTVSPost2010PropOp40
 70
     1
102
RTVSPost2010Prop41ColorIndex
 90
       18
102
RTVSPost2010Prop41ColorRGB
 90
        0
102
RTVSPost2010PropOp41
 70
     1
102
RTVSPost2010Prop42
 90
       50
102
RTVSPost2010PropOp42
 70
     1
102
RTVSPost2010Prop43
 90
        3
102
RTVSPost2010PropOp43
 70
     1
102
RTVSPost2010Prop44ColorIndex
 90
        5
102
RTVSPost2010Prop44ColorRGB
 90
      255
102
RTVSPost2010PropOp44
 70
     1
102
RTVSPost2010Prop45
280
     0
102
RTVSPost2010PropOp45
 70
     1
102
RTVSPost2010Prop46
 90
       50
102
RTVSPost2010PropOp46
 70
     1
102
RTVSPost2010Prop47
 90
       50
102
RTVSPost2010PropOp47
 70
     1
102
RTVSPost2010Prop48
 90
       50
102
RTVSPost2010PropOp48
 70
     1
102
RTVSPost2010Prop49
280
     0
102
RTVSPost2010PropOp49
 70
     1
102
RTVSPost2010Prop50
 90
       50
102
RTVSPost2010PropOp50
 70
     1
102
RTVSPost2010Prop51ColorIndex
 90
      256
102
RTVSPost2010Prop51ColorRGB
 90
-16777216
102
RTVSPost2010PropOp51
 70
     0
102
RTVSPost2010Prop52
140
1.0
102
RTVSPost2010PropOp52
 70
     0
102
RTVSPost2010Prop53
 90
        2
102
RTVSPost2010PropOp53
 70
     1
102
RTVSPost2010Prop54
  1
strokes_ogs.tif
102
RTVSPost2010PropOp54
 70
     1
102
RTVSPost2010Prop55
280
     0
102
RTVSPost2010PropOp55
 70
     1
102
RTVSPost2010Prop56
140
1.0
102
RTVSPost2010PropOp56
 70
     1
102
RTVSPost2010Prop57
140
1.0
102
RTVSPost2010PropOp57
 70
     1
  0
XRECORD
  5
2DF
102
{ACAD_REACTORS
330
2DE
102
}
330
2DE
100
AcDbXrecord
280
     1
102
RTVSPost2010Prop28
280
     0
102
RTVSPost2010PropOp28
 70
     1
102
RTVSPost2010Prop29
280
     1
102
RTVSPost2010PropOp29
 70
     1
102
RTVSPost2010Prop30
280
     1
102
RTVSPost2010PropOp30
 70
     1
102
RTVSPost2010Prop31
280
     0
102
RTVSPost2010PropOp31
 70
     1
102
RTVSPost2010Prop32
280
     0
102
RTVSPost2010PropOp32
 70
     1
102
RTVSPost2010Prop33
280
     0
102
RTVSPost2010PropOp33
 70
     1
102
RTVSPost2010Prop34
280
     0
102
RTVSPost2010PropOp34
 70
     1
102
RTVSPost2010Prop35
280
     0
102
RTVSPost2010PropOp35
 70
     1
102
RTVSPost2010Prop36
280
     0
102
RTVSPost2010PropOp36
 70
     1
102
RTVSPost2010Prop37
 90
       50
102
RTVSPost2010PropOp37
 70
     1
102
RTVSPost2010Prop38
140
0.0
102
RTVSPost2010PropOp38
 70
     1
102
RTVSPost2010Prop39
140
1.0
102
RTVSPost2010PropOp39
 70
     1
102
RTVSPost2010Prop40
 90
        0
102
RTVSPost2010PropOp40
 70
     1
102
RTVSPost2010Prop41ColorIndex
 90
       18
102
RTVSPost2010Prop41ColorRGB
 90
        0
102
RTVSPost2010PropOp41
 70
     1
102
RTVSPost2010Prop42
 90
       50
102
RTVSPost2010PropOp42
 70
     1
102
RTVSPost2010Prop43
 90
        3
102
RTVSPost2010PropOp43
 70
     1
102
RTVSPost2010Prop44ColorIndex
 90
        5
102
RTVSPost2010Prop44ColorRGB
 90
      255
102
RTVSPost2010PropOp44
 70
     1
102
RTVSPost2010Prop45
280
     0
102
RTVSPost2010PropOp45
 70
     1
102
RTVSPost2010Prop46
 90
       50
102
RTVSPost2010PropOp46
 70
     1
102
RTVSPost2010Prop47
 90
       50
102
RTVSPost2010PropOp47
 70
     1
102
RTVSPost2010Prop48
 90
       50
102
RTVSPost2010PropOp48
 70
     1
102
RTVSPost2010Prop49
280
     0
102
RTVSPost2010PropOp49
 70
     1
102
RTVSPost2010Prop50
 90
       50
102
RTVSPost2010PropOp50
 70
     1
102
RTVSPost2010Prop51ColorIndex
 90
      256
102
RTVSPost2010Prop51ColorRGB
 90
-16777216
102
RTVSPost2010PropOp51
 70
     0
102
RTVSPost2010Prop52
140
1.0
102
RTVSPost2010PropOp52
 70
     0
102
RTVSPost2010Prop53
 90
        2
102
RTVSPost2010PropOp53
 70
     1
102
RTVSPost2010Prop54
  1
strokes_ogs.tif
102
RTVSPost2010PropOp54
 70
     1
102
RTVSPost2010Prop55
280
     0
102
RTVSPost2010PropOp55
 70
     1
102
RTVSPost2010Prop56
140
1.0
102
RTVSPost2010PropOp56
 70
     1
102
RTVSPost2010Prop57
140
1.0
102
RTVSPost2010PropOp57
 70
     1
  0
XRECORD
  5
2D1
102
{ACAD_REACTORS
330
2D0
102
}
330
2D0
100
AcDbXrecord
280
     1
102
RTVSPost2010Prop28
280
     0
102
RTVSPost2010PropOp28
 70
     1
102
RTVSPost2010Prop29
280
     1
102
RTVSPost2010PropOp29
 70
     1
102
RTVSPost2010Prop30
280
     1
102
RTVSPost2010PropOp30
 70
     1
102
RTVSPost2010Prop31
280
     0
102
RTVSPost2010PropOp31
 70
     1
102
RTVSPost2010Prop32
280
     0
102
RTVSPost2010PropOp32
 70
     1
102
RTVSPost2010Prop33
280
     0
102
RTVSPost2010PropOp33
 70
     1
102
RTVSPost2010Prop34
280
     0
102
RTVSPost2010PropOp34
 70
     1
102
RTVSPost2010Prop35
280
     0
102
RTVSPost2010PropOp35
 70
     1
102
RTVSPost2010Prop36
280
     0
102
RTVSPost2010PropOp36
 70
     1
102
RTVSPost2010Prop37
 90
       50
102
RTVSPost2010PropOp37
 70
     1
102
RTVSPost2010Prop38
140
0.0
102
RTVSPost2010PropOp38
 70
     1
102
RTVSPost2010Prop39
140
1.0
102
RTVSPost2010PropOp39
 70
     1
102
RTVSPost2010Prop40
 90
        0
102
RTVSPost2010PropOp40
 70
     1
102
RTVSPost2010Prop41ColorIndex
 90
       18
102
RTVSPost2010Prop41ColorRGB
 90
        0
102
RTVSPost2010PropOp41
 70
     1
102
RTVSPost2010Prop42
 90
       50
102
RTVSPost2010PropOp42
 70
     1
102
RTVSPost2010Prop43
 90
        3
102
RTVSPost2010PropOp43
 70
     1
102
RTVSPost2010Prop44ColorIndex
 90
        5
102
RTVSPost2010Prop44ColorRGB
 90
      255
102
RTVSPost2010PropOp44
 70
     1
102
RTVSPost2010Prop45
280
     0
102
RTVSPost2010PropOp45
 70
     1
102
RTVSPost2010Prop46
 90
       50
102
RTVSPost2010PropOp46
 70
     1
102
RTVSPost2010Prop47
 90
       50
102
RTVSPost2010PropOp47
 70
     1
102
RTVSPost2010Prop48
 90
       50
102
RTVSPost2010PropOp48
 70
     1
102
RTVSPost2010Prop49
280
     0
102
RTVSPost2010PropOp49
 70
     1
102
RTVSPost2010Prop50
 90
       50
102
RTVSPost2010PropOp50
 70
     1
102
RTVSPost2010Prop51ColorIndex
 90
      256
102
RTVSPost2010Prop51ColorRGB
 90
-16777216
102
RTVSPost2010PropOp51
 70
     0
102
RTVSPost2010Prop52
140
1.0
102
RTVSPost2010PropOp52
 70
     0
102
RTVSPost2010Prop53
 90
        2
102
RTVSPost2010PropOp53
 70
     1
102
RTVSPost2010Prop54
  1
strokes_ogs.tif
102
RTVSPost2010PropOp54
 70
     1
102
RTVSPost2010Prop55
280
     0
102
RTVSPost2010PropOp55
 70
     1
102
RTVSPost2010Prop56
140
1.0
102
RTVSPost2010PropOp56
 70
     1
102
RTVSPost2010Prop57
140
1.0
102
RTVSPost2010PropOp57
 70
     1
  0
XRECORD
  5
2F1
102
{ACAD_REACTORS
330
2F0
102
}
330
2F0
100
AcDbXrecord
280
     1
102
RTVSPost2010Prop28
280
     0
102
RTVSPost2010PropOp28
 70
     1
102
RTVSPost2010Prop29
280
     1
102
RTVSPost2010PropOp29
 70
     1
102
RTVSPost2010Prop30
280
     1
102
RTVSPost2010PropOp30
 70
     1
102
RTVSPost2010Prop31
280
     0
102
RTVSPost2010PropOp31
 70
     1
102
RTVSPost2010Prop32
280
     0
102
RTVSPost2010PropOp32
 70
     1
102
RTVSPost2010Prop33
280
     0
102
RTVSPost2010PropOp33
 70
     1
102
RTVSPost2010Prop34
280
     0
102
RTVSPost2010PropOp34
 70
     1
102
RTVSPost2010Prop35
280
     0
102
RTVSPost2010PropOp35
 70
     1
102
RTVSPost2010Prop36
280
     0
102
RTVSPost2010PropOp36
 70
     1
102
RTVSPost2010Prop37
 90
       50
102
RTVSPost2010PropOp37
 70
     1
102
RTVSPost2010Prop38
140
0.0
102
RTVSPost2010PropOp38
 70
     1
102
RTVSPost2010Prop39
140
1.0
102
RTVSPost2010PropOp39
 70
     1
102
RTVSPost2010Prop40
 90
        0
102
RTVSPost2010PropOp40
 70
     1
102
RTVSPost2010Prop41ColorIndex
 90
       18
102
RTVSPost2010Prop41ColorRGB
 90
        0
102
RTVSPost2010PropOp41
 70
     1
102
RTVSPost2010Prop42
 90
       50
102
RTVSPost2010PropOp42
 70
     1
102
RTVSPost2010Prop43
 90
        3
102
RTVSPost2010PropOp43
 70
     1
102
RTVSPost2010Prop44ColorIndex
 90
        5
102
RTVSPost2010Prop44ColorRGB
 90
      255
102
RTVSPost2010PropOp44
 70
     1
102
RTVSPost2010Prop45
280
     0
102
RTVSPost2010PropOp45
 70
     1
102
RTVSPost2010Prop46
 90
       50
102
RTVSPost2010PropOp46
 70
     1
102
RTVSPost2010Prop47
 90
       50
102
RTVSPost2010PropOp47
 70
     1
102
RTVSPost2010Prop48
 90
       50
102
RTVSPost2010PropOp48
 70
     1
102
RTVSPost2010Prop49
280
     0
102
RTVSPost2010PropOp49
 70
     1
102
RTVSPost2010Prop50
 90
       50
102
RTVSPost2010PropOp50
 70
     1
102
RTVSPost2010Prop51ColorIndex
 90
      256
102
RTVSPost2010Prop51ColorRGB
 90
-16777216
102
RTVSPost2010PropOp51
 70
     0
102
RTVSPost2010Prop52
140
1.0
102
RTVSPost2010PropOp52
 70
     0
102
RTVSPost2010Prop53
 90
        2
102
RTVSPost2010PropOp53
 70
     1
102
RTVSPost2010Prop54
  1
strokes_ogs.tif
102
RTVSPost2010PropOp54
 70
     1
102
RTVSPost2010Prop55
280
     0
102
RTVSPost2010PropOp55
 70
     1
102
RTVSPost2010Prop56
140
1.0
102
RTVSPost2010PropOp56
 70
     1
102
RTVSPost2010Prop57
140
1.0
102
RTVSPost2010PropOp57
 70
     1
  0
ENDSEC
  0
EOF
