  0
SECTION
  2
HEADER
  9
$ACADVER
  1
AC1024
  9
$ACADMAINTVER
 70
     6
  9
$DWGCODEPAGE
  3
ANSI_1252
  9
$LASTSAVEDBY
  1
c.meyer
  9
$INSBASE
 10
0.0
 20
0.0
 30
0.0
  9
$EXTMIN
 10
-3108.701185046121
 20
-1603.155
 30
0.0
  9
$EXTMAX
 10
4333.701185046121
 20
1326.255
 30
0.0
  9
$LIMMIN
 10
0.0
 20
0.0
  9
$LIMMAX
 10
420.0
 20
297.0
  9
$ORTHOMODE
 70
     0
  9
$REGENMODE
 70
     1
  9
$FILLMODE
 70
     1
  9
$QTEXTMODE
 70
     0
  9
$MIRRTEXT
 70
     1
  9
$LTSCALE
 40
5.0
  9
$ATTMODE
 70
     1
  9
$TEXTSIZE
 40
2.5
  9
$TRACEWID
 40
1.0
  9
$TEXTSTYLE
  7
Standard
  9
$CLAYER
  8
0
  9
$CELTYPE
  6
ByLayer
  9
$CECOLOR
 62
   256
  9
$CELTSCALE
 40
1.0
  9
$DISPSILH
 70
     0
  9
$DIMSCALE
 40
1.0
  9
$DIMASZ
 40
2.5
  9
$DIMEXO
 40
0.625
  9
$DIMDLI
 40
3.75
  9
$DIMRND
 40
0.0
  9
$DIMDLE
 40
0.0
  9
$DIMEXE
 40
1.25
  9
$DIMTP
 40
0.0
  9
$DIMTM
 40
0.0
  9
$DIMTXT
 40
2.5
  9
$DIMCEN
 40
2.5
  9
$DIMTSZ
 40
0.0
  9
$DIMTOL
 70
     0
  9
$DIMLIM
 70
     0
  9
$DIMTIH
 70
     0
  9
$DIMTOH
 70
     0
  9
$DIMSE1
 70
     0
  9
$DIMSE2
 70
     0
  9
$DIMTAD
 70
     1
  9
$DIMZIN
 70
     8
  9
$DIMBLK
  1

  9
$DIMASO
 70
     1
  9
$DIMSHO
 70
     1
  9
$DIMPOST
  1

  9
$DIMAPOST
  1

  9
$DIMALT
 70
     0
  9
$DIMALTD
 70
     3
  9
$DIMALTF
 40
0.03937007874
  9
$DIMLFAC
 40
1.0
  9
$DIMTOFL
 70
     1
  9
$DIMTVP
 40
0.0
  9
$DIMTIX
 70
     0
  9
$DIMSOXD
 70
     0
  9
$DIMSAH
 70
     0
  9
$DIMBLK1
  1

  9
$DIMBLK2
  1

  9
$DIMSTYLE
  2
ISO-25
  9
$DIMCLRD
 70
     0
  9
$DIMCLRE
 70
     0
  9
$DIMCLRT
 70
     0
  9
$DIMTFAC
 40
1.0
  9
$DIMGAP
 40
0.625
  9
$DIMJUST
 70
     0
  9
$DIMSD1
 70
     0
  9
$DIMSD2
 70
     0
  9
$DIMTOLJ
 70
     0
  9
$DIMTZIN
 70
     8
  9
$DIMALTZ
 70
     0
  9
$DIMALTTZ
 70
     0
  9
$DIMUPT
 70
     0
  9
$DIMDEC
 70
     2
  9
$DIMTDEC
 70
     2
  9
$DIMALTU
 70
     2
  9
$DIMALTTD
 70
     3
  9
$DIMTXSTY
  7
Standard
  9
$DIMAUNIT
 70
     0
  9
$DIMADEC
 70
     0
  9
$DIMALTRND
 40
0.0
  9
$DIMAZIN
 70
     0
  9
$DIMDSEP
 70
    44
  9
$DIMATFIT
 70
     3
  9
$DIMFRAC
 70
     0
  9
$DIMLDRBLK
  1

  9
$DIMLUNIT
 70
     2
  9
$DIMLWD
 70
    -2
  9
$DIMLWE
 70
    -2
  9
$DIMTMOVE
 70
     0
  9
$DIMFXL
 40
1.0
  9
$DIMFXLON
 70
     0
  9
$DIMJOGANG
 40
0.785398163397
  9
$DIMTFILL
 70
     0
  9
$DIMTFILLCLR
 70
     0
  9
$DIMARCSYM
 70
     0
  9
$DIMLTYPE
  6

  9
$DIMLTEX1
  6

  9
$DIMLTEX2
  6

  9
$DIMTXTDIRECTION
 70
     0
  9
$LUNITS
 70
     2
  9
$LUPREC
 70
     4
  9
$SKETCHINC
 40
1.0
  9
$FILLETRAD
 40
0.0
  9
$AUNITS
 70
     0
  9
$AUPREC
 70
     0
  9
$MENU
  1
.
  9
$ELEVATION
 40
0.0
  9
$PELEVATION
 40
0.0
  9
$THICKNESS
 40
0.0
  9
$LIMCHECK
 70
     0
  9
$CHAMFERA
 40
0.0
  9
$CHAMFERB
 40
0.0
  9
$CHAMFERC
 40
0.0
  9
$CHAMFERD
 40
0.0
  9
$SKPOLY
 70
     0
  9
$TDCREATE
 40
2459907.453587257
  9
$TDUCREATE
 40
2459907.41192059
  9
$TDUPDATE
 40
2459907.453587986
  9
$TDUUPDATE
 40
2459907.41192132
  9
$TDINDWG
 40
0.0000000116
  9
$TDUSRTIMER
 40
0.0000000116
  9
$USRTIMER
 70
     1
  9
$ANGBASE
 50
0.0
  9
$ANGDIR
 70
     0
  9
$PDMODE
 70
     2
  9
$PDSIZE
 40
1.0
  9
$PLINEWID
 40
0.0
  9
$SPLFRAME
 70
     0
  9
$SPLINETYPE
 70
     6
  9
$SPLINESEGS
 70
     8
  9
$HANDSEED
  5
270
  9
$SURFTAB1
 70
     6
  9
$SURFTAB2
 70
     6
  9
$SURFTYPE
 70
     6
  9
$SURFU
 70
     6
  9
$SURFV
 70
     6
  9
$UCSBASE
  2

  9
$UCSNAME
  2

  9
$UCSORG
 10
0.0
 20
0.0
 30
0.0
  9
$UCSXDIR
 10
1.0
 20
0.0
 30
0.0
  9
$UCSYDIR
 10
0.0
 20
1.0
 30
0.0
  9
$UCSORTHOREF
  2

  9
$UCSORTHOVIEW
 70
     0
  9
$UCSORGTOP
 10
0.0
 20
0.0
 30
0.0
  9
$UCSORGBOTTOM
 10
0.0
 20
0.0
 30
0.0
  9
$UCSORGLEFT
 10
0.0
 20
0.0
 30
0.0
  9
$UCSORGRIGHT
 10
0.0
 20
0.0
 30
0.0
  9
$UCSORGFRONT
 10
0.0
 20
0.0
 30
0.0
  9
$UCSORGBACK
 10
0.0
 20
0.0
 30
0.0
  9
$PUCSBASE
  2

  9
$PUCSNAME
  2

  9
$PUCSORG
 10
0.0
 20
0.0
 30
0.0
  9
$PUCSXDIR
 10
1.0
 20
0.0
 30
0.0
  9
$PUCSYDIR
 10
0.0
 20
1.0
 30
0.0
  9
$PUCSORTHOREF
  2

  9
$PUCSORTHOVIEW
 70
     0
  9
$PUCSORGTOP
 10
0.0
 20
0.0
 30
0.0
  9
$PUCSORGBOTTOM
 10
0.0
 20
0.0
 30
0.0
  9
$PUCSORGLEFT
 10
0.0
 20
0.0
 30
0.0
  9
$PUCSORGRIGHT
 10
0.0
 20
0.0
 30
0.0
  9
$PUCSORGFRONT
 10
0.0
 20
0.0
 30
0.0
  9
$PUCSORGBACK
 10
0.0
 20
0.0
 30
0.0
  9
$USERI1
 70
     0
  9
$USERI2
 70
     0
  9
$USERI3
 70
     0
  9
$USERI4
 70
     0
  9
$USERI5
 70
     0
  9
$USERR1
 40
0.0
  9
$USERR2
 40
0.0
  9
$USERR3
 40
0.0
  9
$USERR4
 40
0.0
  9
$USERR5
 40
0.0
  9
$WORLDVIEW
 70
     1
  9
$SHADEDGE
 70
     3
  9
$SHADEDIF
 70
    70
  9
$TILEMODE
 70
     1
  9
$MAXACTVP
 70
    64
  9
$PINSBASE
 10
0.0
 20
0.0
 30
0.0
  9
$PLIMCHECK
 70
     0
  9
$PEXTMIN
 10
1.000000000000E+20
 20
1.000000000000E+20
 30
1.000000000000E+20
  9
$PEXTMAX
 10
-1.000000000000E+20
 20
-1.000000000000E+20
 30
-1.000000000000E+20
  9
$PLIMMIN
 10
0.0
 20
0.0
  9
$PLIMMAX
 10
420.0
 20
297.0
  9
$UNITMODE
 70
     0
  9
$VISRETAIN
 70
     1
  9
$PLINEGEN
 70
     0
  9
$PSLTSCALE
 70
     1
  9
$TREEDEPTH
 70
  3020
  9
$CMLSTYLE
  2
Standard
  9
$CMLJUST
 70
     0
  9
$CMLSCALE
 40
20.0
  9
$PROXYGRAPHICS
 70
     1
  9
$MEASUREMENT
 70
     1
  9
$CELWEIGHT
370
    -1
  9
$ENDCAPS
280
     0
  9
$JOINSTYLE
280
     0
  9
$LWDISPLAY
290
     0
  9
$INSUNITS
 70
     4
  9
$HYPERLINKBASE
  1

  9
$STYLESHEET
  1

  9
$XEDIT
290
     1
  9
$CEPSNTYPE
380
     0
  9
$PSTYLEMODE
290
     1
  9
$FINGERPRINTGUID
  2
{6ca1f11c-832b-4dbe-83d0-d25f0d6c33de}
  9
$VERSIONGUID
  2
{FAEB1C32-E019-11D5-929B-00C0DF256EC4}
  9
$EXTNAMES
290
     1
  9
$PSVPSCALE
 40
0.0
  9
$OLESTARTUP
290
     0
  9
$SORTENTS
280
   127
  9
$INDEXCTL
280
     0
  9
$HIDETEXT
280
     1
  9
$XCLIPFRAME
280
     2
  9
$HALOGAP
280
     0
  9
$OBSCOLOR
 70
   257
  9
$OBSLTYPE
280
     0
  9
$INTERSECTIONDISPLAY
280
     0
  9
$INTERSECTIONCOLOR
 70
   257
  9
$DIMASSOC
280
     2
  9
$PROJECTNAME
  1

  9
$CAMERADISPLAY
290
     0
  9
$LENSLENGTH
 40
50.0
  9
$CAMERAHEIGHT
 40
0.0
  9
$STEPSPERSEC
 40
2.0
  9
$STEPSIZE
 40
6.0
  9
$3DDWFPREC
 40
2.0
  9
$PSOLWIDTH
 40
5.0
  9
$PSOLHEIGHT
 40
80.0
  9
$LOFTANG1
 40
1.570796326795
  9
$LOFTANG2
 40
1.570796326795
  9
$LOFTMAG1
 40
0.0
  9
$LOFTMAG2
 40
0.0
  9
$LOFTPARAM
 70
     7
  9
$LOFTNORMALS
280
     1
  9
$LATITUDE
 40
37.795
  9
$LONGITUDE
 40
-122.394
  9
$NORTHDIRECTION
 40
0.0
  9
$TIMEZONE
 70
 -8000
  9
$LIGHTGLYPHDISPLAY
280
     1
  9
$TILEMODELIGHTSYNCH
280
     1
  9
$CMATERIAL
347
44
  9
$SOLIDHIST
280
     0
  9
$SHOWHIST
280
     1
  9
$DWFFRAME
280
     2
  9
$DGNFRAME
280
     2
  9
$REALWORLDSCALE
290
     1
  9
$INTERFERECOLOR
 62
   256
  9
$CSHADOW
280
     0
  9
$SHADOWPLANELOCATION
 40
0.0
  0
ENDSEC
  0
SECTION
  2
CLASSES
  0
CLASS
  1
ACDBDICTIONARYWDFLT
  2
AcDbDictionaryWithDefault
  3
ObjectDBX Classes
 90
        0
 91
        3
280
     0
281
     0
  0
CLASS
  1
VISUALSTYLE
  2
AcDbVisualStyle
  3
ObjectDBX Classes
 90
     4095
 91
        3
280
     0
281
     0
  0
CLASS
  1
MATERIAL
  2
AcDbMaterial
  3
ObjectDBX Classes
 90
     1153
 91
        3
280
     0
281
     0
  0
CLASS
  1
SCALE
  2
AcDbScale
  3
ObjectDBX Classes
 90
     1153
 91
        3
280
     0
281
     0
  0
CLASS
  1
TABLESTYLE
  2
AcDbTableStyle
  3
ObjectDBX Classes
 90
     4095
 91
        3
280
     0
281
     0
  0
CLASS
  1
MLEADERSTYLE
  2
AcDbMLeaderStyle
  3
ACDB_MLEADERSTYLE_CLASS
 90
     4095
 91
        3
280
     0
281
     0
  0
CLASS
  1
SUN
  2
AcDbSun
  3
SCENEOE
 90
     1153
 91
        3
280
     0
281
     0
  0
CLASS
  1
IMAGEDEF
  2
AcDbRasterImageDef
  3
ISM
 90
        0
 91
        3
280
     0
281
     0
  0
CLASS
  1
IMAGE
  2
AcDbRasterImage
  3
ISM
 90
      127
 91
        4
280
     0
281
     1
  0
CLASS
  1
IMAGEDEF_REACTOR
  2
AcDbRasterImageDefReactor
  3
ISM
 90
        1
 91
        3
280
     0
281
     0
  0
CLASS
  1
DICTIONARYVAR
  2
AcDbDictionaryVar
  3
ObjectDBX Classes
 90
        0
 91
        3
280
     0
281
     0
  0
CLASS
  1
CELLSTYLEMAP
  2
AcDbCellStyleMap
  3
ObjectDBX Classes
 90
     1152
 91
        3
280
     0
281
     0
  0
CLASS
  1
WIPEOUTVARIABLES
  2
AcDbWipeoutVariables
  3
WipeOut|AutoCAD Express Tool|expresstools@autodesk.com
 90
        0
 91
        3
280
     0
281
     0
  0
ENDSEC
  0
SECTION
  2
TABLES
  0
TABLE
  2
VPORT
  5
8
330
0
100
AcDbSymbolTable
 70
     1
  0
VPORT
  5
29
330
8
100
AcDbSymbolTableRecord
100
AcDbViewportTableRecord
  2
*Active
 70
     0
 10
0.0
 20
0.0
 11
1.0
 21
1.0
 12
612.5
 22
-138.45
 13
0.0
 23
0.0
 14
10.0
 24
10.0
 15
10.0
 25
10.0
 16
0.0
 26
0.0
 36
1.0
 17
0.0
 27
0.0
 37
0.0
 40
2929.41
 41
2.540580652791
 42
50.0
 43
0.0
 44
0.0
 50
0.0
 51
0.0
 71
     0
 72
   100
 73
     1
 74
     3
 75
     0
 76
     0
 77
     0
 78
     0
281
     0
 65
     1
110
0.0
120
0.0
130
0.0
111
1.0
121
0.0
131
0.0
112
0.0
122
1.0
132
0.0
 79
     0
146
0.0
348
2F
 60
     3
 61
     5
292
     1
282
     1
141
0.0
142
0.0
 63
   250
361
5D
  0
ENDTAB
  0
TABLE
  2
LTYPE
  5
5
330
0
100
AcDbSymbolTable
 70
     3
  0
LTYPE
  5
14
330
5
100
AcDbSymbolTableRecord
100
AcDbLinetypeTableRecord
  2
ByBlock
 70
     0
  3

 72
    65
 73
     0
 40
0.0
  0
LTYPE
  5
15
330
5
100
AcDbSymbolTableRecord
100
AcDbLinetypeTableRecord
  2
ByLayer
 70
     0
  3

 72
    65
 73
     0
 40
0.0
  0
LTYPE
  5
16
330
5
100
AcDbSymbolTableRecord
100
AcDbLinetypeTableRecord
  2
Continuous
 70
     0
  3
Solid line
 72
    65
 73
     0
 40
0.0
  0
LTYPE
  5
5E
330
5
100
AcDbSymbolTableRecord
100
AcDbLinetypeTableRecord
  2
AUSGEZOGEN
 70
     0
  3

 72
    65
 73
     0
 40
0.0
  0
LTYPE
  5
60
330
5
100
AcDbSymbolTableRecord
100
AcDbLinetypeTableRecord
  2
DASHDOT
 70
     0
  3

 72
    65
 73
     4
 40
1.0
 49
0.5
 74
     0
 49
-0.25
 74
     0
 49
0.0
 74
     0
 49
-0.25
 74
     0
  0
ENDTAB
  0
TABLE
  2
LAYER
  5
2
330
0
100
AcDbSymbolTable
 70
     3
  0
LAYER
  5
10
330
2
100
AcDbSymbolTableRecord
100
AcDbLayerTableRecord
  2
0
 70
     0
 62
     7
  6
Continuous
370
    -3
390
F
347
46
  0
LAYER
  5
62
330
2
100
AcDbSymbolTableRecord
100
AcDbLayerTableRecord
  2
SLD-0
 70
     0
 62
     7
  6
Continuous
370
    -3
390
F
347
46
  0
LAYER
  5
63
330
2
100
AcDbSymbolTableRecord
100
AcDbLayerTableRecord
  2
Layer100
 70
     0
 62
    18
420
        0
  6
Continuous
370
    -3
390
F
347
46
  0
ENDTAB
  0
TABLE
  2
STYLE
  5
3
330
0
100
AcDbSymbolTable
 70
     3
  0
STYLE
  5
11
330
3
100
AcDbSymbolTableRecord
100
AcDbTextStyleTableRecord
  2
Standard
 70
     0
 40
0.0
 41
1.0
 50
0.0
 71
     0
 42
2.5
  3
txt
  4

  0
STYLE
  5
5F
330
3
100
AcDbSymbolTableRecord
100
AcDbTextStyleTableRecord
  2
Arial
 70
     0
 40
0.0
 41
1.0
 50
0.0
 71
     0
 42
2.5
  3
arial.ttf
  4

1001
ACAD
1000
Arial
1071
        0
  0
STYLE
  5
61
330
3
100
AcDbSymbolTableRecord
100
AcDbTextStyleTableRecord
  2
Toleranzfont
 70
     0
 40
0.0
 41
1.0
 50
0.0
 71
     0
 42
2.5
  3
IGES1003.SHX
  4

  0
ENDTAB
  0
TABLE
  2
VIEW
  5
6
330
0
100
AcDbSymbolTable
 70
     0
  0
ENDTAB
  0
TABLE
  2
UCS
  5
7
330
0
100
AcDbSymbolTable
 70
     0
  0
ENDTAB
  0
TABLE
  2
APPID
  5
9
330
0
100
AcDbSymbolTable
 70
     1
  0
APPID
  5
12
330
9
100
AcDbSymbolTableRecord
100
AcDbRegAppTableRecord
  2
ACAD
 70
     0
  0
ENDTAB
  0
TABLE
  2
DIMSTYLE
  5
A
330
0
100
AcDbSymbolTable
 70
     1
100
AcDbDimStyleTable
  0
DIMSTYLE
105
27
102
{ACAD_REACTORS
330
92
330
9C
330
A6
330
B0
330
D7
330
E1
330
127
330
131
330
154
330
15E
330
170
330
17A
330
185
330
190
330
19A
330
1A4
330
1AE
330
1B8
102
}
330
A
100
AcDbSymbolTableRecord
100
AcDbDimStyleTableRecord
  2
ISO-25
 70
     0
 41
2.5
 42
0.625
 43
3.75
 44
1.25
 73
     0
 74
     0
 77
     1
 78
     8
140
2.5
141
2.5
143
0.03937007874
147
0.625
171
     3
172
     1
178
     0
271
     2
272
     2
274
     3
278
    44
283
     0
284
     8
340
11
  0
ENDTAB
  0
TABLE
  2
BLOCK_RECORD
  5
1
330
0
100
AcDbSymbolTable
 70
    37
  0
BLOCK_RECORD
  5
1F
330
1
100
AcDbSymbolTableRecord
100
AcDbBlockTableRecord
  2
*Model_Space
340
22
 70
     0
280
     1
281
     0
  0
BLOCK_RECORD
  5
1B
330
1
100
AcDbSymbolTableRecord
100
AcDbBlockTableRecord
  2
*Paper_Space
340
1E
 70
     0
280
     1
281
     0
  0
BLOCK_RECORD
  5
23
330
1
100
AcDbSymbolTableRecord
100
AcDbBlockTableRecord
  2
*Paper_Space0
340
26
 70
     0
280
     1
281
     0
  0
BLOCK_RECORD
  5
64
330
1
100
AcDbSymbolTableRecord
100
AcDbBlockTableRecord
  2
SW_NOTE_0_2_nNn00
340
0
102
{BLKREFS
331
68
102
}
 70
     0
280
     1
281
     0
  0
BLOCK_RECORD
  5
69
330
1
100
AcDbSymbolTableRecord
100
AcDbBlockTableRecord
  2
SW_NOTE_0_4_nNn01
340
0
102
{BLKREFS
331
6D
102
}
 70
     0
280
     1
281
     0
  0
BLOCK_RECORD
  5
6E
330
1
100
AcDbSymbolTableRecord
100
AcDbBlockTableRecord
  2
SW_NOTE_0_5_nNn02
340
0
102
{BLKREFS
331
74
102
}
 70
     0
280
     1
281
     0
  0
BLOCK_RECORD
  5
89
330
1
100
AcDbSymbolTableRecord
100
AcDbBlockTableRecord
  2
*D4
340
0
 70
     0
280
     1
281
     0
  0
BLOCK_RECORD
  5
93
330
1
100
AcDbSymbolTableRecord
100
AcDbBlockTableRecord
  2
*D5
340
0
 70
     0
280
     1
281
     0
  0
BLOCK_RECORD
  5
9D
330
1
100
AcDbSymbolTableRecord
100
AcDbBlockTableRecord
  2
*D6
340
0
 70
     0
280
     1
281
     0
  0
BLOCK_RECORD
  5
A7
330
1
100
AcDbSymbolTableRecord
100
AcDbBlockTableRecord
  2
*D7
340
0
 70
     0
280
     1
281
     0
  0
BLOCK_RECORD
  5
B1
330
1
100
AcDbSymbolTableRecord
100
AcDbBlockTableRecord
  2
_D_13_nNn07
340
0
102
{BLKREFS
331
B9
102
}
 70
     0
280
     1
281
     0
  0
BLOCK_RECORD
  5
BA
330
1
100
AcDbSymbolTableRecord
100
AcDbBlockTableRecord
  2
_D_14_nNn08
340
0
102
{BLKREFS
331
C1
102
}
 70
     0
280
     1
281
     0
  0
BLOCK_RECORD
  5
CE
330
1
100
AcDbSymbolTableRecord
100
AcDbBlockTableRecord
  2
*D10
340
0
 70
     0
280
     1
281
     0
  0
BLOCK_RECORD
  5
D8
330
1
100
AcDbSymbolTableRecord
100
AcDbBlockTableRecord
  2
*D11
340
0
 70
     0
280
     1
281
     0
  0
BLOCK_RECORD
  5
E2
330
1
100
AcDbSymbolTableRecord
100
AcDbBlockTableRecord
  2
_D_17_nNn011
340
0
102
{BLKREFS
331
E9
102
}
 70
     0
280
     1
281
     0
  0
BLOCK_RECORD
  5
FC
330
1
100
AcDbSymbolTableRecord
100
AcDbBlockTableRecord
  2
*X13
340
0
102
{BLKREFS
331
103
102
}
 70
     0
280
     1
281
     0
  0
BLOCK_RECORD
  5
114
330
1
100
AcDbSymbolTableRecord
100
AcDbBlockTableRecord
  2
SW_HATCH_0_nNn013
340
0
102
{BLKREFS
331
11C
102
}
 70
     0
280
     1
281
     0
  0
BLOCK_RECORD
  5
11D
330
1
100
AcDbSymbolTableRecord
100
AcDbBlockTableRecord
  2
*D15
340
0
 70
     0
280
     1
281
     0
  0
BLOCK_RECORD
  5
128
330
1
100
AcDbSymbolTableRecord
100
AcDbBlockTableRecord
  2
*D16
340
0
 70
     0
280
     1
281
     0
  0
BLOCK_RECORD
  5
132
330
1
100
AcDbSymbolTableRecord
100
AcDbBlockTableRecord
  2
SW_NOTE_0_7_nNn016
340
0
102
{BLKREFS
331
136
102
}
 70
     0
280
     1
281
     0
  0
BLOCK_RECORD
  5
14B
330
1
100
AcDbSymbolTableRecord
100
AcDbBlockTableRecord
  2
*D18
340
0
 70
     0
280
     1
281
     0
  0
BLOCK_RECORD
  5
155
330
1
100
AcDbSymbolTableRecord
100
AcDbBlockTableRecord
  2
*D19
340
0
 70
     0
280
     1
281
     0
  0
BLOCK_RECORD
  5
15F
330
1
100
AcDbSymbolTableRecord
100
AcDbBlockTableRecord
  2
_D_24_nNn019
340
0
102
{BLKREFS
331
166
102
}
 70
     0
280
     1
281
     0
  0
BLOCK_RECORD
  5
167
330
1
100
AcDbSymbolTableRecord
100
AcDbBlockTableRecord
  2
*D21
340
0
 70
     0
280
     1
281
     0
  0
BLOCK_RECORD
  5
171
330
1
100
AcDbSymbolTableRecord
100
AcDbBlockTableRecord
  2
*D22
340
0
 70
     0
280
     1
281
     0
  0
BLOCK_RECORD
  5
17B
330
1
100
AcDbSymbolTableRecord
100
AcDbBlockTableRecord
  2
*D23
340
0
 70
     0
280
     1
281
     0
  0
BLOCK_RECORD
  5
186
330
1
100
AcDbSymbolTableRecord
100
AcDbBlockTableRecord
  2
*D24
340
0
 70
     0
280
     1
281
     0
  0
BLOCK_RECORD
  5
191
330
1
100
AcDbSymbolTableRecord
100
AcDbBlockTableRecord
  2
*D25
340
0
 70
     0
280
     1
281
     0
  0
BLOCK_RECORD
  5
19B
330
1
100
AcDbSymbolTableRecord
100
AcDbBlockTableRecord
  2
*D26
340
0
 70
     0
280
     1
281
     0
  0
BLOCK_RECORD
  5
1A5
330
1
100
AcDbSymbolTableRecord
100
AcDbBlockTableRecord
  2
*D27
340
0
 70
     0
280
     1
281
     0
  0
BLOCK_RECORD
  5
1AF
330
1
100
AcDbSymbolTableRecord
100
AcDbBlockTableRecord
  2
*D28
340
0
 70
     0
280
     1
281
     0
  0
BLOCK_RECORD
  5
1B9
330
1
100
AcDbSymbolTableRecord
100
AcDbBlockTableRecord
  2
A3-NABER_nNn028
340
0
102
{BLKREFS
331
228
102
}
 70
     0
280
     1
281
     0
  0
BLOCK_RECORD
  5
1BC
330
1
100
AcDbSymbolTableRecord
100
AcDbBlockTableRecord
  2
A3-NABER_001_nNn029
340
0
102
{BLKREFS
331
1D7
102
}
 70
     0
280
     1
281
     0
  0
BLOCK_RECORD
  5
1BF
330
1
100
AcDbSymbolTableRecord
100
AcDbBlockTableRecord
  2
A3-NABER_002_nNn030
340
0
102
{BLKREFS
331
1D6
102
}
 70
     0
280
     1
281
     0
  0
BLOCK_RECORD
  5
1C2
330
1
100
AcDbSymbolTableRecord
100
AcDbBlockTableRecord
  2
A3-NABER_nNn031
340
0
102
{BLKREFS
331
1D5
102
}
 70
     0
280
     1
281
     0
  0
BLOCK_RECORD
  5
1C5
330
1
100
AcDbSymbolTableRecord
100
AcDbBlockTableRecord
  2
A3-Textliste_nNn032
340
0
102
{BLKREFS
331
1D0
102
}
 70
     0
280
     1
281
     0
  0
BLOCK_RECORD
  5
1C8
330
1
100
AcDbSymbolTableRecord
100
AcDbBlockTableRecord
  2
Zeichnungsrahmen_nNn033
340
0
102
{BLKREFS
331
1CF
102
}
 70
     0
280
     1
281
     0
  0
BLOCK_RECORD
  5
1DE
330
1
100
AcDbSymbolTableRecord
100
AcDbBlockTableRecord
  2
Schriftfeld_nNn034
340
0
102
{BLKREFS
331
20E
102
}
 70
     0
280
     1
281
     0
  0
BLOCK_RECORD
  5
20F
330
1
100
AcDbSymbolTableRecord
100
AcDbBlockTableRecord
  2
Beschriftung_nNn035
340
0
102
{BLKREFS
331
21A
102
}
 70
     0
280
     1
281
     0
  0
ENDTAB
  0
ENDSEC
  0
SECTION
  2
BLOCKS
  0
BLOCK
  5
20
330
1F
100
AcDbEntity
  8
0
100
AcDbBlockBegin
  2
*Model_Space
 70
     0
 10
0.0
 20
0.0
 30
0.0
  3
*Model_Space
  1

  0
ENDBLK
  5
21
330
1F
100
AcDbEntity
  8
0
100
AcDbBlockEnd
  0
BLOCK
  5
1C
330
1B
100
AcDbEntity
 67
     1
  8
0
100
AcDbBlockBegin
  2
*Paper_Space
 70
     0
 10
0.0
 20
0.0
 30
0.0
  3
*Paper_Space
  1

  0
ENDBLK
  5
1D
330
1B
100
AcDbEntity
 67
     1
  8
0
100
AcDbBlockEnd
  0
BLOCK
  5
24
330
23
100
AcDbEntity
  8
0
100
AcDbBlockBegin
  2
*Paper_Space0
 70
     0
 10
0.0
 20
0.0
 30
0.0
  3
*Paper_Space0
  1

  0
ENDBLK
  5
25
330
23
100
AcDbEntity
  8
0
100
AcDbBlockEnd
  0
BLOCK
  5
65
330
64
100
AcDbEntity
  8
0
100
AcDbBlockBegin
  2
SW_NOTE_0_2_nNn00
 70
     0
 10
0.0
 20
0.0
 30
0.0
  3
SW_NOTE_0_2_nNn00
  1

  0
TEXT
  5
67
330
64
100
AcDbEntity
  8
SLD-0
  6
AUSGEZOGEN
 62
     7
370
    18
100
AcDbText
 10
-704.293421107893
 20
-858.77226913049
 30
0.0
 40
21.709401709402
  1
Flächenbündiger Einbau
 41
1.056962254302
  7
Arial
 72
     5
 11
-357.143112209332
 21
-858.77226913049
 31
0.0
100
AcDbText
  0
ENDBLK
  5
66
330
64
100
AcDbEntity
  8
0
100
AcDbBlockEnd
  0
BLOCK
  5
6A
330
69
100
AcDbEntity
  8
0
100
AcDbBlockBegin
  2
SW_NOTE_0_4_nNn01
 70
     0
 10
0.0
 20
0.0
 30
0.0
  3
SW_NOTE_0_4_nNn01
  1

  0
TEXT
  5
6C
330
69
100
AcDbEntity
  8
SLD-0
  6
AUSGEZOGEN
 62
     7
370
    18
100
AcDbText
 10
-72.298182769693
 20
638.019435618511
 30
0.0
 40
21.709401709402
  1
Einbauspüle
 41
1.156162277847
  7
Arial
 72
     5
 11
120.491778243953
 21
638.019435618511
 31
0.0
100
AcDbText
  0
ENDBLK
  5
6B
330
69
100
AcDbEntity
  8
0
100
AcDbBlockEnd
  0
BLOCK
  5
6F
330
6E
100
AcDbEntity
  8
0
100
AcDbBlockBegin
  2
SW_NOTE_0_5_nNn02
 70
     0
 10
0.0
 20
0.0
 30
0.0
  3
SW_NOTE_0_5_nNn02
  1

  0
TEXT
  5
71
330
6E
100
AcDbEntity
  8
SLD-0
  6
AUSGEZOGEN
 62
     7
370
    18
100
AcDbText
 10
1669.638456319816
 20
638.019435618511
 30
0.0
 40
21.709401709402
  1
Unterbauspüle
 41
1.136817913279
  7
Arial
 72
     5
 11
1893.655519097843
 21
638.019435618511
 31
0.0
100
AcDbText
  0
TEXT
  5
72
330
6E
100
AcDbEntity
  8
SLD-0
  6
AUSGEZOGEN
 62
     7
370
    18
100
AcDbText
 10
1669.638456319816
 20
572.691656694411
 30
0.0
 40
21.709401709402
  1
Befestigungsbohrungen an der Unterseite
 41
1.13664931626
  7
Arial
 72
     5
 11
2307.166988000394
 21
572.691656694411
 31
0.0
100
AcDbText
  0
TEXT
  5
73
330
6E
100
AcDbEntity
  8
SLD-0
  6
AUSGEZOGEN
 62
     7
370
    18
100
AcDbText
 10
1669.483399656066
 20
520.380088568429
 30
0.0
 40
21.709401709402
  1
8 Bohrungslöcher %%c 10 mm, Tiefe 15 mm
 41
1.126330637792
  7
Arial
 72
     5
 11
2295.453685056175
 21
520.380088568429
 31
0.0
100
AcDbText
  0
ENDBLK
  5
70
330
6E
100
AcDbEntity
  8
0
100
AcDbBlockEnd
  0
BLOCK
  5
8A
330
89
100
AcDbEntity
  8
0
100
AcDbBlockBegin
  2
*D4
 70
     1
 10
0.0
 20
0.0
 30
0.0
  3
*D4
  1

  0
HATCH
  5
8C
330
89
100
AcDbEntity
  8
SLD-0
  6
AUSGEZOGEN
 62
     7
370
    18
100
AcDbHatch
 10
0.0
 20
0.0
 30
0.0
210
0.0
220
0.0
230
1.0
  2
SOLID
 70
     1
 71
     0
 91
        1
 92
        2
 72
     0
 73
     1
 93
        3
 10
-186.6793498522926
 20
-148.7930576798003
 10
-208.6793498522926
 20
-144.3930576798003
 10
-208.6793498522926
 20
-153.1930576798003
 97
        0
 75
     0
 76
     1
 98
        0
  0
HATCH
  5
8D
330
89
100
AcDbEntity
  8
SLD-0
  6
AUSGEZOGEN
 62
     7
370
    18
100
AcDbHatch
 10
0.0
 20
0.0
 30
0.0
210
0.0
220
0.0
230
1.0
  2
SOLID
 70
     1
 71
     0
 91
        1
 92
        2
 72
     0
 73
     1
 93
        3
 10
-731.6793498516927
 20
-148.7930576798003
 10
-709.6793498516927
 20
-153.1930576798003
 10
-709.6793498516927
 20
-144.3930576798003
 97
        0
 75
     0
 76
     1
 98
        0
  0
LINE
  5
8E
330
89
100
AcDbEntity
  8
SLD-0
  6
AUSGEZOGEN
 62
     7
370
    18
100
AcDbLine
 10
-709.679349851693
 20
-148.7930576798
 30
0.0
 11
-208.679349852293
 21
-148.7930576798
 31
0.0
  0
LINE
  5
8F
330
89
100
AcDbEntity
  8
SLD-0
  6
AUSGEZOGEN
 62
     7
370
    18
100
AcDbLine
 10
-731.679349851693
 20
-289.5833849299
 30
0.0
 11
-731.679349851693
 21
-128.835914822657
 31
0.0
  0
LINE
  5
90
330
89
100
AcDbEntity
  8
SLD-0
  6
AUSGEZOGEN
 62
     7
370
    18
100
AcDbLine
 10
-186.679349852293
 20
-289.5833849299
 30
0.0
 11
-186.679349852293
 21
-128.835914822657
 31
0.0
  0
TEXT
  5
91
330
89
100
AcDbEntity
  8
SLD-0
  6
AUSGEZOGEN
 62
     7
370
    18
100
AcDbText
 10
-495.167969020506
 20
-144.442212601158
 30
0.0
 40
34.925
  1
545
 41
0.820056232427
  7
Arial
 72
     5
 11
-428.492969020506
 21
-144.442212601158
 31
0.0
100
AcDbText
  0
ENDBLK
  5
8B
330
89
100
AcDbEntity
  8
0
100
AcDbBlockEnd
  0
BLOCK
  5
94
330
93
100
AcDbEntity
  8
0
100
AcDbBlockBegin
  2
*D5
 70
     1
 10
0.0
 20
0.0
 30
0.0
  3
*D5
  1

  0
HATCH
  5
96
330
93
100
AcDbEntity
  8
SLD-0
  6
AUSGEZOGEN
 62
     7
370
    18
100
AcDbHatch
 10
0.0
 20
0.0
 30
0.0
210
0.0
220
0.0
230
1.0
  2
SOLID
 70
     1
 71
     0
 91
        1
 92
        2
 72
     0
 73
     1
 93
        3
 10
-737.6793498521927
 20
-66.70874235580027
 10
-715.6793498521927
 20
-71.10874235580027
 10
-715.6793498521927
 20
-62.30874235580027
 97
        0
 75
     0
 76
     1
 98
        0
  0
HATCH
  5
97
330
93
100
AcDbEntity
  8
SLD-0
  6
AUSGEZOGEN
 62
     7
370
    18
100
AcDbHatch
 10
0.0
 20
0.0
 30
0.0
210
0.0
220
0.0
230
1.0
  2
SOLID
 70
     1
 71
     0
 91
        1
 92
        2
 72
     0
 73
     1
 93
        3
 10
-180.6793498517927
 20
-66.70874235580027
 10
-202.6793498517927
 20
-62.30874235580027
 10
-202.6793498517927
 20
-71.10874235580027
 97
        0
 75
     0
 76
     1
 98
        0
  0
LINE
  5
98
330
93
100
AcDbEntity
  8
SLD-0
  6
AUSGEZOGEN
 62
     7
370
    18
100
AcDbLine
 10
-202.679349851793
 20
-66.7087423558
 30
0.0
 11
-715.679349852193
 21
-66.7087423558
 31
0.0
  0
LINE
  5
99
330
93
100
AcDbEntity
  8
SLD-0
  6
AUSGEZOGEN
 62
     7
370
    18
100
AcDbLine
 10
-180.679349851793
 20
-284.5833849293
 30
0.0
 11
-180.679349851793
 21
-46.751599498657
 31
0.0
  0
LINE
  5
9A
330
93
100
AcDbEntity
  8
SLD-0
  6
AUSGEZOGEN
 62
     7
370
    18
100
AcDbLine
 10
-737.679349852193
 20
-284.5833849293
 30
0.0
 11
-737.679349852193
 21
-46.751599498657
 31
0.0
  0
TEXT
  5
9B
330
93
100
AcDbEntity
  8
SLD-0
  6
AUSGEZOGEN
 62
     7
370
    18
100
AcDbText
 10
-492.644810984741
 20
-64.987538116384
 30
0.0
 40
34.925
  1
557
 41
0.820056232427
  7
Arial
 72
     5
 11
-425.969810984741
 21
-64.987538116384
 31
0.0
100
AcDbText
  0
ENDBLK
  5
95
330
93
100
AcDbEntity
  8
0
100
AcDbBlockEnd
  0
BLOCK
  5
9E
330
9D
100
AcDbEntity
  8
0
100
AcDbBlockBegin
  2
*D6
 70
     1
 10
0.0
 20
0.0
 30
0.0
  3
*D6
  1

  0
HATCH
  5
A0
330
9D
100
AcDbEntity
  8
SLD-0
  6
AUSGEZOGEN
 62
     7
370
    18
100
AcDbHatch
 10
0.0
 20
0.0
 30
0.0
210
0.0
220
0.0
230
1.0
  2
SOLID
 70
     1
 71
     0
 91
        1
 92
        2
 72
     0
 73
     1
 93
        3
 10
-863.4893807096927
 20
-709.5833849297003
 10
-859.0893807096927
 20
-687.5833849297003
 10
-867.8893807096927
 20
-687.5833849297003
 97
        0
 75
     0
 76
     1
 98
        0
  0
HATCH
  5
A1
330
9D
100
AcDbEntity
  8
SLD-0
  6
AUSGEZOGEN
 62
     7
370
    18
100
AcDbHatch
 10
0.0
 20
0.0
 30
0.0
210
0.0
220
0.0
230
1.0
  2
SOLID
 70
     1
 71
     0
 91
        1
 92
        2
 72
     0
 73
     1
 93
        3
 10
-863.4893807096927
 20
-279.5833849298002
 10
-867.8893807096927
 20
-301.5833849298002
 10
-859.0893807096927
 20
-301.5833849298002
 97
        0
 75
     0
 76
     1
 98
        0
  0
LINE
  5
A2
330
9D
100
AcDbEntity
  8
SLD-0
  6
AUSGEZOGEN
 62
     7
370
    18
100
AcDbLine
 10
-863.489380709693
 20
-301.5833849298
 30
0.0
 11
-863.489380709693
 21
-687.5833849297
 31
0.0
  0
LINE
  5
A3
330
9D
100
AcDbEntity
  8
SLD-0
  6
AUSGEZOGEN
 62
     7
370
    18
100
AcDbLine
 10
-721.679349851593
 20
-279.5833849298
 30
0.0
 11
-883.446523566836
 21
-279.5833849298
 31
0.0
  0
LINE
  5
A4
330
9D
100
AcDbEntity
  8
SLD-0
  6
AUSGEZOGEN
 62
     7
370
    18
100
AcDbLine
 10
-721.679349851593
 20
-709.5833849297
 30
0.0
 11
-883.446523566836
 21
-709.5833849297
 31
0.0
  0
TEXT
  5
A5
330
9D
100
AcDbEntity
  8
SLD-0
  6
AUSGEZOGEN
 62
     7
370
    18
100
AcDbText
 10
-869.821615432201
 20
-529.653438646462
 30
0.0
 40
34.925
  1
430
 50
90.0
 41
0.820056232427
  7
Arial
 72
     5
 11
-869.821615432201
 21
-462.978438646462
 31
0.0
100
AcDbText
  0
ENDBLK
  5
9F
330
9D
100
AcDbEntity
  8
0
100
AcDbBlockEnd
  0
BLOCK
  5
A8
330
A7
100
AcDbEntity
  8
0
100
AcDbBlockBegin
  2
*D7
 70
     1
 10
0.0
 20
0.0
 30
0.0
  3
*D7
  1

  0
HATCH
  5
AA
330
A7
100
AcDbEntity
  8
SLD-0
  6
AUSGEZOGEN
 62
     7
370
    18
100
AcDbHatch
 10
0.0
 20
0.0
 30
0.0
210
0.0
220
0.0
230
1.0
  2
SOLID
 70
     1
 71
     0
 91
        1
 92
        2
 72
     0
 73
     1
 93
        3
 10
-950.5585075070927
 20
-715.5833849291002
 10
-946.1585075070927
 20
-693.5833849291002
 10
-954.9585075070927
 20
-693.5833849291002
 97
        0
 75
     0
 76
     1
 98
        0
  0
HATCH
  5
AB
330
A7
100
AcDbEntity
  8
SLD-0
  6
AUSGEZOGEN
 62
     7
370
    18
100
AcDbHatch
 10
0.0
 20
0.0
 30
0.0
210
0.0
220
0.0
230
1.0
  2
SOLID
 70
     1
 71
     0
 91
        1
 92
        2
 72
     0
 73
     1
 93
        3
 10
-950.5585075070927
 20
-273.5833849293002
 10
-954.9585075070927
 20
-295.5833849293002
 10
-946.1585075070927
 20
-295.5833849293002
 97
        0
 75
     0
 76
     1
 98
        0
  0
LINE
  5
AC
330
A7
100
AcDbEntity
  8
SLD-0
  6
AUSGEZOGEN
 62
     7
370
    18
100
AcDbLine
 10
-950.558507507093
 20
-295.5833849293
 30
0.0
 11
-950.558507507093
 21
-693.5833849291
 31
0.0
  0
LINE
  5
AD
330
A7
100
AcDbEntity
  8
SLD-0
  6
AUSGEZOGEN
 62
     7
370
    18
100
AcDbLine
 10
-726.679349852193
 20
-273.5833849293
 30
0.0
 11
-970.515650364236
 21
-273.5833849293
 31
0.0
  0
LINE
  5
AE
330
A7
100
AcDbEntity
  8
SLD-0
  6
AUSGEZOGEN
 62
     7
370
    18
100
AcDbLine
 10
-726.679349852193
 20
-715.5833849291
 30
0.0
 11
-970.515650364236
 21
-715.5833849291
 31
0.0
  0
TEXT
  5
AF
330
A7
100
AcDbEntity
  8
SLD-0
  6
AUSGEZOGEN
 62
     7
370
    18
100
AcDbText
 10
-964.059044909993
 20
-524.111790397477
 30
0.0
 40
34.925
  1
442
 50
90.0
 41
0.820056232427
  7
Arial
 72
     5
 11
-964.059044909993
 21
-457.436790397477
 31
0.0
100
AcDbText
  0
ENDBLK
  5
A9
330
A7
100
AcDbEntity
  8
0
100
AcDbBlockEnd
  0
BLOCK
  5
B2
330
B1
100
AcDbEntity
  8
0
100
AcDbBlockBegin
  2
_D_13_nNn07
 70
     0
 10
0.0
 20
0.0
 30
0.0
  3
_D_13_nNn07
  1

  0
HATCH
  5
B4
330
B1
100
AcDbEntity
  8
SLD-0
  6
AUSGEZOGEN
 62
     7
370
    18
100
AcDbHatch
 10
0.0
 20
0.0
 30
0.0
210
0.0
220
0.0
230
1.0
  2
SOLID
 70
     1
 71
     0
 91
        1
 92
        2
 72
     0
 73
     1
 93
        3
 10
-734.7799655445926
 20
-277.1416092407002
 10
-749.1207530066927
 20
-260.2329039393003
 10
-752.8416408509927
 20
-264.2832117855003
 97
        0
 75
     0
 76
     1
 98
        0
  0
LINE
  5
B5
330
B1
100
AcDbEntity
  8
SLD-0
  6
AUSGEZOGEN
 62
     7
370
    18
100
AcDbLine
 10
-734.779965544593
 20
-277.1416092407
 30
0.0
 11
-837.393995751193
 21
-182.8733925585
 31
0.0
  0
LINE
  5
B6
330
B1
100
AcDbEntity
  8
SLD-0
  6
AUSGEZOGEN
 62
     7
370
    18
100
AcDbLine
 10
-726.679349852193
 20
-284.5833849293
 30
0.0
 11
-734.779965544593
 21
-277.1416092407
 31
0.0
  0
LINE
  5
B7
330
B1
100
AcDbEntity
  8
SLD-0
  6
AUSGEZOGEN
 62
     7
370
    18
100
AcDbLine
 10
-837.393995751193
 20
-182.8733925585
 30
0.0
 11
-934.731266932893
 21
-182.8733925585
 31
0.0
  0
TEXT
  5
B8
330
B1
100
AcDbEntity
  8
SLD-0
  6
AUSGEZOGEN
 62
     7
370
    18
100
AcDbText
 10
-934.731266932893
 20
-172.7777068694
 30
0.0
 40
34.925
  1
R11
 41
0.5859375
  7
Arial
 72
     5
 11
-882.343766932893
 21
-172.7777068694
 31
0.0
100
AcDbText
  0
ENDBLK
  5
B3
330
B1
100
AcDbEntity
  8
0
100
AcDbBlockEnd
  0
BLOCK
  5
BB
330
BA
100
AcDbEntity
  8
0
100
AcDbBlockBegin
  2
_D_14_nNn08
 70
     0
 10
0.0
 20
0.0
 30
0.0
  3
_D_14_nNn08
  1

  0
HATCH
  5
BD
330
BA
100
AcDbEntity
  8
SLD-0
  6
AUSGEZOGEN
 62
     7
370
    18
100
AcDbHatch
 10
0.0
 20
0.0
 30
0.0
210
0.0
220
0.0
230
1.0
  2
SOLID
 70
     1
 71
     0
 91
        1
 92
        2
 72
     0
 73
     1
 93
        3
 10
-728.8894215665927
 20
-282.6541089312003
 10
-714.9328146935927
 20
-299.8812858498003
 10
-711.1217128946926
 20
-295.9157464060002
 97
        0
 75
     0
 76
     1
 98
        0
  0
LINE
  5
BE
330
BA
100
AcDbEntity
  8
SLD-0
  6
AUSGEZOGEN
 62
     7
370
    18
100
AcDbLine
 10
-728.889421566593
 20
-282.6541089312
 30
0.0
 11
-619.999058203493
 21
-387.3037450486
 31
0.0
  0
LINE
  5
BF
330
BA
100
AcDbEntity
  8
SLD-0
  6
AUSGEZOGEN
 62
     7
370
    18
100
AcDbLine
 10
-619.999058203493
 20
-387.3037450486
 30
0.0
 11
-522.661787021793
 21
-387.3037450486
 31
0.0
  0
TEXT
  5
C0
330
BA
100
AcDbEntity
  8
SLD-0
  6
AUSGEZOGEN
 62
     7
370
    18
100
AcDbText
 10
-602.536558203493
 20
-377.2080593595
 30
0.0
 40
34.925
  1
R10
 41
0.634765625
  7
Arial
 72
     5
 11
-545.783433203493
 21
-377.2080593595
 31
0.0
100
AcDbText
  0
ENDBLK
  5
BC
330
BA
100
AcDbEntity
  8
0
100
AcDbBlockEnd
  0
BLOCK
  5
CF
330
CE
100
AcDbEntity
  8
0
100
AcDbBlockBegin
  2
*D10
 70
     1
 10
0.0
 20
0.0
 30
0.0
  3
*D10
  1

  0
HATCH
  5
D1
330
CE
100
AcDbEntity
  8
SLD-0
  6
AUSGEZOGEN
 62
     7
370
    18
100
AcDbHatch
 10
0.0
 20
0.0
 30
0.0
210
0.0
220
0.0
230
1.0
  2
SOLID
 70
     1
 71
     0
 91
        1
 92
        2
 72
     0
 73
     1
 93
        3
 10
-180.6793498517927
 20
888.1642752360999
 10
-202.6793498517927
 20
892.5642752360999
 10
-202.6793498517927
 20
883.7642752360999
 97
        0
 75
     0
 76
     1
 98
        0
  0
HATCH
  5
D2
330
CE
100
AcDbEntity
  8
SLD-0
  6
AUSGEZOGEN
 62
     7
370
    18
100
AcDbHatch
 10
0.0
 20
0.0
 30
0.0
210
0.0
220
0.0
230
1.0
  2
SOLID
 70
     1
 71
     0
 91
        1
 92
        2
 72
     0
 73
     1
 93
        3
 10
-725.6793498522927
 20
888.1642752360999
 10
-703.6793498522927
 20
883.7642752360999
 10
-703.6793498522927
 20
892.5642752360999
 97
        0
 75
     0
 76
     1
 98
        0
  0
LINE
  5
D3
330
CE
100
AcDbEntity
  8
SLD-0
  6
AUSGEZOGEN
 62
     7
370
    18
100
AcDbLine
 10
-703.679349852293
 20
888.1642752361
 30
0.0
 11
-202.679349851793
 21
888.1642752361
 31
0.0
  0
LINE
  5
D4
330
CE
100
AcDbEntity
  8
SLD-0
  6
AUSGEZOGEN
 62
     7
370
    18
100
AcDbLine
 10
-725.679349852293
 20
751.3532815992
 30
0.0
 11
-725.679349852293
 21
908.121418093243
 31
0.0
  0
LINE
  5
D5
330
CE
100
AcDbEntity
  8
SLD-0
  6
AUSGEZOGEN
 62
     7
370
    18
100
AcDbLine
 10
-180.679349851793
 20
751.3532815992
 30
0.0
 11
-180.679349851793
 21
908.121418093243
 31
0.0
  0
TEXT
  5
D6
330
CE
100
AcDbEntity
  8
SLD-0
  6
AUSGEZOGEN
 62
     7
370
    18
100
AcDbText
 10
-484.956748449765
 20
899.229619352347
 30
0.0
 40
34.925
  1
545
 41
0.820056232427
  7
Arial
 72
     5
 11
-418.281748449765
 21
899.229619352347
 31
0.0
100
AcDbText
  0
ENDBLK
  5
D0
330
CE
100
AcDbEntity
  8
0
100
AcDbBlockEnd
  0
BLOCK
  5
D9
330
D8
100
AcDbEntity
  8
0
100
AcDbBlockBegin
  2
*D11
 70
     1
 10
0.0
 20
0.0
 30
0.0
  3
*D11
  1

  0
HATCH
  5
DB
330
D8
100
AcDbEntity
  8
SLD-0
  6
AUSGEZOGEN
 62
     7
370
    18
100
AcDbHatch
 10
0.0
 20
0.0
 30
0.0
210
0.0
220
0.0
230
1.0
  2
SOLID
 70
     1
 71
     0
 91
        1
 92
        2
 72
     0
 73
     1
 93
        3
 10
-847.6478233252926
 20
761.3532815981998
 10
-852.0478233252926
 20
739.3532815981998
 10
-843.2478233252926
 20
739.3532815981998
 97
        0
 75
     0
 76
     1
 98
        0
  0
HATCH
  5
DC
330
D8
100
AcDbEntity
  8
SLD-0
  6
AUSGEZOGEN
 62
     7
370
    18
100
AcDbHatch
 10
0.0
 20
0.0
 30
0.0
210
0.0
220
0.0
230
1.0
  2
SOLID
 70
     1
 71
     0
 91
        1
 92
        2
 72
     0
 73
     1
 93
        3
 10
-847.6478233252926
 20
331.3532815982999
 10
-843.2478233252926
 20
353.3532815982999
 10
-852.0478233252926
 20
353.3532815982999
 97
        0
 75
     0
 76
     1
 98
        0
  0
LINE
  5
DD
330
D8
100
AcDbEntity
  8
SLD-0
  6
AUSGEZOGEN
 62
     7
370
    18
100
AcDbLine
 10
-847.647823325293
 20
353.3532815983
 30
0.0
 11
-847.647823325293
 21
739.3532815982
 31
0.0
  0
LINE
  5
DE
330
D8
100
AcDbEntity
  8
SLD-0
  6
AUSGEZOGEN
 62
     7
370
    18
100
AcDbLine
 10
-715.679349852193
 20
331.3532815983
 30
0.0
 11
-867.604966182435
 21
331.3532815983
 31
0.0
  0
LINE
  5
DF
330
D8
100
AcDbEntity
  8
SLD-0
  6
AUSGEZOGEN
 62
     7
370
    18
100
AcDbLine
 10
-715.679349852193
 20
761.3532815982
 30
0.0
 11
-867.604966182435
 21
761.3532815982
 31
0.0
  0
TEXT
  5
E0
330
D8
100
AcDbEntity
  8
SLD-0
  6
AUSGEZOGEN
 62
     7
370
    18
100
AcDbText
 10
-852.042182333182
 20
514.621870477534
 30
0.0
 40
34.925
  1
430
 50
90.0
 41
0.820056232427
  7
Arial
 72
     5
 11
-852.042182333182
 21
581.296870477534
 31
0.0
100
AcDbText
  0
ENDBLK
  5
DA
330
D8
100
AcDbEntity
  8
0
100
AcDbBlockEnd
  0
BLOCK
  5
E3
330
E2
100
AcDbEntity
  8
0
100
AcDbBlockBegin
  2
_D_17_nNn011
 70
     0
 10
0.0
 20
0.0
 30
0.0
  3
_D_17_nNn011
  1

  0
HATCH
  5
E5
330
E2
100
AcDbEntity
  8
SLD-0
  6
AUSGEZOGEN
 62
     7
370
    18
100
AcDbHatch
 10
0.0
 20
0.0
 30
0.0
210
0.0
220
0.0
230
1.0
  2
SOLID
 70
     1
 71
     0
 91
        1
 92
        2
 72
     0
 73
     1
 93
        3
 10
-722.9303509259927
 20
758.2397163389999
 10
-708.8719181166927
 20
741.0955346150997
 10
-705.0843790096926
 20
745.0835852057996
 97
        0
 75
     0
 76
     1
 98
        0
  0
LINE
  5
E6
330
E2
100
AcDbEntity
  8
SLD-0
  6
AUSGEZOGEN
 62
     7
370
    18
100
AcDbLine
 10
-722.930350925993
 20
758.239716339
 30
0.0
 11
-636.918737305093
 21
676.5526005815
 31
0.0
  0
LINE
  5
E7
330
E2
100
AcDbEntity
  8
SLD-0
  6
AUSGEZOGEN
 62
     7
370
    18
100
AcDbLine
 10
-636.918737305093
 20
676.5526005815
 30
0.0
 11
-539.581466123393
 21
676.5526005815
 31
0.0
  0
TEXT
  5
E8
330
E2
100
AcDbEntity
  8
SLD-0
  6
AUSGEZOGEN
 62
     7
370
    18
100
AcDbText
 10
-619.456237305093
 20
686.6482862717
 30
0.0
 40
34.925
  1
R10
 41
0.634765625
  7
Arial
 72
     5
 11
-562.703112305093
 21
686.6482862717
 31
0.0
100
AcDbText
  0
ENDBLK
  5
E4
330
E2
100
AcDbEntity
  8
0
100
AcDbBlockEnd
  0
BLOCK
  5
FD
330
FC
100
AcDbEntity
  8
0
100
AcDbBlockBegin
  2
*X13
 70
     1
 10
0.0
 20
0.0
 30
0.0
  3
*X13
  1

  0
LINE
  5
FF
330
FC
100
AcDbEntity
  8
0
  6
AUSGEZOGEN
 62
     7
370
    18
100
AcDbLine
 10
1064.503554776414
 20
-765.58338492932
 30
0.0
 11
1067.844466223765
 21
-762.242473481969
 31
0.0
  0
LINE
  5
100
330
FC
100
AcDbEntity
  8
0
  6
AUSGEZOGEN
 62
     7
370
    18
100
AcDbLine
 10
1015.112146110534
 20
-765.58338492932
 30
0.0
 11
1067.844466223765
 21
-712.851064816088
 31
0.0
  0
LINE
  5
101
330
FC
100
AcDbEntity
  8
0
  6
AUSGEZOGEN
 62
     7
370
    18
100
AcDbLine
 10
965.720737444653
 20
-765.58338492932
 30
0.0
 11
1031.720737444653
 21
-699.58338492932
 31
0.0
  0
LINE
  5
102
330
FC
100
AcDbEntity
  8
0
  6
AUSGEZOGEN
 62
     7
370
    18
100
AcDbLine
 10
944.644466223766
 20
-737.268247484328
 30
0.0
 11
982.329328778773
 21
-699.58338492932
 31
0.0
  0
ENDBLK
  5
FE
330
FC
100
AcDbEntity
  8
0
100
AcDbBlockEnd
  0
BLOCK
  5
115
330
114
100
AcDbEntity
  8
0
100
AcDbBlockBegin
  2
SW_HATCH_0_nNn013
 70
     0
 10
0.0
 20
0.0
 30
0.0
  3
SW_HATCH_0_nNn013
  1

  0
LINE
  5
117
330
114
100
AcDbEntity
  8
0
  6
AUSGEZOGEN
 62
     7
370
    18
100
AcDbLine
 10
434.09670637618
 20
-264.1514245211
 30
0.0
 11
490.035874114481
 21
-208.2122617449
 31
0.0
  0
LINE
  5
118
330
114
100
AcDbEntity
  8
0
  6
AUSGEZOGEN
 62
     7
370
    18
100
AcDbLine
 10
434.09670637618
 20
-313.5428351402
 30
0.0
 11
539.42730026008
 21
-208.2122617449
 31
0.0
  0
LINE
  5
119
330
114
100
AcDbEntity
  8
0
  6
AUSGEZOGEN
 62
     7
370
    18
100
AcDbLine
 10
434.09670637618
 20
-362.9342407972
 30
0.0
 11
588.81864445018
 21
-208.2122617449
 31
0.0
  0
LINE
  5
11A
330
114
100
AcDbEntity
  8
0
  6
AUSGEZOGEN
 62
     7
370
    18
100
AcDbLine
 10
473.21006403978
 20
-373.2122580577
 30
0.0
 11
606.50573419138
 21
-239.9165853442
 31
0.0
  0
LINE
  5
11B
330
114
100
AcDbEntity
  8
0
  6
AUSGEZOGEN
 62
     7
370
    18
100
AcDbLine
 10
522.60149018538
 20
-373.2122580577
 30
0.0
 11
597.12344901318
 21
-298.690296668
 31
0.0
  0
ENDBLK
  5
116
330
114
100
AcDbEntity
  8
0
100
AcDbBlockEnd
  0
BLOCK
  5
11E
330
11D
100
AcDbEntity
  8
0
100
AcDbBlockBegin
  2
*D15
 70
     1
 10
0.0
 20
0.0
 30
0.0
  3
*D15
  1

  0
HATCH
  5
120
330
11D
100
AcDbEntity
  8
SLD-0
  6
AUSGEZOGEN
 62
     7
370
    18
100
AcDbHatch
 10
0.0
 20
0.0
 30
0.0
210
0.0
220
0.0
230
1.0
  2
SOLID
 70
     1
 71
     0
 91
        1
 92
        2
 72
     0
 73
     1
 93
        3
 10
467.0966867070804
 20
-123.2856969713002
 10
445.0966867070804
 20
-118.8856969713002
 10
445.0966867070804
 20
-127.6856969713002
 97
        0
 75
     0
 76
     1
 98
        0
  0
HATCH
  5
121
330
11D
100
AcDbEntity
  8
SLD-0
  6
AUSGEZOGEN
 62
     7
370
    18
100
AcDbHatch
 10
0.0
 20
0.0
 30
0.0
210
0.0
220
0.0
230
1.0
  2
SOLID
 70
     1
 71
     0
 91
        1
 92
        2
 72
     0
 73
     1
 93
        3
 10
434.0966867070804
 20
-123.2856969713002
 10
456.0966867070804
 20
-127.6856969713002
 10
456.0966867070804
 20
-118.8856969713002
 97
        0
 75
     0
 76
     1
 98
        0
  0
LINE
  5
122
330
11D
100
AcDbEntity
  8
SLD-0
  6
AUSGEZOGEN
 62
     7
370
    18
100
AcDbLine
 10
456.09668670708
 20
-123.2856969713
 30
0.0
 11
445.09668670708
 21
-123.2856969713
 31
0.0
  0
LINE
  5
123
330
11D
100
AcDbEntity
  8
SLD-0
  6
AUSGEZOGEN
 62
     7
370
    18
100
AcDbLine
 10
456.09668670708
 20
-123.2856969713
 30
0.0
 11
462.716557030942
 21
-123.2856969713
 31
0.0
  0
LINE
  5
124
330
11D
100
AcDbEntity
  8
SLD-0
  6
AUSGEZOGEN
 62
     7
370
    18
100
AcDbLine
 10
434.09668670708
 20
-216.4622605151
 30
0.0
 11
434.09668670708
 21
-103.328554114157
 31
0.0
  0
LINE
  5
125
330
11D
100
AcDbEntity
  8
SLD-0
  6
AUSGEZOGEN
 62
     7
370
    18
100
AcDbLine
 10
467.09668670708
 20
-208.2122605151
 30
0.0
 11
467.09668670708
 21
-103.328554114157
 31
0.0
  0
TEXT
  5
126
330
11D
100
AcDbEntity
  8
SLD-0
  6
AUSGEZOGEN
 62
     7
370
    18
100
AcDbText
 10
440.491557030942
 20
-112.404800178561
 30
0.0
 40
34.925
  1
6
 41
0.820056232427
  7
Arial
 72
     5
 11
462.716557030942
 21
-112.404800178561
 31
0.0
100
AcDbText
  0
ENDBLK
  5
11F
330
11D
100
AcDbEntity
  8
0
100
AcDbBlockEnd
  0
BLOCK
  5
129
330
128
100
AcDbEntity
  8
0
100
AcDbBlockBegin
  2
*D16
 70
     1
 10
0.0
 20
0.0
 30
0.0
  3
*D16
  1

  0
HATCH
  5
12B
330
128
100
AcDbEntity
  8
SLD-0
  6
AUSGEZOGEN
 62
     7
370
    18
100
AcDbHatch
 10
0.0
 20
0.0
 30
0.0
210
0.0
220
0.0
230
1.0
  2
SOLID
 70
     1
 71
     0
 91
        1
 92
        2
 72
     0
 73
     1
 93
        3
 10
652.9846503464805
 20
-208.2122605151002
 10
648.5846503464805
 20
-230.2122605151002
 10
657.3846503464805
 20
-230.2122605151002
 97
        0
 75
     0
 76
     1
 98
        0
  0
HATCH
  5
12C
330
128
100
AcDbEntity
  8
SLD-0
  6
AUSGEZOGEN
 62
     7
370
    18
100
AcDbHatch
 10
0.0
 20
0.0
 30
0.0
210
0.0
220
0.0
230
1.0
  2
SOLID
 70
     1
 71
     0
 91
        1
 92
        2
 72
     0
 73
     1
 93
        3
 10
652.9846503464805
 20
-216.4622605151002
 10
657.3846503464805
 20
-194.4622605151002
 10
648.5846503464805
 20
-194.4622605151002
 97
        0
 75
     0
 76
     1
 98
        0
  0
LINE
  5
12D
330
128
100
AcDbEntity
  8
SLD-0
  6
AUSGEZOGEN
 62
     7
370
    18
100
AcDbLine
 10
652.984650346481
 20
-194.4622605151
 30
0.0
 11
652.984650346481
 21
-230.2122605151
 31
0.0
  0
LINE
  5
12E
330
128
100
AcDbEntity
  8
SLD-0
  6
AUSGEZOGEN
 62
     7
370
    18
100
AcDbLine
 10
467.09669129628
 20
-216.4622605151
 30
0.0
 11
672.941793203623
 21
-216.4622605151
 31
0.0
  0
LINE
  5
12F
330
128
100
AcDbEntity
  8
SLD-0
  6
AUSGEZOGEN
 62
     7
370
    18
100
AcDbLine
 10
603.84715096738
 20
-208.2122605151
 30
0.0
 11
672.941793203623
 21
-208.2122605151
 31
0.0
  0
TEXT
  5
130
330
128
100
AcDbEntity
  8
SLD-0
  6
AUSGEZOGEN
 62
     7
370
    18
100
AcDbText
 10
659.969650346481
 20
-182.7683541714
 30
0.0
 40
34.925
  1
1.5
 50
90.0
 41
0.820056232427
  7
Arial
 72
     5
 11
659.969650346481
 21
-127.2058541714
 31
0.0
100
AcDbText
  0
ENDBLK
  5
12A
330
128
100
AcDbEntity
  8
0
100
AcDbBlockEnd
  0
BLOCK
  5
133
330
132
100
AcDbEntity
  8
0
100
AcDbBlockBegin
  2
SW_NOTE_0_7_nNn016
 70
     0
 10
0.0
 20
0.0
 30
0.0
  3
SW_NOTE_0_7_nNn016
  1

  0
TEXT
  5
135
330
132
100
AcDbEntity
  8
SLD-0
  6
AUSGEZOGEN
 62
     7
370
    18
100
AcDbText
 10
294.98091817578
 20
-462.3007893059
 30
0.0
 40
38.5
  1
Detail
 41
0.790509473662
  7
Arial
 72
     5
 11
403.571623553801
 21
-462.3007893059
 31
0.0
100
AcDbText
  0
ENDBLK
  5
134
330
132
100
AcDbEntity
  8
0
100
AcDbBlockEnd
  0
BLOCK
  5
14C
330
14B
100
AcDbEntity
  8
0
100
AcDbBlockBegin
  2
*D18
 70
     1
 10
0.0
 20
0.0
 30
0.0
  3
*D18
  1

  0
HATCH
  5
14E
330
14B
100
AcDbEntity
  8
SLD-0
  6
AUSGEZOGEN
 62
     7
370
    18
100
AcDbHatch
 10
0.0
 20
0.0
 30
0.0
210
0.0
220
0.0
230
1.0
  2
SOLID
 70
     1
 71
     0
 91
        1
 92
        2
 72
     0
 73
     1
 93
        3
 10
1522.420336201516
 20
886.3693947915999
 10
1500.420336201516
 20
890.7693947915999
 10
1500.420336201516
 20
881.9693947915999
 97
        0
 75
     0
 76
     1
 98
        0
  0
HATCH
  5
14F
330
14B
100
AcDbEntity
  8
SLD-0
  6
AUSGEZOGEN
 62
     7
370
    18
100
AcDbHatch
 10
0.0
 20
0.0
 30
0.0
210
0.0
220
0.0
230
1.0
  2
SOLID
 70
     1
 71
     0
 91
        1
 92
        2
 72
     0
 73
     1
 93
        3
 10
1007.420336201316
 20
886.3693947915999
 10
1029.420336201316
 20
881.9693947915999
 10
1029.420336201316
 20
890.7693947915999
 97
        0
 75
     0
 76
     1
 98
        0
  0
LINE
  5
150
330
14B
100
AcDbEntity
  8
SLD-0
  6
AUSGEZOGEN
 62
     7
370
    18
100
AcDbLine
 10
1029.420336201316
 20
886.3693947916
 30
0.0
 11
1500.420336201516
 21
886.3693947916
 31
0.0
  0
LINE
  5
151
330
14B
100
AcDbEntity
  8
SLD-0
  6
AUSGEZOGEN
 62
     7
370
    18
100
AcDbLine
 10
1007.420336201316
 20
643.7303651058
 30
0.0
 11
1007.420336201316
 21
906.326537648743
 31
0.0
  0
LINE
  5
152
330
14B
100
AcDbEntity
  8
SLD-0
  6
AUSGEZOGEN
 62
     7
370
    18
100
AcDbLine
 10
1522.420336201516
 20
643.7303651058
 30
0.0
 11
1522.420336201516
 21
906.326537648743
 31
0.0
  0
TEXT
  5
153
330
14B
100
AcDbEntity
  8
SLD-0
  6
AUSGEZOGEN
 62
     7
370
    18
100
AcDbText
 10
1231.582836201416
 20
879.3843947916
 30
0.0
 40
34.925
  1
515
 41
0.820056232427
  7
Arial
 72
     5
 11
1298.257836201416
 21
879.3843947916
 31
0.0
100
AcDbText
  0
ENDBLK
  5
14D
330
14B
100
AcDbEntity
  8
0
100
AcDbBlockEnd
  0
BLOCK
  5
156
330
155
100
AcDbEntity
  8
0
100
AcDbBlockBegin
  2
*D19
 70
     1
 10
0.0
 20
0.0
 30
0.0
  3
*D19
  1

  0
HATCH
  5
158
330
155
100
AcDbEntity
  8
SLD-0
  6
AUSGEZOGEN
 62
     7
370
    18
100
AcDbHatch
 10
0.0
 20
0.0
 30
0.0
210
0.0
220
0.0
230
1.0
  2
SOLID
 70
     1
 71
     0
 91
        1
 92
        2
 72
     0
 73
     1
 93
        3
 10
785.0841000298155
 20
255.7303651060997
 10
789.4841000298155
 20
277.7303651060997
 10
780.6841000298156
 20
277.7303651060997
 97
        0
 75
     0
 76
     1
 98
        0
  0
HATCH
  5
159
330
155
100
AcDbEntity
  8
SLD-0
  6
AUSGEZOGEN
 62
     7
370
    18
100
AcDbHatch
 10
0.0
 20
0.0
 30
0.0
210
0.0
220
0.0
230
1.0
  2
SOLID
 70
     1
 71
     0
 91
        1
 92
        2
 72
     0
 73
     1
 93
        3
 10
785.0841000298155
 20
655.7303651067998
 10
780.6841000298156
 20
633.7303651067998
 10
789.4841000298155
 20
633.7303651067998
 97
        0
 75
     0
 76
     1
 98
        0
  0
LINE
  5
15A
330
155
100
AcDbEntity
  8
SLD-0
  6
AUSGEZOGEN
 62
     7
370
    18
100
AcDbLine
 10
785.084100029816
 20
633.7303651068
 30
0.0
 11
785.084100029816
 21
277.7303651061
 31
0.0
  0
LINE
  5
15B
330
155
100
AcDbEntity
  8
SLD-0
  6
AUSGEZOGEN
 62
     7
370
    18
100
AcDbLine
 10
1019.420336201216
 20
655.7303651068
 30
0.0
 11
765.126957172673
 21
655.7303651068
 31
0.0
  0
LINE
  5
15C
330
155
100
AcDbEntity
  8
SLD-0
  6
AUSGEZOGEN
 62
     7
370
    18
100
AcDbLine
 10
1019.420336201216
 20
255.7303651061
 30
0.0
 11
765.126957172673
 21
255.7303651061
 31
0.0
  0
TEXT
  5
15D
330
155
100
AcDbEntity
  8
SLD-0
  6
AUSGEZOGEN
 62
     7
370
    18
100
AcDbText
 10
782.131582690807
 20
414.4095283335
 30
0.0
 40
34.925
  1
400
 50
90.0
 41
0.820056232427
  7
Arial
 72
     5
 11
782.131582690807
 21
481.0845283335
 31
0.0
100
AcDbText
  0
ENDBLK
  5
157
330
155
100
AcDbEntity
  8
0
100
AcDbBlockEnd
  0
BLOCK
  5
160
330
15F
100
AcDbEntity
  8
0
100
AcDbBlockBegin
  2
_D_24_nNn019
 70
     0
 10
0.0
 20
0.0
 30
0.0
  3
_D_24_nNn019
  1

  0
HATCH
  5
162
330
15F
100
AcDbEntity
  8
SLD-0
  6
AUSGEZOGEN
 62
     7
370
    18
100
AcDbHatch
 10
0.0
 20
0.0
 30
0.0
210
0.0
220
0.0
230
1.0
  2
SOLID
 70
     1
 71
     0
 91
        1
 92
        2
 72
     0
 73
     1
 93
        3
 10
1012.979810123516
 20
653.8555625782999
 10
1022.467083512516
 20
633.8167466536997
 10
1027.107799020516
 20
636.7686544399999
 97
        0
 75
     0
 76
     1
 98
        0
  0
LINE
  5
163
330
15F
100
AcDbEntity
  8
SLD-0
  6
AUSGEZOGEN
 62
     7
370
    18
100
AcDbLine
 10
1012.979810123516
 20
653.8555625783
 30
0.0
 11
1073.847640821916
 21
558.1648071961
 31
0.0
  0
LINE
  5
164
330
15F
100
AcDbEntity
  8
SLD-0
  6
AUSGEZOGEN
 62
     7
370
    18
100
AcDbLine
 10
1073.847640821916
 20
558.1648071961
 30
0.0
 11
1171.184912003616
 21
558.1648071961
 31
0.0
  0
TEXT
  5
165
330
15F
100
AcDbEntity
  8
SLD-0
  6
AUSGEZOGEN
 62
     7
370
    18
100
AcDbText
 10
1091.310140821916
 20
568.2604928852
 30
0.0
 40
34.925
  1
R12
 41
0.68359375
  7
Arial
 72
     5
 11
1152.428890821916
 21
568.2604928852
 31
0.0
100
AcDbText
  0
ENDBLK
  5
161
330
15F
100
AcDbEntity
  8
0
100
AcDbBlockEnd
  0
BLOCK
  5
168
330
167
100
AcDbEntity
  8
0
100
AcDbBlockBegin
  2
*D21
 70
     1
 10
0.0
 20
0.0
 30
0.0
  3
*D21
  1

  0
HATCH
  5
16A
330
167
100
AcDbEntity
  8
SLD-0
  6
AUSGEZOGEN
 62
     7
370
    18
100
AcDbHatch
 10
0.0
 20
0.0
 30
0.0
210
0.0
220
0.0
230
1.0
  2
SOLID
 70
     1
 71
     0
 91
        1
 92
        2
 72
     0
 73
     1
 93
        3
 10
1264.920336201416
 20
790.1077009302999
 10
1242.920336201416
 20
794.5077009302998
 10
1242.920336201416
 20
785.7077009302999
 97
        0
 75
     0
 76
     1
 98
        0
  0
HATCH
  5
16B
330
167
100
AcDbEntity
  8
SLD-0
  6
AUSGEZOGEN
 62
     7
370
    18
100
AcDbHatch
 10
0.0
 20
0.0
 30
0.0
210
0.0
220
0.0
230
1.0
  2
SOLID
 70
     1
 71
     0
 91
        1
 92
        2
 72
     0
 73
     1
 93
        3
 10
1077.420336200915
 20
790.1077009302999
 10
1099.420336200915
 20
785.7077009302999
 10
1099.420336200915
 20
794.5077009302998
 97
        0
 75
     0
 76
     1
 98
        0
  0
LINE
  5
16C
330
167
100
AcDbEntity
  8
SLD-0
  6
AUSGEZOGEN
 62
     7
370
    18
100
AcDbLine
 10
1099.420336200915
 20
790.1077009303
 30
0.0
 11
1242.920336201416
 21
790.1077009303
 31
0.0
  0
LINE
  5
16D
330
167
100
AcDbEntity
  8
SLD-0
  6
AUSGEZOGEN
 62
     7
370
    18
100
AcDbLine
 10
1077.420336200915
 20
680.7303651065
 30
0.0
 11
1077.420336200915
 21
810.064843787443
 31
0.0
  0
LINE
  5
16E
330
167
100
AcDbEntity
  8
SLD-0
  6
AUSGEZOGEN
 62
     7
370
    18
100
AcDbLine
 10
1264.920336201416
 20
680.7303651065
 30
0.0
 11
1264.920336201416
 21
810.064843787443
 31
0.0
  0
TEXT
  5
16F
330
167
100
AcDbEntity
  8
SLD-0
  6
AUSGEZOGEN
 62
     7
370
    18
100
AcDbText
 10
1121.178662003616
 20
793.8907815987
 30
0.0
 40
34.925
  1
187.5
 41
0.820056232427
  7
Arial
 72
     5
 11
1221.191162003616
 21
793.8907815987
 31
0.0
100
AcDbText
  0
ENDBLK
  5
169
330
167
100
AcDbEntity
  8
0
100
AcDbBlockEnd
  0
BLOCK
  5
172
330
171
100
AcDbEntity
  8
0
100
AcDbBlockBegin
  2
*D22
 70
     1
 10
0.0
 20
0.0
 30
0.0
  3
*D22
  1

  0
HATCH
  5
174
330
171
100
AcDbEntity
  8
SLD-0
  6
AUSGEZOGEN
 62
     7
370
    18
100
AcDbHatch
 10
0.0
 20
0.0
 30
0.0
210
0.0
220
0.0
230
1.0
  2
SOLID
 70
     1
 71
     0
 91
        1
 92
        2
 72
     0
 73
     1
 93
        3
 10
1452.420336200815
 20
790.1077009302999
 10
1430.420336200815
 20
794.5077009302998
 10
1430.420336200815
 20
785.7077009302999
 97
        0
 75
     0
 76
     1
 98
        0
  0
HATCH
  5
175
330
171
100
AcDbEntity
  8
SLD-0
  6
AUSGEZOGEN
 62
     7
370
    18
100
AcDbHatch
 10
0.0
 20
0.0
 30
0.0
210
0.0
220
0.0
230
1.0
  2
SOLID
 70
     1
 71
     0
 91
        1
 92
        2
 72
     0
 73
     1
 93
        3
 10
1264.920336201416
 20
790.1077009302999
 10
1286.920336201416
 20
785.7077009302999
 10
1286.920336201416
 20
794.5077009302998
 97
        0
 75
     0
 76
     1
 98
        0
  0
LINE
  5
176
330
171
100
AcDbEntity
  8
SLD-0
  6
AUSGEZOGEN
 62
     7
370
    18
100
AcDbLine
 10
1286.920336201416
 20
790.1077009303
 30
0.0
 11
1430.420336200815
 21
790.1077009303
 31
0.0
  0
LINE
  5
177
330
171
100
AcDbEntity
  8
SLD-0
  6
AUSGEZOGEN
 62
     7
370
    18
100
AcDbLine
 10
1264.920336201416
 20
680.7303651065
 30
0.0
 11
1264.920336201416
 21
810.064843787443
 31
0.0
  0
LINE
  5
178
330
171
100
AcDbEntity
  8
SLD-0
  6
AUSGEZOGEN
 62
     7
370
    18
100
AcDbLine
 10
1452.420336200815
 20
680.7303651065
 30
0.0
 11
1452.420336200815
 21
810.064843787443
 31
0.0
  0
TEXT
  5
179
330
171
100
AcDbEntity
  8
SLD-0
  6
AUSGEZOGEN
 62
     7
370
    18
100
AcDbText
 10
1308.866550113491
 20
793.8907815987
 30
0.0
 40
34.925
  1
187.5
 41
0.820056232427
  7
Arial
 72
     5
 11
1408.879050113491
 21
793.8907815987
 31
0.0
100
AcDbText
  0
ENDBLK
  5
173
330
171
100
AcDbEntity
  8
0
100
AcDbBlockEnd
  0
BLOCK
  5
17C
330
17B
100
AcDbEntity
  8
0
100
AcDbBlockBegin
  2
*D23
 70
     1
 10
0.0
 20
0.0
 30
0.0
  3
*D23
  1

  0
HATCH
  5
17E
330
17B
100
AcDbEntity
  8
SLD-0
  6
AUSGEZOGEN
 62
     7
370
    18
100
AcDbHatch
 10
0.0
 20
0.0
 30
0.0
210
0.0
220
0.0
230
1.0
  2
SOLID
 70
     1
 71
     0
 91
        1
 92
        2
 72
     0
 73
     1
 93
        3
 10
1522.420336201516
 20
790.1077009302999
 10
1500.420336201516
 20
794.5077009302998
 10
1500.420336201516
 20
785.7077009302999
 97
        0
 75
     0
 76
     1
 98
        0
  0
HATCH
  5
17F
330
17B
100
AcDbEntity
  8
SLD-0
  6
AUSGEZOGEN
 62
     7
370
    18
100
AcDbHatch
 10
0.0
 20
0.0
 30
0.0
210
0.0
220
0.0
230
1.0
  2
SOLID
 70
     1
 71
     0
 91
        1
 92
        2
 72
     0
 73
     1
 93
        3
 10
1452.420336200815
 20
790.1077009302999
 10
1474.420336200815
 20
785.7077009302999
 10
1474.420336200815
 20
794.5077009302998
 97
        0
 75
     0
 76
     1
 98
        0
  0
LINE
  5
180
330
17B
100
AcDbEntity
  8
SLD-0
  6
AUSGEZOGEN
 62
     7
370
    18
100
AcDbLine
 10
1474.420336200815
 20
790.1077009303
 30
0.0
 11
1500.420336201516
 21
790.1077009303
 31
0.0
  0
LINE
  5
181
330
17B
100
AcDbEntity
  8
SLD-0
  6
AUSGEZOGEN
 62
     7
370
    18
100
AcDbLine
 10
1500.420336201516
 20
790.1077009303
 30
0.0
 11
1509.778859937511
 21
790.1077009303
 31
0.0
  0
LINE
  5
182
330
17B
100
AcDbEntity
  8
SLD-0
  6
AUSGEZOGEN
 62
     7
370
    18
100
AcDbLine
 10
1452.420336200815
 20
680.7303651065
 30
0.0
 11
1452.420336200815
 21
810.064843787443
 31
0.0
  0
LINE
  5
183
330
17B
100
AcDbEntity
  8
SLD-0
  6
AUSGEZOGEN
 62
     7
370
    18
100
AcDbLine
 10
1522.420336201516
 20
643.7303651058
 30
0.0
 11
1522.420336201516
 21
810.064843787443
 31
0.0
  0
TEXT
  5
184
330
17B
100
AcDbEntity
  8
SLD-0
  6
AUSGEZOGEN
 62
     7
370
    18
100
AcDbText
 10
1465.328859937511
 20
793.8907815987
 30
0.0
 40
34.925
  1
70
 41
0.820056232427
  7
Arial
 72
     5
 11
1509.778859937511
 21
793.8907815987
 31
0.0
100
AcDbText
  0
ENDBLK
  5
17D
330
17B
100
AcDbEntity
  8
0
100
AcDbBlockEnd
  0
BLOCK
  5
187
330
186
100
AcDbEntity
  8
0
100
AcDbBlockBegin
  2
*D24
 70
     1
 10
0.0
 20
0.0
 30
0.0
  3
*D24
  1

  0
HATCH
  5
189
330
186
100
AcDbEntity
  8
SLD-0
  6
AUSGEZOGEN
 62
     7
370
    18
100
AcDbHatch
 10
0.0
 20
0.0
 30
0.0
210
0.0
220
0.0
230
1.0
  2
SOLID
 70
     1
 71
     0
 91
        1
 92
        2
 72
     0
 73
     1
 93
        3
 10
1077.420336200915
 20
790.1077009302999
 10
1055.420336200915
 20
794.5077009302998
 10
1055.420336200915
 20
785.7077009302999
 97
        0
 75
     0
 76
     1
 98
        0
  0
HATCH
  5
18A
330
186
100
AcDbEntity
  8
SLD-0
  6
AUSGEZOGEN
 62
     7
370
    18
100
AcDbHatch
 10
0.0
 20
0.0
 30
0.0
210
0.0
220
0.0
230
1.0
  2
SOLID
 70
     1
 71
     0
 91
        1
 92
        2
 72
     0
 73
     1
 93
        3
 10
1007.420336201316
 20
790.1077009302999
 10
1029.420336201316
 20
785.7077009302999
 10
1029.420336201316
 20
794.5077009302998
 97
        0
 75
     0
 76
     1
 98
        0
  0
LINE
  5
18B
330
186
100
AcDbEntity
  8
SLD-0
  6
AUSGEZOGEN
 62
     7
370
    18
100
AcDbLine
 10
1029.420336201316
 20
790.1077009303
 30
0.0
 11
1055.420336200915
 21
790.1077009303
 31
0.0
  0
LINE
  5
18C
330
186
100
AcDbEntity
  8
SLD-0
  6
AUSGEZOGEN
 62
     7
370
    18
100
AcDbLine
 10
1029.420336201316
 20
790.1077009303
 30
0.0
 11
1018.729887607087
 21
790.1077009303
 31
0.0
  0
LINE
  5
18D
330
186
100
AcDbEntity
  8
SLD-0
  6
AUSGEZOGEN
 62
     7
370
    18
100
AcDbLine
 10
1007.420336201316
 20
643.7303651058
 30
0.0
 11
1007.420336201316
 21
810.064843787443
 31
0.0
  0
LINE
  5
18E
330
186
100
AcDbEntity
  8
SLD-0
  6
AUSGEZOGEN
 62
     7
370
    18
100
AcDbLine
 10
1077.420336200915
 20
680.7303651065
 30
0.0
 11
1077.420336200915
 21
810.064843787443
 31
0.0
  0
TEXT
  5
18F
330
186
100
AcDbEntity
  8
SLD-0
  6
AUSGEZOGEN
 62
     7
370
    18
100
AcDbText
 10
1018.729887607087
 20
793.8907815987
 30
0.0
 40
34.925
  1
70
 41
0.820056232427
  7
Arial
 72
     5
 11
1063.179887607087
 21
793.8907815987
 31
0.0
100
AcDbText
  0
ENDBLK
  5
188
330
186
100
AcDbEntity
  8
0
100
AcDbBlockEnd
  0
BLOCK
  5
192
330
191
100
AcDbEntity
  8
0
100
AcDbBlockBegin
  2
*D25
 70
     1
 10
0.0
 20
0.0
 30
0.0
  3
*D25
  1

  0
HATCH
  5
194
330
191
100
AcDbEntity
  8
SLD-0
  6
AUSGEZOGEN
 62
     7
370
    18
100
AcDbHatch
 10
0.0
 20
0.0
 30
0.0
210
0.0
220
0.0
230
1.0
  2
SOLID
 70
     1
 71
     0
 91
        1
 92
        2
 72
     0
 73
     1
 93
        3
 10
871.9830288971157
 20
655.7303651067998
 10
867.5830288971157
 20
633.7303651067998
 10
876.3830288971157
 20
633.7303651067998
 97
        0
 75
     0
 76
     1
 98
        0
  0
HATCH
  5
195
330
191
100
AcDbEntity
  8
SLD-0
  6
AUSGEZOGEN
 62
     7
370
    18
100
AcDbHatch
 10
0.0
 20
0.0
 30
0.0
210
0.0
220
0.0
230
1.0
  2
SOLID
 70
     1
 71
     0
 91
        1
 92
        2
 72
     0
 73
     1
 93
        3
 10
871.9830288971157
 20
455.7303651059001
 10
876.3830288971157
 20
477.7303651059001
 10
867.5830288971157
 20
477.7303651059001
 97
        0
 75
     0
 76
     1
 98
        0
  0
LINE
  5
196
330
191
100
AcDbEntity
  8
SLD-0
  6
AUSGEZOGEN
 62
     7
370
    18
100
AcDbLine
 10
871.983028897116
 20
477.7303651059
 30
0.0
 11
871.983028897116
 21
633.7303651068
 31
0.0
  0
LINE
  5
197
330
191
100
AcDbEntity
  8
SLD-0
  6
AUSGEZOGEN
 62
     7
370
    18
100
AcDbLine
 10
982.420336201616
 20
455.7303651059
 30
0.0
 11
852.025886039973
 21
455.7303651059
 31
0.0
  0
LINE
  5
198
330
191
100
AcDbEntity
  8
SLD-0
  6
AUSGEZOGEN
 62
     7
370
    18
100
AcDbLine
 10
1019.420336201216
 20
655.7303651068
 30
0.0
 11
852.025886039973
 21
655.7303651068
 31
0.0
  0
TEXT
  5
199
330
191
100
AcDbEntity
  8
SLD-0
  6
AUSGEZOGEN
 62
     7
370
    18
100
AcDbText
 10
869.180534924704
 20
524.8273071961
 30
0.0
 40
34.925
  1
200
 50
90.0
 41
0.820056232427
  7
Arial
 72
     5
 11
869.180534924704
 21
591.5023071961
 31
0.0
100
AcDbText
  0
ENDBLK
  5
193
330
191
100
AcDbEntity
  8
0
100
AcDbBlockEnd
  0
BLOCK
  5
19C
330
19B
100
AcDbEntity
  8
0
100
AcDbBlockBegin
  2
*D26
 70
     1
 10
0.0
 20
0.0
 30
0.0
  3
*D26
  1

  0
HATCH
  5
19E
330
19B
100
AcDbEntity
  8
SLD-0
  6
AUSGEZOGEN
 62
     7
370
    18
100
AcDbHatch
 10
0.0
 20
0.0
 30
0.0
210
0.0
220
0.0
230
1.0
  2
SOLID
 70
     1
 71
     0
 91
        1
 92
        2
 72
     0
 73
     1
 93
        3
 10
871.9830288971157
 20
455.7303651059001
 10
867.5830288971157
 20
433.7303651059001
 10
876.3830288971157
 20
433.7303651059001
 97
        0
 75
     0
 76
     1
 98
        0
  0
HATCH
  5
19F
330
19B
100
AcDbEntity
  8
SLD-0
  6
AUSGEZOGEN
 62
     7
370
    18
100
AcDbHatch
 10
0.0
 20
0.0
 30
0.0
210
0.0
220
0.0
230
1.0
  2
SOLID
 70
     1
 71
     0
 91
        1
 92
        2
 72
     0
 73
     1
 93
        3
 10
871.9830288971157
 20
255.7303651060997
 10
876.3830288971157
 20
277.7303651060997
 10
867.5830288971157
 20
277.7303651060997
 97
        0
 75
     0
 76
     1
 98
        0
  0
LINE
  5
1A0
330
19B
100
AcDbEntity
  8
SLD-0
  6
AUSGEZOGEN
 62
     7
370
    18
100
AcDbLine
 10
871.983028897116
 20
277.7303651061
 30
0.0
 11
871.983028897116
 21
433.7303651059
 31
0.0
  0
LINE
  5
1A1
330
19B
100
AcDbEntity
  8
SLD-0
  6
AUSGEZOGEN
 62
     7
370
    18
100
AcDbLine
 10
1019.420336201216
 20
255.7303651061
 30
0.0
 11
852.025886039973
 21
255.7303651061
 31
0.0
  0
LINE
  5
1A2
330
19B
100
AcDbEntity
  8
SLD-0
  6
AUSGEZOGEN
 62
     7
370
    18
100
AcDbLine
 10
982.420336201616
 20
455.7303651059
 30
0.0
 11
852.025886039973
 21
455.7303651059
 31
0.0
  0
TEXT
  5
1A3
330
19B
100
AcDbEntity
  8
SLD-0
  6
AUSGEZOGEN
 62
     7
370
    18
100
AcDbText
 10
867.918955906821
 20
325.450380011762
 30
0.0
 40
34.925
  1
200
 50
90.0
 41
0.820056232427
  7
Arial
 72
     5
 11
867.918955906821
 21
392.125380011762
 31
0.0
100
AcDbText
  0
ENDBLK
  5
19D
330
19B
100
AcDbEntity
  8
0
100
AcDbBlockEnd
  0
BLOCK
  5
1A6
330
1A5
100
AcDbEntity
  8
0
100
AcDbBlockBegin
  2
*D27
 70
     1
 10
0.0
 20
0.0
 30
0.0
  3
*D27
  1

  0
HATCH
  5
1A8
330
1A5
100
AcDbEntity
  8
SLD-0
  6
AUSGEZOGEN
 62
     7
370
    18
100
AcDbHatch
 10
0.0
 20
0.0
 30
0.0
210
0.0
220
0.0
230
1.0
  2
SOLID
 70
     1
 71
     0
 91
        1
 92
        2
 72
     0
 73
     1
 93
        3
 10
1522.420336201516
 20
488.0751214893999
 10
1544.420336201516
 20
483.6751214893999
 10
1544.420336201516
 20
492.4751214893998
 97
        0
 75
     0
 76
     1
 98
        0
  0
HATCH
  5
1A9
330
1A5
100
AcDbEntity
  8
SLD-0
  6
AUSGEZOGEN
 62
     7
370
    18
100
AcDbHatch
 10
0.0
 20
0.0
 30
0.0
210
0.0
220
0.0
230
1.0
  2
SOLID
 70
     1
 71
     0
 91
        1
 92
        2
 72
     0
 73
     1
 93
        3
 10
1547.420336201216
 20
488.0751214893999
 10
1525.420336201216
 20
492.4751214893998
 10
1525.420336201216
 20
483.6751214893999
 97
        0
 75
     0
 76
     1
 98
        0
  0
LINE
  5
1AA
330
1A5
100
AcDbEntity
  8
SLD-0
  6
AUSGEZOGEN
 62
     7
370
    18
100
AcDbLine
 10
1525.420336201216
 20
488.0751214894
 30
0.0
 11
1544.420336201516
 21
488.0751214894
 31
0.0
  0
LINE
  5
1AB
330
1A5
100
AcDbEntity
  8
SLD-0
  6
AUSGEZOGEN
 62
     7
370
    18
100
AcDbLine
 10
1547.420336201216
 20
455.7303651059
 30
0.0
 11
1547.420336201216
 21
508.032264346543
 31
0.0
  0
LINE
  5
1AC
330
1A5
100
AcDbEntity
  8
SLD-0
  6
AUSGEZOGEN
 62
     7
370
    18
100
AcDbLine
 10
1522.420336201516
 20
643.7303651058
 30
0.0
 11
1522.420336201516
 21
468.117978632257
 31
0.0
  0
TEXT
  5
1AD
330
1A5
100
AcDbEntity
  8
SLD-0
  6
AUSGEZOGEN
 62
     7
370
    18
100
AcDbText
 10
1449.885870987815
 20
481.0901214894
 30
0.0
 40
34.925
  1
25
 41
0.820056232427
  7
Arial
 72
     5
 11
1494.335870987815
 21
481.0901214894
 31
0.0
100
AcDbText
  0
ENDBLK
  5
1A7
330
1A5
100
AcDbEntity
  8
0
100
AcDbBlockEnd
  0
BLOCK
  5
1B0
330
1AF
100
AcDbEntity
  8
0
100
AcDbBlockBegin
  2
*D28
 70
     1
 10
0.0
 20
0.0
 30
0.0
  3
*D28
  1

  0
HATCH
  5
1B2
330
1AF
100
AcDbEntity
  8
SLD-0
  6
AUSGEZOGEN
 62
     7
370
    18
100
AcDbHatch
 10
0.0
 20
0.0
 30
0.0
210
0.0
220
0.0
230
1.0
  2
SOLID
 70
     1
 71
     0
 91
        1
 92
        2
 72
     0
 73
     1
 93
        3
 10
1415.376320077415
 20
255.7303651060997
 10
1410.976320077415
 20
233.7303651060997
 10
1419.776320077415
 20
233.7303651060997
 97
        0
 75
     0
 76
     1
 98
        0
  0
HATCH
  5
1B3
330
1AF
100
AcDbEntity
  8
SLD-0
  6
AUSGEZOGEN
 62
     7
370
    18
100
AcDbHatch
 10
0.0
 20
0.0
 30
0.0
210
0.0
220
0.0
230
1.0
  2
SOLID
 70
     1
 71
     0
 91
        1
 92
        2
 72
     0
 73
     1
 93
        3
 10
1415.376320077415
 20
230.7303651064001
 10
1419.776320077415
 20
252.7303651064001
 10
1410.976320077415
 20
252.7303651064001
 97
        0
 75
     0
 76
     1
 98
        0
  0
LINE
  5
1B4
330
1AF
100
AcDbEntity
  8
SLD-0
  6
AUSGEZOGEN
 62
     7
370
    18
100
AcDbLine
 10
1415.376320077415
 20
252.7303651064
 30
0.0
 11
1415.376320077415
 21
233.7303651061
 31
0.0
  0
LINE
  5
1B5
330
1AF
100
AcDbEntity
  8
SLD-0
  6
AUSGEZOGEN
 62
     7
370
    18
100
AcDbLine
 10
1452.420336200815
 20
230.7303651064
 30
0.0
 11
1395.419177220273
 21
230.7303651064
 31
0.0
  0
LINE
  5
1B6
330
1AF
100
AcDbEntity
  8
SLD-0
  6
AUSGEZOGEN
 62
     7
370
    18
100
AcDbLine
 10
1510.420336201616
 20
255.7303651061
 30
0.0
 11
1395.419177220273
 21
255.7303651061
 31
0.0
  0
TEXT
  5
1B7
330
1AF
100
AcDbEntity
  8
SLD-0
  6
AUSGEZOGEN
 62
     7
370
    18
100
AcDbText
 10
1422.361320077415
 20
274.633672127
 30
0.0
 40
34.925
  1
25
 50
90.0
 41
0.820056232427
  7
Arial
 72
     5
 11
1422.361320077415
 21
319.083672127
 31
0.0
100
AcDbText
  0
ENDBLK
  5
1B1
330
1AF
100
AcDbEntity
  8
0
100
AcDbBlockEnd
  0
BLOCK
  5
1BA
330
1B9
100
AcDbEntity
  8
0
100
AcDbBlockBegin
  2
A3-NABER_nNn028
 70
     0
 10
0.0
 20
0.0
 30
0.0
  3
A3-NABER_nNn028
  1

  0
INSERT
  5
1D7
330
1B9
100
AcDbEntity
  8
0
100
AcDbBlockReference
  2
A3-NABER_001_nNn029
 10
0.0
 20
0.0
 30
0.0
  0
TEXT
  5
1D8
330
1B9
100
AcDbEntity
  8
Layer100
  6
AUSGEZOGEN
 62
    18
420
        0
370
    50
100
AcDbText
 10
1300.659403144598
 20
-964.273984572557
 30
0.0
 40
12.685384684898
  1
Weitergabe und Vervielfältigung,
 50
0.000002504478
 41
1.085122205146
  7
Arial
 72
     5
 11
1578.317103127653
 21
-964.273972435753
 31
0.0
100
AcDbText
  0
TEXT
  5
1D9
330
1B9
100
AcDbEntity
  8
Layer100
  6
AUSGEZOGEN
 62
    18
420
        0
370
    50
100
AcDbText
 10
1300.745030378415
 20
-984.570600064651
 30
0.0
 40
12.685384684898
  1
sowie Verwertung und Mitteilung
 50
0.000002504478
 41
1.084506693109
  7
Arial
 72
     5
 11
1578.231477668224
 21
-984.570587935333
 31
0.0
100
AcDbText
  0
TEXT
  5
1DA
330
1B9
100
AcDbEntity
  8
Layer100
  6
AUSGEZOGEN
 62
    18
420
        0
370
    50
100
AcDbText
 10
1288.110388119449
 20
-1004.867216112767
 30
0.0
 40
12.685384684898
  1
dieser Zeichnung ist nicht gestattet,
 50
0.000002504478
 41
1.087014938969
  7
Arial
 72
     5
 11
1590.866121701576
 21
-1004.867202878893
 31
0.0
100
AcDbText
  0
TEXT
  5
1DB
330
1B9
100
AcDbEntity
  8
Layer100
  6
AUSGEZOGEN
 62
    18
420
        0
370
    50
100
AcDbText
 10
1298.38555060141
 20
-1025.163831159462
 30
0.0
 40
12.685384684898
  1
soweit nicht ausdrücklich erlaubt.
 50
0.000002504478
 41
1.086254882813
  7
Arial
 72
     5
 11
1580.590960994001
 21
-1025.163818823872
 31
0.0
100
AcDbText
  0
TEXT
  5
1DC
330
1B9
100
AcDbEntity
  8
Layer100
  6
AUSGEZOGEN
 62
    18
420
        0
370
    50
100
AcDbText
 10
1334.862375150028
 20
-1045.460445060847
 30
0.0
 40
12.685384684898
  1
Alle Rechte vorbehalten!
 50
0.000002504478
 41
1.084802051822
  7
Arial
 72
     5
 11
1544.114138219769
 21
-1045.460435914162
 31
0.0
100
AcDbText
  0
LINE
  5
1DD
330
1B9
100
AcDbEntity
  8
Layer100
  6
AUSGEZOGEN
 62
    18
420
        0
370
    50
100
AcDbLine
 10
2390.0
 20
-928.322241372779
 30
0.0
 11
744.08
 21
-928.322241372779
 31
0.0
  0
INSERT
  5
20E
330
1B9
100
AcDbEntity
  8
0
100
AcDbBlockReference
  2
Schriftfeld_nNn034
 10
0.0
 20
0.0
 30
0.0
  0
INSERT
  5
21A
330
1B9
100
AcDbEntity
  8
0
100
AcDbBlockReference
  2
Beschriftung_nNn035
 10
0.0
 20
0.0
 30
0.0
  0
TEXT
  5
21B
330
1B9
100
AcDbEntity
  8
Layer100
  6
AUSGEZOGEN
 62
    18
420
        0
370
    18
100
AcDbText
 10
760.008430232085
 20
-1109.605728334461
 30
0.0
 40
19.028076027142
  1
-
 41
0.967741971819
  7
Arial
 72
     5
 11
768.571064765794
 21
-1109.605728334461
 31
0.0
100
AcDbText
  0
TEXT
  5
21C
330
1B9
100
AcDbEntity
  8
Layer100
  6
AUSGEZOGEN
 62
    18
420
        0
370
    18
100
AcDbText
 10
831.038066494787
 20
-1109.282745982001
 30
0.0
 40
19.028076027142
  1
-
 41
0.967741971819
  7
Arial
 72
     5
 11
839.600701028496
 21
-1109.282745982001
 31
0.0
100
AcDbText
  0
TEXT
  5
21D
330
1B9
100
AcDbEntity
  8
Layer100
  6
AUSGEZOGEN
 62
    18
420
        0
370
    18
100
AcDbText
 10
1057.856666209168
 20
-1109.266993138879
 30
0.0
 40
19.028076027142
  1
-
 41
0.967741971819
  7
Arial
 72
     5
 11
1066.419300742876
 21
-1109.266993138879
 31
0.0
100
AcDbText
  0
TEXT
  5
21E
330
1B9
100
AcDbEntity
  8
Layer100
  6
AUSGEZOGEN
 62
    18
420
        0
370
    18
100
AcDbText
 10
1182.531062726218
 20
-1109.266993138879
 30
0.0
 40
19.028076027142
  1
-
 41
0.967741971819
  7
Arial
 72
     5
 11
1191.093697259926
 21
-1109.266993138879
 31
0.0
100
AcDbText
  0
TEXT
  5
21F
330
1B9
100
AcDbEntity
  8
Layer100
  6
AUSGEZOGEN
 62
    18
420
        0
370
    18
100
AcDbText
 10
1244.613390441979
 20
-1266.864110267945
 30
0.0
 40
11.606769233771
  1
Naber GmbH
 41
0.96475869975
  7
Arial
 72
     5
 11
1336.681139610049
 21
-1266.864110267945
 31
0.0
100
AcDbText
  0
TEXT
  5
220
330
1B9
100
AcDbEntity
  8
Layer100
  6
AUSGEZOGEN
 62
    18
420
        0
370
    18
100
AcDbText
 10
1244.613390441979
 20
-1281.952909718393
 30
0.0
 40
11.606769233771
  1
Enschedestr. 24
 41
0.976824042946
  7
Arial
 72
     5
 11
1358.966151254055
 21
-1281.952909718393
 31
0.0
100
AcDbText
  0
TEXT
  5
221
330
1B9
100
AcDbEntity
  8
Layer100
  6
AUSGEZOGEN
 62
    18
420
        0
370
    18
100
AcDbText
 10
1244.613390441979
 20
-1297.041709168842
 30
0.0
 40
11.606769233771
  1
48529 Nordhorn
 41
0.972993785506
  7
Arial
 72
     5
 11
1358.517758817314
 21
-1297.041709168842
 31
0.0
100
AcDbText
  0
TEXT
  5
222
330
1B9
100
AcDbEntity
  8
Layer100
  6
AUSGEZOGEN
 62
    18
420
        0
370
    18
100
AcDbText
 10
1244.613390441979
 20
-1327.21930806974
 30
0.0
 40
11.606769233771
  1
0049-(0)5921-704-0
 41
0.975798499711
  7
Arial
 72
     5
 11
1385.201389985567
 21
-1327.21930806974
 31
0.0
100
AcDbText
  0
IMAGE
  5
225
330
1B9
100
AcDbEntity
  8
0
  6
AUSGEZOGEN
 62
    18
420
        0
370
    18
160
               140
310
8C000000010000008400000006000000050000005E4CFB66F5119640777390DF47B894C000000000000000008CC76D51C2759940777390DF47B894C000000000000000008CC76D51C2759940D83ECB7B5D7293C000000000000000005E4CFB66F5119640D83ECB7B5D7293C000000000000000005E4CFB66F5119640777390
310
DF47B894C00000000000000000
100
AcDbRasterImage
 90
        0
 10
1412.489650656258
 20
-1326.070188767478
 30
0.0
 11
0.05737903017589593
 21
0.0
 31
0.0
 12
0.0
 22
0.08640391963798622
 32
0.0
 13
3781.0
 23
943.0
340
224
 70
     7
280
     0
281
    50
282
    50
283
     0
360
226
 71
     1
 91
        2
 14
-0.5
 24
-0.5
 14
3780.5
 24
942.5
290
     0
  0
TEXT
  5
227
330
1B9
100
AcDbEntity
  8
Layer100
  6
AUSGEZOGEN
 62
    18
420
        0
370
    18
100
AcDbText
 10
1644.950237135225
 20
-1068.761286776969
 30
0.0
 40
31.713461712246
  1
Einbaumaße
 41
0.90372298842
  7
Arial
 72
     5
 11
1871.738276226926
 21
-1068.761286776969
 31
0.0
100
AcDbText
  0
ENDBLK
  5
1BB
330
1B9
100
AcDbEntity
  8
0
100
AcDbBlockEnd
  0
BLOCK
  5
1BD
330
1BC
100
AcDbEntity
  8
0
100
AcDbBlockBegin
  2
A3-NABER_001_nNn029
 70
     0
 10
0.0
 20
0.0
 30
0.0
  3
A3-NABER_001_nNn029
  1

  0
INSERT
  5
1D6
330
1BC
100
AcDbEntity
  8
0
100
AcDbBlockReference
  2
A3-NABER_002_nNn030
 10
0.0
 20
0.0
 30
0.0
  0
ENDBLK
  5
1BE
330
1BC
100
AcDbEntity
  8
0
100
AcDbBlockEnd
  0
BLOCK
  5
1C0
330
1BF
100
AcDbEntity
  8
0
100
AcDbBlockBegin
  2
A3-NABER_002_nNn030
 70
     0
 10
0.0
 20
0.0
 30
0.0
  3
A3-NABER_002_nNn030
  1

  0
INSERT
  5
1D5
330
1BF
100
AcDbEntity
  8
0
100
AcDbBlockReference
  2
A3-NABER_nNn031
 10
0.0
 20
0.0
 30
0.0
  0
ENDBLK
  5
1C1
330
1BF
100
AcDbEntity
  8
0
100
AcDbBlockEnd
  0
BLOCK
  5
1C3
330
1C2
100
AcDbEntity
  8
0
100
AcDbBlockBegin
  2
A3-NABER_nNn031
 70
     0
 10
0.0
 20
0.0
 30
0.0
  3
A3-NABER_nNn031
  1

  0
INSERT
  5
1D0
330
1C2
100
AcDbEntity
  8
0
100
AcDbBlockReference
  2
A3-Textliste_nNn032
 10
0.0
 20
0.0
 30
0.0
  0
LINE
  5
1D1
330
1C2
100
AcDbEntity
  8
SLD-0
  6
AUSGEZOGEN
 62
    18
420
        0
370
    18
100
AcDbLine
 10
2435.0
 20
-1470.0
 30
0.0
 11
2435.0
 21
1193.1
 31
0.0
  0
LINE
  5
1D2
330
1C2
100
AcDbEntity
  8
SLD-0
  6
AUSGEZOGEN
 62
    18
420
        0
370
    18
100
AcDbLine
 10
-1210.0
 20
-1470.0
 30
0.0
 11
2435.0
 21
-1470.0
 31
0.0
  0
LINE
  5
1D3
330
1C2
100
AcDbEntity
  8
SLD-0
  6
AUSGEZOGEN
 62
    18
420
        0
370
    18
100
AcDbLine
 10
-1210.0
 20
1193.1
 30
0.0
 11
2435.0
 21
1193.1
 31
0.0
  0
LINE
  5
1D4
330
1C2
100
AcDbEntity
  8
SLD-0
  6
AUSGEZOGEN
 62
    18
420
        0
370
    18
100
AcDbLine
 10
-1210.0
 20
-1470.0
 30
0.0
 11
-1210.0
 21
1193.1
 31
0.0
  0
ENDBLK
  5
1C4
330
1C2
100
AcDbEntity
  8
0
100
AcDbBlockEnd
  0
BLOCK
  5
1C6
330
1C5
100
AcDbEntity
  8
0
100
AcDbBlockBegin
  2
A3-Textliste_nNn032
 70
     0
 10
0.0
 20
0.0
 30
0.0
  3
A3-Textliste_nNn032
  1

  0
INSERT
  5
1CF
330
1C5
100
AcDbEntity
  8
0
100
AcDbBlockReference
  2
Zeichnungsrahmen_nNn033
 10
0.0
 20
0.0
 30
0.0
  0
ENDBLK
  5
1C7
330
1C5
100
AcDbEntity
  8
0
100
AcDbBlockEnd
  0
BLOCK
  5
1C9
330
1C8
100
AcDbEntity
  8
0
100
AcDbBlockBegin
  2
Zeichnungsrahmen_nNn033
 70
     0
 10
0.0
 20
0.0
 30
0.0
  3
Zeichnungsrahmen_nNn033
  1

  0
LINE
  5
1CB
330
1C8
100
AcDbEntity
  8
Layer100
  6
AUSGEZOGEN
 62
    18
420
        0
370
    50
100
AcDbLine
 10
2390.0
 20
-1425.0
 30
0.0
 11
2390.0
 21
1148.1
 31
0.0
  0
LINE
  5
1CC
330
1C8
100
AcDbEntity
  8
Layer100
  6
AUSGEZOGEN
 62
    18
420
        0
370
    50
100
AcDbLine
 10
-1165.0
 20
-1425.0
 30
0.0
 11
2390.0
 21
-1425.0
 31
0.0
  0
LINE
  5
1CD
330
1C8
100
AcDbEntity
  8
Layer100
  6
AUSGEZOGEN
 62
    18
420
        0
370
    50
100
AcDbLine
 10
-1165.0
 20
-1425.0
 30
0.0
 11
-1165.0
 21
1148.1
 31
0.0
  0
LINE
  5
1CE
330
1C8
100
AcDbEntity
  8
Layer100
  6
AUSGEZOGEN
 62
    18
420
        0
370
    50
100
AcDbLine
 10
-1165.0
 20
1148.1
 30
0.0
 11
2390.0
 21
1148.1
 31
0.0
  0
ENDBLK
  5
1CA
330
1C8
100
AcDbEntity
  8
0
100
AcDbBlockEnd
  0
BLOCK
  5
1DF
330
1DE
100
AcDbEntity
  8
0
100
AcDbBlockBegin
  2
Schriftfeld_nNn034
 70
     0
 10
0.0
 20
0.0
 30
0.0
  3
Schriftfeld_nNn034
  1

  0
LINE
  5
1E1
330
1DE
100
AcDbEntity
  8
Layer100
  6
AUSGEZOGEN
 62
    18
420
        0
370
    50
100
AcDbLine
 10
1236.808635715837
 20
-928.322355445613
 30
0.0
 11
1236.808635715837
 21
-1425.000114072834
 31
0.0
  0
LINE
  5
1E2
330
1DE
100
AcDbEntity
  8
Layer100
  6
AUSGEZOGEN
 62
    18
420
        0
370
    50
100
AcDbLine
 10
1634.150842617615
 20
-928.322302649971
 30
0.0
 11
1634.150842617615
 21
-1425.000061277193
 31
0.0
  0
LINE
  5
1E3
330
1DE
100
AcDbEntity
  8
Layer100
  6
AUSGEZOGEN
 62
    18
420
        0
370
    18
100
AcDbLine
 10
816.093357819838
 20
-1081.146294204213
 30
0.0
 11
816.093357819838
 21
-1425.000127099982
 31
0.0
  0
LINE
  5
1E4
330
1DE
100
AcDbEntity
  8
Layer100
  6
AUSGEZOGEN
 62
    18
420
        0
370
    18
100
AcDbLine
 10
1166.689422733171
 20
-1081.146558268802
 30
0.0
 11
1166.689422733171
 21
-1425.000391164571
 31
0.0
  0
LINE
  5
1E5
330
1DE
100
AcDbEntity
  8
Layer100
  6
AUSGEZOGEN
 62
    18
420
        0
370
    18
100
AcDbLine
 10
1049.82406776206
 20
-1425.000391164571
 30
0.0
 11
1049.82406776206
 21
-928.322632537349
 31
0.0
  0
TEXT
  5
1E6
330
1DE
100
AcDbEntity
  8
Layer100
  6
AUSGEZOGEN
 62
    18
420
        0
370
    18
100
AcDbText
 10
1642.06172818489
 20
-1009.121149909846
 30
0.0
 40
14.832910438641
  1
Rohstoff/Raw material
 41
1.084377276038
  7
Arial
 72
     5
 11
1862.901515250596
 21
-1009.121149909846
 31
0.0
100
AcDbText
  0
TEXT
  5
1E7
330
1DE
100
AcDbEntity
  8
Layer100
  6
AUSGEZOGEN
 62
    18
420
        0
370
    18
100
AcDbText
 10
1642.06172818489
 20
-1104.636103492004
 30
0.0
 40
14.832910438641
  1
Benennung/Designation
 41
1.081895683695
  7
Arial
 72
     5
 11
1881.123745724467
 21
-1104.636103492004
 31
0.0
100
AcDbText
  0
TEXT
  5
1E8
330
1DE
100
AcDbEntity
  8
Layer100
  6
AUSGEZOGEN
 62
    18
420
        0
370
    18
100
AcDbText
 10
1640.893074635178
 20
-1293.755711584677
 30
0.0
 40
14.832910438641
  1
Sachnummer/Part-No.
 41
1.080626575441
  7
Arial
 72
     5
 11
1863.453479311767
 21
-1293.755711584677
 31
0.0
100
AcDbText
  0
LINE
  5
1E9
330
1DE
100
AcDbEntity
  8
Layer100
  6
AUSGEZOGEN
 62
    18
420
        0
370
    18
100
AcDbLine
 10
1330.300919692726
 20
-1081.146167104231
 30
0.0
 11
1330.300919692726
 21
-1195.764111402821
 31
0.0
  0
TEXT
  5
1EA
330
1DE
100
AcDbEntity
  8
Layer100
  6
AUSGEZOGEN
 62
    18
420
        0
370
    18
100
AcDbText
 10
1243.547779672918
 20
-1176.268183898301
 30
0.0
 40
14.832910438641
  1
Gepr.
 41
1.076768834145
  7
Arial
 72
     5
 11
1299.30469001177
 21
-1176.268183898301
 31
0.0
100
AcDbText
  0
TEXT
  5
1EB
330
1DE
100
AcDbEntity
  8
Layer100
  6
AUSGEZOGEN
 62
    18
420
        0
370
    18
100
AcDbText
 10
1243.547779672918
 20
-1195.550967468534
 30
0.0
 40
14.832910438641
  1
Check.
 41
1.077923572744
  7
Arial
 72
     5
 11
1313.002882801855
 21
-1195.550967468534
 31
0.0
100
AcDbText
  0
TEXT
  5
1EC
330
1DE
100
AcDbEntity
  8
Layer100
  6
AUSGEZOGEN
 62
    18
420
        0
370
    18
100
AcDbText
 10
1337.039973600504
 20
-1099.848560668155
 30
0.0
 40
14.832910438641
  1
Datum
 41
1.075650693262
  7
Arial
 72
     5
 11
1402.631103560174
 21
-1099.848560668155
 31
0.0
100
AcDbText
  0
TEXT
  5
1ED
330
1DE
100
AcDbEntity
  8
Layer100
  6
AUSGEZOGEN
 62
    18
420
        0
370
    18
100
AcDbText
 10
1337.039973600504
 20
-1119.131344238388
 30
0.0
 40
14.832910438641
  1
Date
 41
1.076492537313
  7
Arial
 72
     5
 11
1384.112214877531
 21
-1119.131344238388
 31
0.0
100
AcDbText
  0
TEXT
  5
1EE
330
1DE
100
AcDbEntity
  8
Layer100
  6
AUSGEZOGEN
 62
    18
420
        0
370
    18
100
AcDbText
 10
1477.281577675623
 20
-1099.853613426561
 30
0.0
 40
14.832910438641
  1
Name
 41
1.072387859253
  7
Arial
 72
     5
 11
1536.501972601897
 21
-1099.853613426561
 31
0.0
100
AcDbText
  0
TEXT
  5
1EF
330
1DE
100
AcDbEntity
  8
Layer100
  6
AUSGEZOGEN
 62
    18
420
        0
370
    18
100
AcDbText
 10
1477.281577675623
 20
-1119.136396996794
 30
0.0
 40
14.832910438641
  1
Name
 41
1.072387859253
  7
Arial
 72
     5
 11
1536.501972601897
 21
-1119.136396996794
 31
0.0
100
AcDbText
  0
TEXT
  5
1F0
330
1DE
100
AcDbEntity
  8
Layer100
  6
AUSGEZOGEN
 62
    18
420
        0
370
    18
100
AcDbText
 10
1243.528185260324
 20
-1138.049072073745
 30
0.0
 40
14.832910438641
  1
Bearb.
 41
1.078672178988
  7
Arial
 72
     5
 11
1309.319559510916
 21
-1138.049072073745
 31
0.0
100
AcDbText
  0
TEXT
  5
1F1
330
1DE
100
AcDbEntity
  8
Layer100
  6
AUSGEZOGEN
 62
    18
420
        0
370
    18
100
AcDbText
 10
1243.528185260324
 20
-1157.331855643978
 30
0.0
 40
14.832910438641
  1
Drawn
 41
1.075502107612
  7
Arial
 72
     5
 11
1307.86593428793
 21
-1157.331855643978
 31
0.0
100
AcDbText
  0
TEXT
  5
1F2
330
1DE
100
AcDbEntity
  8
Layer100
  6
AUSGEZOGEN
 62
    18
420
        0
370
    18
100
AcDbText
 10
753.885030404447
 20
-1405.501464889466
 30
0.0
 40
14.832910438641
  1
Ausg.
 41
1.076912300364
  7
Arial
 72
     5
 11
810.895321675363
 21
-1405.501464889466
 31
0.0
100
AcDbText
  0
TEXT
  5
1F3
330
1DE
100
AcDbEntity
  8
Layer100
  6
AUSGEZOGEN
 62
    18
420
        0
370
    18
100
AcDbText
 10
753.885030404447
 20
-1424.7842484597
 30
0.0
 40
14.832910438641
  1
Issue
 41
1.078087529976
  7
Arial
 72
     5
 11
807.231592797019
 21
-1424.7842484597
 31
0.0
100
AcDbText
  0
TEXT
  5
1F4
330
1DE
100
AcDbEntity
  8
Layer100
  6
AUSGEZOGEN
 62
    18
420
        0
370
    18
100
AcDbText
 10
824.004243387114
 20
-1405.501464889466
 30
0.0
 40
14.832910438641
  1
Änderung
 41
1.077825512227
  7
Arial
 72
     5
 11
920.759318178369
 21
-1405.501464889466
 31
0.0
100
AcDbText
  0
TEXT
  5
1F5
330
1DE
100
AcDbEntity
  8
Layer100
  6
AUSGEZOGEN
 62
    18
420
        0
370
    18
100
AcDbText
 10
824.004243387114
 20
-1424.7842484597
 30
0.0
 40
14.832910438641
  1
Modification
 41
1.083926413321
  7
Arial
 72
     5
 11
943.735496447824
 21
-1424.7842484597
 31
0.0
100
AcDbText
  0
TEXT
  5
1F6
330
1DE
100
AcDbEntity
  8
Layer100
  6
AUSGEZOGEN
 62
    18
420
        0
370
    18
100
AcDbText
 10
1056.566299779624
 20
-1405.501464889466
 30
0.0
 40
14.832910438641
  1
Datum
 41
1.075650693262
  7
Arial
 72
     5
 11
1122.157429739294
 21
-1405.501464889466
 31
0.0
100
AcDbText
  0
TEXT
  5
1F7
330
1DE
100
AcDbEntity
  8
Layer100
  6
AUSGEZOGEN
 62
    18
420
        0
370
    18
100
AcDbText
 10
1056.566299779624
 20
-1424.7842484597
 30
0.0
 40
14.832910438641
  1
Date
 41
1.076492537313
  7
Arial
 72
     5
 11
1103.638541056651
 21
-1424.7842484597
 31
0.0
100
AcDbText
  0
TEXT
  5
1F8
330
1DE
100
AcDbEntity
  8
Layer100
  6
AUSGEZOGEN
 62
    18
420
        0
370
    18
100
AcDbText
 10
1173.431654750735
 20
-1405.501464889466
 30
0.0
 40
14.832910438641
  1
Name
 41
1.072387859253
  7
Arial
 72
     5
 11
1232.652049677009
 21
-1405.501464889466
 31
0.0
100
AcDbText
  0
TEXT
  5
1F9
330
1DE
100
AcDbEntity
  8
Layer100
  6
AUSGEZOGEN
 62
    18
420
        0
370
    18
100
AcDbText
 10
1173.431654750735
 20
-1424.7842484597
 30
0.0
 40
14.832910438641
  1
Name
 41
1.072387859253
  7
Arial
 72
     5
 11
1232.652049677009
 21
-1424.7842484597
 31
0.0
100
AcDbText
  0
LINE
  5
1FA
330
1DE
100
AcDbEntity
  8
Layer100
  6
AUSGEZOGEN
 62
    18
420
        0
370
    18
100
AcDbLine
 10
1470.53934565806
 20
-1081.146167104231
 30
0.0
 11
1470.53934565806
 21
-1195.764111402821
 31
0.0
  0
TEXT
  5
1FB
330
1DE
100
AcDbEntity
  8
Layer100
  6
AUSGEZOGEN
 62
    18
420
        0
370
    18
100
AcDbText
 10
2108.354494519623
 20
-951.066037378695
 30
0.0
 40
14.832910438641
  1
Menge
 41
1.074408249356
  7
Arial
 72
     5
 11
2176.355972425572
 21
-951.066037378695
 31
0.0
100
AcDbText
  0
TEXT
  5
1FC
330
1DE
100
AcDbEntity
  8
Layer100
  6
AUSGEZOGEN
 62
    18
420
        0
370
    18
100
AcDbText
 10
2108.354494519623
 20
-970.348820948928
 30
0.0
 40
14.832910438641
  1
Quantity
 41
1.081088880339
  7
Arial
 72
     5
 11
2191.708034729566
 21
-970.348820948928
 31
0.0
100
AcDbText
  0
TEXT
  5
1FD
330
1DE
100
AcDbEntity
  8
Layer100
  6
AUSGEZOGEN
 62
    18
420
        0
370
    18
100
AcDbText
 10
1643.230381734601
 20
-950.850285838394
 30
0.0
 40
14.832910438641
  1
Maßstab
 41
1.076703499079
  7
Arial
 72
     5
 11
1729.950992614115
 21
-950.850285838394
 31
0.0
100
AcDbText
  0
TEXT
  5
1FE
330
1DE
100
AcDbEntity
  8
Layer100
  6
AUSGEZOGEN
 62
    18
420
        0
370
    18
100
AcDbText
 10
1643.230381734601
 20
-970.133069408628
 30
0.0
 40
14.832910438641
  1
Scale
 41
1.076768834145
  7
Arial
 72
     5
 11
1698.987292073452
 21
-970.133069408628
 31
0.0
100
AcDbText
  0
TEXT
  5
1FF
330
1DE
100
AcDbEntity
  8
Layer100
  6
AUSGEZOGEN
 62
    18
420
        0
370
    18
100
AcDbText
 10
1062.40956752818
 20
-949.49284990793
 30
0.0
 40
14.832910438641
  1
 Maße in mm
 41
1.079690569745
  7
Arial
 72
     5
 11
1192.83534901515
 21
-949.49284990793
 31
0.0
100
AcDbText
  0
TEXT
  5
200
330
1DE
100
AcDbEntity
  8
Layer100
  6
AUSGEZOGEN
 62
    18
420
        0
370
    18
100
AcDbText
 10
1062.40956752818
 20
-968.775633478163
 30
0.0
 40
14.832910438641
  1
Dimensions in
 41
1.081916714204
  7
Arial
 72
     5
 11
1203.070057217813
 21
-968.775633478163
 31
0.0
100
AcDbText
  0
TEXT
  5
201
330
1DE
100
AcDbEntity
  8
Layer100
  6
AUSGEZOGEN
 62
    18
420
        0
370
    18
100
AcDbText
 10
1062.40956752818
 20
-988.058417048396
 30
0.0
 40
14.832910438641
  1
 millimeters
 41
1.084880260734
  7
Arial
 72
     5
 11
1175.970329846416
 21
-988.058417048396
 31
0.0
100
AcDbText
  0
CIRCLE
  5
202
330
1DE
100
AcDbEntity
  8
Layer100
  6
AUSGEZOGEN
 62
    18
420
        0
370
    18
100
AcDbCircle
 10
1172.405082015355
 20
-1042.767172537047
 30
0.0
 40
25.223751122338
  0
CIRCLE
  5
203
330
1DE
100
AcDbEntity
  8
Layer100
  6
AUSGEZOGEN
 62
    18
420
        0
370
    18
100
AcDbCircle
 10
1172.405082015355
 20
-1042.767172537047
 30
0.0
 40
16.92060664712532
  0
LINE
  5
204
330
1DE
100
AcDbEntity
  8
Layer100
  6
AUSGEZOGEN
 62
    18
420
        0
370
    18
100
AcDbLine
 10
1076.521644348312
 20
-1059.687779184173
 30
0.0
 11
1076.521644348312
 21
-1025.846565889922
 31
0.0
  0
LINE
  5
205
330
1DE
100
AcDbEntity
  8
Layer100
  6
AUSGEZOGEN
 62
    18
420
        0
370
    18
100
AcDbLine
 10
1130.103565397542
 20
-1067.990923659384
 30
0.0
 11
1130.103565397542
 21
-1017.54342141471
 31
0.0
  0
LINE
  5
206
330
1DE
100
AcDbEntity
  8
Layer100
  6
AUSGEZOGEN
 62
    18
420
        0
370
    18
100
AcDbLine
 10
1076.521644348312
 20
-1025.846565889922
 30
0.0
 11
1130.103565397542
 21
-1017.54342141471
 31
0.0
  0
LINE
  5
207
330
1DE
100
AcDbEntity
  8
Layer100
  6
AUSGEZOGEN
 62
    18
420
        0
370
    18
100
AcDbLine
 10
1130.103565397542
 20
-1067.990923659384
 30
0.0
 11
1076.521644348312
 21
-1059.687779184173
 31
0.0
  0
LINE
  5
208
330
1DE
100
AcDbEntity
  8
Layer100
  6
DASHDOT
 62
    18
420
        0
370
    18
100
AcDbLine
 10
1172.405082015355
 20
-1073.788284683617
 30
0.0
 11
1172.405082015355
 21
-1014.937257591677
 31
0.0
  0
LINE
  5
209
330
1DE
100
AcDbEntity
  8
Layer100
  6
DASHDOT
 62
    18
420
        0
370
    18
100
AcDbLine
 10
1144.321759299986
 20
-1042.767172537047
 30
0.0
 11
1200.619665016627
 21
-1042.767172537047
 31
0.0
  0
LINE
  5
20A
330
1DE
100
AcDbEntity
  8
Layer100
  6
DASHDOT
 62
    18
420
        0
370
    18
100
AcDbLine
 10
1073.943353594831
 20
-1042.767172537047
 30
0.0
 11
1132.514855711293
 21
-1042.767172537047
 31
0.0
  0
LINE
  5
20B
330
1DE
100
AcDbEntity
  8
Layer100
  6
AUSGEZOGEN
 62
    18
420
        0
370
    50
100
AcDbLine
 10
1634.150842617615
 20
-1272.176074268547
 30
0.0
 11
2390.0
 21
-1272.176074268547
 31
0.0
  0
LINE
  5
20C
330
1DE
100
AcDbEntity
  8
Layer100
  6
AUSGEZOGEN
 62
    18
420
        0
370
    50
100
AcDbLine
 10
2101.612262502059
 20
-928.322302649971
 30
0.0
 11
2101.612262502059
 21
-985.630366349297
 31
0.0
  0
LINE
  5
20D
330
1DE
100
AcDbEntity
  8
Layer100
  6
AUSGEZOGEN
 62
    18
420
        0
370
    50
100
AcDbLine
 10
2389.999831648129
 20
-985.631213521826
 30
0.0
 11
1634.150842617615
 21
-985.628993126192
 31
0.0
  0
ENDBLK
  5
1E0
330
1DE
100
AcDbEntity
  8
0
100
AcDbBlockEnd
  0
BLOCK
  5
210
330
20F
100
AcDbEntity
  8
0
100
AcDbBlockBegin
  2
Beschriftung_nNn035
 70
     0
 10
0.0
 20
0.0
 30
0.0
  3
Beschriftung_nNn035
  1

  0
TEXT
  5
212
330
20F
100
AcDbEntity
  8
Layer100
  6
AUSGEZOGEN
 62
    18
420
        0
370
    18
100
AcDbText
 10
786.937737834633
 20
-1018.635187923417
 30
0.0
 40
19.028076027142
  1
Kundenzeichnung
 41
1.032581817144
  7
Arial
 72
     5
 11
1006.465348204562
 21
-1018.635187923417
 31
0.0
100
AcDbText
  0
TEXT
  5
213
330
20F
100
AcDbEntity
  8
Layer100
  6
AUSGEZOGEN
 62
    18
420
        0
370
    18
100
AcDbText
 10
1753.083815407445
 20
-966.528222805641
 30
0.0
 40
19.028076027142
  1
1:1
 41
1.022756754879
  7
Arial
 72
     5
 11
1790.838336388319
 21
-966.528222805641
 31
0.0
100
AcDbText
  0
TEXT
  5
214
330
20F
100
AcDbEntity
  8
Layer100
  6
AUSGEZOGEN
 62
    18
420
        0
370
    18
100
AcDbText
 10
2234.569077888423
 20
-964.617923733999
 30
0.0
 40
19.028076027142
  1
1
 41
0.974226840702
  7
Arial
 72
     5
 11
2248.954303905053
 21
-964.617923733999
 31
0.0
100
AcDbText
  0
TEXT
  5
215
330
20F
100
AcDbEntity
  8
Layer100
  6
AUSGEZOGEN
 62
    18
420
        0
370
    18
100
AcDbText
 10
1643.859656722907
 20
-1175.237760593792
 30
0.0
 40
31.713461712246
  1
Einbau-/Unterbauspüle
 41
0.915995798163
  7
Arial
 72
     5
 11
2058.539808513853
 21
-1175.237760593792
 31
0.0
100
AcDbText
  0
TEXT
  5
216
330
20F
100
AcDbEntity
  8
Layer100
  6
AUSGEZOGEN
 62
    18
420
        0
370
    18
100
AcDbText
 10
1643.859656722907
 20
-1238.165259424391
 30
0.0
 40
31.713461712246
  1
Corno Piu PFU11
 41
0.910495521343
  7
Arial
 72
     5
 11
1959.694022310119
 21
-1238.165259424391
 31
0.0
100
AcDbText
  0
TEXT
  5
217
330
20F
100
AcDbEntity
  8
Layer100
  6
AUSGEZOGEN
 62
    18
420
        0
370
    18
100
AcDbText
 10
1643.859656722907
 20
-1364.020257085587
 30
0.0
 40
31.713461712246
  1
1013120/1013121
 41
0.909303236067
  7
Arial
 72
     5
 11
1968.335306350071
 21
-1364.020257085587
 31
0.0
100
AcDbText
  0
TEXT
  5
218
330
20F
100
AcDbEntity
  8
Layer100
  6
AUSGEZOGEN
 62
    18
420
        0
370
    18
100
AcDbText
 10
1335.87449816058
 20
-1149.916933683385
 30
0.0
 40
19.028076027142
  1
22.02.21
 41
1.034889233423
  7
Arial
 72
     5
 11
1442.841176064532
 21
-1149.916933683385
 31
0.0
100
AcDbText
  0
TEXT
  5
219
330
20F
100
AcDbEntity
  8
Layer100
  6
AUSGEZOGEN
 62
    18
420
        0
370
    18
100
AcDbText
 10
1478.450231225335
 20
-1149.916933683385
 30
0.0
 40
19.028076027142
  1
CM
 41
0.997270426658
  7
Arial
 72
     5
 11
1519.647425733638
 21
-1149.916933683385
 31
0.0
100
AcDbText
  0
ENDBLK
  5
211
330
20F
100
AcDbEntity
  8
0
100
AcDbBlockEnd
  0
ENDSEC
  0
SECTION
  2
ENTITIES
  0
INSERT
  5
68
330
1F
100
AcDbEntity
  8
0
100
AcDbBlockReference
  2
SW_NOTE_0_2_nNn00
 10
0.0
 20
0.0
 30
0.0
  0
INSERT
  5
6D
330
1F
100
AcDbEntity
  8
0
100
AcDbBlockReference
  2
SW_NOTE_0_4_nNn01
 10
0.0
 20
0.0
 30
0.0
  0
INSERT
  5
74
330
1F
100
AcDbEntity
  8
0
100
AcDbBlockReference
  2
SW_NOTE_0_5_nNn02
 10
0.0
 20
0.0
 30
0.0
  0
LINE
  5
75
330
1F
100
AcDbEntity
  8
0
  6
AUSGEZOGEN
 62
     7
370
    35
100
AcDbLine
 10
-787.679349851593
 20
-223.5833849299
 30
0.0
 11
-130.679349852393
 21
-223.5833849299
 31
0.0
  0
LINE
  5
76
330
1F
100
AcDbEntity
  8
0
  6
AUSGEZOGEN
 62
     7
370
    35
100
AcDbLine
 10
-130.679349852393
 20
-223.5833849299
 30
0.0
 11
-130.679349852393
 21
-765.5833849296
 31
0.0
  0
LINE
  5
77
330
1F
100
AcDbEntity
  8
0
  6
AUSGEZOGEN
 62
     7
370
    35
100
AcDbLine
 10
-130.679349852393
 20
-765.5833849296
 30
0.0
 11
-787.679349851593
 21
-765.5833849296
 31
0.0
  0
LINE
  5
78
330
1F
100
AcDbEntity
  8
0
  6
AUSGEZOGEN
 62
     7
370
    35
100
AcDbLine
 10
-787.679349851593
 20
-765.5833849296
 30
0.0
 11
-787.679349851593
 21
-223.5833849299
 31
0.0
  0
LINE
  5
79
330
1F
100
AcDbEntity
  8
0
  6
AUSGEZOGEN
 62
     7
370
    35
100
AcDbLine
 10
-737.679349852193
 20
-704.5833849291
 30
0.0
 11
-737.679349852193
 21
-284.5833849293
 31
0.0
  0
ARC
  5
7A
330
1F
100
AcDbEntity
  8
0
  6
AUSGEZOGEN
 62
     7
370
    35
100
AcDbCircle
 10
-726.679349852193
 20
-284.5833849293
 30
0.0
 40
11.00000000000008
100
AcDbArc
 50
90.0
 51
180.0
  0
LINE
  5
7B
330
1F
100
AcDbEntity
  8
0
  6
AUSGEZOGEN
 62
     7
370
    35
100
AcDbLine
 10
-726.679349852193
 20
-273.5833849293
 30
0.0
 11
-191.679349851793
 21
-273.5833849293
 31
0.0
  0
ARC
  5
7C
330
1F
100
AcDbEntity
  8
0
  6
AUSGEZOGEN
 62
     7
370
    35
100
AcDbCircle
 10
-191.679349851793
 20
-284.5833849293
 30
0.0
 40
11.0
100
AcDbArc
 50
0.0
 51
90.0
  0
LINE
  5
7D
330
1F
100
AcDbEntity
  8
0
  6
AUSGEZOGEN
 62
     7
370
    35
100
AcDbLine
 10
-180.679349851793
 20
-284.5833849293
 30
0.0
 11
-180.679349851793
 21
-704.5833849291
 31
0.0
  0
ARC
  5
7E
330
1F
100
AcDbEntity
  8
0
  6
AUSGEZOGEN
 62
     7
370
    35
100
AcDbCircle
 10
-191.679349851793
 20
-704.5833849291
 30
0.0
 40
10.99999999999992
100
AcDbArc
 50
270.0
 51
0.0
  0
LINE
  5
7F
330
1F
100
AcDbEntity
  8
0
  6
AUSGEZOGEN
 62
     7
370
    35
100
AcDbLine
 10
-191.679349851793
 20
-715.5833849291
 30
0.0
 11
-726.679349852193
 21
-715.5833849291
 31
0.0
  0
ARC
  5
80
330
1F
100
AcDbEntity
  8
0
  6
AUSGEZOGEN
 62
     7
370
    35
100
AcDbCircle
 10
-726.679349852193
 20
-704.5833849291
 30
0.0
 40
11.00000000000008
100
AcDbArc
 50
180.0
 51
270.0
  0
ARC
  5
81
330
1F
100
AcDbEntity
  8
0
  6
AUSGEZOGEN
 62
     7
370
    35
100
AcDbCircle
 10
-721.679349851593
 20
-699.5833849296
 30
0.0
 40
9.999999999999972
100
AcDbArc
 50
180.0
 51
270.0
  0
LINE
  5
82
330
1F
100
AcDbEntity
  8
0
  6
AUSGEZOGEN
 62
     7
370
    35
100
AcDbLine
 10
-721.679349851593
 20
-709.5833849297
 30
0.0
 11
-196.679349852393
 21
-709.5833849297
 31
0.0
  0
ARC
  5
83
330
1F
100
AcDbEntity
  8
0
  6
AUSGEZOGEN
 62
     7
370
    35
100
AcDbCircle
 10
-196.679349852393
 20
-699.5833849296
 30
0.0
 40
9.999999999999972
100
AcDbArc
 50
270.0
 51
0.0
  0
LINE
  5
84
330
1F
100
AcDbEntity
  8
0
  6
AUSGEZOGEN
 62
     7
370
    35
100
AcDbLine
 10
-186.679349852293
 20
-699.5833849296
 30
0.0
 11
-186.679349852293
 21
-289.5833849299
 31
0.0
  0
ARC
  5
85
330
1F
100
AcDbEntity
  8
0
  6
AUSGEZOGEN
 62
     7
370
    35
100
AcDbCircle
 10
-196.679349852393
 20
-289.5833849299
 30
0.0
 40
9.999999999999815
100
AcDbArc
 50
0.0
 51
90.0
  0
LINE
  5
86
330
1F
100
AcDbEntity
  8
0
  6
AUSGEZOGEN
 62
     7
370
    35
100
AcDbLine
 10
-196.679349852393
 20
-279.5833849298
 30
0.0
 11
-721.679349851593
 21
-279.5833849298
 31
0.0
  0
ARC
  5
87
330
1F
100
AcDbEntity
  8
0
  6
AUSGEZOGEN
 62
     7
370
    35
100
AcDbCircle
 10
-721.679349851593
 20
-289.5833849299
 30
0.0
 40
10.00000000000005
100
AcDbArc
 50
90.0
 51
180.0
  0
LINE
  5
88
330
1F
100
AcDbEntity
  8
0
  6
AUSGEZOGEN
 62
     7
370
    35
100
AcDbLine
 10
-731.679349851693
 20
-289.5833849299
 30
0.0
 11
-731.679349851693
 21
-699.5833849296
 31
0.0
  0
DIMENSION
  5
92
330
1F
100
AcDbEntity
  8
SLD-0
  6
AUSGEZOGEN
 62
     7
370
    18
100
AcDbDimension
280
     0
  2
*D4
 10
-186.679349852293
 20
-148.7930576798
 30
0.0
 11
-461.830469020506
 21
-126.979712601158
 31
0.0
 70
   160
 71
     5
 42
-1.0
 73
     0
 74
     0
 75
     0
  3
ISO-25
100
AcDbAlignedDimension
 13
-731.679349851693
 23
-289.5833849299
 33
0.0
 14
-186.679349852293
 24
-289.5833849299
 34
0.0
100
AcDbRotatedDimension
1001
ACAD
1000
DSTYLE
1002
{
1070
     3
1000
<>
1070
   340
1005
5F
1070
    44
1040
15.714285714286
1070
   280
1070
     3
1070
    77
1070
     1
1070
   179
1070
     0
1070
   271
1070
     0
1070
   173
1070
     1
1070
    41
1040
22.0
1070
   147
1040
4.989285714286
1070
   140
1040
34.925
1070
   178
1070
     7
1070
   177
1070
     7
1070
   176
1070
     7
1002
}
  0
DIMENSION
  5
9C
330
1F
100
AcDbEntity
  8
SLD-0
  6
AUSGEZOGEN
 62
     7
370
    18
100
AcDbDimension
280
     0
  2
*D5
 10
-737.679349852193
 20
-66.7087423558
 30
0.0
 11
-459.307310984741
 21
-47.525038116384
 31
0.0
 70
   160
 71
     5
 42
-1.0
 73
     0
 74
     0
 75
     0
  3
ISO-25
100
AcDbAlignedDimension
 13
-180.679349851793
 23
-284.5833849293
 33
0.0
 14
-737.679349852193
 24
-284.5833849293
 34
0.0
 50
180.0
100
AcDbRotatedDimension
1001
ACAD
1000
DSTYLE
1002
{
1070
     3
1000
<>
1070
   340
1005
5F
1070
    44
1040
15.714285714286
1070
   280
1070
     3
1070
    77
1070
     1
1070
   179
1070
     0
1070
   271
1070
     0
1070
   173
1070
     1
1070
    41
1040
22.0
1070
   147
1040
4.989285714286
1070
   140
1040
34.925
1070
   178
1070
     7
1070
   177
1070
     7
1070
   176
1070
     7
1002
}
  0
DIMENSION
  5
A6
330
1F
100
AcDbEntity
  8
SLD-0
  6
AUSGEZOGEN
 62
     7
370
    18
100
AcDbDimension
280
     0
  2
*D6
 10
-863.489380709693
 20
-709.5833849297
 30
0.0
 11
-887.284115432202
 21
-496.315938646462
 31
0.0
 70
   160
 71
     5
 42
-1.0
 73
     0
 74
     0
 75
     0
 53
90.0
  3
ISO-25
100
AcDbAlignedDimension
 13
-721.679349851593
 23
-279.5833849298
 33
0.0
 14
-721.679349851593
 24
-709.5833849297
 34
0.0
 50
-90.0
100
AcDbRotatedDimension
1001
ACAD
1000
DSTYLE
1002
{
1070
     3
1000
<>
1070
   340
1005
5F
1070
    44
1040
15.714285714286
1070
   280
1070
     3
1070
    77
1070
     1
1070
   179
1070
     0
1070
   271
1070
     0
1070
   173
1070
     1
1070
    41
1040
22.0
1070
   147
1040
4.989285714286
1070
   140
1040
34.925
1070
   178
1070
     7
1070
   177
1070
     7
1070
   176
1070
     7
1002
}
  0
DIMENSION
  5
B0
330
1F
100
AcDbEntity
  8
SLD-0
  6
AUSGEZOGEN
 62
     7
370
    18
100
AcDbDimension
280
     0
  2
*D7
 10
-950.558507507093
 20
-715.5833849291
 30
0.0
 11
-981.521544909993
 21
-490.774290397477
 31
0.0
 70
   160
 71
     5
 42
-1.0
 73
     0
 74
     0
 75
     0
 53
90.0
  3
ISO-25
100
AcDbAlignedDimension
 13
-726.679349852193
 23
-273.5833849293
 33
0.0
 14
-726.679349852193
 24
-715.5833849291
 34
0.0
 50
-90.0
100
AcDbRotatedDimension
1001
ACAD
1000
DSTYLE
1002
{
1070
     3
1000
<>
1070
   340
1005
5F
1070
    44
1040
15.714285714286
1070
   280
1070
     3
1070
    77
1070
     1
1070
   179
1070
     0
1070
   271
1070
     0
1070
   173
1070
     1
1070
    41
1040
22.0
1070
   147
1040
4.989285714286
1070
   140
1040
34.925
1070
   178
1070
     7
1070
   177
1070
     7
1070
   176
1070
     7
1002
}
  0
INSERT
  5
B9
330
1F
100
AcDbEntity
  8
0
100
AcDbBlockReference
  2
_D_13_nNn07
 10
0.0
 20
0.0
 30
0.0
  0
INSERT
  5
C1
330
1F
100
AcDbEntity
  8
0
100
AcDbBlockReference
  2
_D_14_nNn08
 10
0.0
 20
0.0
 30
0.0
  0
ARC
  5
C2
330
1F
100
AcDbEntity
  8
0
  6
AUSGEZOGEN
 62
     7
370
    35
100
AcDbCircle
 10
-715.679349852193
 20
751.3532815992
 30
0.0
 40
9.999999999999972
100
AcDbArc
 50
90.0
 51
180.0
  0
LINE
  5
C3
330
1F
100
AcDbEntity
  8
0
  6
AUSGEZOGEN
 62
     7
370
    35
100
AcDbLine
 10
-725.679349852293
 20
751.3532815992
 30
0.0
 11
-725.679349852293
 21
341.3532815984
 31
0.0
  0
ARC
  5
C4
330
1F
100
AcDbEntity
  8
0
  6
AUSGEZOGEN
 62
     7
370
    35
100
AcDbCircle
 10
-715.679349852193
 20
341.3532815984
 30
0.0
 40
10.00000000000005
100
AcDbArc
 50
180.0
 51
270.0
  0
LINE
  5
C5
330
1F
100
AcDbEntity
  8
0
  6
AUSGEZOGEN
 62
     7
370
    35
100
AcDbLine
 10
-715.679349852193
 20
331.3532815983
 30
0.0
 11
-190.679349851893
 21
331.3532815983
 31
0.0
  0
ARC
  5
C6
330
1F
100
AcDbEntity
  8
0
  6
AUSGEZOGEN
 62
     7
370
    35
100
AcDbCircle
 10
-190.679349851893
 20
341.3532815984
 30
0.0
 40
9.999999999999972
100
AcDbArc
 50
270.0
 51
0.0
  0
LINE
  5
C7
330
1F
100
AcDbEntity
  8
0
  6
AUSGEZOGEN
 62
     7
370
    35
100
AcDbLine
 10
-180.679349851793
 20
341.3532815984
 30
0.0
 11
-180.679349851793
 21
751.3532815992
 31
0.0
  0
ARC
  5
C8
330
1F
100
AcDbEntity
  8
0
  6
AUSGEZOGEN
 62
     7
370
    35
100
AcDbCircle
 10
-190.679349851893
 20
751.3532815992
 30
0.0
 40
9.999999999999972
100
AcDbArc
 50
0.0
 51
90.0
  0
LINE
  5
C9
330
1F
100
AcDbEntity
  8
0
  6
AUSGEZOGEN
 62
     7
370
    35
100
AcDbLine
 10
-190.679349851893
 20
761.3532815982
 30
0.0
 11
-715.679349852193
 21
761.3532815982
 31
0.0
  0
LINE
  5
CA
330
1F
100
AcDbEntity
  8
0
  6
AUSGEZOGEN
 62
     7
370
    35
100
AcDbLine
 10
-130.679349852393
 20
811.3532815987
 30
0.0
 11
-775.679349851693
 21
811.3532815987
 31
0.0
  0
LINE
  5
CB
330
1F
100
AcDbEntity
  8
0
  6
AUSGEZOGEN
 62
     7
370
    35
100
AcDbLine
 10
-130.679349852393
 20
281.3532815989
 30
0.0
 11
-130.679349852393
 21
811.3532815987
 31
0.0
  0
LINE
  5
CC
330
1F
100
AcDbEntity
  8
0
  6
AUSGEZOGEN
 62
     7
370
    35
100
AcDbLine
 10
-775.679349851693
 20
281.3532815989
 30
0.0
 11
-130.679349852393
 21
281.3532815989
 31
0.0
  0
LINE
  5
CD
330
1F
100
AcDbEntity
  8
0
  6
AUSGEZOGEN
 62
     7
370
    35
100
AcDbLine
 10
-775.679349851693
 20
811.3532815987
 30
0.0
 11
-775.679349851693
 21
281.3532815989
 31
0.0
  0
DIMENSION
  5
D7
330
1F
100
AcDbEntity
  8
SLD-0
  6
AUSGEZOGEN
 62
     7
370
    18
100
AcDbDimension
280
     0
  2
*D10
 10
-180.679349851793
 20
888.1642752361
 30
0.0
 11
-451.619248449765
 21
916.692119352347
 31
0.0
 70
   160
 71
     5
 42
-1.0
 73
     0
 74
     0
 75
     0
  3
ISO-25
100
AcDbAlignedDimension
 13
-725.679349852293
 23
751.3532815992
 33
0.0
 14
-180.679349851793
 24
751.3532815992
 34
0.0
100
AcDbRotatedDimension
1001
ACAD
1000
DSTYLE
1002
{
1070
     3
1000
<>
1070
   340
1005
5F
1070
    44
1040
15.714285714286
1070
   280
1070
     3
1070
    77
1070
     1
1070
   179
1070
     0
1070
   271
1070
     0
1070
   173
1070
     1
1070
    41
1040
22.0
1070
   147
1040
4.989285714286
1070
   140
1040
34.925
1070
   178
1070
     7
1070
   177
1070
     7
1070
   176
1070
     7
1002
}
  0
DIMENSION
  5
E1
330
1F
100
AcDbEntity
  8
SLD-0
  6
AUSGEZOGEN
 62
     7
370
    18
100
AcDbDimension
280
     0
  2
*D11
 10
-847.647823325293
 20
761.3532815982
 30
0.0
 11
-869.504682333182
 21
547.959370477534
 31
0.0
 70
   160
 71
     5
 42
-1.0
 73
     0
 74
     0
 75
     0
 53
90.0
  3
ISO-25
100
AcDbAlignedDimension
 13
-715.679349852193
 23
331.3532815983
 33
0.0
 14
-715.679349852193
 24
761.3532815982
 34
0.0
 50
90.0
100
AcDbRotatedDimension
1001
ACAD
1000
DSTYLE
1002
{
1070
     3
1000
<>
1070
   340
1005
5F
1070
    44
1040
15.714285714286
1070
   280
1070
     3
1070
    77
1070
     1
1070
   179
1070
     0
1070
   271
1070
     0
1070
   173
1070
     1
1070
    41
1040
22.0
1070
   147
1040
4.989285714286
1070
   140
1040
34.925
1070
   178
1070
     7
1070
   177
1070
     7
1070
   176
1070
     7
1002
}
  0
INSERT
  5
E9
330
1F
100
AcDbEntity
  8
0
100
AcDbBlockReference
  2
_D_17_nNn011
 10
0.0
 20
0.0
 30
0.0
  0
LINE
  5
EA
330
1F
100
AcDbEntity
  8
0
  6
AUSGEZOGEN
 62
     7
370
    35
100
AcDbLine
 10
7.444466223697
 20
-699.5833849296
 30
0.0
 11
7.444466223697
 21
-765.5833849296
 31
0.0
  0
LINE
  5
EB
330
1F
100
AcDbEntity
  8
0
  6
AUSGEZOGEN
 62
     7
370
    35
100
AcDbLine
 10
855.939023484597
 20
-699.5833849296
 30
0.0
 11
7.444466223697
 21
-699.5833849296
 31
0.0
  0
LINE
  5
EC
330
1F
100
AcDbEntity
  8
0
  6
AUSGEZOGEN
 62
     7
370
    35
100
AcDbLine
 10
855.939023484597
 20
-765.5833849296
 30
0.0
 11
7.444466223697
 21
-765.5833849296
 31
0.0
  0
LINE
  5
ED
330
1F
100
AcDbEntity
  8
0
  6
AUSGEZOGEN
 62
     7
370
    35
100
AcDbLine
 10
855.939023484597
 20
-699.5833849296
 30
0.0
 11
855.939023484597
 21
-765.5833849296
 31
0.0
  0
LINE
  5
EE
330
1F
100
AcDbEntity
  8
0
  6
AUSGEZOGEN
 62
     7
370
    35
100
AcDbLine
 10
1067.844466223697
 20
-765.5833849296
 30
0.0
 11
1067.844466223697
 21
-699.5833849296
 31
0.0
  0
LINE
  5
EF
330
1F
100
AcDbEntity
  8
0
  6
AUSGEZOGEN
 62
     7
370
    35
100
AcDbLine
 10
957.844466223697
 20
-702.8833849296
 30
0.0
 11
957.844466223697
 21
-699.5833849296
 31
0.0
  0
LINE
  5
F0
330
1F
100
AcDbEntity
  8
0
  6
AUSGEZOGEN
 62
     7
370
    35
100
AcDbLine
 10
944.644466223697
 20
-702.8833849296
 30
0.0
 11
944.644466223697
 21
-765.5833849296
 31
0.0
  0
LINE
  5
F1
330
1F
100
AcDbEntity
  8
0
  6
AUSGEZOGEN
 62
     7
370
    35
100
AcDbLine
 10
957.844466223697
 20
-702.8833849296
 30
0.0
 11
944.644466223697
 21
-702.8833849296
 31
0.0
  0
LINE
  5
F2
330
1F
100
AcDbEntity
  8
0
  6
AUSGEZOGEN
 62
     7
370
    35
100
AcDbLine
 10
957.844466223697
 20
-699.5833849296
 30
0.0
 11
1067.844466223697
 21
-699.5833849296
 31
0.0
  0
LINE
  5
F3
330
1F
100
AcDbEntity
  8
0
  6
AUSGEZOGEN
 62
     7
370
    35
100
AcDbLine
 10
944.644466223697
 20
-765.5833849296
 30
0.0
 11
1067.844466223697
 21
-765.5833849296
 31
0.0
  0
LINE
  5
F4
330
1F
100
AcDbEntity
  8
0
  6
AUSGEZOGEN
 62
     7
370
    35
100
AcDbLine
 10
922.644466223697
 20
-702.8833849296
 30
0.0
 11
922.644466223697
 21
-765.5833849296
 31
0.0
  0
LINE
  5
F5
330
1F
100
AcDbEntity
  8
0
  6
AUSGEZOGEN
 62
     7
370
    35
100
AcDbLine
 10
944.644466223697
 20
-702.8833849296
 30
0.0
 11
922.644466223697
 21
-702.8833849296
 31
0.0
  0
LINE
  5
F6
330
1F
100
AcDbEntity
  8
0
  6
AUSGEZOGEN
 62
     7
370
    35
100
AcDbLine
 10
944.644466223697
 20
-765.5833849296
 30
0.0
 11
922.644466223697
 21
-765.5833849296
 31
0.0
  0
LINE
  5
F7
330
1F
100
AcDbEntity
  8
0
  6
AUSGEZOGEN
 62
     7
370
    35
100
AcDbLine
 10
933.644466223697
 20
-699.5833849296
 30
0.0
 11
933.644466223697
 21
-702.8833849296
 31
0.0
  0
LINE
  5
F8
330
1F
100
AcDbEntity
  8
0
  6
AUSGEZOGEN
 62
     7
370
    35
100
AcDbLine
 10
933.644466223697
 20
-699.5833849296
 30
0.0
 11
957.844466223697
 21
-699.5833849296
 31
0.0
  0
LINE
  5
F9
330
1F
100
AcDbEntity
  8
0
  6
AUSGEZOGEN
 62
     7
370
    35
100
AcDbLine
 10
922.644466223697
 20
-702.8833849296
 30
0.0
 11
855.939023484597
 21
-702.8833849296
 31
0.0
  0
LINE
  5
FA
330
1F
100
AcDbEntity
  8
0
  6
AUSGEZOGEN
 62
     7
370
    35
100
AcDbLine
 10
922.644466223697
 20
-765.5833849296
 30
0.0
 11
855.939023484597
 21
-765.5833849296
 31
0.0
  0
LINE
  5
FB
330
1F
100
AcDbEntity
  8
0
  6
AUSGEZOGEN
 62
     7
370
    35
100
AcDbLine
 10
855.939023484597
 20
-699.5833849296
 30
0.0
 11
933.644466223697
 21
-699.5833849296
 31
0.0
  0
INSERT
  5
103
330
1F
100
AcDbEntity
  8
0
100
AcDbBlockReference
  2
*X13
 10
0.0
 20
0.0
 30
0.0
  0
CIRCLE
  5
104
330
1F
100
AcDbEntity
  8
0
  6
AUSGEZOGEN
 62
     7
370
    18
100
AcDbCircle
 10
937.877100903597
 20
-712.2301552823
 30
0.0
 40
75.73099690032129
  0
TEXT
  5
105
330
1F
100
AcDbEntity
  8
0
  6
AUSGEZOGEN
 62
     7
370
    18
100
AcDbText
 10
1045.901993494597
 20
-685.2624303498
 30
0.0
 40
69.85
  1
A
 41
0.537056928034
  7
Arial
 72
     5
 11
1080.826993494597
 21
-685.2624303498
 31
0.0
100
AcDbText
  0
ARC
  5
106
330
1F
100
AcDbEntity
  8
0
  6
AUSGEZOGEN
 62
     7
370
    18
100
AcDbCircle
 10
417.18090639818
 20
-239.8287694182
 30
0.0
 40
189.3248277934318
100
AcDbArc
 50
359.9998737652
 51
9.6132115915
  0
ARC
  5
107
330
1F
100
AcDbEntity
  8
0
  6
AUSGEZOGEN
 62
     7
370
    18
100
AcDbCircle
 10
417.178393926681
 20
-239.8291440562
 30
0.0
 40
189.3276215905396
100
AcDbArc
 50
170.3868166208
 51
224.7899334597
  0
ARC
  5
108
330
1F
100
AcDbEntity
  8
0
  6
AUSGEZOGEN
 62
     7
370
    18
100
AcDbCircle
 10
417.17808422388
 20
-239.8291562013
 30
0.0
 40
189.3276499673558
100
AcDbArc
 50
315.2100802441
 51
359.9999908183
  0
LINE
  5
109
330
1F
100
AcDbEntity
  8
0
  6
AUSGEZOGEN
 62
     7
370
    35
100
AcDbLine
 10
467.09669129628
 20
-216.4622579752
 30
0.0
 11
467.09669129628
 21
-208.2122617449
 31
0.0
  0
LINE
  5
10A
330
1F
100
AcDbEntity
  8
0
  6
AUSGEZOGEN
 62
     7
370
    35
100
AcDbLine
 10
434.09670637618
 20
-216.4622579752
 30
0.0
 11
434.09670637618
 21
-373.2122580566
 31
0.0
  0
LINE
  5
10B
330
1F
100
AcDbEntity
  8
0
  6
AUSGEZOGEN
 62
     7
370
    35
100
AcDbLine
 10
467.09669129628
 20
-216.4622579752
 30
0.0
 11
434.09670637618
 21
-216.4622579752
 31
0.0
  0
LINE
  5
10C
330
1F
100
AcDbEntity
  8
0
  6
AUSGEZOGEN
 62
     7
370
    35
100
AcDbLine
 10
467.09669129628
 20
-208.2122617449
 30
0.0
 11
603.84715096738
 21
-208.2122617449
 31
0.0
  0
LINE
  5
10D
330
1F
100
AcDbEntity
  8
0
  6
AUSGEZOGEN
 62
     7
370
    35
100
AcDbLine
 10
434.09670637618
 20
-373.2122580566
 30
0.0
 11
551.54291288678
 21
-373.2122580566
 31
0.0
  0
LINE
  5
10E
330
1F
100
AcDbEntity
  8
0
  6
AUSGEZOGEN
 62
     7
370
    35
100
AcDbLine
 10
434.09670637618
 20
-216.4622579752
 30
0.0
 11
379.09667687198
 21
-216.4622579752
 31
0.0
  0
LINE
  5
10F
330
1F
100
AcDbEntity
  8
0
  6
AUSGEZOGEN
 62
     7
370
    35
100
AcDbLine
 10
434.09670637618
 20
-373.2122580566
 30
0.0
 11
379.09667687198
 21
-373.2122580566
 31
0.0
  0
LINE
  5
110
330
1F
100
AcDbEntity
  8
0
  6
AUSGEZOGEN
 62
     7
370
    35
100
AcDbLine
 10
406.59665064578
 20
-208.2122617449
 30
0.0
 11
467.09669129628
 21
-208.2122617449
 31
0.0
  0
LINE
  5
111
330
1F
100
AcDbEntity
  8
0
  6
AUSGEZOGEN
 62
     7
370
    35
100
AcDbLine
 10
379.09667687198
 20
-216.4622579752
 30
0.0
 11
229.29830969968
 21
-216.4622579752
 31
0.0
  0
LINE
  5
112
330
1F
100
AcDbEntity
  8
0
  6
AUSGEZOGEN
 62
     7
370
    35
100
AcDbLine
 10
379.09667687198
 20
-373.2122580566
 30
0.0
 11
282.81361730478
 21
-373.2122580566
 31
0.0
  0
LINE
  5
113
330
1F
100
AcDbEntity
  8
0
  6
AUSGEZOGEN
 62
     7
370
    35
100
AcDbLine
 10
230.50937922418
 20
-208.2122617449
 30
0.0
 11
406.59665064578
 21
-208.2122617449
 31
0.0
  0
INSERT
  5
11C
330
1F
100
AcDbEntity
  8
0
100
AcDbBlockReference
  2
SW_HATCH_0_nNn013
 10
0.0
 20
0.0
 30
0.0
  0
DIMENSION
  5
127
330
1F
100
AcDbEntity
  8
SLD-0
  6
AUSGEZOGEN
 62
     7
370
    18
100
AcDbDimension
280
     0
  2
*D15
 10
467.09668670708
 20
-123.2856969713
 30
0.0
 11
451.604057030942
 21
-94.942300178561
 31
0.0
 70
   160
 71
     5
 42
-1.0
 73
     0
 74
     0
 75
     0
  3
ISO-25
100
AcDbAlignedDimension
 13
434.09668670708
 23
-216.4622605151
 33
0.0
 14
467.09668670708
 24
-208.2122605151
 34
0.0
100
AcDbRotatedDimension
1001
ACAD
1000
DSTYLE
1002
{
1070
     3
1000
<>
1070
   144
1040
0.181818181818
1070
   340
1005
5F
1070
    44
1040
15.714285714286
1070
   280
1070
     3
1070
    77
1070
     1
1070
   179
1070
     0
1070
   271
1070
     0
1070
   173
1070
     1
1070
    41
1040
22.0
1070
   147
1040
4.989285714286
1070
   140
1040
34.925
1070
   178
1070
     7
1070
   177
1070
     7
1070
   176
1070
     7
1002
}
  0
DIMENSION
  5
131
330
1F
100
AcDbEntity
  8
SLD-0
  6
AUSGEZOGEN
 62
     7
370
    18
100
AcDbDimension
280
     0
  2
*D16
 10
652.984650346481
 20
-208.2122605151
 30
0.0
 11
642.507150346481
 21
-154.9871041714
 31
0.0
 70
    32
 71
     5
 42
-1.0
 73
     0
 74
     0
 75
     0
 53
90.0
  3
ISO-25
100
AcDbAlignedDimension
 13
467.09669129628
 23
-216.4622605151
 33
0.0
 14
603.84715096738
 24
-208.2122605151
 34
0.0
 50
90.0
100
AcDbRotatedDimension
1001
ACAD
1000
DSTYLE
1002
{
1070
     3
1000
<>
1070
   144
1040
0.181818181818
1070
   340
1005
5F
1070
    44
1040
15.714285714286
1070
   280
1070
     0
1070
    77
1070
     1
1070
   179
1070
     1
1070
   271
1070
     1
1070
   173
1070
     1
1070
    41
1040
22.0
1070
   147
1040
4.989285714286
1070
   140
1040
34.925
1070
   178
1070
     7
1070
   177
1070
     7
1070
   176
1070
     7
1002
}
  0
INSERT
  5
136
330
1F
100
AcDbEntity
  8
0
100
AcDbBlockReference
  2
SW_NOTE_0_7_nNn016
 10
0.0
 20
0.0
 30
0.0
  0
ARC
  5
137
330
1F
100
AcDbEntity
  8
0
  6
AUSGEZOGEN
 62
     7
370
    35
100
AcDbCircle
 10
1510.420336201616
 20
643.7303651058
 30
0.0
 40
12.00000000000002
100
AcDbArc
 50
0.0
 51
90.0
  0
LINE
  5
138
330
1F
100
AcDbEntity
  8
0
  6
AUSGEZOGEN
 62
     7
370
    35
100
AcDbLine
 10
1019.420336201216
 20
655.7303651068
 30
0.0
 11
1510.420336201616
 21
655.7303651068
 31
0.0
  0
ARC
  5
139
330
1F
100
AcDbEntity
  8
0
  6
AUSGEZOGEN
 62
     7
370
    35
100
AcDbCircle
 10
1019.420336201216
 20
643.7303651058
 30
0.0
 40
12.00000000000002
100
AcDbArc
 50
90.0
 51
180.0
  0
LINE
  5
13A
330
1F
100
AcDbEntity
  8
0
  6
AUSGEZOGEN
 62
     7
370
    35
100
AcDbLine
 10
1007.420336201316
 20
267.730365106
 30
0.0
 11
1007.420336201316
 21
643.7303651058
 31
0.0
  0
ARC
  5
13B
330
1F
100
AcDbEntity
  8
0
  6
AUSGEZOGEN
 62
     7
370
    35
100
AcDbCircle
 10
1019.420336201216
 20
267.730365106
 30
0.0
 40
12.00000000000034
100
AcDbArc
 50
180.0
 51
270.0
  0
LINE
  5
13C
330
1F
100
AcDbEntity
  8
0
  6
AUSGEZOGEN
 62
     7
370
    35
100
AcDbLine
 10
1510.420336201616
 20
255.7303651061
 30
0.0
 11
1019.420336201216
 21
255.7303651061
 31
0.0
  0
ARC
  5
13D
330
1F
100
AcDbEntity
  8
0
  6
AUSGEZOGEN
 62
     7
370
    35
100
AcDbCircle
 10
1510.420336201616
 20
267.730365106
 30
0.0
 40
11.99999999999987
100
AcDbArc
 50
270.0
 51
0.0
  0
LINE
  5
13E
330
1F
100
AcDbEntity
  8
0
  6
AUSGEZOGEN
 62
     7
370
    35
100
AcDbLine
 10
1522.420336201516
 20
643.7303651058
 30
0.0
 11
1522.420336201516
 21
267.730365106
 31
0.0
  0
LINE
  5
13F
330
1F
100
AcDbEntity
  8
0
  6
AUSGEZOGEN
 62
     7
370
    35
100
AcDbLine
 10
937.420336201716
 20
185.7303651065
 30
0.0
 11
937.420336201716
 21
725.7303651064
 31
0.0
  0
LINE
  5
140
330
1F
100
AcDbEntity
  8
0
  6
AUSGEZOGEN
 62
     7
370
    35
100
AcDbLine
 10
937.420336201716
 20
725.7303651064
 30
0.0
 11
1592.420336201116
 21
725.7303651064
 31
0.0
  0
LINE
  5
141
330
1F
100
AcDbEntity
  8
0
  6
AUSGEZOGEN
 62
     7
370
    35
100
AcDbLine
 10
1592.420336201116
 20
725.7303651064
 30
0.0
 11
1592.420336201116
 21
185.7303651065
 31
0.0
  0
LINE
  5
142
330
1F
100
AcDbEntity
  8
0
  6
AUSGEZOGEN
 62
     7
370
    35
100
AcDbLine
 10
1592.420336201116
 20
185.7303651065
 30
0.0
 11
937.420336201716
 21
185.7303651065
 31
0.0
  0
CIRCLE
  5
143
330
1F
100
AcDbEntity
  8
0
  6
AUSGEZOGEN
 62
     7
370
    35
100
AcDbCircle
 10
1264.920336201416
 20
230.7303651064
 30
0.0
 40
4.999999999999829
  0
CIRCLE
  5
144
330
1F
100
AcDbEntity
  8
0
  6
AUSGEZOGEN
 62
     7
370
    35
100
AcDbCircle
 10
1452.420336200815
 20
230.7303651064
 30
0.0
 40
4.999999999999829
  0
CIRCLE
  5
145
330
1F
100
AcDbEntity
  8
0
  6
AUSGEZOGEN
 62
     7
370
    35
100
AcDbCircle
 10
1452.420336200815
 20
680.7303651065
 30
0.0
 40
5.000000000000143
  0
CIRCLE
  5
146
330
1F
100
AcDbEntity
  8
0
  6
AUSGEZOGEN
 62
     7
370
    35
100
AcDbCircle
 10
1264.920336201416
 20
680.7303651065
 30
0.0
 40
5.000000000000143
  0
CIRCLE
  5
147
330
1F
100
AcDbEntity
  8
0
  6
AUSGEZOGEN
 62
     7
370
    35
100
AcDbCircle
 10
1077.420336200915
 20
680.7303651065
 30
0.0
 40
5.000000000000143
  0
CIRCLE
  5
148
330
1F
100
AcDbEntity
  8
0
  6
AUSGEZOGEN
 62
     7
370
    35
100
AcDbCircle
 10
982.420336201616
 20
455.7303651059
 30
0.0
 40
5.000000000000143
  0
CIRCLE
  5
149
330
1F
100
AcDbEntity
  8
0
  6
AUSGEZOGEN
 62
     7
370
    35
100
AcDbCircle
 10
1547.420336201216
 20
455.7303651059
 30
0.0
 40
5.000000000000143
  0
CIRCLE
  5
14A
330
1F
100
AcDbEntity
  8
0
  6
AUSGEZOGEN
 62
     7
370
    35
100
AcDbCircle
 10
1077.420336200915
 20
230.7303651064
 30
0.0
 40
4.999999999999829
  0
DIMENSION
  5
154
330
1F
100
AcDbEntity
  8
SLD-0
  6
AUSGEZOGEN
 62
     7
370
    18
100
AcDbDimension
280
     0
  2
*D18
 10
1522.420336201516
 20
886.3693947916
 30
0.0
 11
1264.920336201416
 21
896.8468947916
 31
0.0
 70
    32
 71
     5
 42
-1.0
 73
     0
 74
     0
 75
     0
  3
ISO-25
100
AcDbAlignedDimension
 13
1007.420336201316
 23
643.7303651058
 33
0.0
 14
1522.420336201516
 24
643.7303651058
 34
0.0
100
AcDbRotatedDimension
1001
ACAD
1000
DSTYLE
1002
{
1070
     3
1000
<>
1070
   340
1005
5F
1070
    44
1040
15.714285714286
1070
   280
1070
     0
1070
    77
1070
     1
1070
   179
1070
     0
1070
   271
1070
     0
1070
   173
1070
     1
1070
    41
1040
22.0
1070
   147
1040
4.989285714286
1070
   140
1040
34.925
1070
   178
1070
     7
1070
   177
1070
     7
1070
   176
1070
     7
1002
}
  0
DIMENSION
  5
15E
330
1F
100
AcDbEntity
  8
SLD-0
  6
AUSGEZOGEN
 62
     7
370
    18
100
AcDbDimension
280
     0
  2
*D19
 10
785.084100029816
 20
255.7303651061
 30
0.0
 11
764.669082690807
 21
447.7470283335
 31
0.0
 70
   160
 71
     5
 42
-1.0
 73
     0
 74
     0
 75
     0
 53
90.0
  3
ISO-25
100
AcDbAlignedDimension
 13
1019.420336201216
 23
655.7303651068
 33
0.0
 14
1019.420336201216
 24
255.7303651061
 34
0.0
 50
-90.0
100
AcDbRotatedDimension
1001
ACAD
1000
DSTYLE
1002
{
1070
     3
1000
<>
1070
   340
1005
5F
1070
    44
1040
15.714285714286
1070
   280
1070
     3
1070
    77
1070
     1
1070
   179
1070
     0
1070
   271
1070
     0
1070
   173
1070
     1
1070
    41
1040
22.0
1070
   147
1040
4.989285714286
1070
   140
1040
34.925
1070
   178
1070
     7
1070
   177
1070
     7
1070
   176
1070
     7
1002
}
  0
INSERT
  5
166
330
1F
100
AcDbEntity
  8
0
100
AcDbBlockReference
  2
_D_24_nNn019
 10
0.0
 20
0.0
 30
0.0
  0
DIMENSION
  5
170
330
1F
100
AcDbEntity
  8
SLD-0
  6
AUSGEZOGEN
 62
     7
370
    18
100
AcDbDimension
280
     0
  2
*D21
 10
1264.920336201416
 20
790.1077009303
 30
0.0
 11
1171.184912003616
 21
811.3532815987
 31
0.0
 70
   160
 71
     5
 42
-1.0
 73
     0
 74
     0
 75
     0
  3
ISO-25
100
AcDbAlignedDimension
 13
1077.420336200915
 23
680.7303651065
 33
0.0
 14
1264.920336201416
 24
680.7303651065
 34
0.0
100
AcDbRotatedDimension
1001
ACAD
1000
DSTYLE
1002
{
1070
     3
1000
<>
1070
   340
1005
5F
1070
    44
1040
15.714285714286
1070
   280
1070
     3
1070
    77
1070
     1
1070
   179
1070
     1
1070
   271
1070
     1
1070
   173
1070
     1
1070
    41
1040
22.0
1070
   147
1040
4.989285714286
1070
   140
1040
34.925
1070
   178
1070
     7
1070
   177
1070
     7
1070
   176
1070
     7
1002
}
  0
DIMENSION
  5
17A
330
1F
100
AcDbEntity
  8
SLD-0
  6
AUSGEZOGEN
 62
     7
370
    18
100
AcDbDimension
280
     0
  2
*D22
 10
1452.420336200815
 20
790.1077009303
 30
0.0
 11
1358.872800113491
 21
811.3532815987
 31
0.0
 70
   160
 71
     5
 42
-1.0
 73
     0
 74
     0
 75
     0
  3
ISO-25
100
AcDbAlignedDimension
 13
1264.920336201416
 23
680.7303651065
 33
0.0
 14
1452.420336200815
 24
680.7303651065
 34
0.0
100
AcDbRotatedDimension
1001
ACAD
1000
DSTYLE
1002
{
1070
     3
1000
<>
1070
   340
1005
5F
1070
    44
1040
15.714285714286
1070
   280
1070
     3
1070
    77
1070
     1
1070
   179
1070
     1
1070
   271
1070
     1
1070
   173
1070
     1
1070
    41
1040
22.0
1070
   147
1040
4.989285714286
1070
   140
1040
34.925
1070
   178
1070
     7
1070
   177
1070
     7
1070
   176
1070
     7
1002
}
  0
DIMENSION
  5
185
330
1F
100
AcDbEntity
  8
SLD-0
  6
AUSGEZOGEN
 62
     7
370
    18
100
AcDbDimension
280
     0
  2
*D23
 10
1522.420336201516
 20
790.1077009303
 30
0.0
 11
1487.553859937511
 21
811.3532815987
 31
0.0
 70
   160
 71
     5
 42
-1.0
 73
     0
 74
     0
 75
     0
  3
ISO-25
100
AcDbAlignedDimension
 13
1452.420336200815
 23
680.7303651065
 33
0.0
 14
1522.420336201516
 24
643.7303651058
 34
0.0
100
AcDbRotatedDimension
1001
ACAD
1000
DSTYLE
1002
{
1070
     3
1000
<>
1070
   340
1005
5F
1070
    44
1040
15.714285714286
1070
   280
1070
     3
1070
    77
1070
     1
1070
   179
1070
     0
1070
   271
1070
     0
1070
   173
1070
     1
1070
    41
1040
22.0
1070
   147
1040
4.989285714286
1070
   140
1040
34.925
1070
   178
1070
     7
1070
   177
1070
     7
1070
   176
1070
     7
1002
}
  0
DIMENSION
  5
190
330
1F
100
AcDbEntity
  8
SLD-0
  6
AUSGEZOGEN
 62
     7
370
    18
100
AcDbDimension
280
     0
  2
*D24
 10
1077.420336200915
 20
790.1077009303
 30
0.0
 11
1040.954887607087
 21
811.3532815987
 31
0.0
 70
   160
 71
     5
 42
-1.0
 73
     0
 74
     0
 75
     0
  3
ISO-25
100
AcDbAlignedDimension
 13
1007.420336201316
 23
643.7303651058
 33
0.0
 14
1077.420336200915
 24
680.7303651065
 34
0.0
100
AcDbRotatedDimension
1001
ACAD
1000
DSTYLE
1002
{
1070
     3
1000
<>
1070
   340
1005
5F
1070
    44
1040
15.714285714286
1070
   280
1070
     3
1070
    77
1070
     1
1070
   179
1070
     0
1070
   271
1070
     0
1070
   173
1070
     1
1070
    41
1040
22.0
1070
   147
1040
4.989285714286
1070
   140
1040
34.925
1070
   178
1070
     7
1070
   177
1070
     7
1070
   176
1070
     7
1002
}
  0
DIMENSION
  5
19A
330
1F
100
AcDbEntity
  8
SLD-0
  6
AUSGEZOGEN
 62
     7
370
    18
100
AcDbDimension
280
     0
  2
*D25
 10
871.983028897116
 20
655.7303651068
 30
0.0
 11
851.718034924703
 21
558.1648071961
 31
0.0
 70
   160
 71
     5
 42
-1.0
 73
     0
 74
     0
 75
     0
 53
90.0
  3
ISO-25
100
AcDbAlignedDimension
 13
982.420336201616
 23
455.7303651059
 33
0.0
 14
1019.420336201216
 24
655.7303651068
 34
0.0
 50
90.0
100
AcDbRotatedDimension
1001
ACAD
1000
DSTYLE
1002
{
1070
     3
1000
<>
1070
   340
1005
5F
1070
    44
1040
15.714285714286
1070
   280
1070
     3
1070
    77
1070
     1
1070
   179
1070
     0
1070
   271
1070
     0
1070
   173
1070
     1
1070
    41
1040
22.0
1070
   147
1040
4.989285714286
1070
   140
1040
34.925
1070
   178
1070
     7
1070
   177
1070
     7
1070
   176
1070
     7
1002
}
  0
DIMENSION
  5
1A4
330
1F
100
AcDbEntity
  8
SLD-0
  6
AUSGEZOGEN
 62
     7
370
    18
100
AcDbDimension
280
     0
  2
*D26
 10
871.983028897116
 20
455.7303651059
 30
0.0
 11
850.456455906821
 21
358.787880011762
 31
0.0
 70
   160
 71
     5
 42
-1.0
 73
     0
 74
     0
 75
     0
 53
90.0
  3
ISO-25
100
AcDbAlignedDimension
 13
1019.420336201216
 23
255.7303651061
 33
0.0
 14
982.420336201616
 24
455.7303651059
 34
0.0
 50
90.0
100
AcDbRotatedDimension
1001
ACAD
1000
DSTYLE
1002
{
1070
     3
1000
<>
1070
   340
1005
5F
1070
    44
1040
15.714285714286
1070
   280
1070
     3
1070
    77
1070
     1
1070
   179
1070
     0
1070
   271
1070
     0
1070
   173
1070
     1
1070
    41
1040
22.0
1070
   147
1040
4.989285714286
1070
   140
1040
34.925
1070
   178
1070
     7
1070
   177
1070
     7
1070
   176
1070
     7
1002
}
  0
DIMENSION
  5
1AE
330
1F
100
AcDbEntity
  8
SLD-0
  6
AUSGEZOGEN
 62
     7
370
    18
100
AcDbDimension
280
     0
  2
*D27
 10
1522.420336201516
 20
488.0751214894
 30
0.0
 11
1472.110870987815
 21
498.5526214894
 31
0.0
 70
    32
 71
     5
 42
-1.0
 73
     0
 74
     0
 75
     0
  3
ISO-25
100
AcDbAlignedDimension
 13
1547.420336201216
 23
455.7303651059
 33
0.0
 14
1522.420336201516
 24
643.7303651058
 34
0.0
 50
180.0
100
AcDbRotatedDimension
1001
ACAD
1000
DSTYLE
1002
{
1070
     3
1000
<>
1070
   340
1005
5F
1070
    44
1040
15.714285714286
1070
   280
1070
     0
1070
    77
1070
     1
1070
   179
1070
     0
1070
   271
1070
     0
1070
   173
1070
     1
1070
    41
1040
22.0
1070
   147
1040
4.989285714286
1070
   140
1040
34.925
1070
   178
1070
     7
1070
   177
1070
     7
1070
   176
1070
     7
1002
}
  0
DIMENSION
  5
1B8
330
1F
100
AcDbEntity
  8
SLD-0
  6
AUSGEZOGEN
 62
     7
370
    18
100
AcDbDimension
280
     0
  2
*D28
 10
1415.376320077415
 20
255.7303651061
 30
0.0
 11
1404.898820077415
 21
296.858672127
 31
0.0
 70
    32
 71
     5
 42
-1.0
 73
     0
 74
     0
 75
     0
 53
90.0
  3
ISO-25
100
AcDbAlignedDimension
 13
1452.420336200815
 23
230.7303651064
 33
0.0
 14
1510.420336201616
 24
255.7303651061
 34
0.0
 50
90.0
100
AcDbRotatedDimension
1001
ACAD
1000
DSTYLE
1002
{
1070
     3
1000
<>
1070
   340
1005
5F
1070
    44
1040
15.714285714286
1070
   280
1070
     0
1070
    77
1070
     1
1070
   179
1070
     0
1070
   271
1070
     0
1070
   173
1070
     1
1070
    41
1040
22.0
1070
   147
1040
4.989285714286
1070
   140
1040
34.925
1070
   178
1070
     7
1070
   177
1070
     7
1070
   176
1070
     7
1002
}
  0
INSERT
  5
228
330
1F
100
AcDbEntity
  8
0
100
AcDbBlockReference
  2
A3-NABER_nNn028
 10
0.0
 20
0.0
 30
0.0
  0
LINE
  5
229
330
1F
100
AcDbEntity
  8
Layer100
  6
AUSGEZOGEN
 62
    18
420
        0
370
    50
100
AcDbLine
 10
744.08
 20
-1425.004829647052
 30
0.0
 11
744.08
 21
-928.322241372779
 31
0.0
  0
LINE
  5
22A
330
1F
100
AcDbEntity
  8
Layer100
  6
AUSGEZOGEN
 62
    18
420
        0
370
    50
100
AcDbLine
 10
744.08
 20
-1386.794018567137
 30
0.0
 11
2390.0
 21
-1386.794018567137
 31
0.0
  0
LINE
  5
22B
330
1F
100
AcDbEntity
  8
Layer100
  6
AUSGEZOGEN
 62
    18
420
        0
370
    18
100
AcDbLine
 10
744.08
 20
-1348.588037134274
 30
0.0
 11
1236.808635715837
 21
-1348.588037134274
 31
0.0
  0
LINE
  5
22C
330
1F
100
AcDbEntity
  8
Layer100
  6
AUSGEZOGEN
 62
    18
420
        0
370
    18
100
AcDbLine
 10
744.08
 20
-1310.382055701411
 30
0.0
 11
1236.808635715837
 21
-1310.382055701411
 31
0.0
  0
LINE
  5
22D
330
1F
100
AcDbEntity
  8
Layer100
  6
AUSGEZOGEN
 62
    18
420
        0
370
    18
100
AcDbLine
 10
744.08
 20
-1272.176074268547
 30
0.0
 11
1236.808635715837
 21
-1272.176074268547
 31
0.0
  0
LINE
  5
22E
330
1F
100
AcDbEntity
  8
Layer100
  6
AUSGEZOGEN
 62
    18
420
        0
370
    18
100
AcDbLine
 10
744.08
 20
-1233.970092835684
 30
0.0
 11
1236.808635715837
 21
-1233.970092835684
 31
0.0
  0
LINE
  5
22F
330
1F
100
AcDbEntity
  8
Layer100
  6
AUSGEZOGEN
 62
    18
420
        0
370
    18
100
AcDbLine
 10
744.08
 20
-1195.764111402821
 30
0.0
 11
1634.150842617615
 21
-1195.764111402821
 31
0.0
  0
LINE
  5
230
330
1F
100
AcDbEntity
  8
Layer100
  6
AUSGEZOGEN
 62
    18
420
        0
370
    18
100
AcDbLine
 10
744.08
 20
-1157.558129969957
 30
0.0
 11
1634.150842617615
 21
-1157.558129969957
 31
0.0
  0
LINE
  5
231
330
1F
100
AcDbEntity
  8
Layer100
  6
AUSGEZOGEN
 62
    18
420
        0
370
    18
100
AcDbLine
 10
744.08
 20
-1119.352148537094
 30
0.0
 11
1634.150842617615
 21
-1119.352148537094
 31
0.0
  0
LINE
  5
232
330
1F
100
AcDbEntity
  8
Layer100
  6
AUSGEZOGEN
 62
    18
420
        0
370
    50
100
AcDbLine
 10
744.08
 20
-1081.146167104231
 30
0.0
 11
2390.0
 21
-1081.146167104231
 31
0.0
  0
ENDSEC
  0
SECTION
  2
OBJECTS
  0
DICTIONARY
  5
C
330
0
100
AcDbDictionary
281
     1
  3
ACAD_DETAILVIEWSTYLE
350
26B
  3
ACAD_GROUP
350
D
  3
ACAD_IMAGE_DICT
350
223
  3
ACAD_LAYOUT
350
1A
  3
ACAD_MATERIAL
350
43
  3
ACAD_MLEADERSTYLE
350
5B
  3
ACAD_MLINESTYLE
350
17
  3
ACAD_PLOTSETTINGS
350
19
  3
ACAD_PLOTSTYLENAME
350
E
  3
ACAD_SCALELIST
350
47
  3
ACAD_SECTIONVIEWSTYLE
350
26C
  3
ACAD_TABLESTYLE
350
59
  3
ACAD_VISUALSTYLE
350
2A
  3
ACAD_WIPEOUT_VARS
350
268
  3
ACDB_RECOMPOSE_DATA
350
267
  3
AcDbVariableDictionary
350
233
  0
SUN
  5
5D
330
29
100
AcDbSun
 90
        1
290
     0
 63
     7
421
 16777215
 40
1.0
291
     1
 91
  2455826
 92
 54000000
292
     0
 70
     2
 71
   256
280
     1
  0
IMAGEDEF_REACTOR
  5
226
330
225
100
AcDbRasterImageDefReactor
 90
        2
330
225
  0
DICTIONARY
  5
26B
102
{ACAD_REACTORS
330
C
102
}
330
C
100
AcDbDictionary
281
     1
  0
DICTIONARY
  5
D
102
{ACAD_REACTORS
330
C
102
}
330
C
100
AcDbDictionary
281
     1
  0
DICTIONARY
  5
223
102
{ACAD_REACTORS
330
C
102
}
330
C
100
AcDbDictionary
281
     1
  3
NABER.JPG
350
224
  0
DICTIONARY
  5
1A
102
{ACAD_REACTORS
330
C
102
}
330
C
100
AcDbDictionary
281
     1
  3
Layout1
350
1E
  3
Layout2
350
26
  3
Model
350
22
  0
DICTIONARY
  5
43
102
{ACAD_REACTORS
330
C
102
}
330
C
100
AcDbDictionary
281
     1
  3
ByBlock
350
45
  3
ByLayer
350
44
  3
Global
350
46
  0
DICTIONARY
  5
5B
102
{ACAD_REACTORS
330
C
102
}
330
C
100
AcDbDictionary
281
     1
  3
Standard
350
5C
  0
DICTIONARY
  5
17
102
{ACAD_REACTORS
330
C
102
}
330
C
100
AcDbDictionary
281
     1
  3
Standard
350
18
  0
DICTIONARY
  5
19
102
{ACAD_REACTORS
330
C
102
}
330
C
100
AcDbDictionary
281
     1
  0
ACDBDICTIONARYWDFLT
  5
E
102
{ACAD_REACTORS
330
C
102
}
330
C
100
AcDbDictionary
281
     1
  3
Normal
350
F
100
AcDbDictionaryWithDefault
340
F
  0
DICTIONARY
  5
47
102
{ACAD_REACTORS
330
C
102
}
330
C
100
AcDbDictionary
281
     1
  3
A0
350
48
  3
A1
350
49
  3
A2
350
4A
  3
A3
350
4B
  3
A4
350
4C
  3
A5
350
4D
  3
A6
350
4E
  3
A7
350
4F
  3
A8
350
50
  3
A9
350
51
  3
B0
350
52
  3
B1
350
53
  3
B2
350
54
  3
B3
350
55
  3
B4
350
56
  3
B5
350
57
  3
B6
350
58
  0
DICTIONARY
  5
26C
102
{ACAD_REACTORS
330
C
102
}
330
C
100
AcDbDictionary
281
     1
  0
DICTIONARY
  5
59
102
{ACAD_REACTORS
330
C
102
}
330
C
100
AcDbDictionary
281
     1
  3
Standard
350
5A
  0
DICTIONARY
  5
2A
102
{ACAD_REACTORS
330
C
102
}
330
C
100
AcDbDictionary
281
     1
  3
2dWireframe
350
2F
  3
Basic
350
32
  3
Brighten
350
36
  3
ColorChange
350
3A
  3
Conceptual
350
34
  3
Dim
350
35
  3
EdgeColorOff
350
3D
  3
Facepattern
350
39
  3
Flat
350
2B
  3
FlatWithEdges
350
2C
  3
Gouraud
350
2D
  3
GouraudWithEdges
350
2E
  3
Hidden
350
31
  3
JitterOff
350
3B
  3
Linepattern
350
38
  3
OverhangOff
350
3C
  3
Realistic
350
33
  3
Shaded
350
42
  3
Shaded with edges
350
41
  3
Shades of Gray
350
3E
  3
Sketchy
350
3F
  3
Thicken
350
37
  3
Wireframe
350
30
  3
X-Ray
350
40
  0
WIPEOUTVARIABLES
  5
268
102
{ACAD_REACTORS
330
C
102
}
330
C
100
AcDbWipeoutVariables
 70
     0
  0
XRECORD
  5
267
102
{ACAD_REACTORS
330
C
102
}
330
C
100
AcDbXrecord
280
     1
 90
        1
330
5A
  0
DICTIONARY
  5
233
102
{ACAD_REACTORS
330
C
102
}
330
C
100
AcDbDictionary
281
     1
  3
CANNOSCALE
350
234
  3
CENTEREXE
350
26E
  3
CENTERLTYPEFILE
350
26F
  3
CMLEADERSTYLE
350
26A
  3
CTABLESTYLE
350
269
  3
WIPEOUTFRAME
350
26D
  0
IMAGEDEF
  5
224
102
{ACAD_REACTORS
330
223
330
226
102
}
330
223
100
AcDbRasterImageDef
 90
        0
  1
NABER.JPG
 10
3781.0
 20
943.0
 11
0.0002644802962179318
 21
0.0002644802962179318
280
     1
281
     0
  0
LAYOUT
  5
1E
102
{ACAD_REACTORS
330
1A
102
}
330
1A
100
AcDbPlotSettings
  1

  2
none_device
  4

  6

 40
0.0
 41
0.0
 42
0.0
 43
0.0
 44
0.0
 45
0.0
 46
0.0
 47
0.0
 48
0.0
 49
0.0
140
0.0
141
0.0
142
1.0
143
1.0
 70
   688
 72
     1
 73
     0
 74
     5
  7

 75
    16
 76
     0
 77
     2
 78
   300
147
1.0
148
0.0
149
0.0
100
AcDbLayout
  1
Layout1
 70
     1
 71
     1
 10
0.0
 20
0.0
 11
420.0
 21
297.0
 12
0.0
 22
0.0
 32
0.0
 14
1.000000000000E+20
 24
1.000000000000E+20
 34
1.000000000000E+20
 15
-1.000000000000E+20
 25
-1.000000000000E+20
 35
-1.000000000000E+20
146
0.0
 13
0.0
 23
0.0
 33
0.0
 16
1.0
 26
0.0
 36
0.0
 17
0.0
 27
1.0
 37
0.0
 76
     0
330
1B
  0
LAYOUT
  5
26
102
{ACAD_REACTORS
330
1A
102
}
330
1A
100
AcDbPlotSettings
  1

  2
none_device
  4

  6

 40
0.0
 41
0.0
 42
0.0
 43
0.0
 44
0.0
 45
0.0
 46
0.0
 47
0.0
 48
0.0
 49
0.0
140
0.0
141
0.0
142
1.0
143
1.0
 70
   688
 72
     1
 73
     0
 74
     5
  7

 75
    16
 76
     0
 77
     2
 78
   300
147
1.0
148
0.0
149
0.0
100
AcDbLayout
  1
Layout2
 70
     1
 71
     2
 10
0.0
 20
0.0
 11
0.0
 21
0.0
 12
0.0
 22
0.0
 32
0.0
 14
0.0
 24
0.0
 34
0.0
 15
0.0
 25
0.0
 35
0.0
146
0.0
 13
0.0
 23
0.0
 33
0.0
 16
1.0
 26
0.0
 36
0.0
 17
0.0
 27
1.0
 37
0.0
 76
     0
330
23
  0
LAYOUT
  5
22
102
{ACAD_REACTORS
330
1A
102
}
330
1A
100
AcDbPlotSettings
  1

  2
none_device
  4
Letter_(8.50_x_11.00_Inches)
  6

 40
6.35
 41
6.35
 42
6.35000508
 43
6.35000508
 44
215.9
 45
279.4
 46
0.0
 47
0.0
 48
0.0
 49
0.0
140
0.0
141
0.0
142
1.0
143
1.0
 70
  1712
 72
     1
 73
     0
 74
     0
  7

 75
     0
 76
     0
 77
     2
 78
   300
147
1.0
148
0.0
149
0.0
100
AcDbLayout
  1
Model
 70
     1
 71
     0
 10
0.0
 20
0.0
 11
420.0
 21
297.0
 12
0.0
 22
0.0
 32
0.0
 14
-3108.701185046121
 24
-1603.155
 34
0.0
 15
4333.701185046121
 25
1326.255
 35
0.0
146
0.0
 13
0.0
 23
0.0
 33
0.0
 16
1.0
 26
0.0
 36
0.0
 17
0.0
 27
1.0
 37
0.0
 76
     0
330
1F
331
29
  0
MATERIAL
  5
45
102
{ACAD_REACTORS
330
43
102
}
330
43
100
AcDbMaterial
  1
ByBlock
 72
     1
 94
      127
  0
MATERIAL
  5
44
102
{ACAD_REACTORS
330
43
102
}
330
43
100
AcDbMaterial
  1
ByLayer
 72
     1
 94
      127
  0
MATERIAL
  5
46
102
{ACAD_REACTORS
330
43
102
}
330
43
100
AcDbMaterial
  1
Global
 72
     1
 94
      127
  0
MLEADERSTYLE
  5
5C
102
{ACAD_REACTORS
330
5B
102
}
330
5B
100
AcDbMLeaderStyle
179
     2
170
     2
171
     1
172
     0
 90
        2
 40
0.0
 41
0.0
173
     1
 91
-1056964608
340
14
 92
       -2
290
     1
 42
2.0
291
     1
 43
8.0
  3
Standard
341
0
 44
4.0
300

342
11
174
     1
178
     6
175
     1
176
     0
 93
-1056964608
 45
4.0
292
     0
297
     0
 46
4.0
343
0
 94
-1056964608
 47
1.0
 49
1.0
140
1.0
293
     1
141
0.0
294
     1
177
     0
142
1.0
295
     0
296
     0
143
3.75
271
     0
272
     9
273
     9
  0
MLINESTYLE
  5
18
102
{ACAD_REACTORS
330
17
102
}
330
17
100
AcDbMlineStyle
  2
Standard
 70
     0
  3

 62
   256
 51
90.0
 52
90.0
 71
     2
 49
0.5
 62
   256
  6
BYLAYER
 49
-0.5
 62
   256
  6
BYLAYER
  0
ACDBPLACEHOLDER
  5
F
102
{ACAD_REACTORS
330
E
102
}
330
E
  0
SCALE
  5
48
102
{ACAD_REACTORS
330
47
102
}
330
47
100
AcDbScale
 70
     0
300
1:1
140
1.0
141
1.0
290
     1
  0
SCALE
  5
49
102
{ACAD_REACTORS
330
47
102
}
330
47
100
AcDbScale
 70
     0
300
1:2
140
1.0
141
2.0
290
     0
  0
SCALE
  5
4A
102
{ACAD_REACTORS
330
47
102
}
330
47
100
AcDbScale
 70
     0
300
1:4
140
1.0
141
4.0
290
     0
  0
SCALE
  5
4B
102
{ACAD_REACTORS
330
47
102
}
330
47
100
AcDbScale
 70
     0
300
1:5
140
1.0
141
5.0
290
     0
  0
SCALE
  5
4C
102
{ACAD_REACTORS
330
47
102
}
330
47
100
AcDbScale
 70
     0
300
1:8
140
1.0
141
8.0
290
     0
  0
SCALE
  5
4D
102
{ACAD_REACTORS
330
47
102
}
330
47
100
AcDbScale
 70
     0
300
1:10
140
1.0
141
10.0
290
     0
  0
SCALE
  5
4E
102
{ACAD_REACTORS
330
47
102
}
330
47
100
AcDbScale
 70
     0
300
1:16
140
1.0
141
16.0
290
     0
  0
SCALE
  5
4F
102
{ACAD_REACTORS
330
47
102
}
330
47
100
AcDbScale
 70
     0
300
1:20
140
1.0
141
20.0
290
     0
  0
SCALE
  5
50
102
{ACAD_REACTORS
330
47
102
}
330
47
100
AcDbScale
 70
     0
300
1:30
140
1.0
141
30.0
290
     0
  0
SCALE
  5
51
102
{ACAD_REACTORS
330
47
102
}
330
47
100
AcDbScale
 70
     0
300
1:40
140
1.0
141
40.0
290
     0
  0
SCALE
  5
52
102
{ACAD_REACTORS
330
47
102
}
330
47
100
AcDbScale
 70
     0
300
1:50
140
1.0
141
50.0
290
     0
  0
SCALE
  5
53
102
{ACAD_REACTORS
330
47
102
}
330
47
100
AcDbScale
 70
     0
300
1:100
140
1.0
141
100.0
290
     0
  0
SCALE
  5
54
102
{ACAD_REACTORS
330
47
102
}
330
47
100
AcDbScale
 70
     0
300
2:1
140
2.0
141
1.0
290
     0
  0
SCALE
  5
55
102
{ACAD_REACTORS
330
47
102
}
330
47
100
AcDbScale
 70
     0
300
4:1
140
4.0
141
1.0
290
     0
  0
SCALE
  5
56
102
{ACAD_REACTORS
330
47
102
}
330
47
100
AcDbScale
 70
     0
300
8:1
140
8.0
141
1.0
290
     0
  0
SCALE
  5
57
102
{ACAD_REACTORS
330
47
102
}
330
47
100
AcDbScale
 70
     0
300
10:1
140
10.0
141
1.0
290
     0
  0
SCALE
  5
58
102
{ACAD_REACTORS
330
47
102
}
330
47
100
AcDbScale
 70
     0
300
100:1
140
100.0
141
1.0
290
     0
  0
TABLESTYLE
  5
5A
102
{ACAD_REACTORS
330
59
102
}
102
{ACAD_XDICTIONARY
360
265
102
}
330
59
100
AcDbTableStyle
  3
Standard
 70
     0
 71
     0
 40
0.06
 41
0.06
280
     0
281
     0
  7
Standard
140
4.5
170
     2
 62
     0
 63
   257
283
     0
 90
        4
 91
        0
  1

274
    -2
284
     1
 64
     0
275
    -2
285
     1
 65
     0
276
    -2
286
     1
 66
     0
277
    -2
287
     1
 67
     0
278
    -2
288
     1
 68
     0
279
    -2
289
     1
 69
     0
  7
Standard
140
6.0
170
     5
 62
     0
 63
   257
283
     0
 90
        4
 91
        0
  1

274
    -2
284
     1
 64
     0
275
    -2
285
     1
 65
     0
276
    -2
286
     1
 66
     0
277
    -2
287
     1
 67
     0
278
    -2
288
     1
 68
     0
279
    -2
289
     1
 69
     0
  7
Standard
140
4.5
170
     5
 62
     0
 63
   257
283
     0
 90
        4
 91
        0
  1

274
    -2
284
     1
 64
     0
275
    -2
285
     1
 65
     0
276
    -2
286
     1
 66
     0
277
    -2
287
     1
 67
     0
278
    -2
288
     1
 68
     0
279
    -2
289
     1
 69
     0
  0
VISUALSTYLE
  5
2F
102
{ACAD_REACTORS
330
2A
102
}
102
{ACAD_XDICTIONARY
360
23D
102
}
330
2A
100
AcDbVisualStyle
  2
2dWireframe
 70
     4
177
     2
291
     0
 71
     0
176
     1
 72
     2
176
     1
 73
     0
176
     1
 90
        0
176
     1
 40
0.6
176
     1
 41
30.0
176
     1
 62
     5
 63
     7
421
 16777215
176
     1
 74
     1
176
     1
 91
        4
176
     1
 64
     7
176
     1
 65
   257
176
     1
 75
     1
176
     1
175
     1
176
     1
 42
1.0
176
     1
 92
        0
176
     1
 66
   257
176
     1
 43
1.0
176
     1
 76
     1
176
     1
 77
     6
176
     1
 78
     2
176
     1
 67
     7
176
     1
 79
     5
176
     1
170
     0
176
     1
171
     0
176
     1
290
     0
176
     1
 93
        1
176
     1
 44
0.0
176
     1
173
     0
176
     1
  0
VISUALSTYLE
  5
32
102
{ACAD_REACTORS
330
2A
102
}
102
{ACAD_XDICTIONARY
360
243
102
}
330
2A
100
AcDbVisualStyle
  2
Basic
 70
     7
177
     2
291
     1
 71
     1
176
     1
 72
     0
176
     1
 73
     1
176
     1
 90
        0
176
     1
 40
0.6
176
     1
 41
30.0
176
     1
 62
     5
 63
     7
421
 16777215
176
     1
 74
     0
176
     1
 91
        4
176
     1
 64
     7
176
     1
 65
   257
176
     1
 75
     1
176
     1
175
     1
176
     1
 42
1.0
176
     1
 92
        8
176
     1
 66
     7
176
     1
 43
1.0
176
     1
 76
     1
176
     1
 77
     6
176
     1
 78
     2
176
     1
 67
     7
176
     1
 79
     5
176
     1
170
     0
176
     1
171
     0
176
     1
290
     0
176
     1
 93
        1
176
     1
 44
0.0
176
     1
173
     0
176
     1
  0
VISUALSTYLE
  5
36
102
{ACAD_REACTORS
330
2A
102
}
102
{ACAD_XDICTIONARY
360
24B
102
}
330
2A
100
AcDbVisualStyle
  2
Brighten
 70
    12
177
     2
291
     1
 71
     2
176
     1
 72
     2
176
     1
 73
     0
176
     1
 90
        0
176
     1
 40
0.6
176
     1
 41
30.0
176
     1
 62
     5
 63
     7
421
 16777215
176
     1
 74
     1
176
     1
 91
        4
176
     1
 64
     7
176
     1
 65
   257
176
     1
 75
     1
176
     1
175
     1
176
     1
 42
1.0
176
     1
 92
        8
176
     1
 66
     7
176
     1
 43
1.0
176
     1
 76
     1
176
     1
 77
     6
176
     1
 78
     2
176
     1
 67
     7
176
     1
 79
     5
176
     1
170
     0
176
     1
171
     0
176
     1
290
     0
176
     1
 93
        1
176
     1
 44
50.0
176
     1
173
     0
176
     1
  0
VISUALSTYLE
  5
3A
102
{ACAD_REACTORS
330
2A
102
}
102
{ACAD_XDICTIONARY
360
253
102
}
330
2A
100
AcDbVisualStyle
  2
ColorChange
 70
    16
177
     2
291
     1
 71
     2
176
     1
 72
     2
176
     1
 73
     3
176
     1
 90
        0
176
     1
 40
0.6
176
     1
 41
30.0
176
     1
 62
     5
 63
     8
421
  8421504
176
     1
 74
     1
176
     1
 91
        4
176
     1
 64
     7
176
     1
 65
   257
176
     1
 75
     1
176
     1
175
     1
176
     1
 42
1.0
176
     1
 92
        8
176
     1
 66
     8
424
  8421504
176
     1
 43
1.0
176
     1
 76
     1
176
     1
 77
     6
176
     1
 78
     2
176
     1
 67
     7
176
     1
 79
     5
176
     1
170
     0
176
     1
171
     0
176
     1
290
     0
176
     1
 93
        1
176
     1
 44
0.0
176
     1
173
     0
176
     1
  0
VISUALSTYLE
  5
34
102
{ACAD_REACTORS
330
2A
102
}
102
{ACAD_XDICTIONARY
360
247
102
}
330
2A
100
AcDbVisualStyle
  2
Conceptual
 70
     9
177
     2
291
     0
 71
     3
176
     1
 72
     2
176
     1
 73
     0
176
     1
 90
        0
176
     1
 40
0.6
176
     1
 41
30.0
176
     1
 62
     5
 63
     7
421
 16777215
176
     1
 74
     2
176
     1
 91
        2
176
     1
 64
     7
176
     1
 65
   257
176
     1
 75
     1
176
     1
175
     1
176
     1
 42
179.0
176
     1
 92
        8
176
     1
 66
     7
176
     1
 43
1.0
176
     1
 76
     1
176
     1
 77
     6
176
     1
 78
     2
176
     1
 67
     7
176
     1
 79
     3
176
     1
170
     0
176
     1
171
     0
176
     1
290
     0
176
     1
 93
        1
176
     1
 44
0.0
176
     1
173
     0
176
     1
  0
VISUALSTYLE
  5
35
102
{ACAD_REACTORS
330
2A
102
}
102
{ACAD_XDICTIONARY
360
249
102
}
330
2A
100
AcDbVisualStyle
  2
Dim
 70
    11
177
     2
291
     1
 71
     2
176
     1
 72
     2
176
     1
 73
     0
176
     1
 90
        0
176
     1
 40
0.6
176
     1
 41
30.0
176
     1
 62
     5
 63
     7
421
 16777215
176
     1
 74
     1
176
     1
 91
        4
176
     1
 64
     7
176
     1
 65
   257
176
     1
 75
     1
176
     1
175
     1
176
     1
 42
1.0
176
     1
 92
        8
176
     1
 66
     7
176
     1
 43
1.0
176
     1
 76
     1
176
     1
 77
     6
176
     1
 78
     2
176
     1
 67
     7
176
     1
 79
     5
176
     1
170
     0
176
     1
171
     0
176
     1
290
     0
176
     1
 93
        1
176
     1
 44
-50.0
176
     1
173
     0
176
     1
  0
VISUALSTYLE
  5
3D
102
{ACAD_REACTORS
330
2A
102
}
102
{ACAD_XDICTIONARY
360
259
102
}
330
2A
100
AcDbVisualStyle
  2
EdgeColorOff
 70
    22
177
     2
291
     1
 71
     2
176
     0
 72
     2
176
     0
 73
     0
176
     0
 90
        0
176
     0
 40
0.6
176
     0
 41
30.0
176
     0
 62
     5
 63
     7
421
 16777215
176
     0
 74
     1
176
     0
 91
        4
176
     0
 64
     7
176
     0
 65
   257
176
     0
 75
     1
176
     0
175
     1
176
     0
 42
1.0
176
     0
 92
        8
176
     2
 66
     7
176
     0
 43
1.0
176
     0
 76
     1
176
     0
 77
     6
176
     0
 78
     2
176
     0
 67
     7
176
     0
 79
     5
176
     0
170
     0
176
     0
171
     0
176
     0
290
     0
176
     0
 93
        1
176
     0
 44
0.0
176
     0
173
     0
176
     0
  0
VISUALSTYLE
  5
39
102
{ACAD_REACTORS
330
2A
102
}
102
{ACAD_XDICTIONARY
360
251
102
}
330
2A
100
AcDbVisualStyle
  2
Facepattern
 70
    15
177
     2
291
     1
 71
     2
176
     1
 72
     2
176
     1
 73
     0
176
     1
 90
        0
176
     1
 40
0.6
176
     1
 41
30.0
176
     1
 62
     5
 63
     7
421
 16777215
176
     1
 74
     1
176
     1
 91
        4
176
     1
 64
     7
176
     1
 65
   257
176
     1
 75
     1
176
     1
175
     1
176
     1
 42
1.0
176
     1
 92
        8
176
     1
 66
     7
176
     1
 43
1.0
176
     1
 76
     1
176
     1
 77
     6
176
     1
 78
     2
176
     1
 67
     7
176
     1
 79
     5
176
     1
170
     0
176
     1
171
     0
176
     1
290
     0
176
     1
 93
        1
176
     1
 44
0.0
176
     1
173
     0
176
     1
  0
VISUALSTYLE
  5
2B
102
{ACAD_REACTORS
330
2A
102
}
102
{ACAD_XDICTIONARY
360
235
102
}
330
2A
100
AcDbVisualStyle
  2
Flat
 70
     0
177
     2
291
     1
 71
     2
176
     1
 72
     1
176
     1
 73
     1
176
     1
 90
        2
176
     1
 40
0.6
176
     1
 41
30.0
176
     1
 62
     5
 63
     7
421
 16777215
176
     1
 74
     0
176
     1
 91
        0
176
     1
 64
     7
176
     1
 65
   257
176
     1
 75
     1
176
     1
175
     1
176
     1
 42
1.0
176
     1
 92
        8
176
     1
 66
     7
176
     1
 43
1.0
176
     1
 76
     1
176
     1
 77
     6
176
     1
 78
     2
176
     1
 67
     7
176
     1
 79
     5
176
     1
170
     0
176
     1
171
     0
176
     1
290
     0
176
     1
 93
       13
176
     1
 44
0.0
176
     1
173
     0
176
     1
  0
VISUALSTYLE
  5
2C
102
{ACAD_REACTORS
330
2A
102
}
102
{ACAD_XDICTIONARY
360
237
102
}
330
2A
100
AcDbVisualStyle
  2
FlatWithEdges
 70
     1
177
     2
291
     1
 71
     2
176
     1
 72
     1
176
     1
 73
     1
176
     1
 90
        2
176
     1
 40
0.6
176
     1
 41
30.0
176
     1
 62
     5
 63
     7
421
 16777215
176
     1
 74
     1
176
     1
 91
        0
176
     1
 64
     7
176
     1
 65
   257
176
     1
 75
     1
176
     1
175
     1
176
     1
 42
1.0
176
     1
 92
        0
176
     1
 66
   257
176
     1
 43
1.0
176
     1
 76
     1
176
     1
 77
     6
176
     1
 78
     2
176
     1
 67
     7
176
     1
 79
     5
176
     1
170
     0
176
     1
171
     0
176
     1
290
     0
176
     1
 93
       13
176
     1
 44
0.0
176
     1
173
     0
176
     1
  0
VISUALSTYLE
  5
2D
102
{ACAD_REACTORS
330
2A
102
}
102
{ACAD_XDICTIONARY
360
239
102
}
330
2A
100
AcDbVisualStyle
  2
Gouraud
 70
     2
177
     2
291
     1
 71
     2
176
     1
 72
     2
176
     1
 73
     1
176
     1
 90
        2
176
     1
 40
0.6
176
     1
 41
30.0
176
     1
 62
     5
 63
     7
421
 16777215
176
     1
 74
     0
176
     1
 91
        0
176
     1
 64
     7
176
     1
 65
   257
176
     1
 75
     1
176
     1
175
     1
176
     1
 42
1.0
176
     1
 92
        0
176
     1
 66
     7
176
     1
 43
1.0
176
     1
 76
     1
176
     1
 77
     6
176
     1
 78
     2
176
     1
 67
     7
176
     1
 79
     5
176
     1
170
     0
176
     1
171
     0
176
     1
290
     0
176
     1
 93
       13
176
     1
 44
0.0
176
     1
173
     0
176
     1
  0
VISUALSTYLE
  5
2E
102
{ACAD_REACTORS
330
2A
102
}
102
{ACAD_XDICTIONARY
360
23B
102
}
330
2A
100
AcDbVisualStyle
  2
GouraudWithEdges
 70
     3
177
     2
291
     1
 71
     2
176
     1
 72
     2
176
     1
 73
     1
176
     1
 90
        2
176
     1
 40
0.6
176
     1
 41
30.0
176
     1
 62
     5
 63
     7
421
 16777215
176
     1
 74
     1
176
     1
 91
        0
176
     1
 64
     7
176
     1
 65
   257
176
     1
 75
     1
176
     1
175
     1
176
     1
 42
1.0
176
     1
 92
        0
176
     1
 66
   257
176
     1
 43
1.0
176
     1
 76
     1
176
     1
 77
     6
176
     1
 78
     2
176
     1
 67
     7
176
     1
 79
     5
176
     1
170
     0
176
     1
171
     0
176
     1
290
     0
176
     1
 93
       13
176
     1
 44
0.0
176
     1
173
     0
176
     1
  0
VISUALSTYLE
  5
31
102
{ACAD_REACTORS
330
2A
102
}
102
{ACAD_XDICTIONARY
360
241
102
}
330
2A
100
AcDbVisualStyle
  2
Hidden
 70
     6
177
     2
291
     0
 71
     1
176
     1
 72
     2
176
     1
 73
     2
176
     1
 90
        0
176
     1
 40
0.6
176
     1
 41
30.0
176
     1
 62
     5
 63
     7
421
 16777215
176
     1
 74
     2
176
     1
 91
        2
176
     1
 64
     7
176
     1
 65
   257
176
     1
 75
     2
176
     1
175
     1
176
     1
 42
40.0
176
     1
 92
        0
176
     1
 66
   257
176
     1
 43
1.0
176
     1
 76
     1
176
     1
 77
     6
176
     1
 78
     2
176
     1
 67
     7
176
     1
 79
     3
176
     1
170
     0
176
     1
171
     0
176
     1
290
     0
176
     1
 93
        1
176
     1
 44
0.0
176
     1
173
     0
176
     1
  0
VISUALSTYLE
  5
3B
102
{ACAD_REACTORS
330
2A
102
}
102
{ACAD_XDICTIONARY
360
255
102
}
330
2A
100
AcDbVisualStyle
  2
JitterOff
 70
    20
177
     2
291
     1
 71
     2
176
     0
 72
     2
176
     0
 73
     0
176
     0
 90
        0
176
     0
 40
0.6
176
     0
 41
30.0
176
     0
 62
     5
 63
     7
421
 16777215
176
     0
 74
     1
176
     0
 91
        4
176
     0
 64
     7
176
     0
 65
   257
176
     0
 75
     1
176
     0
175
     1
176
     0
 42
1.0
176
     0
 92
       10
176
     2
 66
     7
176
     0
 43
1.0
176
     0
 76
     1
176
     0
 77
     6
176
     0
 78
     2
176
     0
 67
     7
176
     0
 79
     5
176
     0
170
     0
176
     0
171
     0
176
     0
290
     0
176
     0
 93
        1
176
     0
 44
0.0
176
     0
173
     0
176
     0
  0
VISUALSTYLE
  5
38
102
{ACAD_REACTORS
330
2A
102
}
102
{ACAD_XDICTIONARY
360
24F
102
}
330
2A
100
AcDbVisualStyle
  2
Linepattern
 70
    14
177
     2
291
     1
 71
     2
176
     1
 72
     2
176
     1
 73
     0
176
     1
 90
        0
176
     1
 40
0.6
176
     1
 41
30.0
176
     1
 62
     5
 63
     7
421
 16777215
176
     1
 74
     1
176
     1
 91
        4
176
     1
 64
     7
176
     1
 65
   257
176
     1
 75
     7
176
     1
175
     7
176
     1
 42
1.0
176
     1
 92
        8
176
     1
 66
     7
176
     1
 43
1.0
176
     1
 76
     1
176
     1
 77
     6
176
     1
 78
     2
176
     1
 67
     7
176
     1
 79
     5
176
     1
170
     0
176
     1
171
     0
176
     1
290
     0
176
     1
 93
        1
176
     1
 44
0.0
176
     1
173
     0
176
     1
  0
VISUALSTYLE
  5
3C
102
{ACAD_REACTORS
330
2A
102
}
102
{ACAD_XDICTIONARY
360
257
102
}
330
2A
100
AcDbVisualStyle
  2
OverhangOff
 70
    21
177
     2
291
     1
 71
     2
176
     0
 72
     2
176
     0
 73
     0
176
     0
 90
        0
176
     0
 40
0.6
176
     0
 41
30.0
176
     0
 62
     5
 63
     7
421
 16777215
176
     0
 74
     1
176
     0
 91
        4
176
     0
 64
     7
176
     0
 65
   257
176
     0
 75
     1
176
     0
175
     1
176
     0
 42
1.0
176
     0
 92
        9
176
     2
 66
     7
176
     0
 43
1.0
176
     0
 76
     1
176
     0
 77
     6
176
     0
 78
     2
176
     0
 67
     7
176
     0
 79
     5
176
     0
170
     0
176
     0
171
     0
176
     0
290
     0
176
     0
 93
        1
176
     0
 44
0.0
176
     0
173
     0
176
     0
  0
VISUALSTYLE
  5
33
102
{ACAD_REACTORS
330
2A
102
}
102
{ACAD_XDICTIONARY
360
245
102
}
330
2A
100
AcDbVisualStyle
  2
Realistic
 70
     8
177
     2
291
     0
 71
     2
176
     1
 72
     3
176
     1
 73
     0
176
     1
 90
        2
176
     1
 40
0.6
176
     1
 41
30.0
176
     1
 62
     5
 63
     7
421
 16777215
176
     1
 74
     0
176
     1
 91
        0
176
     1
 64
     7
176
     1
 65
   257
176
     1
 75
     1
176
     1
175
     1
176
     1
 42
1.0
176
     1
 92
        8
176
     1
 66
   257
176
     1
 43
1.0
176
     1
 76
     1
176
     1
 77
     6
176
     1
 78
     2
176
     1
 67
     7
176
     1
 79
     3
176
     1
170
     0
176
     1
171
     0
176
     1
290
     0
176
     1
 93
       13
176
     1
 44
0.0
176
     1
173
     0
176
     1
  0
VISUALSTYLE
  5
42
102
{ACAD_REACTORS
330
2A
102
}
102
{ACAD_XDICTIONARY
360
263
102
}
330
2A
100
AcDbVisualStyle
  2
Shaded
 70
    27
177
     2
291
     0
 71
     2
176
     1
 72
     2
176
     1
 73
     1
176
     1
 90
        2
176
     1
 40
0.6
176
     1
 41
30.0
176
     1
 62
     5
 63
     7
421
 16777215
176
     1
 74
     0
176
     1
 91
        4
176
     1
 64
     7
176
     1
 65
   257
176
     1
 75
     1
176
     1
175
     1
176
     1
 42
1.0
176
     1
 92
        8
176
     1
 66
   257
176
     1
 43
1.0
176
     1
 76
     1
176
     1
 77
     6
176
     1
 78
     2
176
     1
 67
     8
425
  7895160
176
     1
 79
     3
176
     1
170
     0
176
     1
171
     0
176
     1
290
     0
176
     1
 93
        5
176
     1
 44
0.0
176
     1
173
     0
176
     1
  0
VISUALSTYLE
  5
41
102
{ACAD_REACTORS
330
2A
102
}
102
{ACAD_XDICTIONARY
360
261
102
}
330
2A
100
AcDbVisualStyle
  2
Shaded with edges
 70
    26
177
     2
291
     0
 71
     2
176
     1
 72
     2
176
     1
 73
     1
176
     1
 90
        2
176
     1
 40
0.6
176
     1
 41
30.0
176
     1
 62
     5
 63
     7
421
 16777215
176
     1
 74
     1
176
     1
 91
       10
176
     1
 64
     7
176
     1
 65
   257
176
     1
 75
     2
176
     1
175
     1
176
     1
 42
1.0
176
     1
 92
        8
176
     1
 66
   257
176
     1
 43
1.0
176
     1
 76
     1
176
     1
 77
     6
176
     1
 78
     2
176
     1
 67
     7
176
     1
 79
     3
176
     1
170
     0
176
     1
171
     0
176
     1
290
     0
176
     1
 93
        5
176
     1
 44
0.0
176
     1
173
     0
176
     1
  0
VISUALSTYLE
  5
3E
102
{ACAD_REACTORS
330
2A
102
}
102
{ACAD_XDICTIONARY
360
25B
102
}
330
2A
100
AcDbVisualStyle
  2
Shades of Gray
 70
    23
177
     2
291
     0
 71
     2
176
     1
 72
     2
176
     1
 73
     3
176
     1
 90
        0
176
     1
 40
0.6
176
     1
 41
30.0
176
     1
 62
     5
 63
     7
421
 16777215
176
     1
 74
     2
176
     1
 91
        2
176
     1
 64
     7
176
     1
 65
     7
176
     1
 75
     1
176
     1
175
     1
176
     1
 42
40.0
176
     1
 92
        8
176
     1
 66
     7
176
     1
 43
1.0
176
     1
 76
     1
176
     1
 77
     6
176
     1
 78
     2
176
     1
 67
     7
176
     1
 79
     3
176
     1
170
     0
176
     1
171
     0
176
     1
290
     0
176
     1
 93
        1
176
     1
 44
0.0
176
     1
173
     0
176
     1
  0
VISUALSTYLE
  5
3F
102
{ACAD_REACTORS
330
2A
102
}
102
{ACAD_XDICTIONARY
360
25D
102
}
330
2A
100
AcDbVisualStyle
  2
Sketchy
 70
    24
177
     2
291
     0
 71
     1
176
     1
 72
     2
176
     1
 73
     2
176
     1
 90
        0
176
     1
 40
0.6
176
     1
 41
30.0
176
     1
 62
     5
 63
     7
421
 16777215
176
     1
 74
     2
176
     1
 91
        2
176
     1
 64
     7
176
     1
 65
     7
176
     1
 75
     1
176
     1
175
     1
176
     1
 42
40.0
176
     1
 92
       11
176
     1
 66
     7
176
     1
 43
1.0
176
     1
 76
     1
176
     1
 77
     6
176
     1
 78
     2
176
     1
 67
     7
176
     1
 79
     6
176
     1
170
     0
176
     1
171
     0
176
     1
290
     0
176
     1
 93
        1
176
     1
 44
0.0
176
     1
173
     0
176
     1
  0
VISUALSTYLE
  5
37
102
{ACAD_REACTORS
330
2A
102
}
102
{ACAD_XDICTIONARY
360
24D
102
}
330
2A
100
AcDbVisualStyle
  2
Thicken
 70
    13
177
     2
291
     1
 71
     2
176
     1
 72
     2
176
     1
 73
     0
176
     1
 90
        0
176
     1
 40
0.6
176
     1
 41
30.0
176
     1
 62
     5
 63
     7
421
 16777215
176
     1
 74
     1
176
     1
 91
        4
176
     1
 64
     7
176
     1
 65
   257
176
     1
 75
     1
176
     1
175
     1
176
     1
 42
1.0
176
     1
 92
       12
176
     1
 66
     7
176
     1
 43
1.0
176
     1
 76
     1
176
     1
 77
     6
176
     1
 78
     2
176
     1
 67
     7
176
     1
 79
     5
176
     1
170
     0
176
     1
171
     0
176
     1
290
     0
176
     1
 93
        1
176
     1
 44
0.0
176
     1
173
     0
176
     1
  0
VISUALSTYLE
  5
30
102
{ACAD_REACTORS
330
2A
102
}
102
{ACAD_XDICTIONARY
360
23F
102
}
330
2A
100
AcDbVisualStyle
  2
Wireframe
 70
     5
177
     2
291
     0
 71
     0
176
     1
 72
     2
176
     1
 73
     0
176
     1
 90
        0
176
     1
 40
0.6
176
     1
 41
30.0
176
     1
 62
     5
 63
     7
421
 16777215
176
     1
 74
     1
176
     1
 91
        4
176
     1
 64
     7
176
     1
 65
   257
176
     1
 75
     1
176
     1
175
     1
176
     1
 42
1.0
176
     1
 92
        0
176
     1
 66
   257
176
     1
 43
1.0
176
     1
 76
     1
176
     1
 77
     6
176
     1
 78
     2
176
     1
 67
     7
176
     1
 79
     3
176
     1
170
     0
176
     1
171
     0
176
     1
290
     0
176
     1
 93
        1
176
     1
 44
0.0
176
     1
173
     0
176
     1
  0
VISUALSTYLE
  5
40
102
{ACAD_REACTORS
330
2A
102
}
102
{ACAD_XDICTIONARY
360
25F
102
}
330
2A
100
AcDbVisualStyle
  2
X-Ray
 70
    25
177
     2
291
     0
 71
     2
176
     1
 72
     2
176
     1
 73
     1
176
     1
 90
        1
176
     1
 40
0.5
176
     1
 41
30.0
176
     1
 62
     5
 63
     7
421
 16777215
176
     1
 74
     1
176
     1
 91
        0
176
     1
 64
     7
176
     1
 65
   257
176
     1
 75
     1
176
     1
175
     1
176
     1
 42
1.0
176
     1
 92
        8
176
     1
 66
     7
176
     1
 43
1.0
176
     1
 76
     1
176
     1
 77
     6
176
     1
 78
     2
176
     1
 67
     7
176
     1
 79
     3
176
     1
170
     0
176
     1
171
     0
176
     1
290
     0
176
     1
 93
       13
176
     1
 44
0.0
176
     1
173
     0
176
     1
  0
DICTIONARYVAR
  5
234
102
{ACAD_REACTORS
330
233
102
}
330
233
100
DictionaryVariables
280
     0
  1
1:1
  0
DICTIONARYVAR
  5
26E
102
{ACAD_REACTORS
330
233
102
}
330
233
100
DictionaryVariables
280
     0
  1
3.500000
  0
DICTIONARYVAR
  5
26F
102
{ACAD_REACTORS
330
233
102
}
330
233
100
DictionaryVariables
280
     0
  1
acadiso.lin
  0
DICTIONARYVAR
  5
26A
102
{ACAD_REACTORS
330
233
102
}
330
233
100
DictionaryVariables
280
     0
  1
Standard
  0
DICTIONARYVAR
  5
269
102
{ACAD_REACTORS
330
233
102
}
330
233
100
DictionaryVariables
280
     0
  1
Standard
  0
DICTIONARYVAR
  5
26D
102
{ACAD_REACTORS
330
233
102
}
330
233
100
DictionaryVariables
280
     0
  1
0
  0
DICTIONARY
  5
265
330
5A
100
AcDbDictionary
280
     1
281
     1
  3
ACAD_ROUNDTRIP_2008_TABLESTYLE_CELLSTYLEMAP
360
266
  0
DICTIONARY
  5
23D
330
2F
100
AcDbDictionary
280
     1
281
     1
  3
ACAD_XREC_ROUNDTRIP
360
23E
  0
DICTIONARY
  5
243
330
32
100
AcDbDictionary
280
     1
281
     1
  3
ACAD_XREC_ROUNDTRIP
360
244
  0
DICTIONARY
  5
24B
330
36
100
AcDbDictionary
280
     1
281
     1
  3
ACAD_XREC_ROUNDTRIP
360
24C
  0
DICTIONARY
  5
253
330
3A
100
AcDbDictionary
280
     1
281
     1
  3
ACAD_XREC_ROUNDTRIP
360
254
  0
DICTIONARY
  5
247
330
34
100
AcDbDictionary
280
     1
281
     1
  3
ACAD_XREC_ROUNDTRIP
360
248
  0
DICTIONARY
  5
249
330
35
100
AcDbDictionary
280
     1
281
     1
  3
ACAD_XREC_ROUNDTRIP
360
24A
  0
DICTIONARY
  5
259
330
3D
100
AcDbDictionary
280
     1
281
     1
  3
ACAD_XREC_ROUNDTRIP
360
25A
  0
DICTIONARY
  5
251
330
39
100
AcDbDictionary
280
     1
281
     1
  3
ACAD_XREC_ROUNDTRIP
360
252
  0
DICTIONARY
  5
235
330
2B
100
AcDbDictionary
280
     1
281
     1
  3
ACAD_XREC_ROUNDTRIP
360
236
  0
DICTIONARY
  5
237
330
2C
100
AcDbDictionary
280
     1
281
     1
  3
ACAD_XREC_ROUNDTRIP
360
238
  0
DICTIONARY
  5
239
330
2D
100
AcDbDictionary
280
     1
281
     1
  3
ACAD_XREC_ROUNDTRIP
360
23A
  0
DICTIONARY
  5
23B
330
2E
100
AcDbDictionary
280
     1
281
     1
  3
ACAD_XREC_ROUNDTRIP
360
23C
  0
DICTIONARY
  5
241
330
31
100
AcDbDictionary
280
     1
281
     1
  3
ACAD_XREC_ROUNDTRIP
360
242
  0
DICTIONARY
  5
255
330
3B
100
AcDbDictionary
280
     1
281
     1
  3
ACAD_XREC_ROUNDTRIP
360
256
  0
DICTIONARY
  5
24F
330
38
100
AcDbDictionary
280
     1
281
     1
  3
ACAD_XREC_ROUNDTRIP
360
250
  0
DICTIONARY
  5
257
330
3C
100
AcDbDictionary
280
     1
281
     1
  3
ACAD_XREC_ROUNDTRIP
360
258
  0
DICTIONARY
  5
245
330
33
100
AcDbDictionary
280
     1
281
     1
  3
ACAD_XREC_ROUNDTRIP
360
246
  0
DICTIONARY
  5
263
330
42
100
AcDbDictionary
280
     1
281
     1
  3
ACAD_XREC_ROUNDTRIP
360
264
  0
DICTIONARY
  5
261
330
41
100
AcDbDictionary
280
     1
281
     1
  3
ACAD_XREC_ROUNDTRIP
360
262
  0
DICTIONARY
  5
25B
330
3E
100
AcDbDictionary
280
     1
281
     1
  3
ACAD_XREC_ROUNDTRIP
360
25C
  0
DICTIONARY
  5
25D
330
3F
100
AcDbDictionary
280
     1
281
     1
  3
ACAD_XREC_ROUNDTRIP
360
25E
  0
DICTIONARY
  5
24D
330
37
100
AcDbDictionary
280
     1
281
     1
  3
ACAD_XREC_ROUNDTRIP
360
24E
  0
DICTIONARY
  5
23F
330
30
100
AcDbDictionary
280
     1
281
     1
  3
ACAD_XREC_ROUNDTRIP
360
240
  0
DICTIONARY
  5
25F
330
40
100
AcDbDictionary
280
     1
281
     1
  3
ACAD_XREC_ROUNDTRIP
360
260
  0
CELLSTYLEMAP
  5
266
102
{ACAD_REACTORS
330
265
102
}
330
265
100
AcDbCellStyleMap
 90
        3
300
CELLSTYLE
  1
TABLEFORMAT_BEGIN
 90
        5
170
     1
 91
        0
 92
    32768
 62
   257
 93
        1
300
CONTENTFORMAT
  1
CONTENTFORMAT_BEGIN
 90
        0
 91
        0
 92
        4
 93
        0
300

 40
0.0
140
1.0
 94
        5
 62
     0
340
11
144
6.0
309
CONTENTFORMAT_END
171
     1
301
MARGIN
  1
CELLMARGIN_BEGIN
 40
1.5
 40
1.5
 40
1.5
 40
1.5
 40
1.5
 40
1.5
309
CELLMARGIN_END
 94
        6
 95
        1
302
GRIDFORMAT
  1
GRIDFORMAT_BEGIN
 90
        0
 91
        1
 62
     0
 92
       -2
340
14
 93
        0
 40
0.045
309
GRIDFORMAT_END
 95
        2
302
GRIDFORMAT
  1
GRIDFORMAT_BEGIN
 90
        0
 91
        1
 62
     0
 92
       -2
340
14
 93
        0
 40
0.045
309
GRIDFORMAT_END
 95
        4
302
GRIDFORMAT
  1
GRIDFORMAT_BEGIN
 90
        0
 91
        1
 62
     0
 92
       -2
340
14
 93
        0
 40
0.045
309
GRIDFORMAT_END
 95
        8
302
GRIDFORMAT
  1
GRIDFORMAT_BEGIN
 90
        0
 91
        1
 62
     0
 92
       -2
340
14
 93
        0
 40
0.045
309
GRIDFORMAT_END
 95
       16
302
GRIDFORMAT
  1
GRIDFORMAT_BEGIN
 90
        0
 91
        1
 62
     0
 92
       -2
340
14
 93
        0
 40
0.045
309
GRIDFORMAT_END
 95
       32
302
GRIDFORMAT
  1
GRIDFORMAT_BEGIN
 90
        0
 91
        1
 62
     0
 92
       -2
340
14
 93
        0
 40
0.045
309
GRIDFORMAT_END
309
TABLEFORMAT_END
  1
CELLSTYLE_BEGIN
 90
        1
 91
        1
300
_TITLE
309
CELLSTYLE_END
300
CELLSTYLE
  1
TABLEFORMAT_BEGIN
 90
        5
170
     1
 91
        0
 92
        0
 62
   257
 93
        1
300
CONTENTFORMAT
  1
CONTENTFORMAT_BEGIN
 90
        0
 91
        0
 92
        4
 93
        0
300

 40
0.0
140
1.0
 94
        5
 62
     0
340
11
144
4.5
309
CONTENTFORMAT_END
171
     1
301
MARGIN
  1
CELLMARGIN_BEGIN
 40
1.5
 40
1.5
 40
1.5
 40
1.5
 40
1.5
 40
1.5
309
CELLMARGIN_END
 94
        6
 95
        1
302
GRIDFORMAT
  1
GRIDFORMAT_BEGIN
 90
        0
 91
        1
 62
     0
 92
       -2
340
14
 93
        0
 40
0.045
309
GRIDFORMAT_END
 95
        2
302
GRIDFORMAT
  1
GRIDFORMAT_BEGIN
 90
        0
 91
        1
 62
     0
 92
       -2
340
14
 93
        0
 40
0.045
309
GRIDFORMAT_END
 95
        4
302
GRIDFORMAT
  1
GRIDFORMAT_BEGIN
 90
        0
 91
        1
 62
     0
 92
       -2
340
14
 93
        0
 40
0.045
309
GRIDFORMAT_END
 95
        8
302
GRIDFORMAT
  1
GRIDFORMAT_BEGIN
 90
        0
 91
        1
 62
     0
 92
       -2
340
14
 93
        0
 40
0.045
309
GRIDFORMAT_END
 95
       16
302
GRIDFORMAT
  1
GRIDFORMAT_BEGIN
 90
        0
 91
        1
 62
     0
 92
       -2
340
14
 93
        0
 40
0.045
309
GRIDFORMAT_END
 95
       32
302
GRIDFORMAT
  1
GRIDFORMAT_BEGIN
 90
        0
 91
        1
 62
     0
 92
       -2
340
14
 93
        0
 40
0.045
309
GRIDFORMAT_END
309
TABLEFORMAT_END
  1
CELLSTYLE_BEGIN
 90
        2
 91
        1
300
_HEADER
309
CELLSTYLE_END
300
CELLSTYLE
  1
TABLEFORMAT_BEGIN
 90
        5
170
     1
 91
        0
 92
        0
 62
   257
 93
        1
300
CONTENTFORMAT
  1
CONTENTFORMAT_BEGIN
 90
        0
 91
        0
 92
        4
 93
        0
300

 40
0.0
140
1.0
 94
        2
 62
     0
340
11
144
4.5
309
CONTENTFORMAT_END
171
     1
301
MARGIN
  1
CELLMARGIN_BEGIN
 40
1.5
 40
1.5
 40
1.5
 40
1.5
 40
1.5
 40
1.5
309
CELLMARGIN_END
 94
        6
 95
        1
302
GRIDFORMAT
  1
GRIDFORMAT_BEGIN
 90
        0
 91
        1
 62
     0
 92
       -2
340
14
 93
        0
 40
0.045
309
GRIDFORMAT_END
 95
        2
302
GRIDFORMAT
  1
GRIDFORMAT_BEGIN
 90
        0
 91
        1
 62
     0
 92
       -2
340
14
 93
        0
 40
0.045
309
GRIDFORMAT_END
 95
        4
302
GRIDFORMAT
  1
GRIDFORMAT_BEGIN
 90
        0
 91
        1
 62
     0
 92
       -2
340
14
 93
        0
 40
0.045
309
GRIDFORMAT_END
 95
        8
302
GRIDFORMAT
  1
GRIDFORMAT_BEGIN
 90
        0
 91
        1
 62
     0
 92
       -2
340
14
 93
        0
 40
0.045
309
GRIDFORMAT_END
 95
       16
302
GRIDFORMAT
  1
GRIDFORMAT_BEGIN
 90
        0
 91
        1
 62
     0
 92
       -2
340
14
 93
        0
 40
0.045
309
GRIDFORMAT_END
 95
       32
302
GRIDFORMAT
  1
GRIDFORMAT_BEGIN
 90
        0
 91
        1
 62
     0
 92
       -2
340
14
 93
        0
 40
0.045
309
GRIDFORMAT_END
309
TABLEFORMAT_END
  1
CELLSTYLE_BEGIN
 90
        3
 91
        2
300
_DATA
309
CELLSTYLE_END
  0
XRECORD
  5
23E
102
{ACAD_REACTORS
330
23D
102
}
330
23D
100
AcDbXrecord
280
     1
102
RTVSPost2010Prop28
280
     1
102
RTVSPost2010PropOp28
 70
     1
102
RTVSPost2010Prop29
280
     1
102
RTVSPost2010PropOp29
 70
     1
102
RTVSPost2010Prop30
280
     0
102
RTVSPost2010PropOp30
 70
     1
102
RTVSPost2010Prop31
280
     0
102
RTVSPost2010PropOp31
 70
     1
102
RTVSPost2010Prop32
280
     0
102
RTVSPost2010PropOp32
 70
     1
102
RTVSPost2010Prop33
280
     0
102
RTVSPost2010PropOp33
 70
     1
102
RTVSPost2010Prop34
280
     0
102
RTVSPost2010PropOp34
 70
     1
102
RTVSPost2010Prop35
280
     0
102
RTVSPost2010PropOp35
 70
     1
102
RTVSPost2010Prop36
280
     0
102
RTVSPost2010PropOp36
 70
     1
102
RTVSPost2010Prop37
 90
       50
102
RTVSPost2010PropOp37
 70
     1
102
RTVSPost2010Prop38
140
0.0
102
RTVSPost2010PropOp38
 70
     1
102
RTVSPost2010Prop39
140
1.0
102
RTVSPost2010PropOp39
 70
     1
102
RTVSPost2010Prop40
 90
        0
102
RTVSPost2010PropOp40
 70
     1
102
RTVSPost2010Prop41ColorIndex
 90
       18
102
RTVSPost2010Prop41ColorRGB
 90
        0
102
RTVSPost2010PropOp41
 70
     1
102
RTVSPost2010Prop42
 90
       50
102
RTVSPost2010PropOp42
 70
     1
102
RTVSPost2010Prop43
 90
        3
102
RTVSPost2010PropOp43
 70
     1
102
RTVSPost2010Prop44ColorIndex
 90
        5
102
RTVSPost2010Prop44ColorRGB
 90
      255
102
RTVSPost2010PropOp44
 70
     1
102
RTVSPost2010Prop45
280
     0
102
RTVSPost2010PropOp45
 70
     1
102
RTVSPost2010Prop46
 90
       50
102
RTVSPost2010PropOp46
 70
     1
102
RTVSPost2010Prop47
 90
       50
102
RTVSPost2010PropOp47
 70
     1
102
RTVSPost2010Prop48
 90
       50
102
RTVSPost2010PropOp48
 70
     1
102
RTVSPost2010Prop49
280
     0
102
RTVSPost2010PropOp49
 70
     1
102
RTVSPost2010Prop50
 90
       50
102
RTVSPost2010PropOp50
 70
     1
102
RTVSPost2010Prop51ColorIndex
 90
      256
102
RTVSPost2010Prop51ColorRGB
 90
-16777216
102
RTVSPost2010PropOp51
 70
     0
102
RTVSPost2010Prop52
140
1.0
102
RTVSPost2010PropOp52
 70
     0
102
RTVSPost2010Prop53
 90
        2
102
RTVSPost2010PropOp53
 70
     1
102
RTVSPost2010Prop54
  1
strokes_ogs.tif
102
RTVSPost2010PropOp54
 70
     1
102
RTVSPost2010Prop55
280
     0
102
RTVSPost2010PropOp55
 70
     1
102
RTVSPost2010Prop56
140
1.0
102
RTVSPost2010PropOp56
 70
     1
102
RTVSPost2010Prop57
140
1.0
102
RTVSPost2010PropOp57
 70
     1
  0
XRECORD
  5
244
102
{ACAD_REACTORS
330
243
102
}
330
243
100
AcDbXrecord
280
     1
102
RTVSPost2010Prop28
280
     0
102
RTVSPost2010PropOp28
 70
     1
102
RTVSPost2010Prop29
280
     1
102
RTVSPost2010PropOp29
 70
     1
102
RTVSPost2010Prop30
280
     1
102
RTVSPost2010PropOp30
 70
     1
102
RTVSPost2010Prop31
280
     0
102
RTVSPost2010PropOp31
 70
     1
102
RTVSPost2010Prop32
280
     0
102
RTVSPost2010PropOp32
 70
     1
102
RTVSPost2010Prop33
280
     0
102
RTVSPost2010PropOp33
 70
     1
102
RTVSPost2010Prop34
280
     0
102
RTVSPost2010PropOp34
 70
     1
102
RTVSPost2010Prop35
280
     0
102
RTVSPost2010PropOp35
 70
     1
102
RTVSPost2010Prop36
280
     0
102
RTVSPost2010PropOp36
 70
     1
102
RTVSPost2010Prop37
 90
       50
102
RTVSPost2010PropOp37
 70
     1
102
RTVSPost2010Prop38
140
0.0
102
RTVSPost2010PropOp38
 70
     1
102
RTVSPost2010Prop39
140
1.0
102
RTVSPost2010PropOp39
 70
     1
102
RTVSPost2010Prop40
 90
        0
102
RTVSPost2010PropOp40
 70
     1
102
RTVSPost2010Prop41ColorIndex
 90
       18
102
RTVSPost2010Prop41ColorRGB
 90
        0
102
RTVSPost2010PropOp41
 70
     1
102
RTVSPost2010Prop42
 90
       50
102
RTVSPost2010PropOp42
 70
     1
102
RTVSPost2010Prop43
 90
        3
102
RTVSPost2010PropOp43
 70
     1
102
RTVSPost2010Prop44ColorIndex
 90
        5
102
RTVSPost2010Prop44ColorRGB
 90
      255
102
RTVSPost2010PropOp44
 70
     1
102
RTVSPost2010Prop45
280
     0
102
RTVSPost2010PropOp45
 70
     1
102
RTVSPost2010Prop46
 90
       50
102
RTVSPost2010PropOp46
 70
     1
102
RTVSPost2010Prop47
 90
       50
102
RTVSPost2010PropOp47
 70
     1
102
RTVSPost2010Prop48
 90
       50
102
RTVSPost2010PropOp48
 70
     1
102
RTVSPost2010Prop49
280
     0
102
RTVSPost2010PropOp49
 70
     1
102
RTVSPost2010Prop50
 90
       50
102
RTVSPost2010PropOp50
 70
     1
102
RTVSPost2010Prop51ColorIndex
 90
      256
102
RTVSPost2010Prop51ColorRGB
 90
-16777216
102
RTVSPost2010PropOp51
 70
     0
102
RTVSPost2010Prop52
140
1.0
102
RTVSPost2010PropOp52
 70
     0
102
RTVSPost2010Prop53
 90
        2
102
RTVSPost2010PropOp53
 70
     1
102
RTVSPost2010Prop54
  1
strokes_ogs.tif
102
RTVSPost2010PropOp54
 70
     1
102
RTVSPost2010Prop55
280
     0
102
RTVSPost2010PropOp55
 70
     1
102
RTVSPost2010Prop56
140
1.0
102
RTVSPost2010PropOp56
 70
     1
102
RTVSPost2010Prop57
140
1.0
102
RTVSPost2010PropOp57
 70
     1
  0
XRECORD
  5
24C
102
{ACAD_REACTORS
330
24B
102
}
330
24B
100
AcDbXrecord
280
     1
102
RTVSPost2010Prop28
280
     0
102
RTVSPost2010PropOp28
 70
     1
102
RTVSPost2010Prop29
280
     1
102
RTVSPost2010PropOp29
 70
     1
102
RTVSPost2010Prop30
280
     1
102
RTVSPost2010PropOp30
 70
     1
102
RTVSPost2010Prop31
280
     0
102
RTVSPost2010PropOp31
 70
     1
102
RTVSPost2010Prop32
280
     0
102
RTVSPost2010PropOp32
 70
     1
102
RTVSPost2010Prop33
280
     0
102
RTVSPost2010PropOp33
 70
     1
102
RTVSPost2010Prop34
280
     0
102
RTVSPost2010PropOp34
 70
     1
102
RTVSPost2010Prop35
280
     0
102
RTVSPost2010PropOp35
 70
     1
102
RTVSPost2010Prop36
280
     0
102
RTVSPost2010PropOp36
 70
     1
102
RTVSPost2010Prop37
 90
       50
102
RTVSPost2010PropOp37
 70
     1
102
RTVSPost2010Prop38
140
0.0
102
RTVSPost2010PropOp38
 70
     1
102
RTVSPost2010Prop39
140
1.0
102
RTVSPost2010PropOp39
 70
     1
102
RTVSPost2010Prop40
 90
        0
102
RTVSPost2010PropOp40
 70
     1
102
RTVSPost2010Prop41ColorIndex
 90
       18
102
RTVSPost2010Prop41ColorRGB
 90
        0
102
RTVSPost2010PropOp41
 70
     1
102
RTVSPost2010Prop42
 90
       50
102
RTVSPost2010PropOp42
 70
     1
102
RTVSPost2010Prop43
 90
        3
102
RTVSPost2010PropOp43
 70
     1
102
RTVSPost2010Prop44ColorIndex
 90
        5
102
RTVSPost2010Prop44ColorRGB
 90
      255
102
RTVSPost2010PropOp44
 70
     1
102
RTVSPost2010Prop45
280
     0
102
RTVSPost2010PropOp45
 70
     1
102
RTVSPost2010Prop46
 90
       50
102
RTVSPost2010PropOp46
 70
     1
102
RTVSPost2010Prop47
 90
       50
102
RTVSPost2010PropOp47
 70
     1
102
RTVSPost2010Prop48
 90
       50
102
RTVSPost2010PropOp48
 70
     1
102
RTVSPost2010Prop49
280
     0
102
RTVSPost2010PropOp49
 70
     1
102
RTVSPost2010Prop50
 90
       50
102
RTVSPost2010PropOp50
 70
     1
102
RTVSPost2010Prop51ColorIndex
 90
      256
102
RTVSPost2010Prop51ColorRGB
 90
-16777216
102
RTVSPost2010PropOp51
 70
     0
102
RTVSPost2010Prop52
140
1.0
102
RTVSPost2010PropOp52
 70
     0
102
RTVSPost2010Prop53
 90
        2
102
RTVSPost2010PropOp53
 70
     1
102
RTVSPost2010Prop54
  1
strokes_ogs.tif
102
RTVSPost2010PropOp54
 70
     1
102
RTVSPost2010Prop55
280
     0
102
RTVSPost2010PropOp55
 70
     1
102
RTVSPost2010Prop56
140
1.0
102
RTVSPost2010PropOp56
 70
     1
102
RTVSPost2010Prop57
140
1.0
102
RTVSPost2010PropOp57
 70
     1
  0
XRECORD
  5
254
102
{ACAD_REACTORS
330
253
102
}
330
253
100
AcDbXrecord
280
     1
102
RTVSPost2010Prop28
280
     0
102
RTVSPost2010PropOp28
 70
     1
102
RTVSPost2010Prop29
280
     1
102
RTVSPost2010PropOp29
 70
     1
102
RTVSPost2010Prop30
280
     1
102
RTVSPost2010PropOp30
 70
     1
102
RTVSPost2010Prop31
280
     0
102
RTVSPost2010PropOp31
 70
     1
102
RTVSPost2010Prop32
280
     0
102
RTVSPost2010PropOp32
 70
     1
102
RTVSPost2010Prop33
280
     0
102
RTVSPost2010PropOp33
 70
     1
102
RTVSPost2010Prop34
280
     0
102
RTVSPost2010PropOp34
 70
     1
102
RTVSPost2010Prop35
280
     0
102
RTVSPost2010PropOp35
 70
     1
102
RTVSPost2010Prop36
280
     0
102
RTVSPost2010PropOp36
 70
     1
102
RTVSPost2010Prop37
 90
       50
102
RTVSPost2010PropOp37
 70
     1
102
RTVSPost2010Prop38
140
0.0
102
RTVSPost2010PropOp38
 70
     1
102
RTVSPost2010Prop39
140
1.0
102
RTVSPost2010PropOp39
 70
     1
102
RTVSPost2010Prop40
 90
        0
102
RTVSPost2010PropOp40
 70
     1
102
RTVSPost2010Prop41ColorIndex
 90
       18
102
RTVSPost2010Prop41ColorRGB
 90
        0
102
RTVSPost2010PropOp41
 70
     1
102
RTVSPost2010Prop42
 90
       50
102
RTVSPost2010PropOp42
 70
     1
102
RTVSPost2010Prop43
 90
        3
102
RTVSPost2010PropOp43
 70
     1
102
RTVSPost2010Prop44ColorIndex
 90
        5
102
RTVSPost2010Prop44ColorRGB
 90
      255
102
RTVSPost2010PropOp44
 70
     1
102
RTVSPost2010Prop45
280
     0
102
RTVSPost2010PropOp45
 70
     1
102
RTVSPost2010Prop46
 90
       50
102
RTVSPost2010PropOp46
 70
     1
102
RTVSPost2010Prop47
 90
       50
102
RTVSPost2010PropOp47
 70
     1
102
RTVSPost2010Prop48
 90
       50
102
RTVSPost2010PropOp48
 70
     1
102
RTVSPost2010Prop49
280
     0
102
RTVSPost2010PropOp49
 70
     1
102
RTVSPost2010Prop50
 90
       50
102
RTVSPost2010PropOp50
 70
     1
102
RTVSPost2010Prop51ColorIndex
 90
      256
102
RTVSPost2010Prop51ColorRGB
 90
-16777216
102
RTVSPost2010PropOp51
 70
     0
102
RTVSPost2010Prop52
140
1.0
102
RTVSPost2010PropOp52
 70
     0
102
RTVSPost2010Prop53
 90
        2
102
RTVSPost2010PropOp53
 70
     1
102
RTVSPost2010Prop54
  1
strokes_ogs.tif
102
RTVSPost2010PropOp54
 70
     1
102
RTVSPost2010Prop55
280
     0
102
RTVSPost2010PropOp55
 70
     1
102
RTVSPost2010Prop56
140
1.0
102
RTVSPost2010PropOp56
 70
     1
102
RTVSPost2010Prop57
140
1.0
102
RTVSPost2010PropOp57
 70
     1
  0
XRECORD
  5
248
102
{ACAD_REACTORS
330
247
102
}
330
247
100
AcDbXrecord
280
     1
102
RTVSPost2010Prop28
280
     0
102
RTVSPost2010PropOp28
 70
     1
102
RTVSPost2010Prop29
280
     1
102
RTVSPost2010PropOp29
 70
     1
102
RTVSPost2010Prop30
280
     1
102
RTVSPost2010PropOp30
 70
     1
102
RTVSPost2010Prop31
280
     0
102
RTVSPost2010PropOp31
 70
     1
102
RTVSPost2010Prop32
280
     0
102
RTVSPost2010PropOp32
 70
     1
102
RTVSPost2010Prop33
280
     0
102
RTVSPost2010PropOp33
 70
     1
102
RTVSPost2010Prop34
280
     0
102
RTVSPost2010PropOp34
 70
     1
102
RTVSPost2010Prop35
280
     0
102
RTVSPost2010PropOp35
 70
     1
102
RTVSPost2010Prop36
280
     0
102
RTVSPost2010PropOp36
 70
     1
102
RTVSPost2010Prop37
 90
       50
102
RTVSPost2010PropOp37
 70
     1
102
RTVSPost2010Prop38
140
0.0
102
RTVSPost2010PropOp38
 70
     1
102
RTVSPost2010Prop39
140
1.0
102
RTVSPost2010PropOp39
 70
     1
102
RTVSPost2010Prop40
 90
        0
102
RTVSPost2010PropOp40
 70
     1
102
RTVSPost2010Prop41ColorIndex
 90
       18
102
RTVSPost2010Prop41ColorRGB
 90
        0
102
RTVSPost2010PropOp41
 70
     1
102
RTVSPost2010Prop42
 90
       50
102
RTVSPost2010PropOp42
 70
     1
102
RTVSPost2010Prop43
 90
        3
102
RTVSPost2010PropOp43
 70
     1
102
RTVSPost2010Prop44ColorIndex
 90
        5
102
RTVSPost2010Prop44ColorRGB
 90
      255
102
RTVSPost2010PropOp44
 70
     1
102
RTVSPost2010Prop45
280
     0
102
RTVSPost2010PropOp45
 70
     1
102
RTVSPost2010Prop46
 90
       50
102
RTVSPost2010PropOp46
 70
     1
102
RTVSPost2010Prop47
 90
       50
102
RTVSPost2010PropOp47
 70
     1
102
RTVSPost2010Prop48
 90
       50
102
RTVSPost2010PropOp48
 70
     1
102
RTVSPost2010Prop49
280
     0
102
RTVSPost2010PropOp49
 70
     1
102
RTVSPost2010Prop50
 90
       50
102
RTVSPost2010PropOp50
 70
     1
102
RTVSPost2010Prop51ColorIndex
 90
      256
102
RTVSPost2010Prop51ColorRGB
 90
-16777216
102
RTVSPost2010PropOp51
 70
     0
102
RTVSPost2010Prop52
140
1.0
102
RTVSPost2010PropOp52
 70
     0
102
RTVSPost2010Prop53
 90
        2
102
RTVSPost2010PropOp53
 70
     1
102
RTVSPost2010Prop54
  1
strokes_ogs.tif
102
RTVSPost2010PropOp54
 70
     1
102
RTVSPost2010Prop55
280
     0
102
RTVSPost2010PropOp55
 70
     1
102
RTVSPost2010Prop56
140
1.0
102
RTVSPost2010PropOp56
 70
     1
102
RTVSPost2010Prop57
140
1.0
102
RTVSPost2010PropOp57
 70
     1
  0
XRECORD
  5
24A
102
{ACAD_REACTORS
330
249
102
}
330
249
100
AcDbXrecord
280
     1
102
RTVSPost2010Prop28
280
     0
102
RTVSPost2010PropOp28
 70
     1
102
RTVSPost2010Prop29
280
     1
102
RTVSPost2010PropOp29
 70
     1
102
RTVSPost2010Prop30
280
     1
102
RTVSPost2010PropOp30
 70
     1
102
RTVSPost2010Prop31
280
     0
102
RTVSPost2010PropOp31
 70
     1
102
RTVSPost2010Prop32
280
     0
102
RTVSPost2010PropOp32
 70
     1
102
RTVSPost2010Prop33
280
     0
102
RTVSPost2010PropOp33
 70
     1
102
RTVSPost2010Prop34
280
     0
102
RTVSPost2010PropOp34
 70
     1
102
RTVSPost2010Prop35
280
     0
102
RTVSPost2010PropOp35
 70
     1
102
RTVSPost2010Prop36
280
     0
102
RTVSPost2010PropOp36
 70
     1
102
RTVSPost2010Prop37
 90
       50
102
RTVSPost2010PropOp37
 70
     1
102
RTVSPost2010Prop38
140
0.0
102
RTVSPost2010PropOp38
 70
     1
102
RTVSPost2010Prop39
140
1.0
102
RTVSPost2010PropOp39
 70
     1
102
RTVSPost2010Prop40
 90
        0
102
RTVSPost2010PropOp40
 70
     1
102
RTVSPost2010Prop41ColorIndex
 90
       18
102
RTVSPost2010Prop41ColorRGB
 90
        0
102
RTVSPost2010PropOp41
 70
     1
102
RTVSPost2010Prop42
 90
       50
102
RTVSPost2010PropOp42
 70
     1
102
RTVSPost2010Prop43
 90
        3
102
RTVSPost2010PropOp43
 70
     1
102
RTVSPost2010Prop44ColorIndex
 90
        5
102
RTVSPost2010Prop44ColorRGB
 90
      255
102
RTVSPost2010PropOp44
 70
     1
102
RTVSPost2010Prop45
280
     0
102
RTVSPost2010PropOp45
 70
     1
102
RTVSPost2010Prop46
 90
       50
102
RTVSPost2010PropOp46
 70
     1
102
RTVSPost2010Prop47
 90
       50
102
RTVSPost2010PropOp47
 70
     1
102
RTVSPost2010Prop48
 90
       50
102
RTVSPost2010PropOp48
 70
     1
102
RTVSPost2010Prop49
280
     0
102
RTVSPost2010PropOp49
 70
     1
102
RTVSPost2010Prop50
 90
       50
102
RTVSPost2010PropOp50
 70
     1
102
RTVSPost2010Prop51ColorIndex
 90
      256
102
RTVSPost2010Prop51ColorRGB
 90
-16777216
102
RTVSPost2010PropOp51
 70
     0
102
RTVSPost2010Prop52
140
1.0
102
RTVSPost2010PropOp52
 70
     0
102
RTVSPost2010Prop53
 90
        2
102
RTVSPost2010PropOp53
 70
     1
102
RTVSPost2010Prop54
  1
strokes_ogs.tif
102
RTVSPost2010PropOp54
 70
     1
102
RTVSPost2010Prop55
280
     0
102
RTVSPost2010PropOp55
 70
     1
102
RTVSPost2010Prop56
140
1.0
102
RTVSPost2010PropOp56
 70
     1
102
RTVSPost2010Prop57
140
1.0
102
RTVSPost2010PropOp57
 70
     1
  0
XRECORD
  5
25A
102
{ACAD_REACTORS
330
259
102
}
330
259
100
AcDbXrecord
280
     1
102
RTVSPost2010Prop28
280
     0
102
RTVSPost2010PropOp28
 70
     0
102
RTVSPost2010Prop29
280
     1
102
RTVSPost2010PropOp29
 70
     0
102
RTVSPost2010Prop30
280
     1
102
RTVSPost2010PropOp30
 70
     0
102
RTVSPost2010Prop31
280
     0
102
RTVSPost2010PropOp31
 70
     0
102
RTVSPost2010Prop32
280
     0
102
RTVSPost2010PropOp32
 70
     0
102
RTVSPost2010Prop33
280
     0
102
RTVSPost2010PropOp33
 70
     0
102
RTVSPost2010Prop34
280
     0
102
RTVSPost2010PropOp34
 70
     0
102
RTVSPost2010Prop35
280
     0
102
RTVSPost2010PropOp35
 70
     0
102
RTVSPost2010Prop36
280
     0
102
RTVSPost2010PropOp36
 70
     0
102
RTVSPost2010Prop37
 90
       50
102
RTVSPost2010PropOp37
 70
     0
102
RTVSPost2010Prop38
140
0.0
102
RTVSPost2010PropOp38
 70
     0
102
RTVSPost2010Prop39
140
1.0
102
RTVSPost2010PropOp39
 70
     0
102
RTVSPost2010Prop40
 90
        0
102
RTVSPost2010PropOp40
 70
     0
102
RTVSPost2010Prop41ColorIndex
 90
       18
102
RTVSPost2010Prop41ColorRGB
 90
        0
102
RTVSPost2010PropOp41
 70
     0
102
RTVSPost2010Prop42
 90
       50
102
RTVSPost2010PropOp42
 70
     0
102
RTVSPost2010Prop43
 90
        3
102
RTVSPost2010PropOp43
 70
     0
102
RTVSPost2010Prop44ColorIndex
 90
        5
102
RTVSPost2010Prop44ColorRGB
 90
      255
102
RTVSPost2010PropOp44
 70
     0
102
RTVSPost2010Prop45
280
     0
102
RTVSPost2010PropOp45
 70
     0
102
RTVSPost2010Prop46
 90
       50
102
RTVSPost2010PropOp46
 70
     0
102
RTVSPost2010Prop47
 90
       50
102
RTVSPost2010PropOp47
 70
     0
102
RTVSPost2010Prop48
 90
       50
102
RTVSPost2010PropOp48
 70
     0
102
RTVSPost2010Prop49
280
     0
102
RTVSPost2010PropOp49
 70
     0
102
RTVSPost2010Prop50
 90
       50
102
RTVSPost2010PropOp50
 70
     0
102
RTVSPost2010Prop51ColorIndex
 90
      256
102
RTVSPost2010Prop51ColorRGB
 90
-16777216
102
RTVSPost2010PropOp51
 70
     0
102
RTVSPost2010Prop52
140
1.0
102
RTVSPost2010PropOp52
 70
     0
102
RTVSPost2010Prop53
 90
        2
102
RTVSPost2010PropOp53
 70
     0
102
RTVSPost2010Prop54
  1
strokes_ogs.tif
102
RTVSPost2010PropOp54
 70
     0
102
RTVSPost2010Prop55
280
     0
102
RTVSPost2010PropOp55
 70
     0
102
RTVSPost2010Prop56
140
1.0
102
RTVSPost2010PropOp56
 70
     0
102
RTVSPost2010Prop57
140
1.0
102
RTVSPost2010PropOp57
 70
     0
  0
XRECORD
  5
252
102
{ACAD_REACTORS
330
251
102
}
330
251
100
AcDbXrecord
280
     1
102
RTVSPost2010Prop28
280
     0
102
RTVSPost2010PropOp28
 70
     1
102
RTVSPost2010Prop29
280
     1
102
RTVSPost2010PropOp29
 70
     1
102
RTVSPost2010Prop30
280
     1
102
RTVSPost2010PropOp30
 70
     1
102
RTVSPost2010Prop31
280
     0
102
RTVSPost2010PropOp31
 70
     1
102
RTVSPost2010Prop32
280
     0
102
RTVSPost2010PropOp32
 70
     1
102
RTVSPost2010Prop33
280
     0
102
RTVSPost2010PropOp33
 70
     1
102
RTVSPost2010Prop34
280
     0
102
RTVSPost2010PropOp34
 70
     1
102
RTVSPost2010Prop35
280
     0
102
RTVSPost2010PropOp35
 70
     1
102
RTVSPost2010Prop36
280
     0
102
RTVSPost2010PropOp36
 70
     1
102
RTVSPost2010Prop37
 90
       50
102
RTVSPost2010PropOp37
 70
     1
102
RTVSPost2010Prop38
140
0.0
102
RTVSPost2010PropOp38
 70
     1
102
RTVSPost2010Prop39
140
1.0
102
RTVSPost2010PropOp39
 70
     1
102
RTVSPost2010Prop40
 90
        0
102
RTVSPost2010PropOp40
 70
     1
102
RTVSPost2010Prop41ColorIndex
 90
       18
102
RTVSPost2010Prop41ColorRGB
 90
        0
102
RTVSPost2010PropOp41
 70
     1
102
RTVSPost2010Prop42
 90
       50
102
RTVSPost2010PropOp42
 70
     1
102
RTVSPost2010Prop43
 90
        3
102
RTVSPost2010PropOp43
 70
     1
102
RTVSPost2010Prop44ColorIndex
 90
        5
102
RTVSPost2010Prop44ColorRGB
 90
      255
102
RTVSPost2010PropOp44
 70
     1
102
RTVSPost2010Prop45
280
     0
102
RTVSPost2010PropOp45
 70
     1
102
RTVSPost2010Prop46
 90
       50
102
RTVSPost2010PropOp46
 70
     1
102
RTVSPost2010Prop47
 90
       50
102
RTVSPost2010PropOp47
 70
     1
102
RTVSPost2010Prop48
 90
       50
102
RTVSPost2010PropOp48
 70
     1
102
RTVSPost2010Prop49
280
     0
102
RTVSPost2010PropOp49
 70
     1
102
RTVSPost2010Prop50
 90
       50
102
RTVSPost2010PropOp50
 70
     1
102
RTVSPost2010Prop51ColorIndex
 90
      256
102
RTVSPost2010Prop51ColorRGB
 90
-16777216
102
RTVSPost2010PropOp51
 70
     0
102
RTVSPost2010Prop52
140
1.0
102
RTVSPost2010PropOp52
 70
     0
102
RTVSPost2010Prop53
 90
        2
102
RTVSPost2010PropOp53
 70
     1
102
RTVSPost2010Prop54
  1
strokes_ogs.tif
102
RTVSPost2010PropOp54
 70
     1
102
RTVSPost2010Prop55
280
     0
102
RTVSPost2010PropOp55
 70
     1
102
RTVSPost2010Prop56
140
1.0
102
RTVSPost2010PropOp56
 70
     1
102
RTVSPost2010Prop57
140
1.0
102
RTVSPost2010PropOp57
 70
     1
  0
XRECORD
  5
236
102
{ACAD_REACTORS
330
235
102
}
330
235
100
AcDbXrecord
280
     1
102
RTVSPost2010Prop28
280
     0
102
RTVSPost2010PropOp28
 70
     1
102
RTVSPost2010Prop29
280
     1
102
RTVSPost2010PropOp29
 70
     1
102
RTVSPost2010Prop30
280
     1
102
RTVSPost2010PropOp30
 70
     1
102
RTVSPost2010Prop31
280
     0
102
RTVSPost2010PropOp31
 70
     1
102
RTVSPost2010Prop32
280
     0
102
RTVSPost2010PropOp32
 70
     1
102
RTVSPost2010Prop33
280
     0
102
RTVSPost2010PropOp33
 70
     1
102
RTVSPost2010Prop34
280
     0
102
RTVSPost2010PropOp34
 70
     1
102
RTVSPost2010Prop35
280
     0
102
RTVSPost2010PropOp35
 70
     1
102
RTVSPost2010Prop36
280
     0
102
RTVSPost2010PropOp36
 70
     1
102
RTVSPost2010Prop37
 90
       50
102
RTVSPost2010PropOp37
 70
     1
102
RTVSPost2010Prop38
140
0.0
102
RTVSPost2010PropOp38
 70
     1
102
RTVSPost2010Prop39
140
1.0
102
RTVSPost2010PropOp39
 70
     1
102
RTVSPost2010Prop40
 90
        0
102
RTVSPost2010PropOp40
 70
     1
102
RTVSPost2010Prop41ColorIndex
 90
       18
102
RTVSPost2010Prop41ColorRGB
 90
        0
102
RTVSPost2010PropOp41
 70
     1
102
RTVSPost2010Prop42
 90
       50
102
RTVSPost2010PropOp42
 70
     1
102
RTVSPost2010Prop43
 90
        3
102
RTVSPost2010PropOp43
 70
     1
102
RTVSPost2010Prop44ColorIndex
 90
        5
102
RTVSPost2010Prop44ColorRGB
 90
      255
102
RTVSPost2010PropOp44
 70
     1
102
RTVSPost2010Prop45
280
     0
102
RTVSPost2010PropOp45
 70
     1
102
RTVSPost2010Prop46
 90
       50
102
RTVSPost2010PropOp46
 70
     1
102
RTVSPost2010Prop47
 90
       50
102
RTVSPost2010PropOp47
 70
     1
102
RTVSPost2010Prop48
 90
       50
102
RTVSPost2010PropOp48
 70
     1
102
RTVSPost2010Prop49
280
     0
102
RTVSPost2010PropOp49
 70
     1
102
RTVSPost2010Prop50
 90
       50
102
RTVSPost2010PropOp50
 70
     1
102
RTVSPost2010Prop51ColorIndex
 90
      256
102
RTVSPost2010Prop51ColorRGB
 90
-16777216
102
RTVSPost2010PropOp51
 70
     0
102
RTVSPost2010Prop52
140
1.0
102
RTVSPost2010PropOp52
 70
     0
102
RTVSPost2010Prop53
 90
        2
102
RTVSPost2010PropOp53
 70
     1
102
RTVSPost2010Prop54
  1
strokes_ogs.tif
102
RTVSPost2010PropOp54
 70
     1
102
RTVSPost2010Prop55
280
     0
102
RTVSPost2010PropOp55
 70
     1
102
RTVSPost2010Prop56
140
1.0
102
RTVSPost2010PropOp56
 70
     1
102
RTVSPost2010Prop57
140
1.0
102
RTVSPost2010PropOp57
 70
     1
  0
XRECORD
  5
238
102
{ACAD_REACTORS
330
237
102
}
330
237
100
AcDbXrecord
280
     1
102
RTVSPost2010Prop28
280
     0
102
RTVSPost2010PropOp28
 70
     1
102
RTVSPost2010Prop29
280
     1
102
RTVSPost2010PropOp29
 70
     1
102
RTVSPost2010Prop30
280
     1
102
RTVSPost2010PropOp30
 70
     1
102
RTVSPost2010Prop31
280
     0
102
RTVSPost2010PropOp31
 70
     1
102
RTVSPost2010Prop32
280
     0
102
RTVSPost2010PropOp32
 70
     1
102
RTVSPost2010Prop33
280
     0
102
RTVSPost2010PropOp33
 70
     1
102
RTVSPost2010Prop34
280
     0
102
RTVSPost2010PropOp34
 70
     1
102
RTVSPost2010Prop35
280
     0
102
RTVSPost2010PropOp35
 70
     1
102
RTVSPost2010Prop36
280
     0
102
RTVSPost2010PropOp36
 70
     1
102
RTVSPost2010Prop37
 90
       50
102
RTVSPost2010PropOp37
 70
     1
102
RTVSPost2010Prop38
140
0.0
102
RTVSPost2010PropOp38
 70
     1
102
RTVSPost2010Prop39
140
1.0
102
RTVSPost2010PropOp39
 70
     1
102
RTVSPost2010Prop40
 90
        0
102
RTVSPost2010PropOp40
 70
     1
102
RTVSPost2010Prop41ColorIndex
 90
       18
102
RTVSPost2010Prop41ColorRGB
 90
        0
102
RTVSPost2010PropOp41
 70
     1
102
RTVSPost2010Prop42
 90
       50
102
RTVSPost2010PropOp42
 70
     1
102
RTVSPost2010Prop43
 90
        3
102
RTVSPost2010PropOp43
 70
     1
102
RTVSPost2010Prop44ColorIndex
 90
        5
102
RTVSPost2010Prop44ColorRGB
 90
      255
102
RTVSPost2010PropOp44
 70
     1
102
RTVSPost2010Prop45
280
     0
102
RTVSPost2010PropOp45
 70
     1
102
RTVSPost2010Prop46
 90
       50
102
RTVSPost2010PropOp46
 70
     1
102
RTVSPost2010Prop47
 90
       50
102
RTVSPost2010PropOp47
 70
     1
102
RTVSPost2010Prop48
 90
       50
102
RTVSPost2010PropOp48
 70
     1
102
RTVSPost2010Prop49
280
     0
102
RTVSPost2010PropOp49
 70
     1
102
RTVSPost2010Prop50
 90
       50
102
RTVSPost2010PropOp50
 70
     1
102
RTVSPost2010Prop51ColorIndex
 90
      256
102
RTVSPost2010Prop51ColorRGB
 90
-16777216
102
RTVSPost2010PropOp51
 70
     0
102
RTVSPost2010Prop52
140
1.0
102
RTVSPost2010PropOp52
 70
     0
102
RTVSPost2010Prop53
 90
        2
102
RTVSPost2010PropOp53
 70
     1
102
RTVSPost2010Prop54
  1
strokes_ogs.tif
102
RTVSPost2010PropOp54
 70
     1
102
RTVSPost2010Prop55
280
     0
102
RTVSPost2010PropOp55
 70
     1
102
RTVSPost2010Prop56
140
1.0
102
RTVSPost2010PropOp56
 70
     1
102
RTVSPost2010Prop57
140
1.0
102
RTVSPost2010PropOp57
 70
     1
  0
XRECORD
  5
23A
102
{ACAD_REACTORS
330
239
102
}
330
239
100
AcDbXrecord
280
     1
102
RTVSPost2010Prop28
280
     0
102
RTVSPost2010PropOp28
 70
     1
102
RTVSPost2010Prop29
280
     1
102
RTVSPost2010PropOp29
 70
     1
102
RTVSPost2010Prop30
280
     1
102
RTVSPost2010PropOp30
 70
     1
102
RTVSPost2010Prop31
280
     0
102
RTVSPost2010PropOp31
 70
     1
102
RTVSPost2010Prop32
280
     0
102
RTVSPost2010PropOp32
 70
     1
102
RTVSPost2010Prop33
280
     0
102
RTVSPost2010PropOp33
 70
     1
102
RTVSPost2010Prop34
280
     0
102
RTVSPost2010PropOp34
 70
     1
102
RTVSPost2010Prop35
280
     0
102
RTVSPost2010PropOp35
 70
     1
102
RTVSPost2010Prop36
280
     0
102
RTVSPost2010PropOp36
 70
     1
102
RTVSPost2010Prop37
 90
       50
102
RTVSPost2010PropOp37
 70
     1
102
RTVSPost2010Prop38
140
0.0
102
RTVSPost2010PropOp38
 70
     1
102
RTVSPost2010Prop39
140
1.0
102
RTVSPost2010PropOp39
 70
     1
102
RTVSPost2010Prop40
 90
        0
102
RTVSPost2010PropOp40
 70
     1
102
RTVSPost2010Prop41ColorIndex
 90
       18
102
RTVSPost2010Prop41ColorRGB
 90
        0
102
RTVSPost2010PropOp41
 70
     1
102
RTVSPost2010Prop42
 90
       50
102
RTVSPost2010PropOp42
 70
     1
102
RTVSPost2010Prop43
 90
        3
102
RTVSPost2010PropOp43
 70
     1
102
RTVSPost2010Prop44ColorIndex
 90
        5
102
RTVSPost2010Prop44ColorRGB
 90
      255
102
RTVSPost2010PropOp44
 70
     1
102
RTVSPost2010Prop45
280
     0
102
RTVSPost2010PropOp45
 70
     1
102
RTVSPost2010Prop46
 90
       50
102
RTVSPost2010PropOp46
 70
     1
102
RTVSPost2010Prop47
 90
       50
102
RTVSPost2010PropOp47
 70
     1
102
RTVSPost2010Prop48
 90
       50
102
RTVSPost2010PropOp48
 70
     1
102
RTVSPost2010Prop49
280
     0
102
RTVSPost2010PropOp49
 70
     1
102
RTVSPost2010Prop50
 90
       50
102
RTVSPost2010PropOp50
 70
     1
102
RTVSPost2010Prop51ColorIndex
 90
      256
102
RTVSPost2010Prop51ColorRGB
 90
-16777216
102
RTVSPost2010PropOp51
 70
     0
102
RTVSPost2010Prop52
140
1.0
102
RTVSPost2010PropOp52
 70
     0
102
RTVSPost2010Prop53
 90
        2
102
RTVSPost2010PropOp53
 70
     1
102
RTVSPost2010Prop54
  1
strokes_ogs.tif
102
RTVSPost2010PropOp54
 70
     1
102
RTVSPost2010Prop55
280
     0
102
RTVSPost2010PropOp55
 70
     1
102
RTVSPost2010Prop56
140
1.0
102
RTVSPost2010PropOp56
 70
     1
102
RTVSPost2010Prop57
140
1.0
102
RTVSPost2010PropOp57
 70
     1
  0
XRECORD
  5
23C
102
{ACAD_REACTORS
330
23B
102
}
330
23B
100
AcDbXrecord
280
     1
102
RTVSPost2010Prop28
280
     0
102
RTVSPost2010PropOp28
 70
     1
102
RTVSPost2010Prop29
280
     1
102
RTVSPost2010PropOp29
 70
     1
102
RTVSPost2010Prop30
280
     1
102
RTVSPost2010PropOp30
 70
     1
102
RTVSPost2010Prop31
280
     0
102
RTVSPost2010PropOp31
 70
     1
102
RTVSPost2010Prop32
280
     0
102
RTVSPost2010PropOp32
 70
     1
102
RTVSPost2010Prop33
280
     0
102
RTVSPost2010PropOp33
 70
     1
102
RTVSPost2010Prop34
280
     0
102
RTVSPost2010PropOp34
 70
     1
102
RTVSPost2010Prop35
280
     0
102
RTVSPost2010PropOp35
 70
     1
102
RTVSPost2010Prop36
280
     0
102
RTVSPost2010PropOp36
 70
     1
102
RTVSPost2010Prop37
 90
       50
102
RTVSPost2010PropOp37
 70
     1
102
RTVSPost2010Prop38
140
0.0
102
RTVSPost2010PropOp38
 70
     1
102
RTVSPost2010Prop39
140
1.0
102
RTVSPost2010PropOp39
 70
     1
102
RTVSPost2010Prop40
 90
        0
102
RTVSPost2010PropOp40
 70
     1
102
RTVSPost2010Prop41ColorIndex
 90
       18
102
RTVSPost2010Prop41ColorRGB
 90
        0
102
RTVSPost2010PropOp41
 70
     1
102
RTVSPost2010Prop42
 90
       50
102
RTVSPost2010PropOp42
 70
     1
102
RTVSPost2010Prop43
 90
        3
102
RTVSPost2010PropOp43
 70
     1
102
RTVSPost2010Prop44ColorIndex
 90
        5
102
RTVSPost2010Prop44ColorRGB
 90
      255
102
RTVSPost2010PropOp44
 70
     1
102
RTVSPost2010Prop45
280
     0
102
RTVSPost2010PropOp45
 70
     1
102
RTVSPost2010Prop46
 90
       50
102
RTVSPost2010PropOp46
 70
     1
102
RTVSPost2010Prop47
 90
       50
102
RTVSPost2010PropOp47
 70
     1
102
RTVSPost2010Prop48
 90
       50
102
RTVSPost2010PropOp48
 70
     1
102
RTVSPost2010Prop49
280
     0
102
RTVSPost2010PropOp49
 70
     1
102
RTVSPost2010Prop50
 90
       50
102
RTVSPost2010PropOp50
 70
     1
102
RTVSPost2010Prop51ColorIndex
 90
      256
102
RTVSPost2010Prop51ColorRGB
 90
-16777216
102
RTVSPost2010PropOp51
 70
     0
102
RTVSPost2010Prop52
140
1.0
102
RTVSPost2010PropOp52
 70
     0
102
RTVSPost2010Prop53
 90
        2
102
RTVSPost2010PropOp53
 70
     1
102
RTVSPost2010Prop54
  1
strokes_ogs.tif
102
RTVSPost2010PropOp54
 70
     1
102
RTVSPost2010Prop55
280
     0
102
RTVSPost2010PropOp55
 70
     1
102
RTVSPost2010Prop56
140
1.0
102
RTVSPost2010PropOp56
 70
     1
102
RTVSPost2010Prop57
140
1.0
102
RTVSPost2010PropOp57
 70
     1
  0
XRECORD
  5
242
102
{ACAD_REACTORS
330
241
102
}
330
241
100
AcDbXrecord
280
     1
102
RTVSPost2010Prop28
280
     0
102
RTVSPost2010PropOp28
 70
     1
102
RTVSPost2010Prop29
280
     1
102
RTVSPost2010PropOp29
 70
     1
102
RTVSPost2010Prop30
280
     1
102
RTVSPost2010PropOp30
 70
     1
102
RTVSPost2010Prop31
280
     0
102
RTVSPost2010PropOp31
 70
     1
102
RTVSPost2010Prop32
280
     0
102
RTVSPost2010PropOp32
 70
     1
102
RTVSPost2010Prop33
280
     0
102
RTVSPost2010PropOp33
 70
     1
102
RTVSPost2010Prop34
280
     0
102
RTVSPost2010PropOp34
 70
     1
102
RTVSPost2010Prop35
280
     0
102
RTVSPost2010PropOp35
 70
     1
102
RTVSPost2010Prop36
280
     0
102
RTVSPost2010PropOp36
 70
     1
102
RTVSPost2010Prop37
 90
       50
102
RTVSPost2010PropOp37
 70
     1
102
RTVSPost2010Prop38
140
0.0
102
RTVSPost2010PropOp38
 70
     1
102
RTVSPost2010Prop39
140
1.0
102
RTVSPost2010PropOp39
 70
     1
102
RTVSPost2010Prop40
 90
        0
102
RTVSPost2010PropOp40
 70
     1
102
RTVSPost2010Prop41ColorIndex
 90
       18
102
RTVSPost2010Prop41ColorRGB
 90
        0
102
RTVSPost2010PropOp41
 70
     1
102
RTVSPost2010Prop42
 90
       50
102
RTVSPost2010PropOp42
 70
     1
102
RTVSPost2010Prop43
 90
        3
102
RTVSPost2010PropOp43
 70
     1
102
RTVSPost2010Prop44ColorIndex
 90
        5
102
RTVSPost2010Prop44ColorRGB
 90
      255
102
RTVSPost2010PropOp44
 70
     1
102
RTVSPost2010Prop45
280
     0
102
RTVSPost2010PropOp45
 70
     1
102
RTVSPost2010Prop46
 90
       50
102
RTVSPost2010PropOp46
 70
     1
102
RTVSPost2010Prop47
 90
       50
102
RTVSPost2010PropOp47
 70
     1
102
RTVSPost2010Prop48
 90
       50
102
RTVSPost2010PropOp48
 70
     1
102
RTVSPost2010Prop49
280
     0
102
RTVSPost2010PropOp49
 70
     1
102
RTVSPost2010Prop50
 90
       50
102
RTVSPost2010PropOp50
 70
     1
102
RTVSPost2010Prop51ColorIndex
 90
      256
102
RTVSPost2010Prop51ColorRGB
 90
-16777216
102
RTVSPost2010PropOp51
 70
     0
102
RTVSPost2010Prop52
140
1.0
102
RTVSPost2010PropOp52
 70
     0
102
RTVSPost2010Prop53
 90
        2
102
RTVSPost2010PropOp53
 70
     1
102
RTVSPost2010Prop54
  1
strokes_ogs.tif
102
RTVSPost2010PropOp54
 70
     1
102
RTVSPost2010Prop55
280
     0
102
RTVSPost2010PropOp55
 70
     1
102
RTVSPost2010Prop56
140
1.0
102
RTVSPost2010PropOp56
 70
     1
102
RTVSPost2010Prop57
140
1.0
102
RTVSPost2010PropOp57
 70
     1
  0
XRECORD
  5
256
102
{ACAD_REACTORS
330
255
102
}
330
255
100
AcDbXrecord
280
     1
102
RTVSPost2010Prop28
280
     0
102
RTVSPost2010PropOp28
 70
     0
102
RTVSPost2010Prop29
280
     1
102
RTVSPost2010PropOp29
 70
     0
102
RTVSPost2010Prop30
280
     1
102
RTVSPost2010PropOp30
 70
     0
102
RTVSPost2010Prop31
280
     0
102
RTVSPost2010PropOp31
 70
     0
102
RTVSPost2010Prop32
280
     0
102
RTVSPost2010PropOp32
 70
     0
102
RTVSPost2010Prop33
280
     0
102
RTVSPost2010PropOp33
 70
     0
102
RTVSPost2010Prop34
280
     0
102
RTVSPost2010PropOp34
 70
     0
102
RTVSPost2010Prop35
280
     0
102
RTVSPost2010PropOp35
 70
     0
102
RTVSPost2010Prop36
280
     0
102
RTVSPost2010PropOp36
 70
     0
102
RTVSPost2010Prop37
 90
       50
102
RTVSPost2010PropOp37
 70
     0
102
RTVSPost2010Prop38
140
0.0
102
RTVSPost2010PropOp38
 70
     0
102
RTVSPost2010Prop39
140
1.0
102
RTVSPost2010PropOp39
 70
     0
102
RTVSPost2010Prop40
 90
        0
102
RTVSPost2010PropOp40
 70
     0
102
RTVSPost2010Prop41ColorIndex
 90
       18
102
RTVSPost2010Prop41ColorRGB
 90
        0
102
RTVSPost2010PropOp41
 70
     0
102
RTVSPost2010Prop42
 90
       50
102
RTVSPost2010PropOp42
 70
     0
102
RTVSPost2010Prop43
 90
        3
102
RTVSPost2010PropOp43
 70
     0
102
RTVSPost2010Prop44ColorIndex
 90
        5
102
RTVSPost2010Prop44ColorRGB
 90
      255
102
RTVSPost2010PropOp44
 70
     0
102
RTVSPost2010Prop45
280
     0
102
RTVSPost2010PropOp45
 70
     0
102
RTVSPost2010Prop46
 90
       50
102
RTVSPost2010PropOp46
 70
     0
102
RTVSPost2010Prop47
 90
       50
102
RTVSPost2010PropOp47
 70
     0
102
RTVSPost2010Prop48
 90
       50
102
RTVSPost2010PropOp48
 70
     0
102
RTVSPost2010Prop49
280
     0
102
RTVSPost2010PropOp49
 70
     0
102
RTVSPost2010Prop50
 90
       50
102
RTVSPost2010PropOp50
 70
     0
102
RTVSPost2010Prop51ColorIndex
 90
      256
102
RTVSPost2010Prop51ColorRGB
 90
-16777216
102
RTVSPost2010PropOp51
 70
     0
102
RTVSPost2010Prop52
140
1.0
102
RTVSPost2010PropOp52
 70
     0
102
RTVSPost2010Prop53
 90
        2
102
RTVSPost2010PropOp53
 70
     0
102
RTVSPost2010Prop54
  1
strokes_ogs.tif
102
RTVSPost2010PropOp54
 70
     0
102
RTVSPost2010Prop55
280
     0
102
RTVSPost2010PropOp55
 70
     0
102
RTVSPost2010Prop56
140
1.0
102
RTVSPost2010PropOp56
 70
     0
102
RTVSPost2010Prop57
140
1.0
102
RTVSPost2010PropOp57
 70
     0
  0
XRECORD
  5
250
102
{ACAD_REACTORS
330
24F
102
}
330
24F
100
AcDbXrecord
280
     1
102
RTVSPost2010Prop28
280
     0
102
RTVSPost2010PropOp28
 70
     1
102
RTVSPost2010Prop29
280
     1
102
RTVSPost2010PropOp29
 70
     1
102
RTVSPost2010Prop30
280
     1
102
RTVSPost2010PropOp30
 70
     1
102
RTVSPost2010Prop31
280
     0
102
RTVSPost2010PropOp31
 70
     1
102
RTVSPost2010Prop32
280
     0
102
RTVSPost2010PropOp32
 70
     1
102
RTVSPost2010Prop33
280
     0
102
RTVSPost2010PropOp33
 70
     1
102
RTVSPost2010Prop34
280
     0
102
RTVSPost2010PropOp34
 70
     1
102
RTVSPost2010Prop35
280
     0
102
RTVSPost2010PropOp35
 70
     1
102
RTVSPost2010Prop36
280
     0
102
RTVSPost2010PropOp36
 70
     1
102
RTVSPost2010Prop37
 90
       50
102
RTVSPost2010PropOp37
 70
     1
102
RTVSPost2010Prop38
140
0.0
102
RTVSPost2010PropOp38
 70
     1
102
RTVSPost2010Prop39
140
1.0
102
RTVSPost2010PropOp39
 70
     1
102
RTVSPost2010Prop40
 90
        0
102
RTVSPost2010PropOp40
 70
     1
102
RTVSPost2010Prop41ColorIndex
 90
       18
102
RTVSPost2010Prop41ColorRGB
 90
        0
102
RTVSPost2010PropOp41
 70
     1
102
RTVSPost2010Prop42
 90
       50
102
RTVSPost2010PropOp42
 70
     1
102
RTVSPost2010Prop43
 90
        3
102
RTVSPost2010PropOp43
 70
     1
102
RTVSPost2010Prop44ColorIndex
 90
        5
102
RTVSPost2010Prop44ColorRGB
 90
      255
102
RTVSPost2010PropOp44
 70
     1
102
RTVSPost2010Prop45
280
     0
102
RTVSPost2010PropOp45
 70
     1
102
RTVSPost2010Prop46
 90
       50
102
RTVSPost2010PropOp46
 70
     1
102
RTVSPost2010Prop47
 90
       50
102
RTVSPost2010PropOp47
 70
     1
102
RTVSPost2010Prop48
 90
       50
102
RTVSPost2010PropOp48
 70
     1
102
RTVSPost2010Prop49
280
     0
102
RTVSPost2010PropOp49
 70
     1
102
RTVSPost2010Prop50
 90
       50
102
RTVSPost2010PropOp50
 70
     1
102
RTVSPost2010Prop51ColorIndex
 90
      256
102
RTVSPost2010Prop51ColorRGB
 90
-16777216
102
RTVSPost2010PropOp51
 70
     0
102
RTVSPost2010Prop52
140
1.0
102
RTVSPost2010PropOp52
 70
     0
102
RTVSPost2010Prop53
 90
        2
102
RTVSPost2010PropOp53
 70
     1
102
RTVSPost2010Prop54
  1
strokes_ogs.tif
102
RTVSPost2010PropOp54
 70
     1
102
RTVSPost2010Prop55
280
     0
102
RTVSPost2010PropOp55
 70
     1
102
RTVSPost2010Prop56
140
1.0
102
RTVSPost2010PropOp56
 70
     1
102
RTVSPost2010Prop57
140
1.0
102
RTVSPost2010PropOp57
 70
     1
  0
XRECORD
  5
258
102
{ACAD_REACTORS
330
257
102
}
330
257
100
AcDbXrecord
280
     1
102
RTVSPost2010Prop28
280
     0
102
RTVSPost2010PropOp28
 70
     0
102
RTVSPost2010Prop29
280
     1
102
RTVSPost2010PropOp29
 70
     0
102
RTVSPost2010Prop30
280
     1
102
RTVSPost2010PropOp30
 70
     0
102
RTVSPost2010Prop31
280
     0
102
RTVSPost2010PropOp31
 70
     0
102
RTVSPost2010Prop32
280
     0
102
RTVSPost2010PropOp32
 70
     0
102
RTVSPost2010Prop33
280
     0
102
RTVSPost2010PropOp33
 70
     0
102
RTVSPost2010Prop34
280
     0
102
RTVSPost2010PropOp34
 70
     0
102
RTVSPost2010Prop35
280
     0
102
RTVSPost2010PropOp35
 70
     0
102
RTVSPost2010Prop36
280
     0
102
RTVSPost2010PropOp36
 70
     0
102
RTVSPost2010Prop37
 90
       50
102
RTVSPost2010PropOp37
 70
     0
102
RTVSPost2010Prop38
140
0.0
102
RTVSPost2010PropOp38
 70
     0
102
RTVSPost2010Prop39
140
1.0
102
RTVSPost2010PropOp39
 70
     0
102
RTVSPost2010Prop40
 90
        0
102
RTVSPost2010PropOp40
 70
     0
102
RTVSPost2010Prop41ColorIndex
 90
       18
102
RTVSPost2010Prop41ColorRGB
 90
        0
102
RTVSPost2010PropOp41
 70
     0
102
RTVSPost2010Prop42
 90
       50
102
RTVSPost2010PropOp42
 70
     0
102
RTVSPost2010Prop43
 90
        3
102
RTVSPost2010PropOp43
 70
     0
102
RTVSPost2010Prop44ColorIndex
 90
        5
102
RTVSPost2010Prop44ColorRGB
 90
      255
102
RTVSPost2010PropOp44
 70
     0
102
RTVSPost2010Prop45
280
     0
102
RTVSPost2010PropOp45
 70
     0
102
RTVSPost2010Prop46
 90
       50
102
RTVSPost2010PropOp46
 70
     0
102
RTVSPost2010Prop47
 90
       50
102
RTVSPost2010PropOp47
 70
     0
102
RTVSPost2010Prop48
 90
       50
102
RTVSPost2010PropOp48
 70
     0
102
RTVSPost2010Prop49
280
     0
102
RTVSPost2010PropOp49
 70
     0
102
RTVSPost2010Prop50
 90
       50
102
RTVSPost2010PropOp50
 70
     0
102
RTVSPost2010Prop51ColorIndex
 90
      256
102
RTVSPost2010Prop51ColorRGB
 90
-16777216
102
RTVSPost2010PropOp51
 70
     0
102
RTVSPost2010Prop52
140
1.0
102
RTVSPost2010PropOp52
 70
     0
102
RTVSPost2010Prop53
 90
        2
102
RTVSPost2010PropOp53
 70
     0
102
RTVSPost2010Prop54
  1
strokes_ogs.tif
102
RTVSPost2010PropOp54
 70
     0
102
RTVSPost2010Prop55
280
     0
102
RTVSPost2010PropOp55
 70
     0
102
RTVSPost2010Prop56
140
1.0
102
RTVSPost2010PropOp56
 70
     0
102
RTVSPost2010Prop57
140
1.0
102
RTVSPost2010PropOp57
 70
     0
  0
XRECORD
  5
246
102
{ACAD_REACTORS
330
245
102
}
330
245
100
AcDbXrecord
280
     1
102
RTVSPost2010Prop28
280
     0
102
RTVSPost2010PropOp28
 70
     1
102
RTVSPost2010Prop29
280
     1
102
RTVSPost2010PropOp29
 70
     1
102
RTVSPost2010Prop30
280
     1
102
RTVSPost2010PropOp30
 70
     1
102
RTVSPost2010Prop31
280
     0
102
RTVSPost2010PropOp31
 70
     1
102
RTVSPost2010Prop32
280
     0
102
RTVSPost2010PropOp32
 70
     1
102
RTVSPost2010Prop33
280
     0
102
RTVSPost2010PropOp33
 70
     1
102
RTVSPost2010Prop34
280
     0
102
RTVSPost2010PropOp34
 70
     1
102
RTVSPost2010Prop35
280
     0
102
RTVSPost2010PropOp35
 70
     1
102
RTVSPost2010Prop36
280
     0
102
RTVSPost2010PropOp36
 70
     1
102
RTVSPost2010Prop37
 90
       50
102
RTVSPost2010PropOp37
 70
     1
102
RTVSPost2010Prop38
140
0.0
102
RTVSPost2010PropOp38
 70
     1
102
RTVSPost2010Prop39
140
1.0
102
RTVSPost2010PropOp39
 70
     1
102
RTVSPost2010Prop40
 90
        0
102
RTVSPost2010PropOp40
 70
     1
102
RTVSPost2010Prop41ColorIndex
 90
       18
102
RTVSPost2010Prop41ColorRGB
 90
        0
102
RTVSPost2010PropOp41
 70
     1
102
RTVSPost2010Prop42
 90
       50
102
RTVSPost2010PropOp42
 70
     1
102
RTVSPost2010Prop43
 90
        3
102
RTVSPost2010PropOp43
 70
     1
102
RTVSPost2010Prop44ColorIndex
 90
        5
102
RTVSPost2010Prop44ColorRGB
 90
      255
102
RTVSPost2010PropOp44
 70
     1
102
RTVSPost2010Prop45
280
     0
102
RTVSPost2010PropOp45
 70
     1
102
RTVSPost2010Prop46
 90
       50
102
RTVSPost2010PropOp46
 70
     1
102
RTVSPost2010Prop47
 90
       50
102
RTVSPost2010PropOp47
 70
     1
102
RTVSPost2010Prop48
 90
       50
102
RTVSPost2010PropOp48
 70
     1
102
RTVSPost2010Prop49
280
     0
102
RTVSPost2010PropOp49
 70
     1
102
RTVSPost2010Prop50
 90
       50
102
RTVSPost2010PropOp50
 70
     1
102
RTVSPost2010Prop51ColorIndex
 90
      256
102
RTVSPost2010Prop51ColorRGB
 90
-16777216
102
RTVSPost2010PropOp51
 70
     0
102
RTVSPost2010Prop52
140
1.0
102
RTVSPost2010PropOp52
 70
     0
102
RTVSPost2010Prop53
 90
        2
102
RTVSPost2010PropOp53
 70
     1
102
RTVSPost2010Prop54
  1
strokes_ogs.tif
102
RTVSPost2010PropOp54
 70
     1
102
RTVSPost2010Prop55
280
     0
102
RTVSPost2010PropOp55
 70
     1
102
RTVSPost2010Prop56
140
1.0
102
RTVSPost2010PropOp56
 70
     1
102
RTVSPost2010Prop57
140
1.0
102
RTVSPost2010PropOp57
 70
     1
  0
XRECORD
  5
264
102
{ACAD_REACTORS
330
263
102
}
330
263
100
AcDbXrecord
280
     1
102
RTVSPost2010Prop28
280
     0
102
RTVSPost2010PropOp28
 70
     1
102
RTVSPost2010Prop29
280
     1
102
RTVSPost2010PropOp29
 70
     1
102
RTVSPost2010Prop30
280
     1
102
RTVSPost2010PropOp30
 70
     1
102
RTVSPost2010Prop31
280
     0
102
RTVSPost2010PropOp31
 70
     1
102
RTVSPost2010Prop32
280
     0
102
RTVSPost2010PropOp32
 70
     1
102
RTVSPost2010Prop33
280
     0
102
RTVSPost2010PropOp33
 70
     1
102
RTVSPost2010Prop34
280
     0
102
RTVSPost2010PropOp34
 70
     1
102
RTVSPost2010Prop35
280
     0
102
RTVSPost2010PropOp35
 70
     1
102
RTVSPost2010Prop36
280
     0
102
RTVSPost2010PropOp36
 70
     1
102
RTVSPost2010Prop37
 90
       50
102
RTVSPost2010PropOp37
 70
     1
102
RTVSPost2010Prop38
140
0.0
102
RTVSPost2010PropOp38
 70
     1
102
RTVSPost2010Prop39
140
1.0
102
RTVSPost2010PropOp39
 70
     1
102
RTVSPost2010Prop40
 90
        0
102
RTVSPost2010PropOp40
 70
     1
102
RTVSPost2010Prop41ColorIndex
 90
       18
102
RTVSPost2010Prop41ColorRGB
 90
        0
102
RTVSPost2010PropOp41
 70
     1
102
RTVSPost2010Prop42
 90
       50
102
RTVSPost2010PropOp42
 70
     1
102
RTVSPost2010Prop43
 90
        3
102
RTVSPost2010PropOp43
 70
     1
102
RTVSPost2010Prop44ColorIndex
 90
        5
102
RTVSPost2010Prop44ColorRGB
 90
      255
102
RTVSPost2010PropOp44
 70
     1
102
RTVSPost2010Prop45
280
     0
102
RTVSPost2010PropOp45
 70
     1
102
RTVSPost2010Prop46
 90
       50
102
RTVSPost2010PropOp46
 70
     1
102
RTVSPost2010Prop47
 90
       50
102
RTVSPost2010PropOp47
 70
     1
102
RTVSPost2010Prop48
 90
       50
102
RTVSPost2010PropOp48
 70
     1
102
RTVSPost2010Prop49
280
     0
102
RTVSPost2010PropOp49
 70
     1
102
RTVSPost2010Prop50
 90
       50
102
RTVSPost2010PropOp50
 70
     1
102
RTVSPost2010Prop51ColorIndex
 90
      256
102
RTVSPost2010Prop51ColorRGB
 90
-16777216
102
RTVSPost2010PropOp51
 70
     0
102
RTVSPost2010Prop52
140
1.0
102
RTVSPost2010PropOp52
 70
     0
102
RTVSPost2010Prop53
 90
        2
102
RTVSPost2010PropOp53
 70
     1
102
RTVSPost2010Prop54
  1
strokes_ogs.tif
102
RTVSPost2010PropOp54
 70
     1
102
RTVSPost2010Prop55
280
     0
102
RTVSPost2010PropOp55
 70
     1
102
RTVSPost2010Prop56
140
1.0
102
RTVSPost2010PropOp56
 70
     1
102
RTVSPost2010Prop57
140
1.0
102
RTVSPost2010PropOp57
 70
     1
  0
XRECORD
  5
262
102
{ACAD_REACTORS
330
261
102
}
330
261
100
AcDbXrecord
280
     1
102
RTVSPost2010Prop28
280
     0
102
RTVSPost2010PropOp28
 70
     1
102
RTVSPost2010Prop29
280
     1
102
RTVSPost2010PropOp29
 70
     1
102
RTVSPost2010Prop30
280
     1
102
RTVSPost2010PropOp30
 70
     1
102
RTVSPost2010Prop31
280
     0
102
RTVSPost2010PropOp31
 70
     1
102
RTVSPost2010Prop32
280
     0
102
RTVSPost2010PropOp32
 70
     1
102
RTVSPost2010Prop33
280
     0
102
RTVSPost2010PropOp33
 70
     1
102
RTVSPost2010Prop34
280
     0
102
RTVSPost2010PropOp34
 70
     1
102
RTVSPost2010Prop35
280
     0
102
RTVSPost2010PropOp35
 70
     1
102
RTVSPost2010Prop36
280
     0
102
RTVSPost2010PropOp36
 70
     1
102
RTVSPost2010Prop37
 90
       50
102
RTVSPost2010PropOp37
 70
     1
102
RTVSPost2010Prop38
140
0.0
102
RTVSPost2010PropOp38
 70
     1
102
RTVSPost2010Prop39
140
1.0
102
RTVSPost2010PropOp39
 70
     1
102
RTVSPost2010Prop40
 90
        0
102
RTVSPost2010PropOp40
 70
     1
102
RTVSPost2010Prop41ColorIndex
 90
       18
102
RTVSPost2010Prop41ColorRGB
 90
        0
102
RTVSPost2010PropOp41
 70
     1
102
RTVSPost2010Prop42
 90
       50
102
RTVSPost2010PropOp42
 70
     1
102
RTVSPost2010Prop43
 90
        3
102
RTVSPost2010PropOp43
 70
     1
102
RTVSPost2010Prop44ColorIndex
 90
        5
102
RTVSPost2010Prop44ColorRGB
 90
      255
102
RTVSPost2010PropOp44
 70
     1
102
RTVSPost2010Prop45
280
     0
102
RTVSPost2010PropOp45
 70
     1
102
RTVSPost2010Prop46
 90
       50
102
RTVSPost2010PropOp46
 70
     1
102
RTVSPost2010Prop47
 90
       50
102
RTVSPost2010PropOp47
 70
     1
102
RTVSPost2010Prop48
 90
       50
102
RTVSPost2010PropOp48
 70
     1
102
RTVSPost2010Prop49
280
     0
102
RTVSPost2010PropOp49
 70
     1
102
RTVSPost2010Prop50
 90
       50
102
RTVSPost2010PropOp50
 70
     1
102
RTVSPost2010Prop51ColorIndex
 90
      256
102
RTVSPost2010Prop51ColorRGB
 90
-16777216
102
RTVSPost2010PropOp51
 70
     0
102
RTVSPost2010Prop52
140
1.0
102
RTVSPost2010PropOp52
 70
     0
102
RTVSPost2010Prop53
 90
        2
102
RTVSPost2010PropOp53
 70
     1
102
RTVSPost2010Prop54
  1
strokes_ogs.tif
102
RTVSPost2010PropOp54
 70
     1
102
RTVSPost2010Prop55
280
     0
102
RTVSPost2010PropOp55
 70
     1
102
RTVSPost2010Prop56
140
1.0
102
RTVSPost2010PropOp56
 70
     1
102
RTVSPost2010Prop57
140
1.0
102
RTVSPost2010PropOp57
 70
     1
  0
XRECORD
  5
25C
102
{ACAD_REACTORS
330
25B
102
}
330
25B
100
AcDbXrecord
280
     1
102
RTVSPost2010Prop28
280
     0
102
RTVSPost2010PropOp28
 70
     1
102
RTVSPost2010Prop29
280
     1
102
RTVSPost2010PropOp29
 70
     1
102
RTVSPost2010Prop30
280
     1
102
RTVSPost2010PropOp30
 70
     1
102
RTVSPost2010Prop31
280
     0
102
RTVSPost2010PropOp31
 70
     1
102
RTVSPost2010Prop32
280
     0
102
RTVSPost2010PropOp32
 70
     1
102
RTVSPost2010Prop33
280
     0
102
RTVSPost2010PropOp33
 70
     1
102
RTVSPost2010Prop34
280
     0
102
RTVSPost2010PropOp34
 70
     1
102
RTVSPost2010Prop35
280
     0
102
RTVSPost2010PropOp35
 70
     1
102
RTVSPost2010Prop36
280
     0
102
RTVSPost2010PropOp36
 70
     1
102
RTVSPost2010Prop37
 90
       50
102
RTVSPost2010PropOp37
 70
     1
102
RTVSPost2010Prop38
140
0.0
102
RTVSPost2010PropOp38
 70
     1
102
RTVSPost2010Prop39
140
1.0
102
RTVSPost2010PropOp39
 70
     1
102
RTVSPost2010Prop40
 90
        0
102
RTVSPost2010PropOp40
 70
     1
102
RTVSPost2010Prop41ColorIndex
 90
       18
102
RTVSPost2010Prop41ColorRGB
 90
        0
102
RTVSPost2010PropOp41
 70
     1
102
RTVSPost2010Prop42
 90
       50
102
RTVSPost2010PropOp42
 70
     1
102
RTVSPost2010Prop43
 90
        3
102
RTVSPost2010PropOp43
 70
     1
102
RTVSPost2010Prop44ColorIndex
 90
        5
102
RTVSPost2010Prop44ColorRGB
 90
      255
102
RTVSPost2010PropOp44
 70
     1
102
RTVSPost2010Prop45
280
     0
102
RTVSPost2010PropOp45
 70
     1
102
RTVSPost2010Prop46
 90
       50
102
RTVSPost2010PropOp46
 70
     1
102
RTVSPost2010Prop47
 90
       50
102
RTVSPost2010PropOp47
 70
     1
102
RTVSPost2010Prop48
 90
       50
102
RTVSPost2010PropOp48
 70
     1
102
RTVSPost2010Prop49
280
     0
102
RTVSPost2010PropOp49
 70
     1
102
RTVSPost2010Prop50
 90
       50
102
RTVSPost2010PropOp50
 70
     1
102
RTVSPost2010Prop51ColorIndex
 90
      256
102
RTVSPost2010Prop51ColorRGB
 90
-16777216
102
RTVSPost2010PropOp51
 70
     0
102
RTVSPost2010Prop52
140
1.0
102
RTVSPost2010PropOp52
 70
     0
102
RTVSPost2010Prop53
 90
        2
102
RTVSPost2010PropOp53
 70
     1
102
RTVSPost2010Prop54
  1
strokes_ogs.tif
102
RTVSPost2010PropOp54
 70
     1
102
RTVSPost2010Prop55
280
     0
102
RTVSPost2010PropOp55
 70
     1
102
RTVSPost2010Prop56
140
1.0
102
RTVSPost2010PropOp56
 70
     1
102
RTVSPost2010Prop57
140
1.0
102
RTVSPost2010PropOp57
 70
     1
  0
XRECORD
  5
25E
102
{ACAD_REACTORS
330
25D
102
}
330
25D
100
AcDbXrecord
280
     1
102
RTVSPost2010Prop28
280
     0
102
RTVSPost2010PropOp28
 70
     1
102
RTVSPost2010Prop29
280
     1
102
RTVSPost2010PropOp29
 70
     1
102
RTVSPost2010Prop30
280
     1
102
RTVSPost2010PropOp30
 70
     1
102
RTVSPost2010Prop31
280
     0
102
RTVSPost2010PropOp31
 70
     1
102
RTVSPost2010Prop32
280
     0
102
RTVSPost2010PropOp32
 70
     1
102
RTVSPost2010Prop33
280
     0
102
RTVSPost2010PropOp33
 70
     1
102
RTVSPost2010Prop34
280
     0
102
RTVSPost2010PropOp34
 70
     1
102
RTVSPost2010Prop35
280
     0
102
RTVSPost2010PropOp35
 70
     1
102
RTVSPost2010Prop36
280
     0
102
RTVSPost2010PropOp36
 70
     1
102
RTVSPost2010Prop37
 90
       50
102
RTVSPost2010PropOp37
 70
     1
102
RTVSPost2010Prop38
140
0.0
102
RTVSPost2010PropOp38
 70
     1
102
RTVSPost2010Prop39
140
1.0
102
RTVSPost2010PropOp39
 70
     1
102
RTVSPost2010Prop40
 90
        0
102
RTVSPost2010PropOp40
 70
     1
102
RTVSPost2010Prop41ColorIndex
 90
       18
102
RTVSPost2010Prop41ColorRGB
 90
        0
102
RTVSPost2010PropOp41
 70
     1
102
RTVSPost2010Prop42
 90
       50
102
RTVSPost2010PropOp42
 70
     1
102
RTVSPost2010Prop43
 90
        3
102
RTVSPost2010PropOp43
 70
     1
102
RTVSPost2010Prop44ColorIndex
 90
        5
102
RTVSPost2010Prop44ColorRGB
 90
      255
102
RTVSPost2010PropOp44
 70
     1
102
RTVSPost2010Prop45
280
     0
102
RTVSPost2010PropOp45
 70
     1
102
RTVSPost2010Prop46
 90
       50
102
RTVSPost2010PropOp46
 70
     1
102
RTVSPost2010Prop47
 90
       50
102
RTVSPost2010PropOp47
 70
     1
102
RTVSPost2010Prop48
 90
       50
102
RTVSPost2010PropOp48
 70
     1
102
RTVSPost2010Prop49
280
     0
102
RTVSPost2010PropOp49
 70
     1
102
RTVSPost2010Prop50
 90
       50
102
RTVSPost2010PropOp50
 70
     1
102
RTVSPost2010Prop51ColorIndex
 90
      256
102
RTVSPost2010Prop51ColorRGB
 90
-16777216
102
RTVSPost2010PropOp51
 70
     0
102
RTVSPost2010Prop52
140
1.0
102
RTVSPost2010PropOp52
 70
     0
102
RTVSPost2010Prop53
 90
        2
102
RTVSPost2010PropOp53
 70
     1
102
RTVSPost2010Prop54
  1
strokes_ogs.tif
102
RTVSPost2010PropOp54
 70
     1
102
RTVSPost2010Prop55
280
     0
102
RTVSPost2010PropOp55
 70
     1
102
RTVSPost2010Prop56
140
1.0
102
RTVSPost2010PropOp56
 70
     1
102
RTVSPost2010Prop57
140
1.0
102
RTVSPost2010PropOp57
 70
     1
  0
XRECORD
  5
24E
102
{ACAD_REACTORS
330
24D
102
}
330
24D
100
AcDbXrecord
280
     1
102
RTVSPost2010Prop28
280
     0
102
RTVSPost2010PropOp28
 70
     1
102
RTVSPost2010Prop29
280
     1
102
RTVSPost2010PropOp29
 70
     1
102
RTVSPost2010Prop30
280
     1
102
RTVSPost2010PropOp30
 70
     1
102
RTVSPost2010Prop31
280
     0
102
RTVSPost2010PropOp31
 70
     1
102
RTVSPost2010Prop32
280
     0
102
RTVSPost2010PropOp32
 70
     1
102
RTVSPost2010Prop33
280
     0
102
RTVSPost2010PropOp33
 70
     1
102
RTVSPost2010Prop34
280
     0
102
RTVSPost2010PropOp34
 70
     1
102
RTVSPost2010Prop35
280
     0
102
RTVSPost2010PropOp35
 70
     1
102
RTVSPost2010Prop36
280
     0
102
RTVSPost2010PropOp36
 70
     1
102
RTVSPost2010Prop37
 90
       50
102
RTVSPost2010PropOp37
 70
     1
102
RTVSPost2010Prop38
140
0.0
102
RTVSPost2010PropOp38
 70
     1
102
RTVSPost2010Prop39
140
1.0
102
RTVSPost2010PropOp39
 70
     1
102
RTVSPost2010Prop40
 90
        0
102
RTVSPost2010PropOp40
 70
     1
102
RTVSPost2010Prop41ColorIndex
 90
       18
102
RTVSPost2010Prop41ColorRGB
 90
        0
102
RTVSPost2010PropOp41
 70
     1
102
RTVSPost2010Prop42
 90
       50
102
RTVSPost2010PropOp42
 70
     1
102
RTVSPost2010Prop43
 90
        3
102
RTVSPost2010PropOp43
 70
     1
102
RTVSPost2010Prop44ColorIndex
 90
        5
102
RTVSPost2010Prop44ColorRGB
 90
      255
102
RTVSPost2010PropOp44
 70
     1
102
RTVSPost2010Prop45
280
     0
102
RTVSPost2010PropOp45
 70
     1
102
RTVSPost2010Prop46
 90
       50
102
RTVSPost2010PropOp46
 70
     1
102
RTVSPost2010Prop47
 90
       50
102
RTVSPost2010PropOp47
 70
     1
102
RTVSPost2010Prop48
 90
       50
102
RTVSPost2010PropOp48
 70
     1
102
RTVSPost2010Prop49
280
     0
102
RTVSPost2010PropOp49
 70
     1
102
RTVSPost2010Prop50
 90
       50
102
RTVSPost2010PropOp50
 70
     1
102
RTVSPost2010Prop51ColorIndex
 90
      256
102
RTVSPost2010Prop51ColorRGB
 90
-16777216
102
RTVSPost2010PropOp51
 70
     0
102
RTVSPost2010Prop52
140
1.0
102
RTVSPost2010PropOp52
 70
     0
102
RTVSPost2010Prop53
 90
        2
102
RTVSPost2010PropOp53
 70
     1
102
RTVSPost2010Prop54
  1
strokes_ogs.tif
102
RTVSPost2010PropOp54
 70
     1
102
RTVSPost2010Prop55
280
     0
102
RTVSPost2010PropOp55
 70
     1
102
RTVSPost2010Prop56
140
1.0
102
RTVSPost2010PropOp56
 70
     1
102
RTVSPost2010Prop57
140
1.0
102
RTVSPost2010PropOp57
 70
     1
  0
XRECORD
  5
240
102
{ACAD_REACTORS
330
23F
102
}
330
23F
100
AcDbXrecord
280
     1
102
RTVSPost2010Prop28
280
     0
102
RTVSPost2010PropOp28
 70
     1
102
RTVSPost2010Prop29
280
     1
102
RTVSPost2010PropOp29
 70
     1
102
RTVSPost2010Prop30
280
     1
102
RTVSPost2010PropOp30
 70
     1
102
RTVSPost2010Prop31
280
     0
102
RTVSPost2010PropOp31
 70
     1
102
RTVSPost2010Prop32
280
     0
102
RTVSPost2010PropOp32
 70
     1
102
RTVSPost2010Prop33
280
     0
102
RTVSPost2010PropOp33
 70
     1
102
RTVSPost2010Prop34
280
     0
102
RTVSPost2010PropOp34
 70
     1
102
RTVSPost2010Prop35
280
     0
102
RTVSPost2010PropOp35
 70
     1
102
RTVSPost2010Prop36
280
     0
102
RTVSPost2010PropOp36
 70
     1
102
RTVSPost2010Prop37
 90
       50
102
RTVSPost2010PropOp37
 70
     1
102
RTVSPost2010Prop38
140
0.0
102
RTVSPost2010PropOp38
 70
     1
102
RTVSPost2010Prop39
140
1.0
102
RTVSPost2010PropOp39
 70
     1
102
RTVSPost2010Prop40
 90
        0
102
RTVSPost2010PropOp40
 70
     1
102
RTVSPost2010Prop41ColorIndex
 90
       18
102
RTVSPost2010Prop41ColorRGB
 90
        0
102
RTVSPost2010PropOp41
 70
     1
102
RTVSPost2010Prop42
 90
       50
102
RTVSPost2010PropOp42
 70
     1
102
RTVSPost2010Prop43
 90
        3
102
RTVSPost2010PropOp43
 70
     1
102
RTVSPost2010Prop44ColorIndex
 90
        5
102
RTVSPost2010Prop44ColorRGB
 90
      255
102
RTVSPost2010PropOp44
 70
     1
102
RTVSPost2010Prop45
280
     0
102
RTVSPost2010PropOp45
 70
     1
102
RTVSPost2010Prop46
 90
       50
102
RTVSPost2010PropOp46
 70
     1
102
RTVSPost2010Prop47
 90
       50
102
RTVSPost2010PropOp47
 70
     1
102
RTVSPost2010Prop48
 90
       50
102
RTVSPost2010PropOp48
 70
     1
102
RTVSPost2010Prop49
280
     0
102
RTVSPost2010PropOp49
 70
     1
102
RTVSPost2010Prop50
 90
       50
102
RTVSPost2010PropOp50
 70
     1
102
RTVSPost2010Prop51ColorIndex
 90
      256
102
RTVSPost2010Prop51ColorRGB
 90
-16777216
102
RTVSPost2010PropOp51
 70
     0
102
RTVSPost2010Prop52
140
1.0
102
RTVSPost2010PropOp52
 70
     0
102
RTVSPost2010Prop53
 90
        2
102
RTVSPost2010PropOp53
 70
     1
102
RTVSPost2010Prop54
  1
strokes_ogs.tif
102
RTVSPost2010PropOp54
 70
     1
102
RTVSPost2010Prop55
280
     0
102
RTVSPost2010PropOp55
 70
     1
102
RTVSPost2010Prop56
140
1.0
102
RTVSPost2010PropOp56
 70
     1
102
RTVSPost2010Prop57
140
1.0
102
RTVSPost2010PropOp57
 70
     1
  0
XRECORD
  5
260
102
{ACAD_REACTORS
330
25F
102
}
330
25F
100
AcDbXrecord
280
     1
102
RTVSPost2010Prop28
280
     0
102
RTVSPost2010PropOp28
 70
     1
102
RTVSPost2010Prop29
280
     1
102
RTVSPost2010PropOp29
 70
     1
102
RTVSPost2010Prop30
280
     1
102
RTVSPost2010PropOp30
 70
     1
102
RTVSPost2010Prop31
280
     0
102
RTVSPost2010PropOp31
 70
     1
102
RTVSPost2010Prop32
280
     0
102
RTVSPost2010PropOp32
 70
     1
102
RTVSPost2010Prop33
280
     0
102
RTVSPost2010PropOp33
 70
     1
102
RTVSPost2010Prop34
280
     0
102
RTVSPost2010PropOp34
 70
     1
102
RTVSPost2010Prop35
280
     0
102
RTVSPost2010PropOp35
 70
     1
102
RTVSPost2010Prop36
280
     0
102
RTVSPost2010PropOp36
 70
     1
102
RTVSPost2010Prop37
 90
       50
102
RTVSPost2010PropOp37
 70
     1
102
RTVSPost2010Prop38
140
0.0
102
RTVSPost2010PropOp38
 70
     1
102
RTVSPost2010Prop39
140
1.0
102
RTVSPost2010PropOp39
 70
     1
102
RTVSPost2010Prop40
 90
        0
102
RTVSPost2010PropOp40
 70
     1
102
RTVSPost2010Prop41ColorIndex
 90
       18
102
RTVSPost2010Prop41ColorRGB
 90
        0
102
RTVSPost2010PropOp41
 70
     1
102
RTVSPost2010Prop42
 90
       50
102
RTVSPost2010PropOp42
 70
     1
102
RTVSPost2010Prop43
 90
        3
102
RTVSPost2010PropOp43
 70
     1
102
RTVSPost2010Prop44ColorIndex
 90
        5
102
RTVSPost2010Prop44ColorRGB
 90
      255
102
RTVSPost2010PropOp44
 70
     1
102
RTVSPost2010Prop45
280
     0
102
RTVSPost2010PropOp45
 70
     1
102
RTVSPost2010Prop46
 90
       50
102
RTVSPost2010PropOp46
 70
     1
102
RTVSPost2010Prop47
 90
       50
102
RTVSPost2010PropOp47
 70
     1
102
RTVSPost2010Prop48
 90
       50
102
RTVSPost2010PropOp48
 70
     1
102
RTVSPost2010Prop49
280
     0
102
RTVSPost2010PropOp49
 70
     1
102
RTVSPost2010Prop50
 90
       50
102
RTVSPost2010PropOp50
 70
     1
102
RTVSPost2010Prop51ColorIndex
 90
      256
102
RTVSPost2010Prop51ColorRGB
 90
-16777216
102
RTVSPost2010PropOp51
 70
     0
102
RTVSPost2010Prop52
140
1.0
102
RTVSPost2010PropOp52
 70
     0
102
RTVSPost2010Prop53
 90
        2
102
RTVSPost2010PropOp53
 70
     1
102
RTVSPost2010Prop54
  1
strokes_ogs.tif
102
RTVSPost2010PropOp54
 70
     1
102
RTVSPost2010Prop55
280
     0
102
RTVSPost2010PropOp55
 70
     1
102
RTVSPost2010Prop56
140
1.0
102
RTVSPost2010PropOp56
 70
     1
102
RTVSPost2010Prop57
140
1.0
102
RTVSPost2010PropOp57
 70
     1
  0
ENDSEC
  0
EOF
