  0
SECTION
  2
HEADER
  9
$ACADVER
  1
AC1024
  9
$ACADMAINTVER
 70
     6
  9
$DWGCODEPAGE
  3
ANSI_1252
  9
$LASTSAVEDBY
  1
c.meyer
  9
$INSBASE
 10
0.0
 20
0.0
 30
0.0
  9
$EXTMIN
 10
-922.761671550269
 20
-1514.414176286005
 30
0.0
  9
$EXTMAX
 10
4865.773505188141
 20
764.015823713995
 30
0.0
  9
$LIMMIN
 10
0.0
 20
0.0
  9
$LIMMAX
 10
420.0
 20
297.0
  9
$ORTHOMODE
 70
     0
  9
$REGENMODE
 70
     1
  9
$FILLMODE
 70
     1
  9
$QTEXTMODE
 70
     0
  9
$MIRRTEXT
 70
     1
  9
$LTSCALE
 40
5.0
  9
$ATTMODE
 70
     1
  9
$TEXTSIZE
 40
2.5
  9
$TRACEWID
 40
1.0
  9
$TEXTSTYLE
  7
Standard
  9
$CLAYER
  8
0
  9
$CELTYPE
  6
ByLayer
  9
$CECOLOR
 62
   256
  9
$CELTSCALE
 40
1.0
  9
$DISPSILH
 70
     0
  9
$DIMSCALE
 40
1.0
  9
$DIMASZ
 40
2.5
  9
$DIMEXO
 40
0.625
  9
$DIMDLI
 40
3.75
  9
$DIMRND
 40
0.0
  9
$DIMDLE
 40
0.0
  9
$DIMEXE
 40
1.25
  9
$DIMTP
 40
0.0
  9
$DIMTM
 40
0.0
  9
$DIMTXT
 40
2.5
  9
$DIMCEN
 40
2.5
  9
$DIMTSZ
 40
0.0
  9
$DIMTOL
 70
     0
  9
$DIMLIM
 70
     0
  9
$DIMTIH
 70
     0
  9
$DIMTOH
 70
     0
  9
$DIMSE1
 70
     0
  9
$DIMSE2
 70
     0
  9
$DIMTAD
 70
     1
  9
$DIMZIN
 70
     8
  9
$DIMBLK
  1

  9
$DIMASO
 70
     1
  9
$DIMSHO
 70
     1
  9
$DIMPOST
  1

  9
$DIMAPOST
  1

  9
$DIMALT
 70
     0
  9
$DIMALTD
 70
     3
  9
$DIMALTF
 40
0.03937007874
  9
$DIMLFAC
 40
1.0
  9
$DIMTOFL
 70
     1
  9
$DIMTVP
 40
0.0
  9
$DIMTIX
 70
     0
  9
$DIMSOXD
 70
     0
  9
$DIMSAH
 70
     0
  9
$DIMBLK1
  1

  9
$DIMBLK2
  1

  9
$DIMSTYLE
  2
ISO-25
  9
$DIMCLRD
 70
     0
  9
$DIMCLRE
 70
     0
  9
$DIMCLRT
 70
     0
  9
$DIMTFAC
 40
1.0
  9
$DIMGAP
 40
0.625
  9
$DIMJUST
 70
     0
  9
$DIMSD1
 70
     0
  9
$DIMSD2
 70
     0
  9
$DIMTOLJ
 70
     0
  9
$DIMTZIN
 70
     8
  9
$DIMALTZ
 70
     0
  9
$DIMALTTZ
 70
     0
  9
$DIMUPT
 70
     0
  9
$DIMDEC
 70
     2
  9
$DIMTDEC
 70
     2
  9
$DIMALTU
 70
     2
  9
$DIMALTTD
 70
     3
  9
$DIMTXSTY
  7
Standard
  9
$DIMAUNIT
 70
     0
  9
$DIMADEC
 70
     0
  9
$DIMALTRND
 40
0.0
  9
$DIMAZIN
 70
     0
  9
$DIMDSEP
 70
    44
  9
$DIMATFIT
 70
     3
  9
$DIMFRAC
 70
     0
  9
$DIMLDRBLK
  1

  9
$DIMLUNIT
 70
     2
  9
$DIMLWD
 70
    -2
  9
$DIMLWE
 70
    -2
  9
$DIMTMOVE
 70
     0
  9
$DIMFXL
 40
1.0
  9
$DIMFXLON
 70
     0
  9
$DIMJOGANG
 40
0.785398163397
  9
$DIMTFILL
 70
     0
  9
$DIMTFILLCLR
 70
     0
  9
$DIMARCSYM
 70
     0
  9
$DIMLTYPE
  6

  9
$DIMLTEX1
  6

  9
$DIMLTEX2
  6

  9
$DIMTXTDIRECTION
 70
     0
  9
$LUNITS
 70
     2
  9
$LUPREC
 70
     4
  9
$SKETCHINC
 40
1.0
  9
$FILLETRAD
 40
0.0
  9
$AUNITS
 70
     0
  9
$AUPREC
 70
     0
  9
$MENU
  1
.
  9
$ELEVATION
 40
0.0
  9
$PELEVATION
 40
0.0
  9
$THICKNESS
 40
0.0
  9
$LIMCHECK
 70
     0
  9
$CHAMFERA
 40
0.0
  9
$CHAMFERB
 40
0.0
  9
$CHAMFERC
 40
0.0
  9
$CHAMFERD
 40
0.0
  9
$SKPOLY
 70
     0
  9
$TDCREATE
 40
2459907.479418171
  9
$TDUCREATE
 40
2459907.437751505
  9
$TDUPDATE
 40
2459907.4794189
  9
$TDUUPDATE
 40
2459907.437752234
  9
$TDINDWG
 40
0.0000000116
  9
$TDUSRTIMER
 40
0.0000000116
  9
$USRTIMER
 70
     1
  9
$ANGBASE
 50
0.0
  9
$ANGDIR
 70
     0
  9
$PDMODE
 70
     2
  9
$PDSIZE
 40
1.0
  9
$PLINEWID
 40
0.0
  9
$SPLFRAME
 70
     0
  9
$SPLINETYPE
 70
     6
  9
$SPLINESEGS
 70
     8
  9
$HANDSEED
  5
245
  9
$SURFTAB1
 70
     6
  9
$SURFTAB2
 70
     6
  9
$SURFTYPE
 70
     6
  9
$SURFU
 70
     6
  9
$SURFV
 70
     6
  9
$UCSBASE
  2

  9
$UCSNAME
  2

  9
$UCSORG
 10
0.0
 20
0.0
 30
0.0
  9
$UCSXDIR
 10
1.0
 20
0.0
 30
0.0
  9
$UCSYDIR
 10
0.0
 20
1.0
 30
0.0
  9
$UCSORTHOREF
  2

  9
$UCSORTHOVIEW
 70
     0
  9
$UCSORGTOP
 10
0.0
 20
0.0
 30
0.0
  9
$UCSORGBOTTOM
 10
0.0
 20
0.0
 30
0.0
  9
$UCSORGLEFT
 10
0.0
 20
0.0
 30
0.0
  9
$UCSORGRIGHT
 10
0.0
 20
0.0
 30
0.0
  9
$UCSORGFRONT
 10
0.0
 20
0.0
 30
0.0
  9
$UCSORGBACK
 10
0.0
 20
0.0
 30
0.0
  9
$PUCSBASE
  2

  9
$PUCSNAME
  2

  9
$PUCSORG
 10
0.0
 20
0.0
 30
0.0
  9
$PUCSXDIR
 10
1.0
 20
0.0
 30
0.0
  9
$PUCSYDIR
 10
0.0
 20
1.0
 30
0.0
  9
$PUCSORTHOREF
  2

  9
$PUCSORTHOVIEW
 70
     0
  9
$PUCSORGTOP
 10
0.0
 20
0.0
 30
0.0
  9
$PUCSORGBOTTOM
 10
0.0
 20
0.0
 30
0.0
  9
$PUCSORGLEFT
 10
0.0
 20
0.0
 30
0.0
  9
$PUCSORGRIGHT
 10
0.0
 20
0.0
 30
0.0
  9
$PUCSORGFRONT
 10
0.0
 20
0.0
 30
0.0
  9
$PUCSORGBACK
 10
0.0
 20
0.0
 30
0.0
  9
$USERI1
 70
     0
  9
$USERI2
 70
     0
  9
$USERI3
 70
     0
  9
$USERI4
 70
     0
  9
$USERI5
 70
     0
  9
$USERR1
 40
0.0
  9
$USERR2
 40
0.0
  9
$USERR3
 40
0.0
  9
$USERR4
 40
0.0
  9
$USERR5
 40
0.0
  9
$WORLDVIEW
 70
     1
  9
$SHADEDGE
 70
     3
  9
$SHADEDIF
 70
    70
  9
$TILEMODE
 70
     1
  9
$MAXACTVP
 70
    64
  9
$PINSBASE
 10
0.0
 20
0.0
 30
0.0
  9
$PLIMCHECK
 70
     0
  9
$PEXTMIN
 10
1.000000000000E+20
 20
1.000000000000E+20
 30
1.000000000000E+20
  9
$PEXTMAX
 10
-1.000000000000E+20
 20
-1.000000000000E+20
 30
-1.000000000000E+20
  9
$PLIMMIN
 10
0.0
 20
0.0
  9
$PLIMMAX
 10
420.0
 20
297.0
  9
$UNITMODE
 70
     0
  9
$VISRETAIN
 70
     1
  9
$PLINEGEN
 70
     0
  9
$PSLTSCALE
 70
     1
  9
$TREEDEPTH
 70
  3020
  9
$CMLSTYLE
  2
Standard
  9
$CMLJUST
 70
     0
  9
$CMLSCALE
 40
20.0
  9
$PROXYGRAPHICS
 70
     1
  9
$MEASUREMENT
 70
     1
  9
$CELWEIGHT
370
    -1
  9
$ENDCAPS
280
     0
  9
$JOINSTYLE
280
     0
  9
$LWDISPLAY
290
     0
  9
$INSUNITS
 70
     4
  9
$HYPERLINKBASE
  1

  9
$STYLESHEET
  1

  9
$XEDIT
290
     1
  9
$CEPSNTYPE
380
     0
  9
$PSTYLEMODE
290
     1
  9
$FINGERPRINTGUID
  2
{b5c1e5c3-b1b5-4649-a326-77e28f39e389}
  9
$VERSIONGUID
  2
{FAEB1C32-E019-11D5-929B-00C0DF256EC4}
  9
$EXTNAMES
290
     1
  9
$PSVPSCALE
 40
0.0
  9
$OLESTARTUP
290
     0
  9
$SORTENTS
280
   127
  9
$INDEXCTL
280
     0
  9
$HIDETEXT
280
     1
  9
$XCLIPFRAME
280
     2
  9
$HALOGAP
280
     0
  9
$OBSCOLOR
 70
   257
  9
$OBSLTYPE
280
     0
  9
$INTERSECTIONDISPLAY
280
     0
  9
$INTERSECTIONCOLOR
 70
   257
  9
$DIMASSOC
280
     2
  9
$PROJECTNAME
  1

  9
$CAMERADISPLAY
290
     0
  9
$LENSLENGTH
 40
50.0
  9
$CAMERAHEIGHT
 40
0.0
  9
$STEPSPERSEC
 40
2.0
  9
$STEPSIZE
 40
6.0
  9
$3DDWFPREC
 40
2.0
  9
$PSOLWIDTH
 40
5.0
  9
$PSOLHEIGHT
 40
80.0
  9
$LOFTANG1
 40
1.570796326795
  9
$LOFTANG2
 40
1.570796326795
  9
$LOFTMAG1
 40
0.0
  9
$LOFTMAG2
 40
0.0
  9
$LOFTPARAM
 70
     7
  9
$LOFTNORMALS
280
     1
  9
$LATITUDE
 40
37.795
  9
$LONGITUDE
 40
-122.394
  9
$NORTHDIRECTION
 40
0.0
  9
$TIMEZONE
 70
 -8000
  9
$LIGHTGLYPHDISPLAY
280
     1
  9
$TILEMODELIGHTSYNCH
280
     1
  9
$CMATERIAL
347
44
  9
$SOLIDHIST
280
     0
  9
$SHOWHIST
280
     1
  9
$DWFFRAME
280
     2
  9
$DGNFRAME
280
     2
  9
$REALWORLDSCALE
290
     1
  9
$INTERFERECOLOR
 62
   256
  9
$CSHADOW
280
     0
  9
$SHADOWPLANELOCATION
 40
0.0
  0
ENDSEC
  0
SECTION
  2
CLASSES
  0
CLASS
  1
ACDBDICTIONARYWDFLT
  2
AcDbDictionaryWithDefault
  3
ObjectDBX Classes
 90
        0
 91
        3
280
     0
281
     0
  0
CLASS
  1
VISUALSTYLE
  2
AcDbVisualStyle
  3
ObjectDBX Classes
 90
     4095
 91
        3
280
     0
281
     0
  0
CLASS
  1
MATERIAL
  2
AcDbMaterial
  3
ObjectDBX Classes
 90
     1153
 91
        3
280
     0
281
     0
  0
CLASS
  1
SCALE
  2
AcDbScale
  3
ObjectDBX Classes
 90
     1153
 91
        3
280
     0
281
     0
  0
CLASS
  1
TABLESTYLE
  2
AcDbTableStyle
  3
ObjectDBX Classes
 90
     4095
 91
        3
280
     0
281
     0
  0
CLASS
  1
MLEADERSTYLE
  2
AcDbMLeaderStyle
  3
ACDB_MLEADERSTYLE_CLASS
 90
     4095
 91
        3
280
     0
281
     0
  0
CLASS
  1
SUN
  2
AcDbSun
  3
SCENEOE
 90
     1153
 91
        3
280
     0
281
     0
  0
CLASS
  1
IMAGEDEF
  2
AcDbRasterImageDef
  3
ISM
 90
        0
 91
        3
280
     0
281
     0
  0
CLASS
  1
IMAGE
  2
AcDbRasterImage
  3
ISM
 90
      127
 91
        4
280
     0
281
     1
  0
CLASS
  1
IMAGEDEF_REACTOR
  2
AcDbRasterImageDefReactor
  3
ISM
 90
        1
 91
        3
280
     0
281
     0
  0
CLASS
  1
DICTIONARYVAR
  2
AcDbDictionaryVar
  3
ObjectDBX Classes
 90
        0
 91
        3
280
     0
281
     0
  0
CLASS
  1
CELLSTYLEMAP
  2
AcDbCellStyleMap
  3
ObjectDBX Classes
 90
     1152
 91
        3
280
     0
281
     0
  0
CLASS
  1
WIPEOUTVARIABLES
  2
AcDbWipeoutVariables
  3
WipeOut|AutoCAD Express Tool|expresstools@autodesk.com
 90
        0
 91
        3
280
     0
281
     0
  0
ENDSEC
  0
SECTION
  2
TABLES
  0
TABLE
  2
VPORT
  5
8
330
0
100
AcDbSymbolTable
 70
     1
  0
VPORT
  5
29
330
8
100
AcDbSymbolTableRecord
100
AcDbViewportTableRecord
  2
*Active
 70
     0
 10
0.0
 20
0.0
 11
1.0
 21
1.0
 12
1971.505916818935
 22
-375.199176286005
 13
0.0
 23
0.0
 14
10.0
 24
10.0
 15
10.0
 25
10.0
 16
0.0
 26
0.0
 36
1.0
 17
0.0
 27
0.0
 37
0.0
 40
2278.43
 41
2.540580652791
 42
50.0
 43
0.0
 44
0.0
 50
0.0
 51
0.0
 71
     0
 72
   100
 73
     1
 74
     3
 75
     0
 76
     0
 77
     0
 78
     0
281
     0
 65
     1
110
0.0
120
0.0
130
0.0
111
1.0
121
0.0
131
0.0
112
0.0
122
1.0
132
0.0
 79
     0
146
0.0
348
2F
 60
     3
 61
     5
292
     1
282
     1
141
0.0
142
0.0
 63
   250
361
5D
  0
ENDTAB
  0
TABLE
  2
LTYPE
  5
5
330
0
100
AcDbSymbolTable
 70
     3
  0
LTYPE
  5
14
330
5
100
AcDbSymbolTableRecord
100
AcDbLinetypeTableRecord
  2
ByBlock
 70
     0
  3

 72
    65
 73
     0
 40
0.0
  0
LTYPE
  5
15
330
5
100
AcDbSymbolTableRecord
100
AcDbLinetypeTableRecord
  2
ByLayer
 70
     0
  3

 72
    65
 73
     0
 40
0.0
  0
LTYPE
  5
16
330
5
100
AcDbSymbolTableRecord
100
AcDbLinetypeTableRecord
  2
Continuous
 70
     0
  3
Solid line
 72
    65
 73
     0
 40
0.0
  0
LTYPE
  5
5E
330
5
100
AcDbSymbolTableRecord
100
AcDbLinetypeTableRecord
  2
AUSGEZOGEN
 70
     0
  3

 72
    65
 73
     0
 40
0.0
  0
LTYPE
  5
60
330
5
100
AcDbSymbolTableRecord
100
AcDbLinetypeTableRecord
  2
DASHDOT
 70
     0
  3

 72
    65
 73
     4
 40
1.0
 49
0.5
 74
     0
 49
-0.25
 74
     0
 49
0.0
 74
     0
 49
-0.25
 74
     0
  0
ENDTAB
  0
TABLE
  2
LAYER
  5
2
330
0
100
AcDbSymbolTable
 70
     3
  0
LAYER
  5
10
330
2
100
AcDbSymbolTableRecord
100
AcDbLayerTableRecord
  2
0
 70
     0
 62
     7
  6
Continuous
370
    -3
390
F
347
46
  0
LAYER
  5
62
330
2
100
AcDbSymbolTableRecord
100
AcDbLayerTableRecord
  2
SLD-0
 70
     0
 62
     7
  6
Continuous
370
    -3
390
F
347
46
  0
LAYER
  5
63
330
2
100
AcDbSymbolTableRecord
100
AcDbLayerTableRecord
  2
Layer100
 70
     0
 62
    18
420
        0
  6
Continuous
370
    -3
390
F
347
46
  0
ENDTAB
  0
TABLE
  2
STYLE
  5
3
330
0
100
AcDbSymbolTable
 70
     3
  0
STYLE
  5
11
330
3
100
AcDbSymbolTableRecord
100
AcDbTextStyleTableRecord
  2
Standard
 70
     0
 40
0.0
 41
1.0
 50
0.0
 71
     0
 42
2.5
  3
txt
  4

  0
STYLE
  5
5F
330
3
100
AcDbSymbolTableRecord
100
AcDbTextStyleTableRecord
  2
Arial
 70
     0
 40
0.0
 41
1.0
 50
0.0
 71
     0
 42
2.5
  3
arial.ttf
  4

1001
ACAD
1000
Arial
1071
        0
  0
STYLE
  5
61
330
3
100
AcDbSymbolTableRecord
100
AcDbTextStyleTableRecord
  2
Toleranzfont
 70
     0
 40
0.0
 41
1.0
 50
0.0
 71
     0
 42
2.5
  3
IGES1003.SHX
  4

  0
ENDTAB
  0
TABLE
  2
VIEW
  5
6
330
0
100
AcDbSymbolTable
 70
     0
  0
ENDTAB
  0
TABLE
  2
UCS
  5
7
330
0
100
AcDbSymbolTable
 70
     0
  0
ENDTAB
  0
TABLE
  2
APPID
  5
9
330
0
100
AcDbSymbolTable
 70
     1
  0
APPID
  5
12
330
9
100
AcDbSymbolTableRecord
100
AcDbRegAppTableRecord
  2
ACAD
 70
     0
  0
ENDTAB
  0
TABLE
  2
DIMSTYLE
  5
A
330
0
100
AcDbSymbolTable
 70
     1
100
AcDbDimStyleTable
  0
DIMSTYLE
105
27
102
{ACAD_REACTORS
330
8F
330
99
330
A3
330
AD
330
D4
330
DE
330
123
330
12D
330
14C
330
156
330
168
330
172
330
17C
330
186
102
}
330
A
100
AcDbSymbolTableRecord
100
AcDbDimStyleTableRecord
  2
ISO-25
 70
     0
 41
2.5
 42
0.625
 43
3.75
 44
1.25
 73
     0
 74
     0
 77
     1
 78
     8
140
2.5
141
2.5
143
0.03937007874
147
0.625
171
     3
172
     1
178
     0
271
     2
272
     2
274
     3
278
    44
283
     0
284
     8
340
11
  0
ENDTAB
  0
TABLE
  2
BLOCK_RECORD
  5
1
330
0
100
AcDbSymbolTable
 70
    34
  0
BLOCK_RECORD
  5
1F
330
1
100
AcDbSymbolTableRecord
100
AcDbBlockTableRecord
  2
*Model_Space
340
22
 70
     0
280
     1
281
     0
  0
BLOCK_RECORD
  5
1B
330
1
100
AcDbSymbolTableRecord
100
AcDbBlockTableRecord
  2
*Paper_Space
340
1E
 70
     0
280
     1
281
     0
  0
BLOCK_RECORD
  5
23
330
1
100
AcDbSymbolTableRecord
100
AcDbBlockTableRecord
  2
*Paper_Space0
340
26
 70
     0
280
     1
281
     0
  0
BLOCK_RECORD
  5
64
330
1
100
AcDbSymbolTableRecord
100
AcDbBlockTableRecord
  2
SW_NOTE_0_2_nNn00
340
0
102
{BLKREFS
331
68
102
}
 70
     0
280
     1
281
     0
  0
BLOCK_RECORD
  5
69
330
1
100
AcDbSymbolTableRecord
100
AcDbBlockTableRecord
  2
SW_NOTE_0_4_nNn01
340
0
102
{BLKREFS
331
6D
102
}
 70
     0
280
     1
281
     0
  0
BLOCK_RECORD
  5
6E
330
1
100
AcDbSymbolTableRecord
100
AcDbBlockTableRecord
  2
SW_NOTE_0_5_nNn02
340
0
102
{BLKREFS
331
71
102
}
 70
     0
280
     1
281
     0
  0
BLOCK_RECORD
  5
86
330
1
100
AcDbSymbolTableRecord
100
AcDbBlockTableRecord
  2
*D4
340
0
 70
     0
280
     1
281
     0
  0
BLOCK_RECORD
  5
90
330
1
100
AcDbSymbolTableRecord
100
AcDbBlockTableRecord
  2
*D5
340
0
 70
     0
280
     1
281
     0
  0
BLOCK_RECORD
  5
9A
330
1
100
AcDbSymbolTableRecord
100
AcDbBlockTableRecord
  2
*D6
340
0
 70
     0
280
     1
281
     0
  0
BLOCK_RECORD
  5
A4
330
1
100
AcDbSymbolTableRecord
100
AcDbBlockTableRecord
  2
*D7
340
0
 70
     0
280
     1
281
     0
  0
BLOCK_RECORD
  5
AE
330
1
100
AcDbSymbolTableRecord
100
AcDbBlockTableRecord
  2
_D_10_nNn07
340
0
102
{BLKREFS
331
B6
102
}
 70
     0
280
     1
281
     0
  0
BLOCK_RECORD
  5
B7
330
1
100
AcDbSymbolTableRecord
100
AcDbBlockTableRecord
  2
_D_11_nNn08
340
0
102
{BLKREFS
331
BE
102
}
 70
     0
280
     1
281
     0
  0
BLOCK_RECORD
  5
CB
330
1
100
AcDbSymbolTableRecord
100
AcDbBlockTableRecord
  2
*D10
340
0
 70
     0
280
     1
281
     0
  0
BLOCK_RECORD
  5
D5
330
1
100
AcDbSymbolTableRecord
100
AcDbBlockTableRecord
  2
*D11
340
0
 70
     0
280
     1
281
     0
  0
BLOCK_RECORD
  5
DF
330
1
100
AcDbSymbolTableRecord
100
AcDbBlockTableRecord
  2
_D_14_nNn011
340
0
102
{BLKREFS
331
E6
102
}
 70
     0
280
     1
281
     0
  0
BLOCK_RECORD
  5
F9
330
1
100
AcDbSymbolTableRecord
100
AcDbBlockTableRecord
  2
*X13
340
0
102
{BLKREFS
331
100
102
}
 70
     0
280
     1
281
     0
  0
BLOCK_RECORD
  5
111
330
1
100
AcDbSymbolTableRecord
100
AcDbBlockTableRecord
  2
SW_HATCH_0_nNn013
340
0
102
{BLKREFS
331
119
102
}
 70
     0
280
     1
281
     0
  0
BLOCK_RECORD
  5
11A
330
1
100
AcDbSymbolTableRecord
100
AcDbBlockTableRecord
  2
*D15
340
0
 70
     0
280
     1
281
     0
  0
BLOCK_RECORD
  5
124
330
1
100
AcDbSymbolTableRecord
100
AcDbBlockTableRecord
  2
*D16
340
0
 70
     0
280
     1
281
     0
  0
BLOCK_RECORD
  5
12E
330
1
100
AcDbSymbolTableRecord
100
AcDbBlockTableRecord
  2
SW_NOTE_0_7_nNn016
340
0
102
{BLKREFS
331
132
102
}
 70
     0
280
     1
281
     0
  0
BLOCK_RECORD
  5
143
330
1
100
AcDbSymbolTableRecord
100
AcDbBlockTableRecord
  2
*D18
340
0
 70
     0
280
     1
281
     0
  0
BLOCK_RECORD
  5
14D
330
1
100
AcDbSymbolTableRecord
100
AcDbBlockTableRecord
  2
*D19
340
0
 70
     0
280
     1
281
     0
  0
BLOCK_RECORD
  5
157
330
1
100
AcDbSymbolTableRecord
100
AcDbBlockTableRecord
  2
_D_20_nNn019
340
0
102
{BLKREFS
331
15E
102
}
 70
     0
280
     1
281
     0
  0
BLOCK_RECORD
  5
15F
330
1
100
AcDbSymbolTableRecord
100
AcDbBlockTableRecord
  2
*D21
340
0
 70
     0
280
     1
281
     0
  0
BLOCK_RECORD
  5
169
330
1
100
AcDbSymbolTableRecord
100
AcDbBlockTableRecord
  2
*D22
340
0
 70
     0
280
     1
281
     0
  0
BLOCK_RECORD
  5
173
330
1
100
AcDbSymbolTableRecord
100
AcDbBlockTableRecord
  2
*D23
340
0
 70
     0
280
     1
281
     0
  0
BLOCK_RECORD
  5
17D
330
1
100
AcDbSymbolTableRecord
100
AcDbBlockTableRecord
  2
*D24
340
0
 70
     0
280
     1
281
     0
  0
BLOCK_RECORD
  5
187
330
1
100
AcDbSymbolTableRecord
100
AcDbBlockTableRecord
  2
A3-NABER_nNn024
340
0
102
{BLKREFS
331
1F6
102
}
 70
     0
280
     1
281
     0
  0
BLOCK_RECORD
  5
18A
330
1
100
AcDbSymbolTableRecord
100
AcDbBlockTableRecord
  2
A3-NABER_001_nNn025
340
0
102
{BLKREFS
331
1A5
102
}
 70
     0
280
     1
281
     0
  0
BLOCK_RECORD
  5
18D
330
1
100
AcDbSymbolTableRecord
100
AcDbBlockTableRecord
  2
A3-NABER_002_nNn026
340
0
102
{BLKREFS
331
1A4
102
}
 70
     0
280
     1
281
     0
  0
BLOCK_RECORD
  5
190
330
1
100
AcDbSymbolTableRecord
100
AcDbBlockTableRecord
  2
A3-NABER_nNn027
340
0
102
{BLKREFS
331
1A3
102
}
 70
     0
280
     1
281
     0
  0
BLOCK_RECORD
  5
193
330
1
100
AcDbSymbolTableRecord
100
AcDbBlockTableRecord
  2
A3-Textliste_nNn028
340
0
102
{BLKREFS
331
19E
102
}
 70
     0
280
     1
281
     0
  0
BLOCK_RECORD
  5
196
330
1
100
AcDbSymbolTableRecord
100
AcDbBlockTableRecord
  2
Zeichnungsrahmen_nNn029
340
0
102
{BLKREFS
331
19D
102
}
 70
     0
280
     1
281
     0
  0
BLOCK_RECORD
  5
1AC
330
1
100
AcDbSymbolTableRecord
100
AcDbBlockTableRecord
  2
Schriftfeld_nNn030
340
0
102
{BLKREFS
331
1DC
102
}
 70
     0
280
     1
281
     0
  0
BLOCK_RECORD
  5
1DD
330
1
100
AcDbSymbolTableRecord
100
AcDbBlockTableRecord
  2
Beschriftung_nNn031
340
0
102
{BLKREFS
331
1E8
102
}
 70
     0
280
     1
281
     0
  0
BLOCK_RECORD
  5
201
330
1
100
AcDbSymbolTableRecord
100
AcDbBlockTableRecord
  2
SW_NOTE_0_008_nNn032
340
0
102
{BLKREFS
331
207
102
}
 70
     0
280
     1
281
     0
  0
ENDTAB
  0
ENDSEC
  0
SECTION
  2
BLOCKS
  0
BLOCK
  5
20
330
1F
100
AcDbEntity
  8
0
100
AcDbBlockBegin
  2
*Model_Space
 70
     0
 10
0.0
 20
0.0
 30
0.0
  3
*Model_Space
  1

  0
ENDBLK
  5
21
330
1F
100
AcDbEntity
  8
0
100
AcDbBlockEnd
  0
BLOCK
  5
1C
330
1B
100
AcDbEntity
 67
     1
  8
0
100
AcDbBlockBegin
  2
*Paper_Space
 70
     0
 10
0.0
 20
0.0
 30
0.0
  3
*Paper_Space
  1

  0
ENDBLK
  5
1D
330
1B
100
AcDbEntity
 67
     1
  8
0
100
AcDbBlockEnd
  0
BLOCK
  5
24
330
23
100
AcDbEntity
  8
0
100
AcDbBlockBegin
  2
*Paper_Space0
 70
     0
 10
0.0
 20
0.0
 30
0.0
  3
*Paper_Space0
  1

  0
ENDBLK
  5
25
330
23
100
AcDbEntity
  8
0
100
AcDbBlockEnd
  0
BLOCK
  5
65
330
64
100
AcDbEntity
  8
0
100
AcDbBlockBegin
  2
SW_NOTE_0_2_nNn00
 70
     0
 10
0.0
 20
0.0
 30
0.0
  3
SW_NOTE_0_2_nNn00
  1

  0
TEXT
  5
67
330
64
100
AcDbEntity
  8
SLD-0
  6
AUSGEZOGEN
 62
     7
370
    18
100
AcDbText
 10
919.33400131332
 20
-1053.385606569276
 30
0.0
 40
21.709401709402
  1
Flächenbündiger Einbau
 41
0.850012419741
  7
Arial
 72
     5
 11
1198.51338816459
 21
-1053.385606569276
 31
0.0
100
AcDbText
  0
ENDBLK
  5
66
330
64
100
AcDbEntity
  8
0
100
AcDbBlockEnd
  0
BLOCK
  5
6A
330
69
100
AcDbEntity
  8
0
100
AcDbBlockBegin
  2
SW_NOTE_0_4_nNn01
 70
     0
 10
0.0
 20
0.0
 30
0.0
  3
SW_NOTE_0_4_nNn01
  1

  0
TEXT
  5
6C
330
69
100
AcDbEntity
  8
SLD-0
  6
AUSGEZOGEN
 62
     7
370
    18
100
AcDbText
 10
1282.114598043319
 20
300.170446915321
 30
0.0
 40
21.709401709402
  1
Einbauspüle
 41
1.077180576291
  7
Arial
 72
     5
 11
1461.734367073064
 21
300.170446915321
 31
0.0
100
AcDbText
  0
ENDBLK
  5
6B
330
69
100
AcDbEntity
  8
0
100
AcDbBlockEnd
  0
BLOCK
  5
6F
330
6E
100
AcDbEntity
  8
0
100
AcDbBlockBegin
  2
SW_NOTE_0_5_nNn02
 70
     0
 10
0.0
 20
0.0
 30
0.0
  3
SW_NOTE_0_5_nNn02
  1

  0
ENDBLK
  5
70
330
6E
100
AcDbEntity
  8
0
100
AcDbBlockEnd
  0
BLOCK
  5
87
330
86
100
AcDbEntity
  8
0
100
AcDbBlockBegin
  2
*D4
 70
     1
 10
0.0
 20
0.0
 30
0.0
  3
*D4
  1

  0
HATCH
  5
89
330
86
100
AcDbEntity
  8
SLD-0
  6
AUSGEZOGEN
 62
     7
370
    18
100
AcDbHatch
 10
0.0
 20
0.0
 30
0.0
210
0.0
220
0.0
230
1.0
  2
SOLID
 70
     1
 71
     0
 91
        1
 92
        2
 72
     0
 73
     1
 93
        3
 10
1216.42279515832
 20
-353.3320487819965
 10
1196.42279515832
 20
-349.3320487819965
 10
1196.42279515832
 20
-357.3320487819965
 97
        0
 75
     0
 76
     1
 98
        0
  0
HATCH
  5
8A
330
86
100
AcDbEntity
  8
SLD-0
  6
AUSGEZOGEN
 62
     7
370
    18
100
AcDbHatch
 10
0.0
 20
0.0
 30
0.0
210
0.0
220
0.0
230
1.0
  2
SOLID
 70
     1
 71
     0
 91
        1
 92
        2
 72
     0
 73
     1
 93
        3
 10
1006.42279515832
 20
-353.3320487819965
 10
1026.42279515832
 20
-357.3320487819965
 10
1026.42279515832
 20
-349.3320487819965
 97
        0
 75
     0
 76
     1
 98
        0
  0
LINE
  5
8B
330
86
100
AcDbEntity
  8
SLD-0
  6
AUSGEZOGEN
 62
     7
370
    18
100
AcDbLine
 10
1026.42279515832
 20
-353.332048781996
 30
0.0
 11
1196.42279515832
 21
-353.332048781996
 31
0.0
  0
LINE
  5
8C
330
86
100
AcDbEntity
  8
SLD-0
  6
AUSGEZOGEN
 62
     7
370
    18
100
AcDbLine
 10
1006.42279515832
 20
-487.323255372996
 30
0.0
 11
1006.42279515832
 21
-335.189191639139
 31
0.0
  0
LINE
  5
8D
330
86
100
AcDbEntity
  8
SLD-0
  6
AUSGEZOGEN
 62
     7
370
    18
100
AcDbLine
 10
1216.42279515832
 20
-487.323255372996
 30
0.0
 11
1216.42279515832
 21
-335.189191639139
 31
0.0
  0
TEXT
  5
8E
330
86
100
AcDbEntity
  8
SLD-0
  6
AUSGEZOGEN
 62
     7
370
    18
100
AcDbText
 10
1076.112757345688
 20
-349.059324728759
 30
0.0
 40
31.75
  1
210
 41
0.820056232427
  7
Arial
 72
     5
 11
1136.726393709325
 21
-349.059324728759
 31
0.0
100
AcDbText
  0
ENDBLK
  5
88
330
86
100
AcDbEntity
  8
0
100
AcDbBlockEnd
  0
BLOCK
  5
91
330
90
100
AcDbEntity
  8
0
100
AcDbBlockBegin
  2
*D5
 70
     1
 10
0.0
 20
0.0
 30
0.0
  3
*D5
  1

  0
HATCH
  5
93
330
90
100
AcDbEntity
  8
SLD-0
  6
AUSGEZOGEN
 62
     7
370
    18
100
AcDbHatch
 10
0.0
 20
0.0
 30
0.0
210
0.0
220
0.0
230
1.0
  2
SOLID
 70
     1
 71
     0
 91
        1
 92
        2
 72
     0
 73
     1
 93
        3
 10
1000.42279515832
 20
-278.7099439419965
 10
1020.42279515832
 20
-282.7099439419965
 10
1020.42279515832
 20
-274.7099439419965
 97
        0
 75
     0
 76
     1
 98
        0
  0
HATCH
  5
94
330
90
100
AcDbEntity
  8
SLD-0
  6
AUSGEZOGEN
 62
     7
370
    18
100
AcDbHatch
 10
0.0
 20
0.0
 30
0.0
210
0.0
220
0.0
230
1.0
  2
SOLID
 70
     1
 71
     0
 91
        1
 92
        2
 72
     0
 73
     1
 93
        3
 10
1222.42279515832
 20
-278.7099439419965
 10
1202.42279515832
 20
-274.7099439419965
 10
1202.42279515832
 20
-282.7099439419965
 97
        0
 75
     0
 76
     1
 98
        0
  0
LINE
  5
95
330
90
100
AcDbEntity
  8
SLD-0
  6
AUSGEZOGEN
 62
     7
370
    18
100
AcDbLine
 10
1202.42279515832
 20
-278.709943941996
 30
0.0
 11
1020.42279515832
 21
-278.709943941996
 31
0.0
  0
LINE
  5
96
330
90
100
AcDbEntity
  8
SLD-0
  6
AUSGEZOGEN
 62
     7
370
    18
100
AcDbLine
 10
1222.42279515832
 20
-482.323255372996
 30
0.0
 11
1222.42279515832
 21
-260.567086799139
 31
0.0
  0
LINE
  5
97
330
90
100
AcDbEntity
  8
SLD-0
  6
AUSGEZOGEN
 62
     7
370
    18
100
AcDbLine
 10
1000.42279515832
 20
-482.323255372996
 30
0.0
 11
1000.42279515832
 21
-260.567086799139
 31
0.0
  0
TEXT
  5
98
330
90
100
AcDbEntity
  8
SLD-0
  6
AUSGEZOGEN
 62
     7
370
    18
100
AcDbText
 10
1076.112757345688
 20
-270.978086808945
 30
0.0
 40
31.75
  1
222
 41
0.820056232427
  7
Arial
 72
     5
 11
1136.726393709325
 21
-270.978086808945
 31
0.0
100
AcDbText
  0
ENDBLK
  5
92
330
90
100
AcDbEntity
  8
0
100
AcDbBlockEnd
  0
BLOCK
  5
9B
330
9A
100
AcDbEntity
  8
0
100
AcDbBlockBegin
  2
*D6
 70
     1
 10
0.0
 20
0.0
 30
0.0
  3
*D6
  1

  0
HATCH
  5
9D
330
9A
100
AcDbEntity
  8
SLD-0
  6
AUSGEZOGEN
 62
     7
370
    18
100
AcDbHatch
 10
0.0
 20
0.0
 30
0.0
210
0.0
220
0.0
230
1.0
  2
SOLID
 70
     1
 71
     0
 91
        1
 92
        2
 72
     0
 73
     1
 93
        3
 10
881.5045852873195
 20
-907.3232553729963
 10
885.5045852873195
 20
-887.3232553729963
 10
877.5045852873195
 20
-887.3232553729963
 97
        0
 75
     0
 76
     1
 98
        0
  0
HATCH
  5
9E
330
9A
100
AcDbEntity
  8
SLD-0
  6
AUSGEZOGEN
 62
     7
370
    18
100
AcDbHatch
 10
0.0
 20
0.0
 30
0.0
210
0.0
220
0.0
230
1.0
  2
SOLID
 70
     1
 71
     0
 91
        1
 92
        2
 72
     0
 73
     1
 93
        3
 10
881.5045852873195
 20
-477.3232553729964
 10
877.5045852873195
 20
-497.3232553729964
 10
885.5045852873195
 20
-497.3232553729964
 97
        0
 75
     0
 76
     1
 98
        0
  0
LINE
  5
9F
330
9A
100
AcDbEntity
  8
SLD-0
  6
AUSGEZOGEN
 62
     7
370
    18
100
AcDbLine
 10
881.50458528732
 20
-497.323255372996
 30
0.0
 11
881.50458528732
 21
-887.323255372996
 31
0.0
  0
LINE
  5
A0
330
9A
100
AcDbEntity
  8
SLD-0
  6
AUSGEZOGEN
 62
     7
370
    18
100
AcDbLine
 10
1016.42279515832
 20
-477.323255372996
 30
0.0
 11
863.361728144462
 21
-477.323255372996
 31
0.0
  0
LINE
  5
A1
330
9A
100
AcDbEntity
  8
SLD-0
  6
AUSGEZOGEN
 62
     7
370
    18
100
AcDbLine
 10
1016.42279515832
 20
-907.323255372996
 30
0.0
 11
863.361728144462
 21
-907.323255372996
 31
0.0
  0
TEXT
  5
A2
330
9A
100
AcDbEntity
  8
SLD-0
  6
AUSGEZOGEN
 62
     7
370
    18
100
AcDbText
 10
881.811504503621
 20
-729.240099482338
 30
0.0
 40
31.75
  1
430
 50
90.0
 41
0.820056232427
  7
Arial
 72
     5
 11
881.811504503621
 21
-668.626463118701
 31
0.0
100
AcDbText
  0
ENDBLK
  5
9C
330
9A
100
AcDbEntity
  8
0
100
AcDbBlockEnd
  0
BLOCK
  5
A5
330
A4
100
AcDbEntity
  8
0
100
AcDbBlockBegin
  2
*D7
 70
     1
 10
0.0
 20
0.0
 30
0.0
  3
*D7
  1

  0
HATCH
  5
A7
330
A4
100
AcDbEntity
  8
SLD-0
  6
AUSGEZOGEN
 62
     7
370
    18
100
AcDbHatch
 10
0.0
 20
0.0
 30
0.0
210
0.0
220
0.0
230
1.0
  2
SOLID
 70
     1
 71
     0
 91
        1
 92
        2
 72
     0
 73
     1
 93
        3
 10
802.0530829163195
 20
-913.3232553729964
 10
806.0530829163195
 20
-893.3232553729964
 10
798.0530829163195
 20
-893.3232553729964
 97
        0
 75
     0
 76
     1
 98
        0
  0
HATCH
  5
A8
330
A4
100
AcDbEntity
  8
SLD-0
  6
AUSGEZOGEN
 62
     7
370
    18
100
AcDbHatch
 10
0.0
 20
0.0
 30
0.0
210
0.0
220
0.0
230
1.0
  2
SOLID
 70
     1
 71
     0
 91
        1
 92
        2
 72
     0
 73
     1
 93
        3
 10
802.0530829163195
 20
-471.3232553729963
 10
798.0530829163195
 20
-491.3232553729963
 10
806.0530829163195
 20
-491.3232553729963
 97
        0
 75
     0
 76
     1
 98
        0
  0
LINE
  5
A9
330
A4
100
AcDbEntity
  8
SLD-0
  6
AUSGEZOGEN
 62
     7
370
    18
100
AcDbLine
 10
802.053082916319
 20
-491.323255372996
 30
0.0
 11
802.053082916319
 21
-893.323255372996
 31
0.0
  0
LINE
  5
AA
330
A4
100
AcDbEntity
  8
SLD-0
  6
AUSGEZOGEN
 62
     7
370
    18
100
AcDbLine
 10
1011.42279515832
 20
-471.323255372996
 30
0.0
 11
783.910225773462
 21
-471.323255372996
 31
0.0
  0
LINE
  5
AB
330
A4
100
AcDbEntity
  8
SLD-0
  6
AUSGEZOGEN
 62
     7
370
    18
100
AcDbLine
 10
1011.42279515832
 20
-913.323255372996
 30
0.0
 11
783.910225773462
 21
-913.323255372996
 31
0.0
  0
TEXT
  5
AC
330
A4
100
AcDbEntity
  8
SLD-0
  6
AUSGEZOGEN
 62
     7
370
    18
100
AcDbText
 10
789.31801564828
 20
-725.130560644453
 30
0.0
 40
31.75
  1
442
 50
90.0
 41
0.820056232427
  7
Arial
 72
     5
 11
789.31801564828
 21
-664.516924280816
 31
0.0
100
AcDbText
  0
ENDBLK
  5
A6
330
A4
100
AcDbEntity
  8
0
100
AcDbBlockEnd
  0
BLOCK
  5
AF
330
AE
100
AcDbEntity
  8
0
100
AcDbBlockBegin
  2
_D_10_nNn07
 70
     0
 10
0.0
 20
0.0
 30
0.0
  3
_D_10_nNn07
  1

  0
HATCH
  5
B1
330
AE
100
AcDbEntity
  8
SLD-0
  6
AUSGEZOGEN
 62
     7
370
    18
100
AcDbHatch
 10
0.0
 20
0.0
 30
0.0
210
0.0
220
0.0
230
1.0
  2
SOLID
 70
     1
 71
     0
 91
        1
 92
        2
 72
     0
 73
     1
 93
        3
 10
1003.24280022332
 20
-474.9688225009965
 10
990.0415441763195
 20
-459.7380366119964
 10
986.6986201433195
 20
-463.4562161279963
 97
        0
 75
     0
 76
     1
 98
        0
  0
LINE
  5
B2
330
AE
100
AcDbEntity
  8
SLD-0
  6
AUSGEZOGEN
 62
     7
370
    18
100
AcDbLine
 10
1003.24280022332
 20
-474.968822500996
 30
0.0
 11
895.48997784132
 21
-378.090902002996
 31
0.0
  0
LINE
  5
B3
330
AE
100
AcDbEntity
  8
SLD-0
  6
AUSGEZOGEN
 62
     7
370
    18
100
AcDbLine
 10
1011.42279515832
 20
-482.323255372996
 30
0.0
 11
1003.24280022332
 21
-474.968822500996
 31
0.0
  0
LINE
  5
B4
330
AE
100
AcDbEntity
  8
SLD-0
  6
AUSGEZOGEN
 62
     7
370
    18
100
AcDbLine
 10
895.48997784132
 20
-378.090902002996
 30
0.0
 11
807.00154949432
 21
-378.090902002996
 31
0.0
  0
TEXT
  5
B5
330
AE
100
AcDbEntity
  8
SLD-0
  6
AUSGEZOGEN
 62
     7
370
    18
100
AcDbText
 10
807.00154949432
 20
-368.913005921996
 30
0.0
 40
31.75
  1
R11
 41
0.5859375
  7
Arial
 72
     5
 11
854.62654949432
 21
-368.913005921996
 31
0.0
100
AcDbText
  0
ENDBLK
  5
B0
330
AE
100
AcDbEntity
  8
0
100
AcDbBlockEnd
  0
BLOCK
  5
B8
330
B7
100
AcDbEntity
  8
0
100
AcDbBlockBegin
  2
_D_11_nNn08
 70
     0
 10
0.0
 20
0.0
 30
0.0
  3
_D_11_nNn08
  1

  0
HATCH
  5
BA
330
B7
100
AcDbEntity
  8
SLD-0
  6
AUSGEZOGEN
 62
     7
370
    18
100
AcDbHatch
 10
0.0
 20
0.0
 30
0.0
210
0.0
220
0.0
230
1.0
  2
SOLID
 70
     1
 71
     0
 91
        1
 92
        2
 72
     0
 73
     1
 93
        3
 10
1010.54700435532
 20
-479.2315879029964
 10
1020.275669093319
 20
-496.8838705429964
 10
1024.32150282832
 20
-493.9459751419963
 97
        0
 75
     0
 76
     1
 98
        0
  0
LINE
  5
BB
330
B7
100
AcDbEntity
  8
SLD-0
  6
AUSGEZOGEN
 62
     7
370
    18
100
AcDbLine
 10
1010.54700435532
 20
-479.231587902996
 30
0.0
 11
1073.520636274319
 21
-565.953819160996
 31
0.0
  0
LINE
  5
BC
330
B7
100
AcDbEntity
  8
SLD-0
  6
AUSGEZOGEN
 62
     7
370
    18
100
AcDbLine
 10
1073.520636274319
 20
-565.953819160996
 30
0.0
 11
1162.00906462132
 21
-565.953819160996
 31
0.0
  0
TEXT
  5
BD
330
B7
100
AcDbEntity
  8
SLD-0
  6
AUSGEZOGEN
 62
     7
370
    18
100
AcDbText
 10
1089.395636274319
 20
-556.775923079996
 30
0.0
 40
31.75
  1
R10
 41
0.634765625
  7
Arial
 72
     5
 11
1140.989386274319
 21
-556.775923079996
 31
0.0
100
AcDbText
  0
ENDBLK
  5
B9
330
B7
100
AcDbEntity
  8
0
100
AcDbBlockEnd
  0
BLOCK
  5
CC
330
CB
100
AcDbEntity
  8
0
100
AcDbBlockBegin
  2
*D10
 70
     1
 10
0.0
 20
0.0
 30
0.0
  3
*D10
  1

  0
HATCH
  5
CE
330
CB
100
AcDbEntity
  8
SLD-0
  6
AUSGEZOGEN
 62
     7
370
    18
100
AcDbHatch
 10
0.0
 20
0.0
 30
0.0
210
0.0
220
0.0
230
1.0
  2
SOLID
 70
     1
 71
     0
 91
        1
 92
        2
 72
     0
 73
     1
 93
        3
 10
1166.38171724032
 20
511.9286967536002
 10
1146.38171724032
 20
515.9286967536002
 10
1146.38171724032
 20
507.9286967536002
 97
        0
 75
     0
 76
     1
 98
        0
  0
HATCH
  5
CF
330
CB
100
AcDbEntity
  8
SLD-0
  6
AUSGEZOGEN
 62
     7
370
    18
100
AcDbHatch
 10
0.0
 20
0.0
 30
0.0
210
0.0
220
0.0
230
1.0
  2
SOLID
 70
     1
 71
     0
 91
        1
 92
        2
 72
     0
 73
     1
 93
        3
 10
956.3817172403195
 20
511.9286967536002
 10
976.3817172403195
 20
507.9286967536002
 10
976.3817172403195
 20
515.9286967536002
 97
        0
 75
     0
 76
     1
 98
        0
  0
LINE
  5
D0
330
CB
100
AcDbEntity
  8
SLD-0
  6
AUSGEZOGEN
 62
     7
370
    18
100
AcDbLine
 10
976.38171724032
 20
511.9286967536
 30
0.0
 11
1146.38171724032
 21
511.9286967536
 31
0.0
  0
LINE
  5
D1
330
CB
100
AcDbEntity
  8
SLD-0
  6
AUSGEZOGEN
 62
     7
370
    18
100
AcDbLine
 10
956.38171724032
 20
382.1005207196
 30
0.0
 11
956.38171724032
 21
530.071553896457
 31
0.0
  0
LINE
  5
D2
330
CB
100
AcDbEntity
  8
SLD-0
  6
AUSGEZOGEN
 62
     7
370
    18
100
AcDbLine
 10
1166.38171724032
 20
382.1005207196
 30
0.0
 11
1166.38171724032
 21
530.071553896457
 31
0.0
  0
TEXT
  5
D3
330
CB
100
AcDbEntity
  8
SLD-0
  6
AUSGEZOGEN
 62
     7
370
    18
100
AcDbText
 10
1032.949129213196
 20
520.108139483907
 30
0.0
 40
31.75
  1
210
 41
0.820056232427
  7
Arial
 72
     5
 11
1093.562765576832
 21
520.108139483907
 31
0.0
100
AcDbText
  0
ENDBLK
  5
CD
330
CB
100
AcDbEntity
  8
0
100
AcDbBlockEnd
  0
BLOCK
  5
D6
330
D5
100
AcDbEntity
  8
0
100
AcDbBlockBegin
  2
*D11
 70
     1
 10
0.0
 20
0.0
 30
0.0
  3
*D11
  1

  0
HATCH
  5
D8
330
D5
100
AcDbEntity
  8
SLD-0
  6
AUSGEZOGEN
 62
     7
370
    18
100
AcDbHatch
 10
0.0
 20
0.0
 30
0.0
210
0.0
220
0.0
230
1.0
  2
SOLID
 70
     1
 71
     0
 91
        1
 92
        2
 72
     0
 73
     1
 93
        3
 10
840.9558322643195
 20
392.1005207196004
 10
836.9558322643195
 20
372.1005207196004
 10
844.9558322643195
 20
372.1005207196004
 97
        0
 75
     0
 76
     1
 98
        0
  0
HATCH
  5
D9
330
D5
100
AcDbEntity
  8
SLD-0
  6
AUSGEZOGEN
 62
     7
370
    18
100
AcDbHatch
 10
0.0
 20
0.0
 30
0.0
210
0.0
220
0.0
230
1.0
  2
SOLID
 70
     1
 71
     0
 91
        1
 92
        2
 72
     0
 73
     1
 93
        3
 10
840.9558322643195
 20
-37.89947928039965
 10
844.9558322643195
 20
-17.89947928039965
 10
836.9558322643195
 20
-17.89947928039965
 97
        0
 75
     0
 76
     1
 98
        0
  0
LINE
  5
DA
330
D5
100
AcDbEntity
  8
SLD-0
  6
AUSGEZOGEN
 62
     7
370
    18
100
AcDbLine
 10
840.955832264319
 20
-17.8994792804
 30
0.0
 11
840.955832264319
 21
372.1005207196
 31
0.0
  0
LINE
  5
DB
330
D5
100
AcDbEntity
  8
SLD-0
  6
AUSGEZOGEN
 62
     7
370
    18
100
AcDbLine
 10
966.38171724032
 20
-37.8994792804
 30
0.0
 11
822.812975121462
 21
-37.8994792804
 31
0.0
  0
LINE
  5
DC
330
D5
100
AcDbEntity
  8
SLD-0
  6
AUSGEZOGEN
 62
     7
370
    18
100
AcDbLine
 10
966.38171724032
 20
392.1005207196
 30
0.0
 11
822.812975121462
 21
392.1005207196
 31
0.0
  0
TEXT
  5
DD
330
D5
100
AcDbEntity
  8
SLD-0
  6
AUSGEZOGEN
 62
     7
370
    18
100
AcDbText
 10
834.537054644224
 20
144.036903568213
 30
0.0
 40
31.75
  1
430
 50
90.0
 41
0.820056232427
  7
Arial
 72
     5
 11
834.537054644224
 21
204.65053993185
 31
0.0
100
AcDbText
  0
ENDBLK
  5
D7
330
D5
100
AcDbEntity
  8
0
100
AcDbBlockEnd
  0
BLOCK
  5
E0
330
DF
100
AcDbEntity
  8
0
100
AcDbBlockBegin
  2
_D_14_nNn011
 70
     0
 10
0.0
 20
0.0
 30
0.0
  3
_D_14_nNn011
  1

  0
HATCH
  5
E2
330
DF
100
AcDbEntity
  8
SLD-0
  6
AUSGEZOGEN
 62
     7
370
    18
100
AcDbHatch
 10
0.0
 20
0.0
 30
0.0
210
0.0
220
0.0
230
1.0
  2
SOLID
 70
     1
 71
     0
 91
        1
 92
        2
 72
     0
 73
     1
 93
        3
 10
960.6062694943196
 20
390.2641108196003
 10
970.1162674613196
 20
372.4930686826001
 10
974.1980625123196
 20
375.3807925556002
 97
        0
 75
     0
 76
     1
 98
        0
  0
LINE
  5
E3
330
DF
100
AcDbEntity
  8
SLD-0
  6
AUSGEZOGEN
 62
     7
370
    18
100
AcDbLine
 10
960.60626949432
 20
390.2641108196
 30
0.0
 11
1030.00026501732
 21
292.1757616946
 31
0.0
  0
LINE
  5
E4
330
DF
100
AcDbEntity
  8
SLD-0
  6
AUSGEZOGEN
 62
     7
370
    18
100
AcDbLine
 10
1030.00026501732
 20
292.1757616946
 30
0.0
 11
1118.48869336432
 21
292.1757616946
 31
0.0
  0
TEXT
  5
E5
330
DF
100
AcDbEntity
  8
SLD-0
  6
AUSGEZOGEN
 62
     7
370
    18
100
AcDbText
 10
1045.87526501732
 20
301.3536577756
 30
0.0
 40
31.75
  1
R10
 41
0.634765625
  7
Arial
 72
     5
 11
1097.46901501732
 21
301.3536577756
 31
0.0
100
AcDbText
  0
ENDBLK
  5
E1
330
DF
100
AcDbEntity
  8
0
100
AcDbBlockEnd
  0
BLOCK
  5
FA
330
F9
100
AcDbEntity
  8
0
100
AcDbBlockBegin
  2
*X13
 70
     1
 10
0.0
 20
0.0
 30
0.0
  3
*X13
  1

  0
LINE
  5
FC
330
F9
100
AcDbEntity
  8
0
  6
AUSGEZOGEN
 62
     7
370
    18
100
AcDbLine
 10
2355.504583955405
 20
-913.323255372742
 30
0.0
 11
2358.54177618027
 21
-910.286063147877
 31
0.0
  0
LINE
  5
FD
330
F9
100
AcDbEntity
  8
0
  6
AUSGEZOGEN
 62
     7
370
    18
100
AcDbLine
 10
2310.603303350059
 20
-913.323255372742
 30
0.0
 11
2358.54177618027
 21
-865.384782542531
 31
0.0
  0
LINE
  5
FE
330
F9
100
AcDbEntity
  8
0
  6
AUSGEZOGEN
 62
     7
370
    18
100
AcDbLine
 10
2265.702022744714
 20
-913.323255372742
 30
0.0
 11
2325.702022744714
 21
-853.323255372742
 31
0.0
  0
LINE
  5
FF
330
F9
100
AcDbEntity
  8
0
  6
AUSGEZOGEN
 62
     7
370
    18
100
AcDbLine
 10
2246.541776180271
 20
-887.582221331839
 30
0.0
 11
2280.800742139368
 21
-853.323255372742
 31
0.0
  0
ENDBLK
  5
FB
330
F9
100
AcDbEntity
  8
0
100
AcDbBlockEnd
  0
BLOCK
  5
112
330
111
100
AcDbEntity
  8
0
100
AcDbBlockBegin
  2
SW_HATCH_0_nNn013
 70
     0
 10
0.0
 20
0.0
 30
0.0
  3
SW_HATCH_0_nNn013
  1

  0
LINE
  5
114
330
111
100
AcDbEntity
  8
0
  6
AUSGEZOGEN
 62
     7
370
    18
100
AcDbLine
 10
1584.29216884032
 20
-480.403049404996
 30
0.0
 11
1635.14595769332
 21
-429.549265062996
 31
0.0
  0
LINE
  5
115
330
111
100
AcDbEntity
  8
0
  6
AUSGEZOGEN
 62
     7
370
    18
100
AcDbLine
 10
1584.29216884032
 20
-525.304331785996
 30
0.0
 11
1680.04725418932
 21
-429.549265062996
 31
0.0
  0
LINE
  5
116
330
111
100
AcDbEntity
  8
0
  6
AUSGEZOGEN
 62
     7
370
    18
100
AcDbLine
 10
1584.29216884032
 20
-570.205609655996
 30
0.0
 11
1724.94847618032
 21
-429.549265062996
 31
0.0
  0
LINE
  5
117
330
111
100
AcDbEntity
  8
0
  6
AUSGEZOGEN
 62
     7
370
    18
100
AcDbLine
 10
1619.84976671632
 20
-579.549261710996
 30
0.0
 11
1741.02764867232
 21
-458.371377425996
 31
0.0
  0
LINE
  5
118
330
111
100
AcDbEntity
  8
0
  6
AUSGEZOGEN
 62
     7
370
    18
100
AcDbLine
 10
1664.75106321232
 20
-579.549261710996
 30
0.0
 11
1732.49829851032
 21
-511.802024083996
 31
0.0
  0
ENDBLK
  5
113
330
111
100
AcDbEntity
  8
0
100
AcDbBlockEnd
  0
BLOCK
  5
11B
330
11A
100
AcDbEntity
  8
0
100
AcDbBlockBegin
  2
*D15
 70
     1
 10
0.0
 20
0.0
 30
0.0
  3
*D15
  1

  0
HATCH
  5
11D
330
11A
100
AcDbEntity
  8
SLD-0
  6
AUSGEZOGEN
 62
     7
370
    18
100
AcDbHatch
 10
0.0
 20
0.0
 30
0.0
210
0.0
220
0.0
230
1.0
  2
SOLID
 70
     1
 71
     0
 91
        1
 92
        2
 72
     0
 73
     1
 93
        3
 10
1614.29215095932
 20
-352.3432970879962
 10
1594.29215095932
 20
-348.3432970879962
 10
1594.29215095932
 20
-356.3432970879962
 97
        0
 75
     0
 76
     1
 98
        0
  0
HATCH
  5
11E
330
11A
100
AcDbEntity
  8
SLD-0
  6
AUSGEZOGEN
 62
     7
370
    18
100
AcDbHatch
 10
0.0
 20
0.0
 30
0.0
210
0.0
220
0.0
230
1.0
  2
SOLID
 70
     1
 71
     0
 91
        1
 92
        2
 72
     0
 73
     1
 93
        3
 10
1584.29215095932
 20
-352.3432970879962
 10
1604.29215095932
 20
-356.3432970879962
 10
1604.29215095932
 20
-348.3432970879962
 97
        0
 75
     0
 76
     1
 98
        0
  0
LINE
  5
11F
330
11A
100
AcDbEntity
  8
SLD-0
  6
AUSGEZOGEN
 62
     7
370
    18
100
AcDbLine
 10
1604.29215095932
 20
-352.343297087996
 30
0.0
 11
1594.29215095932
 21
-352.343297087996
 31
0.0
  0
LINE
  5
120
330
11A
100
AcDbEntity
  8
SLD-0
  6
AUSGEZOGEN
 62
     7
370
    18
100
AcDbLine
 10
1584.29215095932
 20
-437.049263945996
 30
0.0
 11
1584.29215095932
 21
-334.200439945139
 31
0.0
  0
LINE
  5
121
330
11A
100
AcDbEntity
  8
SLD-0
  6
AUSGEZOGEN
 62
     7
370
    18
100
AcDbLine
 10
1614.29215095932
 20
-429.549263945996
 30
0.0
 11
1614.29215095932
 21
-334.200439945139
 31
0.0
  0
TEXT
  5
122
330
11A
100
AcDbEntity
  8
SLD-0
  6
AUSGEZOGEN
 62
     7
370
    18
100
AcDbText
 10
1589.189878232047
 20
-358.693297087996
 30
0.0
 40
31.75
  1
6
 41
0.820056232427
  7
Arial
 72
     5
 11
1609.394423686592
 21
-358.693297087996
 31
0.0
100
AcDbText
  0
ENDBLK
  5
11C
330
11A
100
AcDbEntity
  8
0
100
AcDbBlockEnd
  0
BLOCK
  5
125
330
124
100
AcDbEntity
  8
0
100
AcDbBlockBegin
  2
*D16
 70
     1
 10
0.0
 20
0.0
 30
0.0
  3
*D16
  1

  0
HATCH
  5
127
330
124
100
AcDbEntity
  8
SLD-0
  6
AUSGEZOGEN
 62
     7
370
    18
100
AcDbHatch
 10
0.0
 20
0.0
 30
0.0
210
0.0
220
0.0
230
1.0
  2
SOLID
 70
     1
 71
     0
 91
        1
 92
        2
 72
     0
 73
     1
 93
        3
 10
1783.28120881332
 20
-429.5492639459964
 10
1779.28120881332
 20
-449.5492639459964
 10
1787.28120881332
 20
-449.5492639459964
 97
        0
 75
     0
 76
     1
 98
        0
  0
HATCH
  5
128
330
124
100
AcDbEntity
  8
SLD-0
  6
AUSGEZOGEN
 62
     7
370
    18
100
AcDbHatch
 10
0.0
 20
0.0
 30
0.0
210
0.0
220
0.0
230
1.0
  2
SOLID
 70
     1
 71
     0
 91
        1
 92
        2
 72
     0
 73
     1
 93
        3
 10
1783.28120881332
 20
-437.0492639459964
 10
1787.28120881332
 20
-417.0492639459964
 10
1779.28120881332
 20
-417.0492639459964
 97
        0
 75
     0
 76
     1
 98
        0
  0
LINE
  5
129
330
124
100
AcDbEntity
  8
SLD-0
  6
AUSGEZOGEN
 62
     7
370
    18
100
AcDbLine
 10
1783.28120881332
 20
-417.049263945996
 30
0.0
 11
1783.28120881332
 21
-449.549263945996
 31
0.0
  0
LINE
  5
12A
330
124
100
AcDbEntity
  8
SLD-0
  6
AUSGEZOGEN
 62
     7
370
    18
100
AcDbLine
 10
1614.29215513132
 20
-437.049263945996
 30
0.0
 11
1801.424065956177
 21
-437.049263945996
 31
0.0
  0
LINE
  5
12B
330
124
100
AcDbEntity
  8
SLD-0
  6
AUSGEZOGEN
 62
     7
370
    18
100
AcDbLine
 10
1738.61075483232
 20
-429.549263945996
 30
0.0
 11
1801.424065956177
 21
-429.549263945996
 31
0.0
  0
TEXT
  5
12C
330
124
100
AcDbEntity
  8
SLD-0
  6
AUSGEZOGEN
 62
     7
370
    18
100
AcDbText
 10
1789.63120881332
 20
-406.418439997178
 30
0.0
 40
31.75
  1
1.5
 50
90.0
 41
0.820056232427
  7
Arial
 72
     5
 11
1789.63120881332
 21
-355.907076360815
 31
0.0
100
AcDbText
  0
ENDBLK
  5
126
330
124
100
AcDbEntity
  8
0
100
AcDbBlockEnd
  0
BLOCK
  5
12F
330
12E
100
AcDbEntity
  8
0
100
AcDbBlockBegin
  2
SW_NOTE_0_7_nNn016
 70
     0
 10
0.0
 20
0.0
 30
0.0
  3
SW_NOTE_0_7_nNn016
  1

  0
TEXT
  5
131
330
12E
100
AcDbEntity
  8
SLD-0
  6
AUSGEZOGEN
 62
     7
370
    18
100
AcDbText
 10
1457.82327047632
 20
-664.526015061176
 30
0.0
 40
21.709401709402
  1
Detail 1:2
 41
0.790692872349
  7
Arial
 72
     5
 11
1559.030876847605
 21
-664.526015061176
 31
0.0
100
AcDbText
  0
ENDBLK
  5
130
330
12E
100
AcDbEntity
  8
0
100
AcDbBlockEnd
  0
BLOCK
  5
144
330
143
100
AcDbEntity
  8
0
100
AcDbBlockBegin
  2
*D18
 70
     1
 10
0.0
 20
0.0
 30
0.0
  3
*D18
  1

  0
HATCH
  5
146
330
143
100
AcDbEntity
  8
SLD-0
  6
AUSGEZOGEN
 62
     7
370
    18
100
AcDbHatch
 10
0.0
 20
0.0
 30
0.0
210
0.0
220
0.0
230
1.0
  2
SOLID
 70
     1
 71
     0
 91
        1
 92
        2
 72
     0
 73
     1
 93
        3
 10
2513.788019863853
 20
498.5424341382259
 10
2493.788019863853
 20
502.5424341382259
 10
2493.788019863853
 20
494.5424341382259
 97
        0
 75
     0
 76
     1
 98
        0
  0
HATCH
  5
147
330
143
100
AcDbEntity
  8
SLD-0
  6
AUSGEZOGEN
 62
     7
370
    18
100
AcDbHatch
 10
0.0
 20
0.0
 30
0.0
210
0.0
220
0.0
230
1.0
  2
SOLID
 70
     1
 71
     0
 91
        1
 92
        2
 72
     0
 73
     1
 93
        3
 10
2333.788019863853
 20
498.5424341382259
 10
2353.788019863853
 20
494.5424341382259
 10
2353.788019863853
 20
502.5424341382259
 97
        0
 75
     0
 76
     1
 98
        0
  0
LINE
  5
148
330
143
100
AcDbEntity
  8
SLD-0
  6
AUSGEZOGEN
 62
     7
370
    18
100
AcDbLine
 10
2353.788019863853
 20
498.542434138226
 30
0.0
 11
2493.788019863853
 21
498.542434138226
 31
0.0
  0
LINE
  5
149
330
143
100
AcDbEntity
  8
SLD-0
  6
AUSGEZOGEN
 62
     7
370
    18
100
AcDbLine
 10
2333.788019863853
 20
347.327733031226
 30
0.0
 11
2333.788019863853
 21
516.685291281083
 31
0.0
  0
LINE
  5
14A
330
143
100
AcDbEntity
  8
SLD-0
  6
AUSGEZOGEN
 62
     7
370
    18
100
AcDbLine
 10
2513.788019863853
 20
347.327733031226
 30
0.0
 11
2513.788019863853
 21
516.685291281083
 31
0.0
  0
TEXT
  5
14B
330
143
100
AcDbEntity
  8
SLD-0
  6
AUSGEZOGEN
 62
     7
370
    18
100
AcDbText
 10
2393.63112081843
 20
503.669984132367
 30
0.0
 40
31.75
  1
180
 41
0.820056232427
  7
Arial
 72
     5
 11
2454.244757182067
 21
503.669984132367
 31
0.0
100
AcDbText
  0
ENDBLK
  5
145
330
143
100
AcDbEntity
  8
0
100
AcDbBlockEnd
  0
BLOCK
  5
14E
330
14D
100
AcDbEntity
  8
0
100
AcDbBlockBegin
  2
*D19
 70
     1
 10
0.0
 20
0.0
 30
0.0
  3
*D19
  1

  0
HATCH
  5
150
330
14D
100
AcDbEntity
  8
SLD-0
  6
AUSGEZOGEN
 62
     7
370
    18
100
AcDbHatch
 10
0.0
 20
0.0
 30
0.0
210
0.0
220
0.0
230
1.0
  2
SOLID
 70
     1
 71
     0
 91
        1
 92
        2
 72
     0
 73
     1
 93
        3
 10
2103.788019863853
 20
-40.67226696877424
 10
2107.788019863853
 20
-20.67226696877424
 10
2099.788019863853
 20
-20.67226696877424
 97
        0
 75
     0
 76
     1
 98
        0
  0
HATCH
  5
151
330
14D
100
AcDbEntity
  8
SLD-0
  6
AUSGEZOGEN
 62
     7
370
    18
100
AcDbHatch
 10
0.0
 20
0.0
 30
0.0
210
0.0
220
0.0
230
1.0
  2
SOLID
 70
     1
 71
     0
 91
        1
 92
        2
 72
     0
 73
     1
 93
        3
 10
2103.788019863853
 20
359.3277330312258
 10
2099.788019863853
 20
339.3277330312258
 10
2107.788019863853
 20
339.3277330312258
 97
        0
 75
     0
 76
     1
 98
        0
  0
LINE
  5
152
330
14D
100
AcDbEntity
  8
SLD-0
  6
AUSGEZOGEN
 62
     7
370
    18
100
AcDbLine
 10
2103.788019863853
 20
339.327733031226
 30
0.0
 11
2103.788019863853
 21
-20.672266968774
 31
0.0
  0
LINE
  5
153
330
14D
100
AcDbEntity
  8
SLD-0
  6
AUSGEZOGEN
 62
     7
370
    18
100
AcDbLine
 10
2345.788019863853
 20
359.327733031226
 30
0.0
 11
2085.645162720995
 21
359.327733031226
 31
0.0
  0
LINE
  5
154
330
14D
100
AcDbEntity
  8
SLD-0
  6
AUSGEZOGEN
 62
     7
370
    18
100
AcDbLine
 10
2345.788019863853
 20
-40.672266968774
 30
0.0
 11
2085.645162720995
 21
-40.672266968774
 31
0.0
  0
TEXT
  5
155
330
14D
100
AcDbEntity
  8
SLD-0
  6
AUSGEZOGEN
 62
     7
370
    18
100
AcDbText
 10
2102.725557394118
 20
129.653517635616
 30
0.0
 40
31.75
  1
400
 50
90.0
 41
0.820056232427
  7
Arial
 72
     5
 11
2102.725557394118
 21
190.267153999252
 31
0.0
100
AcDbText
  0
ENDBLK
  5
14F
330
14D
100
AcDbEntity
  8
0
100
AcDbBlockEnd
  0
BLOCK
  5
158
330
157
100
AcDbEntity
  8
0
100
AcDbBlockBegin
  2
_D_20_nNn019
 70
     0
 10
0.0
 20
0.0
 30
0.0
  3
_D_20_nNn019
  1

  0
HATCH
  5
15A
330
157
100
AcDbEntity
  8
SLD-0
  6
AUSGEZOGEN
 62
     7
370
    18
100
AcDbHatch
 10
0.0
 20
0.0
 30
0.0
210
0.0
220
0.0
230
1.0
  2
SOLID
 70
     1
 71
     0
 91
        1
 92
        2
 72
     0
 73
     1
 93
        3
 10
2340.835389154853
 20
358.258032617226
 10
2346.812627922853
 20
339.0090685752259
 10
2351.366919416852
 20
341.0726647042259
 97
        0
 75
     0
 76
     1
 98
        0
  0
LINE
  5
15B
330
157
100
AcDbEntity
  8
SLD-0
  6
AUSGEZOGEN
 62
     7
370
    18
100
AcDbLine
 10
2340.835389154853
 20
358.258032617226
 30
0.0
 11
2374.420391706853
 21
284.136992494226
 31
0.0
  0
LINE
  5
15C
330
157
100
AcDbEntity
  8
SLD-0
  6
AUSGEZOGEN
 62
     7
370
    18
100
AcDbLine
 10
2374.420391706853
 20
284.136992494226
 30
0.0
 11
2462.908820053853
 21
284.136992494226
 31
0.0
  0
TEXT
  5
15D
330
157
100
AcDbEntity
  8
SLD-0
  6
AUSGEZOGEN
 62
     7
370
    18
100
AcDbText
 10
2390.295391706853
 20
293.314888575226
 30
0.0
 40
31.75
  1
R12
 41
0.68359375
  7
Arial
 72
     5
 11
2445.857891706853
 21
293.314888575226
 31
0.0
100
AcDbText
  0
ENDBLK
  5
159
330
157
100
AcDbEntity
  8
0
100
AcDbBlockEnd
  0
BLOCK
  5
160
330
15F
100
AcDbEntity
  8
0
100
AcDbBlockBegin
  2
*D21
 70
     1
 10
0.0
 20
0.0
 30
0.0
  3
*D21
  1

  0
HATCH
  5
162
330
15F
100
AcDbEntity
  8
SLD-0
  6
AUSGEZOGEN
 62
     7
370
    18
100
AcDbHatch
 10
0.0
 20
0.0
 30
0.0
210
0.0
220
0.0
230
1.0
  2
SOLID
 70
     1
 71
     0
 91
        1
 92
        2
 72
     0
 73
     1
 93
        3
 10
2195.091842606853
 20
269.3277330312258
 10
2191.091842606853
 20
249.3277330312258
 10
2199.091842606853
 20
249.3277330312258
 97
        0
 75
     0
 76
     1
 98
        0
  0
HATCH
  5
163
330
15F
100
AcDbEntity
  8
SLD-0
  6
AUSGEZOGEN
 62
     7
370
    18
100
AcDbHatch
 10
0.0
 20
0.0
 30
0.0
210
0.0
220
0.0
230
1.0
  2
SOLID
 70
     1
 71
     0
 91
        1
 92
        2
 72
     0
 73
     1
 93
        3
 10
2195.091842606853
 20
49.32773303122576
 10
2199.091842606853
 20
69.32773303122576
 10
2191.091842606853
 20
69.32773303122576
 97
        0
 75
     0
 76
     1
 98
        0
  0
LINE
  5
164
330
15F
100
AcDbEntity
  8
SLD-0
  6
AUSGEZOGEN
 62
     7
370
    18
100
AcDbLine
 10
2195.091842606853
 20
69.327733031226
 30
0.0
 11
2195.091842606853
 21
249.327733031226
 31
0.0
  0
LINE
  5
165
330
15F
100
AcDbEntity
  8
SLD-0
  6
AUSGEZOGEN
 62
     7
370
    18
100
AcDbLine
 10
2308.788019863853
 20
49.327733031226
 30
0.0
 11
2176.948985463996
 21
49.327733031226
 31
0.0
  0
LINE
  5
166
330
15F
100
AcDbEntity
  8
SLD-0
  6
AUSGEZOGEN
 62
     7
370
    18
100
AcDbLine
 10
2308.788019863853
 20
269.327733031226
 30
0.0
 11
2176.948985463996
 21
269.327733031226
 31
0.0
  0
TEXT
  5
167
330
15F
100
AcDbEntity
  8
SLD-0
  6
AUSGEZOGEN
 62
     7
370
    18
100
AcDbText
 10
2186.99740279565
 20
125.543978797731
 30
0.0
 40
31.75
  1
220
 50
90.0
 41
0.820056232427
  7
Arial
 72
     5
 11
2186.99740279565
 21
186.157615161367
 31
0.0
100
AcDbText
  0
ENDBLK
  5
161
330
15F
100
AcDbEntity
  8
0
100
AcDbBlockEnd
  0
BLOCK
  5
16A
330
169
100
AcDbEntity
  8
0
100
AcDbBlockBegin
  2
*D22
 70
     1
 10
0.0
 20
0.0
 30
0.0
  3
*D22
  1

  0
HATCH
  5
16C
330
169
100
AcDbEntity
  8
SLD-0
  6
AUSGEZOGEN
 62
     7
370
    18
100
AcDbHatch
 10
0.0
 20
0.0
 30
0.0
210
0.0
220
0.0
230
1.0
  2
SOLID
 70
     1
 71
     0
 91
        1
 92
        2
 72
     0
 73
     1
 93
        3
 10
2195.091842606853
 20
49.32773303122576
 10
2191.091842606853
 20
29.32773303122576
 10
2199.091842606853
 20
29.32773303122576
 97
        0
 75
     0
 76
     1
 98
        0
  0
HATCH
  5
16D
330
169
100
AcDbEntity
  8
SLD-0
  6
AUSGEZOGEN
 62
     7
370
    18
100
AcDbHatch
 10
0.0
 20
0.0
 30
0.0
210
0.0
220
0.0
230
1.0
  2
SOLID
 70
     1
 71
     0
 91
        1
 92
        2
 72
     0
 73
     1
 93
        3
 10
2195.091842606853
 20
-40.67226696877424
 10
2199.091842606853
 20
-20.67226696877424
 10
2191.091842606853
 20
-20.67226696877424
 97
        0
 75
     0
 76
     1
 98
        0
  0
LINE
  5
16E
330
169
100
AcDbEntity
  8
SLD-0
  6
AUSGEZOGEN
 62
     7
370
    18
100
AcDbLine
 10
2195.091842606853
 20
-20.672266968774
 30
0.0
 11
2195.091842606853
 21
29.327733031226
 31
0.0
  0
LINE
  5
16F
330
169
100
AcDbEntity
  8
SLD-0
  6
AUSGEZOGEN
 62
     7
370
    18
100
AcDbLine
 10
2345.788019863853
 20
-40.672266968774
 30
0.0
 11
2176.948985463996
 21
-40.672266968774
 31
0.0
  0
LINE
  5
170
330
169
100
AcDbEntity
  8
SLD-0
  6
AUSGEZOGEN
 62
     7
370
    18
100
AcDbLine
 10
2308.788019863853
 20
49.327733031226
 30
0.0
 11
2176.948985463996
 21
49.327733031226
 31
0.0
  0
TEXT
  5
171
330
169
100
AcDbEntity
  8
SLD-0
  6
AUSGEZOGEN
 62
     7
370
    18
100
AcDbText
 10
2189.052813659102
 20
-18.461454895682
 30
0.0
 40
31.75
  1
90
 50
90.0
 41
0.820056232427
  7
Arial
 72
     5
 11
2189.052813659102
 21
21.947636013409
 31
0.0
100
AcDbText
  0
ENDBLK
  5
16B
330
169
100
AcDbEntity
  8
0
100
AcDbBlockEnd
  0
BLOCK
  5
174
330
173
100
AcDbEntity
  8
0
100
AcDbBlockBegin
  2
*D23
 70
     1
 10
0.0
 20
0.0
 30
0.0
  3
*D23
  1

  0
HATCH
  5
176
330
173
100
AcDbEntity
  8
SLD-0
  6
AUSGEZOGEN
 62
     7
370
    18
100
AcDbHatch
 10
0.0
 20
0.0
 30
0.0
210
0.0
220
0.0
230
1.0
  2
SOLID
 70
     1
 71
     0
 91
        1
 92
        2
 72
     0
 73
     1
 93
        3
 10
2195.091842606853
 20
359.3277330312258
 10
2191.091842606853
 20
339.3277330312258
 10
2199.091842606853
 20
339.3277330312258
 97
        0
 75
     0
 76
     1
 98
        0
  0
HATCH
  5
177
330
173
100
AcDbEntity
  8
SLD-0
  6
AUSGEZOGEN
 62
     7
370
    18
100
AcDbHatch
 10
0.0
 20
0.0
 30
0.0
210
0.0
220
0.0
230
1.0
  2
SOLID
 70
     1
 71
     0
 91
        1
 92
        2
 72
     0
 73
     1
 93
        3
 10
2195.091842606853
 20
269.3277330312258
 10
2199.091842606853
 20
289.3277330312258
 10
2191.091842606853
 20
289.3277330312258
 97
        0
 75
     0
 76
     1
 98
        0
  0
LINE
  5
178
330
173
100
AcDbEntity
  8
SLD-0
  6
AUSGEZOGEN
 62
     7
370
    18
100
AcDbLine
 10
2195.091842606853
 20
289.327733031226
 30
0.0
 11
2195.091842606853
 21
339.327733031226
 31
0.0
  0
LINE
  5
179
330
173
100
AcDbEntity
  8
SLD-0
  6
AUSGEZOGEN
 62
     7
370
    18
100
AcDbLine
 10
2308.788019863853
 20
269.327733031226
 30
0.0
 11
2176.948985463996
 21
269.327733031226
 31
0.0
  0
LINE
  5
17A
330
173
100
AcDbEntity
  8
SLD-0
  6
AUSGEZOGEN
 62
     7
370
    18
100
AcDbLine
 10
2345.788019863853
 20
359.327733031226
 30
0.0
 11
2176.948985463996
 21
359.327733031226
 31
0.0
  0
TEXT
  5
17B
330
173
100
AcDbEntity
  8
SLD-0
  6
AUSGEZOGEN
 62
     7
370
    18
100
AcDbText
 10
2193.163635386006
 20
291.808727364632
 30
0.0
 40
31.75
  1
90
 50
90.0
 41
0.820056232427
  7
Arial
 72
     5
 11
2193.163635386006
 21
332.217818273723
 31
0.0
100
AcDbText
  0
ENDBLK
  5
175
330
173
100
AcDbEntity
  8
0
100
AcDbBlockEnd
  0
BLOCK
  5
17E
330
17D
100
AcDbEntity
  8
0
100
AcDbBlockBegin
  2
*D24
 70
     1
 10
0.0
 20
0.0
 30
0.0
  3
*D24
  1

  0
HATCH
  5
180
330
17D
100
AcDbEntity
  8
SLD-0
  6
AUSGEZOGEN
 62
     7
370
    18
100
AcDbHatch
 10
0.0
 20
0.0
 30
0.0
210
0.0
220
0.0
230
1.0
  2
SOLID
 70
     1
 71
     0
 91
        1
 92
        2
 72
     0
 73
     1
 93
        3
 10
2513.788019863853
 20
91.79276303522579
 10
2533.788019863853
 20
87.79276303522579
 10
2533.788019863853
 20
95.79276303522579
 97
        0
 75
     0
 76
     1
 98
        0
  0
HATCH
  5
181
330
17D
100
AcDbEntity
  8
SLD-0
  6
AUSGEZOGEN
 62
     7
370
    18
100
AcDbHatch
 10
0.0
 20
0.0
 30
0.0
210
0.0
220
0.0
230
1.0
  2
SOLID
 70
     1
 71
     0
 91
        1
 92
        2
 72
     0
 73
     1
 93
        3
 10
2538.788019863853
 20
91.79276303522579
 10
2518.788019863853
 20
95.79276303522579
 10
2518.788019863853
 20
87.79276303522579
 97
        0
 75
     0
 76
     1
 98
        0
  0
LINE
  5
182
330
17D
100
AcDbEntity
  8
SLD-0
  6
AUSGEZOGEN
 62
     7
370
    18
100
AcDbLine
 10
2518.788019863853
 20
91.792763035226
 30
0.0
 11
2533.788019863853
 21
91.792763035226
 31
0.0
  0
LINE
  5
183
330
17D
100
AcDbEntity
  8
SLD-0
  6
AUSGEZOGEN
 62
     7
370
    18
100
AcDbLine
 10
2538.788019863853
 20
49.327733031226
 30
0.0
 11
2538.788019863853
 21
109.935620178083
 31
0.0
  0
LINE
  5
184
330
17D
100
AcDbEntity
  8
SLD-0
  6
AUSGEZOGEN
 62
     7
370
    18
100
AcDbLine
 10
2513.788019863853
 20
-28.672266968774
 30
0.0
 11
2513.788019863853
 21
109.935620178083
 31
0.0
  0
TEXT
  5
185
330
17D
100
AcDbEntity
  8
SLD-0
  6
AUSGEZOGEN
 62
     7
370
    18
100
AcDbText
 10
2440.253392737307
 20
85.442763035226
 30
0.0
 40
31.75
  1
25
 41
0.820056232427
  7
Arial
 72
     5
 11
2480.662483646398
 21
85.442763035226
 31
0.0
100
AcDbText
  0
ENDBLK
  5
17F
330
17D
100
AcDbEntity
  8
0
100
AcDbBlockEnd
  0
BLOCK
  5
188
330
187
100
AcDbEntity
  8
0
100
AcDbBlockBegin
  2
A3-NABER_nNn024
 70
     0
 10
0.0
 20
0.0
 30
0.0
  3
A3-NABER_nNn024
  1

  0
INSERT
  5
1A5
330
187
100
AcDbEntity
  8
0
100
AcDbBlockReference
  2
A3-NABER_001_nNn025
 10
0.0
 20
0.0
 30
0.0
  0
TEXT
  5
1A6
330
187
100
AcDbEntity
  8
Layer100
  6
AUSGEZOGEN
 62
    18
420
        0
370
    50
100
AcDbText
 10
2506.741008153624
 20
-1017.506719842438
 30
0.0
 40
9.866410310477
  1
Weitergabe und Vervielfältigung,
 50
0.000002504478
 41
1.085122205146
  7
Arial
 72
     5
 11
2722.696997029333
 21
-1017.506710402702
 31
0.0
100
AcDbText
  0
TEXT
  5
1A7
330
187
100
AcDbEntity
  8
Layer100
  6
AUSGEZOGEN
 62
    18
420
        0
370
    50
100
AcDbText
 10
2506.807607113258
 20
-1033.292976336289
 30
0.0
 40
9.866410310477
  1
sowie Verwertung und Mitteilung
 50
0.000002504478
 41
1.084506693109
  7
Arial
 72
     5
 11
2722.630399449776
 21
-1033.292966902375
 31
0.0
100
AcDbText
  0
TEXT
  5
1A8
330
187
100
AcDbEntity
  8
Layer100
  6
AUSGEZOGEN
 62
    18
420
        0
370
    50
100
AcDbText
 10
2496.980663134063
 20
-1049.079233262601
 30
0.0
 40
9.866410310477
  1
dieser Zeichnung ist nicht gestattet,
 50
0.000002504478
 41
1.087014938969
  7
Arial
 72
     5
 11
2732.45734480905
 21
-1049.079222969588
 31
0.0
100
AcDbText
  0
TEXT
  5
1A9
330
187
100
AcDbEntity
  8
Layer100
  6
AUSGEZOGEN
 62
    18
420
        0
370
    50
100
AcDbText
 10
2504.972456175588
 20
-1064.865489410031
 30
0.0
 40
9.866410310477
  1
soweit nicht ausdrücklich erlaubt.
 50
0.000002504478
 41
1.086254882812
  7
Arial
 72
     5
 11
2724.465553147603
 21
-1064.865479815683
 31
0.0
100
AcDbText
  0
TEXT
  5
1AA
330
187
100
AcDbEntity
  8
Layer100
  6
AUSGEZOGEN
 62
    18
420
        0
370
    50
100
AcDbText
 10
2533.343319713402
 20
-1080.651744666664
 30
0.0
 40
9.866410310477
  1
Alle Rechte vorbehalten!
 50
0.000002504478
 41
1.084802051822
  7
Arial
 72
     5
 11
2696.094690989867
 21
-1080.651737552575
 31
0.0
100
AcDbText
  0
LINE
  5
1AB
330
187
100
AcDbEntity
  8
Layer100
  6
AUSGEZOGEN
 62
    18
420
        0
370
    50
100
AcDbLine
 10
3354.005916818936
 20
-989.544252909277
 30
0.0
 11
2073.845916818936
 21
-989.544252909277
 31
0.0
  0
INSERT
  5
1DC
330
187
100
AcDbEntity
  8
0
100
AcDbBlockReference
  2
Schriftfeld_nNn030
 10
0.0
 20
0.0
 30
0.0
  0
INSERT
  5
1E8
330
187
100
AcDbEntity
  8
0
100
AcDbBlockReference
  2
Beschriftung_nNn031
 10
0.0
 20
0.0
 30
0.0
  0
TEXT
  5
1E9
330
187
100
AcDbEntity
  8
Layer100
  6
AUSGEZOGEN
 62
    18
420
        0
370
    18
100
AcDbText
 10
2086.234695888335
 20
-1130.542520546141
 30
0.0
 40
14.799614687777
  1
-
 41
0.967741971819
  7
Arial
 72
     5
 11
2092.894522747887
 21
-1130.542520546141
 31
0.0
100
AcDbText
  0
TEXT
  5
1EA
330
187
100
AcDbEntity
  8
Layer100
  6
AUSGEZOGEN
 62
    18
420
        0
370
    18
100
AcDbText
 10
2141.479968537104
 20
-1130.291312049783
 30
0.0
 40
14.799614687777
  1
-
 41
0.967741971819
  7
Arial
 72
     5
 11
2148.139795396655
 21
-1130.291312049783
 31
0.0
100
AcDbText
  0
TEXT
  5
1EB
330
187
100
AcDbEntity
  8
Layer100
  6
AUSGEZOGEN
 62
    18
420
        0
370
    18
100
AcDbText
 10
2317.894434981622
 20
-1130.279059838467
 30
0.0
 40
14.799614687777
  1
-
 41
0.967741971819
  7
Arial
 72
     5
 11
2324.554261841173
 21
-1130.279059838467
 31
0.0
100
AcDbText
  0
TEXT
  5
1EC
330
187
100
AcDbEntity
  8
Layer100
  6
AUSGEZOGEN
 62
    18
420
        0
370
    18
100
AcDbText
 10
2414.863410050439
 20
-1130.279059838467
 30
0.0
 40
14.799614687777
  1
-
 41
0.967741971819
  7
Arial
 72
     5
 11
2421.52323690999
 21
-1130.279059838467
 31
0.0
100
AcDbText
  0
TEXT
  5
1ED
330
187
100
AcDbEntity
  8
Layer100
  6
AUSGEZOGEN
 62
    18
420
        0
370
    18
100
AcDbText
 10
2463.149664940475
 20
-1252.854595383295
 30
0.0
 40
9.027487181822
  1
Naber GmbH
 41
0.96475869975
  7
Arial
 72
     5
 11
2534.757914293419
 21
-1252.854595383295
 31
0.0
100
AcDbText
  0
TEXT
  5
1EE
330
187
100
AcDbEntity
  8
Layer100
  6
AUSGEZOGEN
 62
    18
420
        0
370
    18
100
AcDbText
 10
2463.149664940475
 20
-1264.5903282892
 30
0.0
 40
9.027487181822
  1
Enschedestr. 24
 41
0.976824042946
  7
Arial
 72
     5
 11
2552.090701127646
 21
-1264.5903282892
 31
0.0
100
AcDbText
  0
TEXT
  5
1EF
330
187
100
AcDbEntity
  8
Layer100
  6
AUSGEZOGEN
 62
    18
420
        0
370
    18
100
AcDbText
 10
2463.149664940475
 20
-1276.326061195104
 30
0.0
 40
9.027487181822
  1
48529 Nordhorn
 41
0.972993785506
  7
Arial
 72
     5
 11
2551.741951454625
 21
-1276.326061195104
 31
0.0
100
AcDbText
  0
TEXT
  5
1F0
330
187
100
AcDbEntity
  8
Layer100
  6
AUSGEZOGEN
 62
    18
420
        0
370
    18
100
AcDbText
 10
2463.149664940475
 20
-1299.797527006913
 30
0.0
 40
9.027487181822
  1
0049-(0)5921-704-0
 41
0.975798499711
  7
Arial
 72
     5
 11
2572.495886807711
 21
-1299.797527006913
 31
0.0
100
AcDbText
  0
IMAGE
  5
1F3
330
187
100
AcDbEntity
  8
0
  6
AUSGEZOGEN
 62
    18
420
        0
370
    18
160
               140
310
8C0000000100000084000000060000000500000076E493AF7043A440DC923D759D4B94C00000000000000000B369C00AEB94A540DC923D759D4B94C00000000000000000B369C00AEB94A540EF69320B204E93C0000000000000000076E493AF7043A440EF69320B204E93C0000000000000000076E493AF7043A440DC923D
310
759D4B94C00000000000000000
100
AcDbRasterImage
 90
        0
 10
2593.720089551581
 20
-1298.903767549599
 30
0.0
 11
0.04462813458125245
 21
0.0
 31
0.0
 12
0.0
 22
0.06720304860732251
 32
0.0
 13
3781.0
 23
943.0
340
1F2
 70
     7
280
     0
281
    50
282
    50
283
     0
360
1F4
 71
     1
 91
        2
 14
-0.5
 24
-0.5
 14
3780.5
 24
942.5
290
     0
  0
TEXT
  5
1F5
330
187
100
AcDbEntity
  8
Layer100
  6
AUSGEZOGEN
 62
    18
420
        0
370
    18
100
AcDbText
 10
2774.52276792411
 20
-1098.774621556981
 30
0.0
 40
24.666025776191
  1
Einbaumaße
 41
0.90372298842
  7
Arial
 72
     5
 11
2950.913464995434
 21
-1098.774621556981
 31
0.0
100
AcDbText
  0
ENDBLK
  5
189
330
187
100
AcDbEntity
  8
0
100
AcDbBlockEnd
  0
BLOCK
  5
18B
330
18A
100
AcDbEntity
  8
0
100
AcDbBlockBegin
  2
A3-NABER_001_nNn025
 70
     0
 10
0.0
 20
0.0
 30
0.0
  3
A3-NABER_001_nNn025
  1

  0
INSERT
  5
1A4
330
18A
100
AcDbEntity
  8
0
100
AcDbBlockReference
  2
A3-NABER_002_nNn026
 10
0.0
 20
0.0
 30
0.0
  0
ENDBLK
  5
18C
330
18A
100
AcDbEntity
  8
0
100
AcDbBlockEnd
  0
BLOCK
  5
18E
330
18D
100
AcDbEntity
  8
0
100
AcDbBlockBegin
  2
A3-NABER_002_nNn026
 70
     0
 10
0.0
 20
0.0
 30
0.0
  3
A3-NABER_002_nNn026
  1

  0
INSERT
  5
1A3
330
18D
100
AcDbEntity
  8
0
100
AcDbBlockReference
  2
A3-NABER_nNn027
 10
0.0
 20
0.0
 30
0.0
  0
ENDBLK
  5
18F
330
18D
100
AcDbEntity
  8
0
100
AcDbBlockEnd
  0
BLOCK
  5
191
330
190
100
AcDbEntity
  8
0
100
AcDbBlockBegin
  2
A3-NABER_nNn027
 70
     0
 10
0.0
 20
0.0
 30
0.0
  3
A3-NABER_nNn027
  1

  0
INSERT
  5
19E
330
190
100
AcDbEntity
  8
0
100
AcDbBlockReference
  2
A3-Textliste_nNn028
 10
0.0
 20
0.0
 30
0.0
  0
LINE
  5
19F
330
190
100
AcDbEntity
  8
SLD-0
  6
AUSGEZOGEN
 62
    18
420
        0
370
    18
100
AcDbLine
 10
3389.005916818936
 20
-1410.849176286005
 30
0.0
 11
3389.005916818936
 21
660.450823713995
 31
0.0
  0
LINE
  5
1A0
330
190
100
AcDbEntity
  8
SLD-0
  6
AUSGEZOGEN
 62
    18
420
        0
370
    18
100
AcDbLine
 10
554.005916818936
 20
-1410.849176286005
 30
0.0
 11
3389.005916818936
 21
-1410.849176286005
 31
0.0
  0
LINE
  5
1A1
330
190
100
AcDbEntity
  8
SLD-0
  6
AUSGEZOGEN
 62
    18
420
        0
370
    18
100
AcDbLine
 10
554.005916818936
 20
660.450823713995
 30
0.0
 11
3389.005916818936
 21
660.450823713995
 31
0.0
  0
LINE
  5
1A2
330
190
100
AcDbEntity
  8
SLD-0
  6
AUSGEZOGEN
 62
    18
420
        0
370
    18
100
AcDbLine
 10
554.005916818936
 20
-1410.849176286005
 30
0.0
 11
554.005916818936
 21
660.450823713995
 31
0.0
  0
ENDBLK
  5
192
330
190
100
AcDbEntity
  8
0
100
AcDbBlockEnd
  0
BLOCK
  5
194
330
193
100
AcDbEntity
  8
0
100
AcDbBlockBegin
  2
A3-Textliste_nNn028
 70
     0
 10
0.0
 20
0.0
 30
0.0
  3
A3-Textliste_nNn028
  1

  0
INSERT
  5
19D
330
193
100
AcDbEntity
  8
0
100
AcDbBlockReference
  2
Zeichnungsrahmen_nNn029
 10
0.0
 20
0.0
 30
0.0
  0
ENDBLK
  5
195
330
193
100
AcDbEntity
  8
0
100
AcDbBlockEnd
  0
BLOCK
  5
197
330
196
100
AcDbEntity
  8
0
100
AcDbBlockBegin
  2
Zeichnungsrahmen_nNn029
 70
     0
 10
0.0
 20
0.0
 30
0.0
  3
Zeichnungsrahmen_nNn029
  1

  0
LINE
  5
199
330
196
100
AcDbEntity
  8
Layer100
  6
AUSGEZOGEN
 62
    18
420
        0
370
    50
100
AcDbLine
 10
3354.005916818936
 20
-1375.849176286005
 30
0.0
 11
3354.005916818936
 21
625.450823713995
 31
0.0
  0
LINE
  5
19A
330
196
100
AcDbEntity
  8
Layer100
  6
AUSGEZOGEN
 62
    18
420
        0
370
    50
100
AcDbLine
 10
589.005916818936
 20
-1375.849176286005
 30
0.0
 11
3354.005916818936
 21
-1375.849176286005
 31
0.0
  0
LINE
  5
19B
330
196
100
AcDbEntity
  8
Layer100
  6
AUSGEZOGEN
 62
    18
420
        0
370
    50
100
AcDbLine
 10
589.005916818936
 20
-1375.849176286005
 30
0.0
 11
589.005916818936
 21
625.450823713995
 31
0.0
  0
LINE
  5
19C
330
196
100
AcDbEntity
  8
Layer100
  6
AUSGEZOGEN
 62
    18
420
        0
370
    50
100
AcDbLine
 10
589.005916818936
 20
625.450823713995
 30
0.0
 11
3354.005916818936
 21
625.450823713995
 31
0.0
  0
ENDBLK
  5
198
330
196
100
AcDbEntity
  8
0
100
AcDbBlockEnd
  0
BLOCK
  5
1AD
330
1AC
100
AcDbEntity
  8
0
100
AcDbBlockBegin
  2
Schriftfeld_nNn030
 70
     0
 10
0.0
 20
0.0
 30
0.0
  3
Schriftfeld_nNn030
  1

  0
LINE
  5
1AF
330
1AC
100
AcDbEntity
  8
Layer100
  6
AUSGEZOGEN
 62
    18
420
        0
370
    50
100
AcDbLine
 10
2457.079300153476
 20
-989.544341632593
 30
0.0
 11
2457.079300153476
 21
-1375.849265009321
 31
0.0
  0
LINE
  5
1B0
330
1AC
100
AcDbEntity
  8
Layer100
  6
AUSGEZOGEN
 62
    18
420
        0
370
    50
100
AcDbLine
 10
2766.123238854859
 20
-989.544300569316
 30
0.0
 11
2766.123238854859
 21
-1375.849223946044
 31
0.0
  0
LINE
  5
1B1
330
1AC
100
AcDbEntity
  8
Layer100
  6
AUSGEZOGEN
 62
    18
420
        0
370
    18
100
AcDbLine
 10
2129.856306234366
 20
-1108.407405111504
 30
0.0
 11
2129.856306234366
 21
-1375.849275141546
 31
0.0
  0
LINE
  5
1B2
330
1AC
100
AcDbEntity
  8
Layer100
  6
AUSGEZOGEN
 62
    18
420
        0
370
    18
100
AcDbLine
 10
2402.542134500291
 20
-1108.407610495073
 30
0.0
 11
2402.542134500291
 21
-1375.849480525115
 31
0.0
  0
LINE
  5
1B3
330
1AC
100
AcDbEntity
  8
Layer100
  6
AUSGEZOGEN
 62
    18
420
        0
370
    18
100
AcDbLine
 10
2311.646858411649
 20
-1375.849480525115
 30
0.0
 11
2311.646858411649
 21
-989.544557148388
 31
0.0
  0
TEXT
  5
1B4
330
1AC
100
AcDbEntity
  8
Layer100
  6
AUSGEZOGEN
 62
    18
420
        0
370
    18
100
AcDbText
 10
2772.276149851628
 20
-1052.387848438107
 30
0.0
 40
11.536708118943
  1
Rohstoff/Raw material
 41
1.084377276038
  7
Arial
 72
     5
 11
2944.040428680511
 21
-1052.387848438107
 31
0.0
100
AcDbText
  0
TEXT
  5
1B5
330
1AC
100
AcDbEntity
  8
Layer100
  6
AUSGEZOGEN
 62
    18
420
        0
370
    18
100
AcDbText
 10
2772.276149851628
 20
-1126.677256779785
 30
0.0
 40
11.536708118943
  1
Benennung/Designation
 41
1.081895683695
  7
Arial
 72
     5
 11
2958.213274604632
 21
-1126.677256779785
 31
0.0
100
AcDbText
  0
TEXT
  5
1B6
330
1AC
100
AcDbEntity
  8
Layer100
  6
AUSGEZOGEN
 62
    18
420
        0
370
    18
100
AcDbText
 10
2771.367197090742
 20
-1273.770285296309
 30
0.0
 40
11.536708118943
  1
Sachnummer/Part-No.
 41
1.080626575441
  7
Arial
 72
     5
 11
2944.469734061422
 21
-1273.770285296309
 31
0.0
100
AcDbText
  0
LINE
  5
1B7
330
1AC
100
AcDbEntity
  8
Layer100
  6
AUSGEZOGEN
 62
    18
420
        0
370
    18
100
AcDbLine
 10
2529.79552102439
 20
-1108.407306255962
 30
0.0
 11
2529.79552102439
 21
-1197.554596265977
 31
0.0
  0
TEXT
  5
1B8
330
1AC
100
AcDbEntity
  8
Layer100
  6
AUSGEZOGEN
 62
    18
420
        0
370
    18
100
AcDbText
 10
2462.320856564539
 20
-1182.391097095795
 30
0.0
 40
11.536708118943
  1
Gepr.
 41
1.076768834145
  7
Arial
 72
     5
 11
2505.687342383646
 21
-1182.391097095795
 31
0.0
100
AcDbText
  0
TEXT
  5
1B9
330
1AC
100
AcDbEntity
  8
Layer100
  6
AUSGEZOGEN
 62
    18
420
        0
370
    18
100
AcDbText
 10
2462.320856564539
 20
-1197.38881765042
 30
0.0
 40
11.536708118943
  1
Check.
 41
1.077923572744
  7
Arial
 72
     5
 11
2516.341492331489
 21
-1197.38881765042
 31
0.0
100
AcDbText
  0
TEXT
  5
1BA
330
1AC
100
AcDbEntity
  8
Layer100
  6
AUSGEZOGEN
 62
    18
420
        0
370
    18
100
AcDbText
 10
2535.037007397106
 20
-1122.953612361237
 30
0.0
 40
11.536708118943
  1
Datum
 41
1.075650693262
  7
Arial
 72
     5
 11
2586.052330699072
 21
-1122.953612361237
 31
0.0
100
AcDbText
  0
TEXT
  5
1BB
330
1AC
100
AcDbEntity
  8
Layer100
  6
AUSGEZOGEN
 62
    18
420
        0
370
    18
100
AcDbText
 10
2535.037007397106
 20
-1137.951332915862
 30
0.0
 40
11.536708118943
  1
Date
 41
1.076492537313
  7
Arial
 72
     5
 11
2571.648750612571
 21
-1137.951332915862
 31
0.0
100
AcDbText
  0
TEXT
  5
1BC
330
1AC
100
AcDbEntity
  8
Layer100
  6
AUSGEZOGEN
 62
    18
420
        0
370
    18
100
AcDbText
 10
2644.113810566643
 20
-1122.957542284441
 30
0.0
 40
11.536708118943
  1
Name
 41
1.072387859253
  7
Arial
 72
     5
 11
2690.174117731523
 21
-1122.957542284441
 31
0.0
100
AcDbText
  0
TEXT
  5
1BD
330
1AC
100
AcDbEntity
  8
Layer100
  6
AUSGEZOGEN
 62
    18
420
        0
370
    18
100
AcDbText
 10
2644.113810566643
 20
-1137.955262839067
 30
0.0
 40
11.536708118943
  1
Name
 41
1.072387859253
  7
Arial
 72
     5
 11
2690.174117731523
 21
-1137.955262839067
 31
0.0
100
AcDbText
  0
TEXT
  5
1BE
330
1AC
100
AcDbEntity
  8
Layer100
  6
AUSGEZOGEN
 62
    18
420
        0
370
    18
100
AcDbText
 10
2462.305616465855
 20
-1152.665121232251
 30
0.0
 40
11.536708118943
  1
Bearb.
 41
1.078672178988
  7
Arial
 72
     5
 11
2513.476685327426
 21
-1152.665121232251
 31
0.0
100
AcDbText
  0
TEXT
  5
1BF
330
1AC
100
AcDbEntity
  8
Layer100
  6
AUSGEZOGEN
 62
    18
420
        0
370
    18
100
AcDbText
 10
2462.305616465855
 20
-1167.662841786876
 30
0.0
 40
11.536708118943
  1
Drawn
 41
1.075502107612
  7
Arial
 72
     5
 11
2512.34608793177
 21
-1167.662841786876
 31
0.0
100
AcDbText
  0
TEXT
  5
1C0
330
1AC
100
AcDbEntity
  8
Layer100
  6
AUSGEZOGEN
 62
    18
420
        0
370
    18
100
AcDbText
 10
2081.47205157795
 20
-1360.683648977812
 30
0.0
 40
11.536708118943
  1
Ausg.
 41
1.076912300364
  7
Arial
 72
     5
 11
2125.813389233108
 21
-1360.683648977812
 31
0.0
100
AcDbText
  0
TEXT
  5
1C1
330
1AC
100
AcDbEntity
  8
Layer100
  6
AUSGEZOGEN
 62
    18
420
        0
370
    18
100
AcDbText
 10
2081.47205157795
 20
-1375.681369532438
 30
0.0
 40
11.536708118943
  1
Issue
 41
1.078087529976
  7
Arial
 72
     5
 11
2122.963822327728
 21
-1375.681369532438
 31
0.0
100
AcDbText
  0
TEXT
  5
1C2
330
1AC
100
AcDbEntity
  8
Layer100
  6
AUSGEZOGEN
 62
    18
420
        0
370
    18
100
AcDbText
 10
2136.009217231135
 20
-1360.683648977812
 30
0.0
 40
11.536708118943
  1
Änderung
 41
1.077825512227
  7
Arial
 72
     5
 11
2211.263164291001
 21
-1360.683648977812
 31
0.0
100
AcDbText
  0
TEXT
  5
1C3
330
1AC
100
AcDbEntity
  8
Layer100
  6
AUSGEZOGEN
 62
    18
420
        0
370
    18
100
AcDbText
 10
2136.009217231135
 20
-1375.681369532438
 30
0.0
 40
11.536708118943
  1
Modification
 41
1.083926413321
  7
Arial
 72
     5
 11
2229.133525167243
 21
-1375.681369532438
 31
0.0
100
AcDbText
  0
TEXT
  5
1C4
330
1AC
100
AcDbEntity
  8
Layer100
  6
AUSGEZOGEN
 62
    18
420
        0
370
    18
100
AcDbText
 10
2316.890816647532
 20
-1360.683648977812
 30
0.0
 40
11.536708118943
  1
Datum
 41
1.075650693262
  7
Arial
 72
     5
 11
2367.906139949498
 21
-1360.683648977812
 31
0.0
100
AcDbText
  0
TEXT
  5
1C5
330
1AC
100
AcDbEntity
  8
Layer100
  6
AUSGEZOGEN
 62
    18
420
        0
370
    18
100
AcDbText
 10
2316.890816647532
 20
-1375.681369532438
 30
0.0
 40
11.536708118943
  1
Date
 41
1.076492537313
  7
Arial
 72
     5
 11
2353.502559862998
 21
-1375.681369532438
 31
0.0
100
AcDbText
  0
TEXT
  5
1C6
330
1AC
100
AcDbEntity
  8
Layer100
  6
AUSGEZOGEN
 62
    18
420
        0
370
    18
100
AcDbText
 10
2407.786092736174
 20
-1360.683648977812
 30
0.0
 40
11.536708118943
  1
Name
 41
1.072387859253
  7
Arial
 72
     5
 11
2453.846399901054
 21
-1360.683648977812
 31
0.0
100
AcDbText
  0
TEXT
  5
1C7
330
1AC
100
AcDbEntity
  8
Layer100
  6
AUSGEZOGEN
 62
    18
420
        0
370
    18
100
AcDbText
 10
2407.786092736174
 20
-1375.681369532438
 30
0.0
 40
11.536708118943
  1
Name
 41
1.072387859253
  7
Arial
 72
     5
 11
2453.846399901054
 21
-1375.681369532438
 31
0.0
100
AcDbText
  0
LINE
  5
1C8
330
1AC
100
AcDbEntity
  8
Layer100
  6
AUSGEZOGEN
 62
    18
420
        0
370
    18
100
AcDbLine
 10
2638.86985233076
 20
-1108.407306255962
 30
0.0
 11
2638.86985233076
 21
-1197.554596265977
 31
0.0
  0
TEXT
  5
1C9
330
1AC
100
AcDbEntity
  8
Layer100
  6
AUSGEZOGEN
 62
    18
420
        0
370
    18
100
AcDbText
 10
3134.948301445309
 20
-1007.23387202499
 30
0.0
 40
11.536708118943
  1
Menge
 41
1.074408249356
  7
Arial
 72
     5
 11
3187.838339816603
 21
-1007.23387202499
 31
0.0
100
AcDbText
  0
TEXT
  5
1CA
330
1AC
100
AcDbEntity
  8
Layer100
  6
AUSGEZOGEN
 62
    18
420
        0
370
    18
100
AcDbText
 10
3134.948301445309
 20
-1022.231592579616
 30
0.0
 40
11.536708118943
  1
Quantity
 41
1.081088880339
  7
Arial
 72
     5
 11
3199.778832719709
 21
-1022.231592579616
 31
0.0
100
AcDbText
  0
TEXT
  5
1CB
330
1AC
100
AcDbEntity
  8
Layer100
  6
AUSGEZOGEN
 62
    18
420
        0
370
    18
100
AcDbText
 10
2773.185102612514
 20
-1007.066065271423
 30
0.0
 40
11.536708118943
  1
Maßstab
 41
1.076703499079
  7
Arial
 72
     5
 11
2840.634466629914
 21
-1007.066065271423
 31
0.0
100
AcDbText
  0
TEXT
  5
1CC
330
1AC
100
AcDbEntity
  8
Layer100
  6
AUSGEZOGEN
 62
    18
420
        0
370
    18
100
AcDbText
 10
2773.185102612514
 20
-1022.063785826049
 30
0.0
 40
11.536708118943
  1
Scale
 41
1.076768834145
  7
Arial
 72
     5
 11
2816.551588431621
 21
-1022.063785826049
 31
0.0
100
AcDbText
  0
TEXT
  5
1CD
330
1AC
100
AcDbEntity
  8
Layer100
  6
AUSGEZOGEN
 62
    18
420
        0
370
    18
100
AcDbText
 10
2321.435580451965
 20
-1006.01028176995
 30
0.0
 40
11.536708118943
  1
 Maße in mm
 41
1.079690569745
  7
Arial
 72
     5
 11
2422.87785494183
 21
-1006.01028176995
 31
0.0
100
AcDbText
  0
TEXT
  5
1CE
330
1AC
100
AcDbEntity
  8
Layer100
  6
AUSGEZOGEN
 62
    18
420
        0
370
    18
100
AcDbText
 10
2321.435580451965
 20
-1021.008002324576
 30
0.0
 40
11.536708118943
  1
Dimensions in
 41
1.081916714204
  7
Arial
 72
     5
 11
2430.838183543901
 21
-1021.008002324576
 31
0.0
100
AcDbText
  0
TEXT
  5
1CF
330
1AC
100
AcDbEntity
  8
Layer100
  6
AUSGEZOGEN
 62
    18
420
        0
370
    18
100
AcDbText
 10
2321.435580451965
 20
-1036.005722879202
 30
0.0
 40
11.536708118943
  1
 millimeters
 41
1.084880260734
  7
Arial
 72
     5
 11
2409.760617810592
 21
-1036.005722879202
 31
0.0
100
AcDbText
  0
CIRCLE
  5
1D0
330
1AC
100
AcDbEntity
  8
Layer100
  6
AUSGEZOGEN
 62
    18
420
        0
370
    18
100
AcDbCircle
 10
2406.987647275324
 20
-1078.556977148153
 30
0.0
 40
19.61847309515178
  0
CIRCLE
  5
1D1
330
1AC
100
AcDbEntity
  8
Layer100
  6
AUSGEZOGEN
 62
    18
420
        0
370
    18
100
AcDbCircle
 10
2406.987647275324
 20
-1078.556977148153
 30
0.0
 40
13.16047183665303
  0
LINE
  5
1D2
330
1AC
100
AcDbEntity
  8
Layer100
  6
AUSGEZOGEN
 62
    18
420
        0
370
    18
100
AcDbLine
 10
2332.411640200956
 20
-1091.717448984806
 30
0.0
 11
2332.411640200956
 21
-1065.3965053115
 31
0.0
  0
LINE
  5
1D3
330
1AC
100
AcDbEntity
  8
Layer100
  6
AUSGEZOGEN
 62
    18
420
        0
370
    18
100
AcDbLine
 10
2374.086467683691
 20
-1098.175450243304
 30
0.0
 11
2374.086467683691
 21
-1058.938504053002
 31
0.0
  0
LINE
  5
1D4
330
1AC
100
AcDbEntity
  8
Layer100
  6
AUSGEZOGEN
 62
    18
420
        0
370
    18
100
AcDbLine
 10
2332.411640200956
 20
-1065.3965053115
 30
0.0
 11
2374.086467683691
 21
-1058.938504053002
 31
0.0
  0
LINE
  5
1D5
330
1AC
100
AcDbEntity
  8
Layer100
  6
AUSGEZOGEN
 62
    18
420
        0
370
    18
100
AcDbLine
 10
2374.086467683691
 20
-1098.175450243304
 30
0.0
 11
2332.411640200956
 21
-1091.717448984806
 31
0.0
  0
LINE
  5
1D6
330
1AC
100
AcDbEntity
  8
Layer100
  6
DASHDOT
 62
    18
420
        0
370
    18
100
AcDbLine
 10
2406.987647275324
 20
-1102.684508817707
 30
0.0
 11
2406.987647275324
 21
-1056.911487746198
 31
0.0
  0
LINE
  5
1D7
330
1AC
100
AcDbEntity
  8
Layer100
  6
DASHDOT
 62
    18
420
        0
370
    18
100
AcDbLine
 10
2385.145062941147
 20
-1078.556977148153
 30
0.0
 11
2428.932322942979
 21
-1078.556977148153
 31
0.0
  0
LINE
  5
1D8
330
1AC
100
AcDbEntity
  8
Layer100
  6
DASHDOT
 62
    18
420
        0
370
    18
100
AcDbLine
 10
2330.40630294825
 20
-1078.556977148153
 30
0.0
 11
2375.961915705497
 21
-1078.556977148153
 31
0.0
  0
LINE
  5
1D9
330
1AC
100
AcDbEntity
  8
Layer100
  6
AUSGEZOGEN
 62
    18
420
        0
370
    50
100
AcDbLine
 10
2766.123238854859
 20
-1256.98612293932
 30
0.0
 11
3354.005916818936
 21
-1256.98612293932
 31
0.0
  0
LINE
  5
1DA
330
1AC
100
AcDbEntity
  8
Layer100
  6
AUSGEZOGEN
 62
    18
420
        0
370
    50
100
AcDbLine
 10
3129.704343209426
 20
-989.544300569316
 30
0.0
 11
3129.704343209426
 21
-1034.117239002125
 31
0.0
  0
LINE
  5
1DB
330
1AC
100
AcDbEntity
  8
Layer100
  6
AUSGEZOGEN
 62
    18
420
        0
370
    50
100
AcDbLine
 10
3354.005785878592
 20
-1034.117897914092
 30
0.0
 11
2766.123238854859
 21
-1034.11617093971
 31
0.0
  0
ENDBLK
  5
1AE
330
1AC
100
AcDbEntity
  8
0
100
AcDbBlockEnd
  0
BLOCK
  5
1DE
330
1DD
100
AcDbEntity
  8
0
100
AcDbBlockBegin
  2
Beschriftung_nNn031
 70
     0
 10
0.0
 20
0.0
 30
0.0
  3
Beschriftung_nNn031
  1

  0
TEXT
  5
1E0
330
1DD
100
AcDbEntity
  8
Layer100
  6
AUSGEZOGEN
 62
    18
420
        0
370
    18
100
AcDbText
 10
2107.179712912539
 20
-1059.787655781996
 30
0.0
 40
14.799614687777
  1
Kundenzeichnung
 41
1.032581817144
  7
Arial
 72
     5
 11
2277.923409866928
 21
-1059.787655781996
 31
0.0
100
AcDbText
  0
TEXT
  5
1E1
330
1DD
100
AcDbEntity
  8
Layer100
  6
AUSGEZOGEN
 62
    18
420
        0
370
    18
100
AcDbText
 10
2858.626662135838
 20
-1019.260016245948
 30
0.0
 40
14.799614687777
  1
1:1
 41
1.022756754879
  7
Arial
 72
     5
 11
2887.991289565406
 21
-1019.260016245948
 31
0.0
100
AcDbText
  0
TEXT
  5
1E2
330
1DD
100
AcDbEntity
  8
Layer100
  6
AUSGEZOGEN
 62
    18
420
        0
370
    18
100
AcDbText
 10
3233.115199621042
 20
-1017.774228079115
 30
0.0
 40
14.799614687777
  1
1
 41
0.974226840702
  7
Arial
 72
     5
 11
3244.303708745088
 21
-1017.774228079115
 31
0.0
100
AcDbText
  0
TEXT
  5
1E3
330
1DD
100
AcDbEntity
  8
Layer100
  6
AUSGEZOGEN
 62
    18
420
        0
370
    18
100
AcDbText
 10
2773.674538714531
 20
-1181.589656747843
 30
0.0
 40
24.666025776191
  1
Einbau-/Unterbauspüle
 41
0.915995798163
  7
Arial
 72
     5
 11
3096.203545663044
 21
-1181.589656747843
 31
0.0
100
AcDbText
  0
TEXT
  5
1E4
330
1DD
100
AcDbEntity
  8
Layer100
  6
AUSGEZOGEN
 62
    18
420
        0
370
    18
100
AcDbText
 10
2773.674538714531
 20
-1230.53326694942
 30
0.0
 40
24.666025776191
  1
Corno Piu PFU1
 41
0.910427082421
  7
Arial
 72
     5
 11
3001.878689634824
 21
-1230.53326694942
 31
0.0
100
AcDbText
  0
TEXT
  5
1E5
330
1DD
100
AcDbEntity
  8
Layer100
  6
AUSGEZOGEN
 62
    18
420
        0
370
    18
100
AcDbText
 10
2773.674538714531
 20
-1328.420487352573
 30
0.0
 40
24.666025776191
  1
1013125
 41
0.902739323416
  7
Arial
 72
     5
 11
2894.62883611095
 21
-1328.420487352573
 31
0.0
100
AcDbText
  0
TEXT
  5
1E6
330
1DD
100
AcDbEntity
  8
Layer100
  6
AUSGEZOGEN
 62
    18
420
        0
370
    18
100
AcDbText
 10
2534.130526499387
 20
-1161.895680261971
 30
0.0
 40
14.799614687777
  1
22.02.21
 41
1.034889233423
  7
Arial
 72
     5
 11
2617.326831535795
 21
-1161.895680261971
 31
0.0
100
AcDbText
  0
TEXT
  5
1E7
330
1DD
100
AcDbEntity
  8
Layer100
  6
AUSGEZOGEN
 62
    18
420
        0
370
    18
100
AcDbText
 10
2645.02276332753
 20
-1161.895680261971
 30
0.0
 40
14.799614687777
  1
CM
 41
0.997270426658
  7
Arial
 72
     5
 11
2677.065025722877
 21
-1161.895680261971
 31
0.0
100
AcDbText
  0
ENDBLK
  5
1DF
330
1DD
100
AcDbEntity
  8
0
100
AcDbBlockEnd
  0
BLOCK
  5
202
330
201
100
AcDbEntity
  8
0
100
AcDbBlockBegin
  2
SW_NOTE_0_008_nNn032
 70
     0
 10
0.0
 20
0.0
 30
0.0
  3
SW_NOTE_0_008_nNn032
  1

  0
TEXT
  5
204
330
201
100
AcDbEntity
  8
SLD-0
  6
AUSGEZOGEN
 62
     7
370
    18
100
AcDbText
 10
2648.807848142301
 20
334.655511955326
 30
0.0
 40
21.709401709402
  1
Unterbauspüle
 41
1.136817913279
  7
Arial
 72
     5
 11
2872.824910920328
 21
334.655511955326
 31
0.0
100
AcDbText
  0
TEXT
  5
205
330
201
100
AcDbEntity
  8
SLD-0
  6
AUSGEZOGEN
 62
     7
370
    18
100
AcDbText
 10
2648.807848142301
 20
269.327733031226
 30
0.0
 40
21.709401709402
  1
Befestigungsbohrungen an der Unterseite
 41
1.13664931626
  7
Arial
 72
     5
 11
3286.336379822879
 21
269.327733031226
 31
0.0
100
AcDbText
  0
TEXT
  5
206
330
201
100
AcDbEntity
  8
SLD-0
  6
AUSGEZOGEN
 62
     7
370
    18
100
AcDbText
 10
2648.652791478551
 20
217.016164905244
 30
0.0
 40
21.709401709402
  1
4 Bohrungslöcher %%c 10 mm, Tiefe 15 mm
 41
1.126330637792
  7
Arial
 72
     5
 11
3274.62307687866
 21
217.016164905244
 31
0.0
100
AcDbText
  0
ENDBLK
  5
203
330
201
100
AcDbEntity
  8
0
100
AcDbBlockEnd
  0
ENDSEC
  0
SECTION
  2
ENTITIES
  0
INSERT
  5
68
330
1F
100
AcDbEntity
  8
0
100
AcDbBlockReference
  2
SW_NOTE_0_2_nNn00
 10
0.0
 20
0.0
 30
0.0
  0
INSERT
  5
6D
330
1F
100
AcDbEntity
  8
0
100
AcDbBlockReference
  2
SW_NOTE_0_4_nNn01
 10
0.0
 20
0.0
 30
0.0
  0
INSERT
  5
71
330
1F
100
AcDbEntity
  8
0
100
AcDbBlockReference
  2
SW_NOTE_0_5_nNn02
 10
0.0
 20
0.0
 30
0.0
  0
LINE
  5
72
330
1F
100
AcDbEntity
  8
0
  6
AUSGEZOGEN
 62
     7
370
    35
100
AcDbLine
 10
950.42279515832
 20
-421.323255372996
 30
0.0
 11
1272.42279515832
 21
-421.323255372996
 31
0.0
  0
LINE
  5
73
330
1F
100
AcDbEntity
  8
0
  6
AUSGEZOGEN
 62
     7
370
    35
100
AcDbLine
 10
1272.42279515832
 20
-421.323255372996
 30
0.0
 11
1272.42279515832
 21
-963.323255372996
 31
0.0
  0
LINE
  5
74
330
1F
100
AcDbEntity
  8
0
  6
AUSGEZOGEN
 62
     7
370
    35
100
AcDbLine
 10
1272.42279515832
 20
-963.323255372996
 30
0.0
 11
950.42279515832
 21
-963.323255372996
 31
0.0
  0
LINE
  5
75
330
1F
100
AcDbEntity
  8
0
  6
AUSGEZOGEN
 62
     7
370
    35
100
AcDbLine
 10
950.42279515832
 20
-963.323255372996
 30
0.0
 11
950.42279515832
 21
-421.323255372996
 31
0.0
  0
ARC
  5
76
330
1F
100
AcDbEntity
  8
0
  6
AUSGEZOGEN
 62
     7
370
    35
100
AcDbCircle
 10
1011.42279515832
 20
-902.323255372996
 30
0.0
 40
11.00000000000009
100
AcDbArc
 50
180.0
 51
270.0
  0
LINE
  5
77
330
1F
100
AcDbEntity
  8
0
  6
AUSGEZOGEN
 62
     7
370
    35
100
AcDbLine
 10
1211.42279515832
 20
-913.323255372996
 30
0.0
 11
1011.42279515832
 21
-913.323255372996
 31
0.0
  0
ARC
  5
78
330
1F
100
AcDbEntity
  8
0
  6
AUSGEZOGEN
 62
     7
370
    35
100
AcDbCircle
 10
1211.42279515832
 20
-902.323255372996
 30
0.0
 40
11.00000000000009
100
AcDbArc
 50
270.0
 51
0.0
  0
LINE
  5
79
330
1F
100
AcDbEntity
  8
0
  6
AUSGEZOGEN
 62
     7
370
    35
100
AcDbLine
 10
1222.42279515832
 20
-482.323255372996
 30
0.0
 11
1222.42279515832
 21
-902.323255372996
 31
0.0
  0
ARC
  5
7A
330
1F
100
AcDbEntity
  8
0
  6
AUSGEZOGEN
 62
     7
370
    35
100
AcDbCircle
 10
1211.42279515832
 20
-482.323255372996
 30
0.0
 40
11.00000000000009
100
AcDbArc
 50
0.0
 51
90.0
  0
LINE
  5
7B
330
1F
100
AcDbEntity
  8
0
  6
AUSGEZOGEN
 62
     7
370
    35
100
AcDbLine
 10
1011.42279515832
 20
-471.323255372996
 30
0.0
 11
1211.42279515832
 21
-471.323255372996
 31
0.0
  0
ARC
  5
7C
330
1F
100
AcDbEntity
  8
0
  6
AUSGEZOGEN
 62
     7
370
    35
100
AcDbCircle
 10
1011.42279515832
 20
-482.323255372996
 30
0.0
 40
11.00000000000009
100
AcDbArc
 50
90.0
 51
180.0
  0
LINE
  5
7D
330
1F
100
AcDbEntity
  8
0
  6
AUSGEZOGEN
 62
     7
370
    35
100
AcDbLine
 10
1000.42279515832
 20
-902.323255372996
 30
0.0
 11
1000.42279515832
 21
-482.323255372996
 31
0.0
  0
ARC
  5
7E
330
1F
100
AcDbEntity
  8
0
  6
AUSGEZOGEN
 62
     7
370
    35
100
AcDbCircle
 10
1016.42279515832
 20
-897.323255372996
 30
0.0
 40
10.0
100
AcDbArc
 50
180.0
 51
270.0
  0
LINE
  5
7F
330
1F
100
AcDbEntity
  8
0
  6
AUSGEZOGEN
 62
     7
370
    35
100
AcDbLine
 10
1016.42279515832
 20
-907.323255372996
 30
0.0
 11
1206.42279515832
 21
-907.323255372996
 31
0.0
  0
ARC
  5
80
330
1F
100
AcDbEntity
  8
0
  6
AUSGEZOGEN
 62
     7
370
    35
100
AcDbCircle
 10
1206.42279515832
 20
-897.323255372996
 30
0.0
 40
10.00000000000014
100
AcDbArc
 50
270.0
 51
0.0
  0
LINE
  5
81
330
1F
100
AcDbEntity
  8
0
  6
AUSGEZOGEN
 62
     7
370
    35
100
AcDbLine
 10
1216.42279515832
 20
-897.323255372996
 30
0.0
 11
1216.42279515832
 21
-487.323255372996
 31
0.0
  0
ARC
  5
82
330
1F
100
AcDbEntity
  8
0
  6
AUSGEZOGEN
 62
     7
370
    35
100
AcDbCircle
 10
1206.42279515832
 20
-487.323255372996
 30
0.0
 40
10.0
100
AcDbArc
 50
0.0
 51
90.0
  0
LINE
  5
83
330
1F
100
AcDbEntity
  8
0
  6
AUSGEZOGEN
 62
     7
370
    35
100
AcDbLine
 10
1206.42279515832
 20
-477.323255372996
 30
0.0
 11
1016.42279515832
 21
-477.323255372996
 31
0.0
  0
ARC
  5
84
330
1F
100
AcDbEntity
  8
0
  6
AUSGEZOGEN
 62
     7
370
    35
100
AcDbCircle
 10
1016.42279515832
 20
-487.323255372996
 30
0.0
 40
10.00000000000007
100
AcDbArc
 50
90.0
 51
180.0
  0
LINE
  5
85
330
1F
100
AcDbEntity
  8
0
  6
AUSGEZOGEN
 62
     7
370
    35
100
AcDbLine
 10
1006.42279515832
 20
-487.323255372996
 30
0.0
 11
1006.42279515832
 21
-897.323255372996
 31
0.0
  0
DIMENSION
  5
8F
330
1F
100
AcDbEntity
  8
SLD-0
  6
AUSGEZOGEN
 62
     7
370
    18
100
AcDbDimension
280
     0
  2
*D4
 10
1216.42279515832
 20
-353.332048781996
 30
0.0
 11
1106.419575527507
 21
-333.184324728759
 31
0.0
 70
   160
 71
     5
 42
-1.0
 73
     0
 74
     0
 75
     0
  3
ISO-25
100
AcDbAlignedDimension
 13
1006.42279515832
 23
-487.323255372996
 33
0.0
 14
1216.42279515832
 24
-487.323255372996
 34
0.0
100
AcDbRotatedDimension
1001
ACAD
1000
DSTYLE
1002
{
1070
     3
1000
<>
1070
   340
1005
5F
1070
    44
1040
14.285714285714
1070
   280
1070
     3
1070
    77
1070
     1
1070
   179
1070
     0
1070
   271
1070
     0
1070
   173
1070
     1
1070
    41
1040
20.0
1070
   147
1040
4.535714285714
1070
   140
1040
31.75
1070
   178
1070
     7
1070
   177
1070
     7
1070
   176
1070
     7
1002
}
  0
DIMENSION
  5
99
330
1F
100
AcDbEntity
  8
SLD-0
  6
AUSGEZOGEN
 62
     7
370
    18
100
AcDbDimension
280
     0
  2
*D5
 10
1000.42279515832
 20
-278.709943941996
 30
0.0
 11
1106.419575527507
 21
-255.103086808945
 31
0.0
 70
   160
 71
     5
 42
-1.0
 73
     0
 74
     0
 75
     0
  3
ISO-25
100
AcDbAlignedDimension
 13
1222.42279515832
 23
-482.323255372996
 33
0.0
 14
1000.42279515832
 24
-482.323255372996
 34
0.0
 50
180.0
100
AcDbRotatedDimension
1001
ACAD
1000
DSTYLE
1002
{
1070
     3
1000
<>
1070
   340
1005
5F
1070
    44
1040
14.285714285714
1070
   280
1070
     3
1070
    77
1070
     1
1070
   179
1070
     0
1070
   271
1070
     0
1070
   173
1070
     1
1070
    41
1040
20.0
1070
   147
1040
4.535714285714
1070
   140
1040
31.75
1070
   178
1070
     7
1070
   177
1070
     7
1070
   176
1070
     7
1002
}
  0
DIMENSION
  5
A3
330
1F
100
AcDbEntity
  8
SLD-0
  6
AUSGEZOGEN
 62
     7
370
    18
100
AcDbDimension
280
     0
  2
*D6
 10
881.50458528732
 20
-907.323255372996
 30
0.0
 11
865.936504503621
 21
-698.933281300519
 31
0.0
 70
   160
 71
     5
 42
-1.0
 73
     0
 74
     0
 75
     0
 53
90.0
  3
ISO-25
100
AcDbAlignedDimension
 13
1016.42279515832
 23
-477.323255372996
 33
0.0
 14
1016.42279515832
 24
-907.323255372996
 34
0.0
 50
-90.0
100
AcDbRotatedDimension
1001
ACAD
1000
DSTYLE
1002
{
1070
     3
1000
<>
1070
   340
1005
5F
1070
    44
1040
14.285714285714
1070
   280
1070
     3
1070
    77
1070
     1
1070
   179
1070
     0
1070
   271
1070
     0
1070
   173
1070
     1
1070
    41
1040
20.0
1070
   147
1040
4.535714285714
1070
   140
1040
31.75
1070
   178
1070
     7
1070
   177
1070
     7
1070
   176
1070
     7
1002
}
  0
DIMENSION
  5
AD
330
1F
100
AcDbEntity
  8
SLD-0
  6
AUSGEZOGEN
 62
     7
370
    18
100
AcDbDimension
280
     0
  2
*D7
 10
802.053082916319
 20
-913.323255372996
 30
0.0
 11
773.44301564828
 21
-694.823742462634
 31
0.0
 70
   160
 71
     5
 42
-1.0
 73
     0
 74
     0
 75
     0
 53
90.0
  3
ISO-25
100
AcDbAlignedDimension
 13
1011.42279515832
 23
-471.323255372996
 33
0.0
 14
1011.42279515832
 24
-913.323255372996
 34
0.0
 50
-90.0
100
AcDbRotatedDimension
1001
ACAD
1000
DSTYLE
1002
{
1070
     3
1000
<>
1070
   340
1005
5F
1070
    44
1040
14.285714285714
1070
   280
1070
     3
1070
    77
1070
     1
1070
   179
1070
     0
1070
   271
1070
     0
1070
   173
1070
     1
1070
    41
1040
20.0
1070
   147
1040
4.535714285714
1070
   140
1040
31.75
1070
   178
1070
     7
1070
   177
1070
     7
1070
   176
1070
     7
1002
}
  0
INSERT
  5
B6
330
1F
100
AcDbEntity
  8
0
100
AcDbBlockReference
  2
_D_10_nNn07
 10
0.0
 20
0.0
 30
0.0
  0
INSERT
  5
BE
330
1F
100
AcDbEntity
  8
0
100
AcDbBlockReference
  2
_D_11_nNn08
 10
0.0
 20
0.0
 30
0.0
  0
ARC
  5
BF
330
1F
100
AcDbEntity
  8
0
  6
AUSGEZOGEN
 62
     7
370
    35
100
AcDbCircle
 10
966.38171724032
 20
382.1005207196
 30
0.0
 40
10.0
100
AcDbArc
 50
90.0
 51
180.0
  0
LINE
  5
C0
330
1F
100
AcDbEntity
  8
0
  6
AUSGEZOGEN
 62
     7
370
    35
100
AcDbLine
 10
956.38171724032
 20
382.1005207196
 30
0.0
 11
956.38171724032
 21
-27.8994792804
 31
0.0
  0
ARC
  5
C1
330
1F
100
AcDbEntity
  8
0
  6
AUSGEZOGEN
 62
     7
370
    35
100
AcDbCircle
 10
966.38171724032
 20
-27.8994792804
 30
0.0
 40
10.0
100
AcDbArc
 50
180.0
 51
270.0
  0
LINE
  5
C2
330
1F
100
AcDbEntity
  8
0
  6
AUSGEZOGEN
 62
     7
370
    35
100
AcDbLine
 10
966.38171724032
 20
-37.8994792804
 30
0.0
 11
1156.38171724032
 21
-37.8994792804
 31
0.0
  0
ARC
  5
C3
330
1F
100
AcDbEntity
  8
0
  6
AUSGEZOGEN
 62
     7
370
    35
100
AcDbCircle
 10
1156.38171724032
 20
-27.8994792804
 30
0.0
 40
10.0
100
AcDbArc
 50
270.0
 51
0.0
  0
LINE
  5
C4
330
1F
100
AcDbEntity
  8
0
  6
AUSGEZOGEN
 62
     7
370
    35
100
AcDbLine
 10
1166.38171724032
 20
-27.8994792804
 30
0.0
 11
1166.38171724032
 21
382.1005207196
 31
0.0
  0
ARC
  5
C5
330
1F
100
AcDbEntity
  8
0
  6
AUSGEZOGEN
 62
     7
370
    35
100
AcDbCircle
 10
1156.38171724032
 20
382.1005207196
 30
0.0
 40
10.0
100
AcDbArc
 50
0.0
 51
90.0
  0
LINE
  5
C6
330
1F
100
AcDbEntity
  8
0
  6
AUSGEZOGEN
 62
     7
370
    35
100
AcDbLine
 10
1156.38171724032
 20
392.1005207196
 30
0.0
 11
966.38171724032
 21
392.1005207196
 31
0.0
  0
LINE
  5
C7
330
1F
100
AcDbEntity
  8
0
  6
AUSGEZOGEN
 62
     7
370
    35
100
AcDbLine
 10
1216.38171724032
 20
442.1005207196
 30
0.0
 11
906.38171724032
 21
442.1005207196
 31
0.0
  0
LINE
  5
C8
330
1F
100
AcDbEntity
  8
0
  6
AUSGEZOGEN
 62
     7
370
    35
100
AcDbLine
 10
1216.38171724032
 20
-87.8994792804
 30
0.0
 11
1216.38171724032
 21
442.1005207196
 31
0.0
  0
LINE
  5
C9
330
1F
100
AcDbEntity
  8
0
  6
AUSGEZOGEN
 62
     7
370
    35
100
AcDbLine
 10
906.38171724032
 20
-87.8994792804
 30
0.0
 11
1216.38171724032
 21
-87.8994792804
 31
0.0
  0
LINE
  5
CA
330
1F
100
AcDbEntity
  8
0
  6
AUSGEZOGEN
 62
     7
370
    35
100
AcDbLine
 10
906.38171724032
 20
442.1005207196
 30
0.0
 11
906.38171724032
 21
-87.8994792804
 31
0.0
  0
DIMENSION
  5
D4
330
1F
100
AcDbEntity
  8
SLD-0
  6
AUSGEZOGEN
 62
     7
370
    18
100
AcDbDimension
280
     0
  2
*D10
 10
1166.38171724032
 20
511.9286967536
 30
0.0
 11
1063.255947395014
 21
535.983139483907
 31
0.0
 70
   160
 71
     5
 42
-1.0
 73
     0
 74
     0
 75
     0
  3
ISO-25
100
AcDbAlignedDimension
 13
956.38171724032
 23
382.1005207196
 33
0.0
 14
1166.38171724032
 24
382.1005207196
 34
0.0
100
AcDbRotatedDimension
1001
ACAD
1000
DSTYLE
1002
{
1070
     3
1000
<>
1070
   340
1005
5F
1070
    44
1040
14.285714285714
1070
   280
1070
     3
1070
    77
1070
     1
1070
   179
1070
     0
1070
   271
1070
     0
1070
   173
1070
     1
1070
    41
1040
20.0
1070
   147
1040
4.535714285714
1070
   140
1040
31.75
1070
   178
1070
     7
1070
   177
1070
     7
1070
   176
1070
     7
1002
}
  0
DIMENSION
  5
DE
330
1F
100
AcDbEntity
  8
SLD-0
  6
AUSGEZOGEN
 62
     7
370
    18
100
AcDbDimension
280
     0
  2
*D11
 10
840.955832264319
 20
392.1005207196
 30
0.0
 11
818.662054644224
 21
174.343721750031
 31
0.0
 70
   160
 71
     5
 42
-1.0
 73
     0
 74
     0
 75
     0
 53
90.0
  3
ISO-25
100
AcDbAlignedDimension
 13
966.38171724032
 23
-37.8994792804
 33
0.0
 14
966.38171724032
 24
392.1005207196
 34
0.0
 50
90.0
100
AcDbRotatedDimension
1001
ACAD
1000
DSTYLE
1002
{
1070
     3
1000
<>
1070
   340
1005
5F
1070
    44
1040
14.285714285714
1070
   280
1070
     3
1070
    77
1070
     1
1070
   179
1070
     0
1070
   271
1070
     0
1070
   173
1070
     1
1070
    41
1040
20.0
1070
   147
1040
4.535714285714
1070
   140
1040
31.75
1070
   178
1070
     7
1070
   177
1070
     7
1070
   176
1070
     7
1002
}
  0
INSERT
  5
E6
330
1F
100
AcDbEntity
  8
0
100
AcDbBlockReference
  2
_D_14_nNn011
 10
0.0
 20
0.0
 30
0.0
  0
LINE
  5
E7
330
1F
100
AcDbEntity
  8
0
  6
AUSGEZOGEN
 62
     7
370
    35
100
AcDbLine
 10
1394.541776180208
 20
-853.323255372996
 30
0.0
 11
1394.541776180208
 21
-913.323255372997
 31
0.0
  0
LINE
  5
E8
330
1F
100
AcDbEntity
  8
0
  6
AUSGEZOGEN
 62
     7
370
    35
100
AcDbLine
 10
2165.900464599208
 20
-853.323255372996
 30
0.0
 11
1394.541776180208
 21
-853.323255372996
 31
0.0
  0
LINE
  5
E9
330
1F
100
AcDbEntity
  8
0
  6
AUSGEZOGEN
 62
     7
370
    35
100
AcDbLine
 10
2165.900464599208
 20
-913.323255372997
 30
0.0
 11
1394.541776180208
 21
-913.323255372997
 31
0.0
  0
LINE
  5
EA
330
1F
100
AcDbEntity
  8
0
  6
AUSGEZOGEN
 62
     7
370
    35
100
AcDbLine
 10
2165.900464599208
 20
-853.323255372996
 30
0.0
 11
2165.900464599208
 21
-913.323255372997
 31
0.0
  0
LINE
  5
EB
330
1F
100
AcDbEntity
  8
0
  6
AUSGEZOGEN
 62
     7
370
    35
100
AcDbLine
 10
2358.541776180208
 20
-913.323255372997
 30
0.0
 11
2358.541776180208
 21
-853.323255372996
 31
0.0
  0
LINE
  5
EC
330
1F
100
AcDbEntity
  8
0
  6
AUSGEZOGEN
 62
     7
370
    35
100
AcDbLine
 10
2258.541776180208
 20
-856.323255372996
 30
0.0
 11
2258.541776180208
 21
-853.323255372996
 31
0.0
  0
LINE
  5
ED
330
1F
100
AcDbEntity
  8
0
  6
AUSGEZOGEN
 62
     7
370
    35
100
AcDbLine
 10
2246.541776180208
 20
-856.323255372996
 30
0.0
 11
2246.541776180208
 21
-913.323255372997
 31
0.0
  0
LINE
  5
EE
330
1F
100
AcDbEntity
  8
0
  6
AUSGEZOGEN
 62
     7
370
    35
100
AcDbLine
 10
2258.541776180208
 20
-856.323255372996
 30
0.0
 11
2246.541776180208
 21
-856.323255372996
 31
0.0
  0
LINE
  5
EF
330
1F
100
AcDbEntity
  8
0
  6
AUSGEZOGEN
 62
     7
370
    35
100
AcDbLine
 10
2258.541776180208
 20
-853.323255372996
 30
0.0
 11
2358.541776180208
 21
-853.323255372996
 31
0.0
  0
LINE
  5
F0
330
1F
100
AcDbEntity
  8
0
  6
AUSGEZOGEN
 62
     7
370
    35
100
AcDbLine
 10
2246.541776180208
 20
-913.323255372997
 30
0.0
 11
2358.541776180208
 21
-913.323255372997
 31
0.0
  0
LINE
  5
F1
330
1F
100
AcDbEntity
  8
0
  6
AUSGEZOGEN
 62
     7
370
    35
100
AcDbLine
 10
2226.541776180208
 20
-856.323255372996
 30
0.0
 11
2226.541776180208
 21
-913.323255372997
 31
0.0
  0
LINE
  5
F2
330
1F
100
AcDbEntity
  8
0
  6
AUSGEZOGEN
 62
     7
370
    35
100
AcDbLine
 10
2246.541776180208
 20
-856.323255372996
 30
0.0
 11
2226.541776180208
 21
-856.323255372996
 31
0.0
  0
LINE
  5
F3
330
1F
100
AcDbEntity
  8
0
  6
AUSGEZOGEN
 62
     7
370
    35
100
AcDbLine
 10
2246.541776180208
 20
-913.323255372997
 30
0.0
 11
2226.541776180208
 21
-913.323255372997
 31
0.0
  0
LINE
  5
F4
330
1F
100
AcDbEntity
  8
0
  6
AUSGEZOGEN
 62
     7
370
    35
100
AcDbLine
 10
2236.541776180208
 20
-853.323255372996
 30
0.0
 11
2236.541776180208
 21
-856.323255372996
 31
0.0
  0
LINE
  5
F5
330
1F
100
AcDbEntity
  8
0
  6
AUSGEZOGEN
 62
     7
370
    35
100
AcDbLine
 10
2236.541776180208
 20
-853.323255372996
 30
0.0
 11
2258.541776180208
 21
-853.323255372996
 31
0.0
  0
LINE
  5
F6
330
1F
100
AcDbEntity
  8
0
  6
AUSGEZOGEN
 62
     7
370
    35
100
AcDbLine
 10
2226.541776180208
 20
-856.323255372996
 30
0.0
 11
2165.900464599208
 21
-856.323255372996
 31
0.0
  0
LINE
  5
F7
330
1F
100
AcDbEntity
  8
0
  6
AUSGEZOGEN
 62
     7
370
    35
100
AcDbLine
 10
2226.541776180208
 20
-913.323255372997
 30
0.0
 11
2165.900464599208
 21
-913.323255372997
 31
0.0
  0
LINE
  5
F8
330
1F
100
AcDbEntity
  8
0
  6
AUSGEZOGEN
 62
     7
370
    35
100
AcDbLine
 10
2165.900464599208
 20
-853.323255372996
 30
0.0
 11
2236.541776180208
 21
-853.323255372996
 31
0.0
  0
INSERT
  5
100
330
1F
100
AcDbEntity
  8
0
100
AcDbBlockReference
  2
*X13
 10
0.0
 20
0.0
 30
0.0
  0
CIRCLE
  5
101
330
1F
100
AcDbEntity
  8
0
  6
AUSGEZOGEN
 62
     7
370
    18
100
AcDbCircle
 10
2240.389625889208
 20
-864.820319329996
 30
0.0
 40
68.8463608184739
  0
TEXT
  5
102
330
1F
100
AcDbEntity
  8
0
  6
AUSGEZOGEN
 62
     7
370
    18
100
AcDbText
 10
2338.594073699208
 20
-840.304205754996
 30
0.0
 40
63.5
  1
A
 41
0.537056928034
  7
Arial
 72
     5
 11
2370.344073699208
 21
-840.304205754996
 31
0.0
100
AcDbText
  0
ARC
  5
103
330
1F
100
AcDbEntity
  8
0
  6
AUSGEZOGEN
 62
     7
370
    18
100
AcDbCircle
 10
1568.914168860319
 20
-458.291544766996
 30
0.0
 40
172.1134798122108
100
AcDbArc
 50
359.9998737652
 51
9.6132115915
  0
ARC
  5
104
330
1F
100
AcDbEntity
  8
0
  6
AUSGEZOGEN
 62
     7
370
    18
100
AcDbCircle
 10
1568.91188479532
 20
-458.291885346996
 30
0.0
 40
172.1160196277632
100
AcDbArc
 50
170.3868166208
 51
224.7899334597
  0
ARC
  5
105
330
1F
100
AcDbEntity
  8
0
  6
AUSGEZOGEN
 62
     7
370
    18
100
AcDbCircle
 10
1568.91160324732
 20
-458.291896387996
 30
0.0
 40
172.1160454248692
100
AcDbArc
 50
315.2100802441
 51
359.9999908183
  0
LINE
  5
106
330
1F
100
AcDbEntity
  8
0
  6
AUSGEZOGEN
 62
     7
370
    35
100
AcDbLine
 10
1614.29215513132
 20
-437.049261635996
 30
0.0
 11
1614.29215513132
 21
-429.549265063996
 31
0.0
  0
LINE
  5
107
330
1F
100
AcDbEntity
  8
0
  6
AUSGEZOGEN
 62
     7
370
    35
100
AcDbLine
 10
1584.29216884032
 20
-437.049261635996
 30
0.0
 11
1584.29216884032
 21
-579.549261710996
 31
0.0
  0
LINE
  5
108
330
1F
100
AcDbEntity
  8
0
  6
AUSGEZOGEN
 62
     7
370
    35
100
AcDbLine
 10
1614.29215513132
 20
-437.049261635996
 30
0.0
 11
1584.29216884032
 21
-437.049261635996
 31
0.0
  0
LINE
  5
109
330
1F
100
AcDbEntity
  8
0
  6
AUSGEZOGEN
 62
     7
370
    35
100
AcDbLine
 10
1614.29215513132
 20
-429.549265063996
 30
0.0
 11
1738.61075483232
 21
-429.549265063996
 31
0.0
  0
LINE
  5
10A
330
1F
100
AcDbEntity
  8
0
  6
AUSGEZOGEN
 62
     7
370
    35
100
AcDbLine
 10
1584.29216884032
 20
-579.549261710996
 30
0.0
 11
1691.061447486319
 21
-579.549261710996
 31
0.0
  0
LINE
  5
10B
330
1F
100
AcDbEntity
  8
0
  6
AUSGEZOGEN
 62
     7
370
    35
100
AcDbLine
 10
1584.29216884032
 20
-437.049261635996
 30
0.0
 11
1534.29214201832
 21
-437.049261635996
 31
0.0
  0
LINE
  5
10C
330
1F
100
AcDbEntity
  8
0
  6
AUSGEZOGEN
 62
     7
370
    35
100
AcDbLine
 10
1584.29216884032
 20
-579.549261710996
 30
0.0
 11
1534.29214201832
 21
-579.549261710996
 31
0.0
  0
LINE
  5
10D
330
1F
100
AcDbEntity
  8
0
  6
AUSGEZOGEN
 62
     7
370
    35
100
AcDbLine
 10
1559.292118176319
 20
-429.549265063996
 30
0.0
 11
1614.29215513132
 21
-429.549265063996
 31
0.0
  0
LINE
  5
10E
330
1F
100
AcDbEntity
  8
0
  6
AUSGEZOGEN
 62
     7
370
    35
100
AcDbLine
 10
1534.29214201832
 20
-437.049261635996
 30
0.0
 11
1398.111808225319
 21
-437.049261635996
 31
0.0
  0
LINE
  5
10F
330
1F
100
AcDbEntity
  8
0
  6
AUSGEZOGEN
 62
     7
370
    35
100
AcDbLine
 10
1534.29214201832
 20
-579.549261710996
 30
0.0
 11
1446.76208786632
 21
-579.549261710996
 31
0.0
  0
LINE
  5
110
330
1F
100
AcDbEntity
  8
0
  6
AUSGEZOGEN
 62
     7
370
    35
100
AcDbLine
 10
1399.212780520319
 20
-429.549265063996
 30
0.0
 11
1559.292118176319
 21
-429.549265063996
 31
0.0
  0
INSERT
  5
119
330
1F
100
AcDbEntity
  8
0
100
AcDbBlockReference
  2
SW_HATCH_0_nNn013
 10
0.0
 20
0.0
 30
0.0
  0
DIMENSION
  5
123
330
1F
100
AcDbEntity
  8
SLD-0
  6
AUSGEZOGEN
 62
     7
370
    18
100
AcDbDimension
280
     0
  2
*D15
 10
1614.29215095932
 20
-352.343297087996
 30
0.0
 11
1599.29215095932
 21
-342.818297087996
 31
0.0
 70
    32
 71
     5
 42
-1.0
 73
     0
 74
     0
 75
     0
  3
ISO-25
100
AcDbAlignedDimension
 13
1584.29215095932
 23
-437.049263945996
 33
0.0
 14
1614.29215095932
 24
-429.549263945996
 34
0.0
100
AcDbRotatedDimension
1001
ACAD
1000
DSTYLE
1002
{
1070
     3
1000
<>
1070
   144
1040
0.2
1070
   340
1005
5F
1070
    44
1040
14.285714285714
1070
   280
1070
     0
1070
    77
1070
     1
1070
   179
1070
     0
1070
   271
1070
     0
1070
   173
1070
     1
1070
    41
1040
20.0
1070
   147
1040
4.535714285714
1070
   140
1040
31.75
1070
   178
1070
     7
1070
   177
1070
     7
1070
   176
1070
     7
1002
}
  0
DIMENSION
  5
12D
330
1F
100
AcDbEntity
  8
SLD-0
  6
AUSGEZOGEN
 62
     7
370
    18
100
AcDbDimension
280
     0
  2
*D16
 10
1783.28120881332
 20
-429.549263945996
 30
0.0
 11
1773.75620881332
 21
-381.162758178996
 31
0.0
 70
    32
 71
     5
 42
-1.0
 73
     0
 74
     0
 75
     0
 53
90.0
  3
ISO-25
100
AcDbAlignedDimension
 13
1614.29215513132
 23
-437.049263945996
 33
0.0
 14
1738.61075483232
 24
-429.549263945996
 34
0.0
 50
90.0
100
AcDbRotatedDimension
1001
ACAD
1000
DSTYLE
1002
{
1070
     3
1000
<>
1070
   144
1040
0.2
1070
   340
1005
5F
1070
    44
1040
14.285714285714
1070
   280
1070
     0
1070
    77
1070
     1
1070
   179
1070
     1
1070
   271
1070
     1
1070
   173
1070
     1
1070
    41
1040
20.0
1070
   147
1040
4.535714285714
1070
   140
1040
31.75
1070
   178
1070
     7
1070
   177
1070
     7
1070
   176
1070
     7
1002
}
  0
INSERT
  5
132
330
1F
100
AcDbEntity
  8
0
100
AcDbBlockReference
  2
SW_NOTE_0_7_nNn016
 10
0.0
 20
0.0
 30
0.0
  0
ARC
  5
133
330
1F
100
AcDbEntity
  8
0
  6
AUSGEZOGEN
 62
     7
370
    35
100
AcDbCircle
 10
2501.788019863853
 20
347.327733031226
 30
0.0
 40
12.00000000000017
100
AcDbArc
 50
0.0
 51
90.0
  0
LINE
  5
134
330
1F
100
AcDbEntity
  8
0
  6
AUSGEZOGEN
 62
     7
370
    35
100
AcDbLine
 10
2345.788019863853
 20
359.327733031226
 30
0.0
 11
2501.788019863853
 21
359.327733031226
 31
0.0
  0
ARC
  5
135
330
1F
100
AcDbEntity
  8
0
  6
AUSGEZOGEN
 62
     7
370
    35
100
AcDbCircle
 10
2345.788019863853
 20
347.327733031226
 30
0.0
 40
12.00000000000017
100
AcDbArc
 50
90.0
 51
180.0
  0
LINE
  5
136
330
1F
100
AcDbEntity
  8
0
  6
AUSGEZOGEN
 62
     7
370
    35
100
AcDbLine
 10
2333.788019863853
 20
-28.672266968774
 30
0.0
 11
2333.788019863853
 21
347.327733031226
 31
0.0
  0
ARC
  5
137
330
1F
100
AcDbEntity
  8
0
  6
AUSGEZOGEN
 62
     7
370
    35
100
AcDbCircle
 10
2345.788019863853
 20
-28.672266968774
 30
0.0
 40
12.00000000000017
100
AcDbArc
 50
180.0
 51
270.0
  0
LINE
  5
138
330
1F
100
AcDbEntity
  8
0
  6
AUSGEZOGEN
 62
     7
370
    35
100
AcDbLine
 10
2501.788019863853
 20
-40.672266968774
 30
0.0
 11
2345.788019863853
 21
-40.672266968774
 31
0.0
  0
ARC
  5
139
330
1F
100
AcDbEntity
  8
0
  6
AUSGEZOGEN
 62
     7
370
    35
100
AcDbCircle
 10
2501.788019863853
 20
-28.672266968774
 30
0.0
 40
12.00000000000017
100
AcDbArc
 50
270.0
 51
0.0
  0
LINE
  5
13A
330
1F
100
AcDbEntity
  8
0
  6
AUSGEZOGEN
 62
     7
370
    35
100
AcDbLine
 10
2513.788019863853
 20
347.327733031226
 30
0.0
 11
2513.788019863853
 21
-28.672266968774
 31
0.0
  0
LINE
  5
13B
330
1F
100
AcDbEntity
  8
0
  6
AUSGEZOGEN
 62
     7
370
    35
100
AcDbLine
 10
2263.788019863853
 20
-110.672266968774
 30
0.0
 11
2263.788019863853
 21
429.327733031226
 31
0.0
  0
LINE
  5
13C
330
1F
100
AcDbEntity
  8
0
  6
AUSGEZOGEN
 62
     7
370
    35
100
AcDbLine
 10
2263.788019863853
 20
429.327733031226
 30
0.0
 11
2583.788019863853
 21
429.327733031226
 31
0.0
  0
LINE
  5
13D
330
1F
100
AcDbEntity
  8
0
  6
AUSGEZOGEN
 62
     7
370
    35
100
AcDbLine
 10
2583.788019863853
 20
429.327733031226
 30
0.0
 11
2583.788019863853
 21
-110.672266968774
 31
0.0
  0
LINE
  5
13E
330
1F
100
AcDbEntity
  8
0
  6
AUSGEZOGEN
 62
     7
370
    35
100
AcDbLine
 10
2583.788019863853
 20
-110.672266968774
 30
0.0
 11
2263.788019863853
 21
-110.672266968774
 31
0.0
  0
CIRCLE
  5
13F
330
1F
100
AcDbEntity
  8
0
  6
AUSGEZOGEN
 62
     7
370
    35
100
AcDbCircle
 10
2308.788019863853
 20
269.327733031226
 30
0.0
 40
5.0
  0
CIRCLE
  5
140
330
1F
100
AcDbEntity
  8
0
  6
AUSGEZOGEN
 62
     7
370
    35
100
AcDbCircle
 10
2308.788019863853
 20
49.327733031226
 30
0.0
 40
5.0
  0
CIRCLE
  5
141
330
1F
100
AcDbEntity
  8
0
  6
AUSGEZOGEN
 62
     7
370
    35
100
AcDbCircle
 10
2538.788019863853
 20
269.327733031226
 30
0.0
 40
5.0
  0
CIRCLE
  5
142
330
1F
100
AcDbEntity
  8
0
  6
AUSGEZOGEN
 62
     7
370
    35
100
AcDbCircle
 10
2538.788019863853
 20
49.327733031226
 30
0.0
 40
5.0
  0
DIMENSION
  5
14C
330
1F
100
AcDbEntity
  8
SLD-0
  6
AUSGEZOGEN
 62
     7
370
    18
100
AcDbDimension
280
     0
  2
*D18
 10
2513.788019863853
 20
498.542434138226
 30
0.0
 11
2423.937939000248
 21
519.544984132367
 31
0.0
 70
   160
 71
     5
 42
-1.0
 73
     0
 74
     0
 75
     0
  3
ISO-25
100
AcDbAlignedDimension
 13
2333.788019863853
 23
347.327733031226
 33
0.0
 14
2513.788019863853
 24
347.327733031226
 34
0.0
100
AcDbRotatedDimension
1001
ACAD
1000
DSTYLE
1002
{
1070
     3
1000
<>
1070
   340
1005
5F
1070
    44
1040
14.285714285714
1070
   280
1070
     3
1070
    77
1070
     1
1070
   179
1070
     0
1070
   271
1070
     0
1070
   173
1070
     1
1070
    41
1040
20.0
1070
   147
1040
4.535714285714
1070
   140
1040
31.75
1070
   178
1070
     7
1070
   177
1070
     7
1070
   176
1070
     7
1002
}
  0
DIMENSION
  5
156
330
1F
100
AcDbEntity
  8
SLD-0
  6
AUSGEZOGEN
 62
     7
370
    18
100
AcDbDimension
280
     0
  2
*D19
 10
2103.788019863853
 20
-40.672266968774
 30
0.0
 11
2086.850557394118
 21
159.960335817434
 31
0.0
 70
   160
 71
     5
 42
-1.0
 73
     0
 74
     0
 75
     0
 53
90.0
  3
ISO-25
100
AcDbAlignedDimension
 13
2345.788019863853
 23
359.327733031226
 33
0.0
 14
2345.788019863853
 24
-40.672266968774
 34
0.0
 50
-90.0
100
AcDbRotatedDimension
1001
ACAD
1000
DSTYLE
1002
{
1070
     3
1000
<>
1070
   340
1005
5F
1070
    44
1040
14.285714285714
1070
   280
1070
     3
1070
    77
1070
     1
1070
   179
1070
     0
1070
   271
1070
     0
1070
   173
1070
     1
1070
    41
1040
20.0
1070
   147
1040
4.535714285714
1070
   140
1040
31.75
1070
   178
1070
     7
1070
   177
1070
     7
1070
   176
1070
     7
1002
}
  0
INSERT
  5
15E
330
1F
100
AcDbEntity
  8
0
100
AcDbBlockReference
  2
_D_20_nNn019
 10
0.0
 20
0.0
 30
0.0
  0
DIMENSION
  5
168
330
1F
100
AcDbEntity
  8
SLD-0
  6
AUSGEZOGEN
 62
     7
370
    18
100
AcDbDimension
280
     0
  2
*D21
 10
2195.091842606853
 20
269.327733031226
 30
0.0
 11
2171.12240279565
 21
155.850796979549
 31
0.0
 70
   160
 71
     5
 42
-1.0
 73
     0
 74
     0
 75
     0
 53
90.0
  3
ISO-25
100
AcDbAlignedDimension
 13
2308.788019863853
 23
49.327733031226
 33
0.0
 14
2308.788019863853
 24
269.327733031226
 34
0.0
 50
90.0
100
AcDbRotatedDimension
1001
ACAD
1000
DSTYLE
1002
{
1070
     3
1000
<>
1070
   340
1005
5F
1070
    44
1040
14.285714285714
1070
   280
1070
     3
1070
    77
1070
     1
1070
   179
1070
     0
1070
   271
1070
     0
1070
   173
1070
     1
1070
    41
1040
20.0
1070
   147
1040
4.535714285714
1070
   140
1040
31.75
1070
   178
1070
     7
1070
   177
1070
     7
1070
   176
1070
     7
1002
}
  0
DIMENSION
  5
172
330
1F
100
AcDbEntity
  8
SLD-0
  6
AUSGEZOGEN
 62
     7
370
    18
100
AcDbDimension
280
     0
  2
*D22
 10
2195.091842606853
 20
49.327733031226
 30
0.0
 11
2173.177813659102
 21
1.743090558864
 31
0.0
 70
   160
 71
     5
 42
-1.0
 73
     0
 74
     0
 75
     0
 53
90.0
  3
ISO-25
100
AcDbAlignedDimension
 13
2345.788019863853
 23
-40.672266968774
 33
0.0
 14
2308.788019863853
 24
49.327733031226
 34
0.0
 50
90.0
100
AcDbRotatedDimension
1001
ACAD
1000
DSTYLE
1002
{
1070
     3
1000
<>
1070
   340
1005
5F
1070
    44
1040
14.285714285714
1070
   280
1070
     3
1070
    77
1070
     1
1070
   179
1070
     0
1070
   271
1070
     0
1070
   173
1070
     1
1070
    41
1040
20.0
1070
   147
1040
4.535714285714
1070
   140
1040
31.75
1070
   178
1070
     7
1070
   177
1070
     7
1070
   176
1070
     7
1002
}
  0
DIMENSION
  5
17C
330
1F
100
AcDbEntity
  8
SLD-0
  6
AUSGEZOGEN
 62
     7
370
    18
100
AcDbDimension
280
     0
  2
*D23
 10
2195.091842606853
 20
359.327733031226
 30
0.0
 11
2177.288635386006
 21
312.013272819177
 31
0.0
 70
   160
 71
     5
 42
-1.0
 73
     0
 74
     0
 75
     0
 53
90.0
  3
ISO-25
100
AcDbAlignedDimension
 13
2308.788019863853
 23
269.327733031226
 33
0.0
 14
2345.788019863853
 24
359.327733031226
 34
0.0
 50
90.0
100
AcDbRotatedDimension
1001
ACAD
1000
DSTYLE
1002
{
1070
     3
1000
<>
1070
   340
1005
5F
1070
    44
1040
14.285714285714
1070
   280
1070
     3
1070
    77
1070
     1
1070
   179
1070
     0
1070
   271
1070
     0
1070
   173
1070
     1
1070
    41
1040
20.0
1070
   147
1040
4.535714285714
1070
   140
1040
31.75
1070
   178
1070
     7
1070
   177
1070
     7
1070
   176
1070
     7
1002
}
  0
DIMENSION
  5
186
330
1F
100
AcDbEntity
  8
SLD-0
  6
AUSGEZOGEN
 62
     7
370
    18
100
AcDbDimension
280
     0
  2
*D24
 10
2513.788019863853
 20
91.792763035226
 30
0.0
 11
2460.457938191852
 21
101.317763035226
 31
0.0
 70
    32
 71
     5
 42
-1.0
 73
     0
 74
     0
 75
     0
  3
ISO-25
100
AcDbAlignedDimension
 13
2538.788019863853
 23
49.327733031226
 33
0.0
 14
2513.788019863853
 24
-28.672266968774
 34
0.0
 50
180.0
100
AcDbRotatedDimension
1001
ACAD
1000
DSTYLE
1002
{
1070
     3
1000
<>
1070
   340
1005
5F
1070
    44
1040
14.285714285714
1070
   280
1070
     0
1070
    77
1070
     1
1070
   179
1070
     0
1070
   271
1070
     0
1070
   173
1070
     1
1070
    41
1040
20.0
1070
   147
1040
4.535714285714
1070
   140
1040
31.75
1070
   178
1070
     7
1070
   177
1070
     7
1070
   176
1070
     7
1002
}
  0
INSERT
  5
1F6
330
1F
100
AcDbEntity
  8
0
100
AcDbBlockReference
  2
A3-NABER_nNn024
 10
0.0
 20
0.0
 30
0.0
  0
LINE
  5
1F7
330
1F
100
AcDbEntity
  8
Layer100
  6
AUSGEZOGEN
 62
    18
420
        0
370
    50
100
AcDbLine
 10
2073.845916818936
 20
-1375.852932678157
 30
0.0
 11
2073.845916818936
 21
-989.544252909277
 31
0.0
  0
LINE
  5
1F8
330
1F
100
AcDbEntity
  8
Layer100
  6
AUSGEZOGEN
 62
    18
420
        0
370
    50
100
AcDbLine
 10
2073.845916818936
 20
-1346.133412949333
 30
0.0
 11
3354.005916818936
 21
-1346.133412949333
 31
0.0
  0
LINE
  5
1F9
330
1F
100
AcDbEntity
  8
Layer100
  6
AUSGEZOGEN
 62
    18
420
        0
370
    18
100
AcDbLine
 10
2073.845916818936
 20
-1316.417649612662
 30
0.0
 11
2457.079300153476
 21
-1316.417649612662
 31
0.0
  0
LINE
  5
1FA
330
1F
100
AcDbEntity
  8
Layer100
  6
AUSGEZOGEN
 62
    18
420
        0
370
    18
100
AcDbLine
 10
2073.845916818936
 20
-1286.701886275991
 30
0.0
 11
2457.079300153476
 21
-1286.701886275991
 31
0.0
  0
LINE
  5
1FB
330
1F
100
AcDbEntity
  8
Layer100
  6
AUSGEZOGEN
 62
    18
420
        0
370
    18
100
AcDbLine
 10
2073.845916818936
 20
-1256.98612293932
 30
0.0
 11
2457.079300153476
 21
-1256.98612293932
 31
0.0
  0
LINE
  5
1FC
330
1F
100
AcDbEntity
  8
Layer100
  6
AUSGEZOGEN
 62
    18
420
        0
370
    18
100
AcDbLine
 10
2073.845916818936
 20
-1227.270359602648
 30
0.0
 11
2457.079300153476
 21
-1227.270359602648
 31
0.0
  0
LINE
  5
1FD
330
1F
100
AcDbEntity
  8
Layer100
  6
AUSGEZOGEN
 62
    18
420
        0
370
    18
100
AcDbLine
 10
2073.845916818936
 20
-1197.554596265977
 30
0.0
 11
2766.123238854859
 21
-1197.554596265977
 31
0.0
  0
LINE
  5
1FE
330
1F
100
AcDbEntity
  8
Layer100
  6
AUSGEZOGEN
 62
    18
420
        0
370
    18
100
AcDbLine
 10
2073.845916818936
 20
-1167.838832929305
 30
0.0
 11
2766.123238854859
 21
-1167.838832929305
 31
0.0
  0
LINE
  5
1FF
330
1F
100
AcDbEntity
  8
Layer100
  6
AUSGEZOGEN
 62
    18
420
        0
370
    18
100
AcDbLine
 10
2073.845916818936
 20
-1138.123069592634
 30
0.0
 11
2766.123238854859
 21
-1138.123069592634
 31
0.0
  0
LINE
  5
200
330
1F
100
AcDbEntity
  8
Layer100
  6
AUSGEZOGEN
 62
    18
420
        0
370
    50
100
AcDbLine
 10
2073.845916818936
 20
-1108.407306255962
 30
0.0
 11
3354.005916818936
 21
-1108.407306255962
 31
0.0
  0
INSERT
  5
207
330
1F
100
AcDbEntity
  8
0
100
AcDbBlockReference
  2
SW_NOTE_0_008_nNn032
 10
0.0
 20
0.0
 30
0.0
  0
ENDSEC
  0
SECTION
  2
OBJECTS
  0
DICTIONARY
  5
C
330
0
100
AcDbDictionary
281
     1
  3
ACAD_DETAILVIEWSTYLE
350
240
  3
ACAD_GROUP
350
D
  3
ACAD_IMAGE_DICT
350
1F1
  3
ACAD_LAYOUT
350
1A
  3
ACAD_MATERIAL
350
43
  3
ACAD_MLEADERSTYLE
350
5B
  3
ACAD_MLINESTYLE
350
17
  3
ACAD_PLOTSETTINGS
350
19
  3
ACAD_PLOTSTYLENAME
350
E
  3
ACAD_SCALELIST
350
47
  3
ACAD_SECTIONVIEWSTYLE
350
241
  3
ACAD_TABLESTYLE
350
59
  3
ACAD_VISUALSTYLE
350
2A
  3
ACAD_WIPEOUT_VARS
350
23D
  3
ACDB_RECOMPOSE_DATA
350
23C
  3
AcDbVariableDictionary
350
208
  0
SUN
  5
5D
330
29
100
AcDbSun
 90
        1
290
     0
 63
     7
421
 16777215
 40
1.0
291
     1
 91
  2455826
 92
 54000000
292
     0
 70
     2
 71
   256
280
     1
  0
IMAGEDEF_REACTOR
  5
1F4
330
1F3
100
AcDbRasterImageDefReactor
 90
        2
330
1F3
  0
DICTIONARY
  5
240
102
{ACAD_REACTORS
330
C
102
}
330
C
100
AcDbDictionary
281
     1
  0
DICTIONARY
  5
D
102
{ACAD_REACTORS
330
C
102
}
330
C
100
AcDbDictionary
281
     1
  0
DICTIONARY
  5
1F1
102
{ACAD_REACTORS
330
C
102
}
330
C
100
AcDbDictionary
281
     1
  3
NABER.JPG
350
1F2
  0
DICTIONARY
  5
1A
102
{ACAD_REACTORS
330
C
102
}
330
C
100
AcDbDictionary
281
     1
  3
Layout1
350
1E
  3
Layout2
350
26
  3
Model
350
22
  0
DICTIONARY
  5
43
102
{ACAD_REACTORS
330
C
102
}
330
C
100
AcDbDictionary
281
     1
  3
ByBlock
350
45
  3
ByLayer
350
44
  3
Global
350
46
  0
DICTIONARY
  5
5B
102
{ACAD_REACTORS
330
C
102
}
330
C
100
AcDbDictionary
281
     1
  3
Standard
350
5C
  0
DICTIONARY
  5
17
102
{ACAD_REACTORS
330
C
102
}
330
C
100
AcDbDictionary
281
     1
  3
Standard
350
18
  0
DICTIONARY
  5
19
102
{ACAD_REACTORS
330
C
102
}
330
C
100
AcDbDictionary
281
     1
  0
ACDBDICTIONARYWDFLT
  5
E
102
{ACAD_REACTORS
330
C
102
}
330
C
100
AcDbDictionary
281
     1
  3
Normal
350
F
100
AcDbDictionaryWithDefault
340
F
  0
DICTIONARY
  5
47
102
{ACAD_REACTORS
330
C
102
}
330
C
100
AcDbDictionary
281
     1
  3
A0
350
48
  3
A1
350
49
  3
A2
350
4A
  3
A3
350
4B
  3
A4
350
4C
  3
A5
350
4D
  3
A6
350
4E
  3
A7
350
4F
  3
A8
350
50
  3
A9
350
51
  3
B0
350
52
  3
B1
350
53
  3
B2
350
54
  3
B3
350
55
  3
B4
350
56
  3
B5
350
57
  3
B6
350
58
  0
DICTIONARY
  5
241
102
{ACAD_REACTORS
330
C
102
}
330
C
100
AcDbDictionary
281
     1
  0
DICTIONARY
  5
59
102
{ACAD_REACTORS
330
C
102
}
330
C
100
AcDbDictionary
281
     1
  3
Standard
350
5A
  0
DICTIONARY
  5
2A
102
{ACAD_REACTORS
330
C
102
}
330
C
100
AcDbDictionary
281
     1
  3
2dWireframe
350
2F
  3
Basic
350
32
  3
Brighten
350
36
  3
ColorChange
350
3A
  3
Conceptual
350
34
  3
Dim
350
35
  3
EdgeColorOff
350
3D
  3
Facepattern
350
39
  3
Flat
350
2B
  3
FlatWithEdges
350
2C
  3
Gouraud
350
2D
  3
GouraudWithEdges
350
2E
  3
Hidden
350
31
  3
JitterOff
350
3B
  3
Linepattern
350
38
  3
OverhangOff
350
3C
  3
Realistic
350
33
  3
Shaded
350
42
  3
Shaded with edges
350
41
  3
Shades of Gray
350
3E
  3
Sketchy
350
3F
  3
Thicken
350
37
  3
Wireframe
350
30
  3
X-Ray
350
40
  0
WIPEOUTVARIABLES
  5
23D
102
{ACAD_REACTORS
330
C
102
}
330
C
100
AcDbWipeoutVariables
 70
     0
  0
XRECORD
  5
23C
102
{ACAD_REACTORS
330
C
102
}
330
C
100
AcDbXrecord
280
     1
 90
        1
330
5A
  0
DICTIONARY
  5
208
102
{ACAD_REACTORS
330
C
102
}
330
C
100
AcDbDictionary
281
     1
  3
CANNOSCALE
350
209
  3
CENTEREXE
350
243
  3
CENTERLTYPEFILE
350
244
  3
CMLEADERSTYLE
350
23F
  3
CTABLESTYLE
350
23E
  3
WIPEOUTFRAME
350
242
  0
IMAGEDEF
  5
1F2
102
{ACAD_REACTORS
330
1F1
330
1F4
102
}
330
1F1
100
AcDbRasterImageDef
 90
        0
  1
NABER.JPG
 10
3781.0
 20
943.0
 11
0.0002644802962179318
 21
0.0002644802962179318
280
     1
281
     0
  0
LAYOUT
  5
1E
102
{ACAD_REACTORS
330
1A
102
}
330
1A
100
AcDbPlotSettings
  1

  2
none_device
  4

  6

 40
0.0
 41
0.0
 42
0.0
 43
0.0
 44
0.0
 45
0.0
 46
0.0
 47
0.0
 48
0.0
 49
0.0
140
0.0
141
0.0
142
1.0
143
1.0
 70
   688
 72
     1
 73
     0
 74
     5
  7

 75
    16
 76
     0
 77
     2
 78
   300
147
1.0
148
0.0
149
0.0
100
AcDbLayout
  1
Layout1
 70
     1
 71
     1
 10
0.0
 20
0.0
 11
420.0
 21
297.0
 12
0.0
 22
0.0
 32
0.0
 14
1.000000000000E+20
 24
1.000000000000E+20
 34
1.000000000000E+20
 15
-1.000000000000E+20
 25
-1.000000000000E+20
 35
-1.000000000000E+20
146
0.0
 13
0.0
 23
0.0
 33
0.0
 16
1.0
 26
0.0
 36
0.0
 17
0.0
 27
1.0
 37
0.0
 76
     0
330
1B
  0
LAYOUT
  5
26
102
{ACAD_REACTORS
330
1A
102
}
330
1A
100
AcDbPlotSettings
  1

  2
none_device
  4

  6

 40
0.0
 41
0.0
 42
0.0
 43
0.0
 44
0.0
 45
0.0
 46
0.0
 47
0.0
 48
0.0
 49
0.0
140
0.0
141
0.0
142
1.0
143
1.0
 70
   688
 72
     1
 73
     0
 74
     5
  7

 75
    16
 76
     0
 77
     2
 78
   300
147
1.0
148
0.0
149
0.0
100
AcDbLayout
  1
Layout2
 70
     1
 71
     2
 10
0.0
 20
0.0
 11
0.0
 21
0.0
 12
0.0
 22
0.0
 32
0.0
 14
0.0
 24
0.0
 34
0.0
 15
0.0
 25
0.0
 35
0.0
146
0.0
 13
0.0
 23
0.0
 33
0.0
 16
1.0
 26
0.0
 36
0.0
 17
0.0
 27
1.0
 37
0.0
 76
     0
330
23
  0
LAYOUT
  5
22
102
{ACAD_REACTORS
330
1A
102
}
330
1A
100
AcDbPlotSettings
  1

  2
none_device
  4
Letter_(8.50_x_11.00_Inches)
  6

 40
6.35
 41
6.35
 42
6.35000508
 43
6.35000508
 44
215.9
 45
279.4
 46
0.0
 47
0.0
 48
0.0
 49
0.0
140
0.0
141
0.0
142
1.0
143
1.0
 70
  1712
 72
     1
 73
     0
 74
     0
  7

 75
     0
 76
     0
 77
     2
 78
   300
147
1.0
148
0.0
149
0.0
100
AcDbLayout
  1
Model
 70
     1
 71
     0
 10
0.0
 20
0.0
 11
420.0
 21
297.0
 12
0.0
 22
0.0
 32
0.0
 14
-922.761671550269
 24
-1514.414176286005
 34
0.0
 15
4865.773505188141
 25
764.015823713995
 35
0.0
146
0.0
 13
0.0
 23
0.0
 33
0.0
 16
1.0
 26
0.0
 36
0.0
 17
0.0
 27
1.0
 37
0.0
 76
     0
330
1F
331
29
  0
MATERIAL
  5
45
102
{ACAD_REACTORS
330
43
102
}
330
43
100
AcDbMaterial
  1
ByBlock
 72
     1
 94
      127
  0
MATERIAL
  5
44
102
{ACAD_REACTORS
330
43
102
}
330
43
100
AcDbMaterial
  1
ByLayer
 72
     1
 94
      127
  0
MATERIAL
  5
46
102
{ACAD_REACTORS
330
43
102
}
330
43
100
AcDbMaterial
  1
Global
 72
     1
 94
      127
  0
MLEADERSTYLE
  5
5C
102
{ACAD_REACTORS
330
5B
102
}
330
5B
100
AcDbMLeaderStyle
179
     2
170
     2
171
     1
172
     0
 90
        2
 40
0.0
 41
0.0
173
     1
 91
-1056964608
340
14
 92
       -2
290
     1
 42
2.0
291
     1
 43
8.0
  3
Standard
341
0
 44
4.0
300

342
11
174
     1
178
     6
175
     1
176
     0
 93
-1056964608
 45
4.0
292
     0
297
     0
 46
4.0
343
0
 94
-1056964608
 47
1.0
 49
1.0
140
1.0
293
     1
141
0.0
294
     1
177
     0
142
1.0
295
     0
296
     0
143
3.75
271
     0
272
     9
273
     9
  0
MLINESTYLE
  5
18
102
{ACAD_REACTORS
330
17
102
}
330
17
100
AcDbMlineStyle
  2
Standard
 70
     0
  3

 62
   256
 51
90.0
 52
90.0
 71
     2
 49
0.5
 62
   256
  6
BYLAYER
 49
-0.5
 62
   256
  6
BYLAYER
  0
ACDBPLACEHOLDER
  5
F
102
{ACAD_REACTORS
330
E
102
}
330
E
  0
SCALE
  5
48
102
{ACAD_REACTORS
330
47
102
}
330
47
100
AcDbScale
 70
     0
300
1:1
140
1.0
141
1.0
290
     1
  0
SCALE
  5
49
102
{ACAD_REACTORS
330
47
102
}
330
47
100
AcDbScale
 70
     0
300
1:2
140
1.0
141
2.0
290
     0
  0
SCALE
  5
4A
102
{ACAD_REACTORS
330
47
102
}
330
47
100
AcDbScale
 70
     0
300
1:4
140
1.0
141
4.0
290
     0
  0
SCALE
  5
4B
102
{ACAD_REACTORS
330
47
102
}
330
47
100
AcDbScale
 70
     0
300
1:5
140
1.0
141
5.0
290
     0
  0
SCALE
  5
4C
102
{ACAD_REACTORS
330
47
102
}
330
47
100
AcDbScale
 70
     0
300
1:8
140
1.0
141
8.0
290
     0
  0
SCALE
  5
4D
102
{ACAD_REACTORS
330
47
102
}
330
47
100
AcDbScale
 70
     0
300
1:10
140
1.0
141
10.0
290
     0
  0
SCALE
  5
4E
102
{ACAD_REACTORS
330
47
102
}
330
47
100
AcDbScale
 70
     0
300
1:16
140
1.0
141
16.0
290
     0
  0
SCALE
  5
4F
102
{ACAD_REACTORS
330
47
102
}
330
47
100
AcDbScale
 70
     0
300
1:20
140
1.0
141
20.0
290
     0
  0
SCALE
  5
50
102
{ACAD_REACTORS
330
47
102
}
330
47
100
AcDbScale
 70
     0
300
1:30
140
1.0
141
30.0
290
     0
  0
SCALE
  5
51
102
{ACAD_REACTORS
330
47
102
}
330
47
100
AcDbScale
 70
     0
300
1:40
140
1.0
141
40.0
290
     0
  0
SCALE
  5
52
102
{ACAD_REACTORS
330
47
102
}
330
47
100
AcDbScale
 70
     0
300
1:50
140
1.0
141
50.0
290
     0
  0
SCALE
  5
53
102
{ACAD_REACTORS
330
47
102
}
330
47
100
AcDbScale
 70
     0
300
1:100
140
1.0
141
100.0
290
     0
  0
SCALE
  5
54
102
{ACAD_REACTORS
330
47
102
}
330
47
100
AcDbScale
 70
     0
300
2:1
140
2.0
141
1.0
290
     0
  0
SCALE
  5
55
102
{ACAD_REACTORS
330
47
102
}
330
47
100
AcDbScale
 70
     0
300
4:1
140
4.0
141
1.0
290
     0
  0
SCALE
  5
56
102
{ACAD_REACTORS
330
47
102
}
330
47
100
AcDbScale
 70
     0
300
8:1
140
8.0
141
1.0
290
     0
  0
SCALE
  5
57
102
{ACAD_REACTORS
330
47
102
}
330
47
100
AcDbScale
 70
     0
300
10:1
140
10.0
141
1.0
290
     0
  0
SCALE
  5
58
102
{ACAD_REACTORS
330
47
102
}
330
47
100
AcDbScale
 70
     0
300
100:1
140
100.0
141
1.0
290
     0
  0
TABLESTYLE
  5
5A
102
{ACAD_REACTORS
330
59
102
}
102
{ACAD_XDICTIONARY
360
23A
102
}
330
59
100
AcDbTableStyle
  3
Standard
 70
     0
 71
     0
 40
0.06
 41
0.06
280
     0
281
     0
  7
Standard
140
4.5
170
     2
 62
     0
 63
   257
283
     0
 90
        4
 91
        0
  1

274
    -2
284
     1
 64
     0
275
    -2
285
     1
 65
     0
276
    -2
286
     1
 66
     0
277
    -2
287
     1
 67
     0
278
    -2
288
     1
 68
     0
279
    -2
289
     1
 69
     0
  7
Standard
140
6.0
170
     5
 62
     0
 63
   257
283
     0
 90
        4
 91
        0
  1

274
    -2
284
     1
 64
     0
275
    -2
285
     1
 65
     0
276
    -2
286
     1
 66
     0
277
    -2
287
     1
 67
     0
278
    -2
288
     1
 68
     0
279
    -2
289
     1
 69
     0
  7
Standard
140
4.5
170
     5
 62
     0
 63
   257
283
     0
 90
        4
 91
        0
  1

274
    -2
284
     1
 64
     0
275
    -2
285
     1
 65
     0
276
    -2
286
     1
 66
     0
277
    -2
287
     1
 67
     0
278
    -2
288
     1
 68
     0
279
    -2
289
     1
 69
     0
  0
VISUALSTYLE
  5
2F
102
{ACAD_REACTORS
330
2A
102
}
102
{ACAD_XDICTIONARY
360
212
102
}
330
2A
100
AcDbVisualStyle
  2
2dWireframe
 70
     4
177
     2
291
     0
 71
     0
176
     1
 72
     2
176
     1
 73
     0
176
     1
 90
        0
176
     1
 40
0.6
176
     1
 41
30.0
176
     1
 62
     5
 63
     7
421
 16777215
176
     1
 74
     1
176
     1
 91
        4
176
     1
 64
     7
176
     1
 65
   257
176
     1
 75
     1
176
     1
175
     1
176
     1
 42
1.0
176
     1
 92
        0
176
     1
 66
   257
176
     1
 43
1.0
176
     1
 76
     1
176
     1
 77
     6
176
     1
 78
     2
176
     1
 67
     7
176
     1
 79
     5
176
     1
170
     0
176
     1
171
     0
176
     1
290
     0
176
     1
 93
        1
176
     1
 44
0.0
176
     1
173
     0
176
     1
  0
VISUALSTYLE
  5
32
102
{ACAD_REACTORS
330
2A
102
}
102
{ACAD_XDICTIONARY
360
218
102
}
330
2A
100
AcDbVisualStyle
  2
Basic
 70
     7
177
     2
291
     1
 71
     1
176
     1
 72
     0
176
     1
 73
     1
176
     1
 90
        0
176
     1
 40
0.6
176
     1
 41
30.0
176
     1
 62
     5
 63
     7
421
 16777215
176
     1
 74
     0
176
     1
 91
        4
176
     1
 64
     7
176
     1
 65
   257
176
     1
 75
     1
176
     1
175
     1
176
     1
 42
1.0
176
     1
 92
        8
176
     1
 66
     7
176
     1
 43
1.0
176
     1
 76
     1
176
     1
 77
     6
176
     1
 78
     2
176
     1
 67
     7
176
     1
 79
     5
176
     1
170
     0
176
     1
171
     0
176
     1
290
     0
176
     1
 93
        1
176
     1
 44
0.0
176
     1
173
     0
176
     1
  0
VISUALSTYLE
  5
36
102
{ACAD_REACTORS
330
2A
102
}
102
{ACAD_XDICTIONARY
360
220
102
}
330
2A
100
AcDbVisualStyle
  2
Brighten
 70
    12
177
     2
291
     1
 71
     2
176
     1
 72
     2
176
     1
 73
     0
176
     1
 90
        0
176
     1
 40
0.6
176
     1
 41
30.0
176
     1
 62
     5
 63
     7
421
 16777215
176
     1
 74
     1
176
     1
 91
        4
176
     1
 64
     7
176
     1
 65
   257
176
     1
 75
     1
176
     1
175
     1
176
     1
 42
1.0
176
     1
 92
        8
176
     1
 66
     7
176
     1
 43
1.0
176
     1
 76
     1
176
     1
 77
     6
176
     1
 78
     2
176
     1
 67
     7
176
     1
 79
     5
176
     1
170
     0
176
     1
171
     0
176
     1
290
     0
176
     1
 93
        1
176
     1
 44
50.0
176
     1
173
     0
176
     1
  0
VISUALSTYLE
  5
3A
102
{ACAD_REACTORS
330
2A
102
}
102
{ACAD_XDICTIONARY
360
228
102
}
330
2A
100
AcDbVisualStyle
  2
ColorChange
 70
    16
177
     2
291
     1
 71
     2
176
     1
 72
     2
176
     1
 73
     3
176
     1
 90
        0
176
     1
 40
0.6
176
     1
 41
30.0
176
     1
 62
     5
 63
     8
421
  8421504
176
     1
 74
     1
176
     1
 91
        4
176
     1
 64
     7
176
     1
 65
   257
176
     1
 75
     1
176
     1
175
     1
176
     1
 42
1.0
176
     1
 92
        8
176
     1
 66
     8
424
  8421504
176
     1
 43
1.0
176
     1
 76
     1
176
     1
 77
     6
176
     1
 78
     2
176
     1
 67
     7
176
     1
 79
     5
176
     1
170
     0
176
     1
171
     0
176
     1
290
     0
176
     1
 93
        1
176
     1
 44
0.0
176
     1
173
     0
176
     1
  0
VISUALSTYLE
  5
34
102
{ACAD_REACTORS
330
2A
102
}
102
{ACAD_XDICTIONARY
360
21C
102
}
330
2A
100
AcDbVisualStyle
  2
Conceptual
 70
     9
177
     2
291
     0
 71
     3
176
     1
 72
     2
176
     1
 73
     0
176
     1
 90
        0
176
     1
 40
0.6
176
     1
 41
30.0
176
     1
 62
     5
 63
     7
421
 16777215
176
     1
 74
     2
176
     1
 91
        2
176
     1
 64
     7
176
     1
 65
   257
176
     1
 75
     1
176
     1
175
     1
176
     1
 42
179.0
176
     1
 92
        8
176
     1
 66
     7
176
     1
 43
1.0
176
     1
 76
     1
176
     1
 77
     6
176
     1
 78
     2
176
     1
 67
     7
176
     1
 79
     3
176
     1
170
     0
176
     1
171
     0
176
     1
290
     0
176
     1
 93
        1
176
     1
 44
0.0
176
     1
173
     0
176
     1
  0
VISUALSTYLE
  5
35
102
{ACAD_REACTORS
330
2A
102
}
102
{ACAD_XDICTIONARY
360
21E
102
}
330
2A
100
AcDbVisualStyle
  2
Dim
 70
    11
177
     2
291
     1
 71
     2
176
     1
 72
     2
176
     1
 73
     0
176
     1
 90
        0
176
     1
 40
0.6
176
     1
 41
30.0
176
     1
 62
     5
 63
     7
421
 16777215
176
     1
 74
     1
176
     1
 91
        4
176
     1
 64
     7
176
     1
 65
   257
176
     1
 75
     1
176
     1
175
     1
176
     1
 42
1.0
176
     1
 92
        8
176
     1
 66
     7
176
     1
 43
1.0
176
     1
 76
     1
176
     1
 77
     6
176
     1
 78
     2
176
     1
 67
     7
176
     1
 79
     5
176
     1
170
     0
176
     1
171
     0
176
     1
290
     0
176
     1
 93
        1
176
     1
 44
-50.0
176
     1
173
     0
176
     1
  0
VISUALSTYLE
  5
3D
102
{ACAD_REACTORS
330
2A
102
}
102
{ACAD_XDICTIONARY
360
22E
102
}
330
2A
100
AcDbVisualStyle
  2
EdgeColorOff
 70
    22
177
     2
291
     1
 71
     2
176
     0
 72
     2
176
     0
 73
     0
176
     0
 90
        0
176
     0
 40
0.6
176
     0
 41
30.0
176
     0
 62
     5
 63
     7
421
 16777215
176
     0
 74
     1
176
     0
 91
        4
176
     0
 64
     7
176
     0
 65
   257
176
     0
 75
     1
176
     0
175
     1
176
     0
 42
1.0
176
     0
 92
        8
176
     2
 66
     7
176
     0
 43
1.0
176
     0
 76
     1
176
     0
 77
     6
176
     0
 78
     2
176
     0
 67
     7
176
     0
 79
     5
176
     0
170
     0
176
     0
171
     0
176
     0
290
     0
176
     0
 93
        1
176
     0
 44
0.0
176
     0
173
     0
176
     0
  0
VISUALSTYLE
  5
39
102
{ACAD_REACTORS
330
2A
102
}
102
{ACAD_XDICTIONARY
360
226
102
}
330
2A
100
AcDbVisualStyle
  2
Facepattern
 70
    15
177
     2
291
     1
 71
     2
176
     1
 72
     2
176
     1
 73
     0
176
     1
 90
        0
176
     1
 40
0.6
176
     1
 41
30.0
176
     1
 62
     5
 63
     7
421
 16777215
176
     1
 74
     1
176
     1
 91
        4
176
     1
 64
     7
176
     1
 65
   257
176
     1
 75
     1
176
     1
175
     1
176
     1
 42
1.0
176
     1
 92
        8
176
     1
 66
     7
176
     1
 43
1.0
176
     1
 76
     1
176
     1
 77
     6
176
     1
 78
     2
176
     1
 67
     7
176
     1
 79
     5
176
     1
170
     0
176
     1
171
     0
176
     1
290
     0
176
     1
 93
        1
176
     1
 44
0.0
176
     1
173
     0
176
     1
  0
VISUALSTYLE
  5
2B
102
{ACAD_REACTORS
330
2A
102
}
102
{ACAD_XDICTIONARY
360
20A
102
}
330
2A
100
AcDbVisualStyle
  2
Flat
 70
     0
177
     2
291
     1
 71
     2
176
     1
 72
     1
176
     1
 73
     1
176
     1
 90
        2
176
     1
 40
0.6
176
     1
 41
30.0
176
     1
 62
     5
 63
     7
421
 16777215
176
     1
 74
     0
176
     1
 91
        0
176
     1
 64
     7
176
     1
 65
   257
176
     1
 75
     1
176
     1
175
     1
176
     1
 42
1.0
176
     1
 92
        8
176
     1
 66
     7
176
     1
 43
1.0
176
     1
 76
     1
176
     1
 77
     6
176
     1
 78
     2
176
     1
 67
     7
176
     1
 79
     5
176
     1
170
     0
176
     1
171
     0
176
     1
290
     0
176
     1
 93
       13
176
     1
 44
0.0
176
     1
173
     0
176
     1
  0
VISUALSTYLE
  5
2C
102
{ACAD_REACTORS
330
2A
102
}
102
{ACAD_XDICTIONARY
360
20C
102
}
330
2A
100
AcDbVisualStyle
  2
FlatWithEdges
 70
     1
177
     2
291
     1
 71
     2
176
     1
 72
     1
176
     1
 73
     1
176
     1
 90
        2
176
     1
 40
0.6
176
     1
 41
30.0
176
     1
 62
     5
 63
     7
421
 16777215
176
     1
 74
     1
176
     1
 91
        0
176
     1
 64
     7
176
     1
 65
   257
176
     1
 75
     1
176
     1
175
     1
176
     1
 42
1.0
176
     1
 92
        0
176
     1
 66
   257
176
     1
 43
1.0
176
     1
 76
     1
176
     1
 77
     6
176
     1
 78
     2
176
     1
 67
     7
176
     1
 79
     5
176
     1
170
     0
176
     1
171
     0
176
     1
290
     0
176
     1
 93
       13
176
     1
 44
0.0
176
     1
173
     0
176
     1
  0
VISUALSTYLE
  5
2D
102
{ACAD_REACTORS
330
2A
102
}
102
{ACAD_XDICTIONARY
360
20E
102
}
330
2A
100
AcDbVisualStyle
  2
Gouraud
 70
     2
177
     2
291
     1
 71
     2
176
     1
 72
     2
176
     1
 73
     1
176
     1
 90
        2
176
     1
 40
0.6
176
     1
 41
30.0
176
     1
 62
     5
 63
     7
421
 16777215
176
     1
 74
     0
176
     1
 91
        0
176
     1
 64
     7
176
     1
 65
   257
176
     1
 75
     1
176
     1
175
     1
176
     1
 42
1.0
176
     1
 92
        0
176
     1
 66
     7
176
     1
 43
1.0
176
     1
 76
     1
176
     1
 77
     6
176
     1
 78
     2
176
     1
 67
     7
176
     1
 79
     5
176
     1
170
     0
176
     1
171
     0
176
     1
290
     0
176
     1
 93
       13
176
     1
 44
0.0
176
     1
173
     0
176
     1
  0
VISUALSTYLE
  5
2E
102
{ACAD_REACTORS
330
2A
102
}
102
{ACAD_XDICTIONARY
360
210
102
}
330
2A
100
AcDbVisualStyle
  2
GouraudWithEdges
 70
     3
177
     2
291
     1
 71
     2
176
     1
 72
     2
176
     1
 73
     1
176
     1
 90
        2
176
     1
 40
0.6
176
     1
 41
30.0
176
     1
 62
     5
 63
     7
421
 16777215
176
     1
 74
     1
176
     1
 91
        0
176
     1
 64
     7
176
     1
 65
   257
176
     1
 75
     1
176
     1
175
     1
176
     1
 42
1.0
176
     1
 92
        0
176
     1
 66
   257
176
     1
 43
1.0
176
     1
 76
     1
176
     1
 77
     6
176
     1
 78
     2
176
     1
 67
     7
176
     1
 79
     5
176
     1
170
     0
176
     1
171
     0
176
     1
290
     0
176
     1
 93
       13
176
     1
 44
0.0
176
     1
173
     0
176
     1
  0
VISUALSTYLE
  5
31
102
{ACAD_REACTORS
330
2A
102
}
102
{ACAD_XDICTIONARY
360
216
102
}
330
2A
100
AcDbVisualStyle
  2
Hidden
 70
     6
177
     2
291
     0
 71
     1
176
     1
 72
     2
176
     1
 73
     2
176
     1
 90
        0
176
     1
 40
0.6
176
     1
 41
30.0
176
     1
 62
     5
 63
     7
421
 16777215
176
     1
 74
     2
176
     1
 91
        2
176
     1
 64
     7
176
     1
 65
   257
176
     1
 75
     2
176
     1
175
     1
176
     1
 42
40.0
176
     1
 92
        0
176
     1
 66
   257
176
     1
 43
1.0
176
     1
 76
     1
176
     1
 77
     6
176
     1
 78
     2
176
     1
 67
     7
176
     1
 79
     3
176
     1
170
     0
176
     1
171
     0
176
     1
290
     0
176
     1
 93
        1
176
     1
 44
0.0
176
     1
173
     0
176
     1
  0
VISUALSTYLE
  5
3B
102
{ACAD_REACTORS
330
2A
102
}
102
{ACAD_XDICTIONARY
360
22A
102
}
330
2A
100
AcDbVisualStyle
  2
JitterOff
 70
    20
177
     2
291
     1
 71
     2
176
     0
 72
     2
176
     0
 73
     0
176
     0
 90
        0
176
     0
 40
0.6
176
     0
 41
30.0
176
     0
 62
     5
 63
     7
421
 16777215
176
     0
 74
     1
176
     0
 91
        4
176
     0
 64
     7
176
     0
 65
   257
176
     0
 75
     1
176
     0
175
     1
176
     0
 42
1.0
176
     0
 92
       10
176
     2
 66
     7
176
     0
 43
1.0
176
     0
 76
     1
176
     0
 77
     6
176
     0
 78
     2
176
     0
 67
     7
176
     0
 79
     5
176
     0
170
     0
176
     0
171
     0
176
     0
290
     0
176
     0
 93
        1
176
     0
 44
0.0
176
     0
173
     0
176
     0
  0
VISUALSTYLE
  5
38
102
{ACAD_REACTORS
330
2A
102
}
102
{ACAD_XDICTIONARY
360
224
102
}
330
2A
100
AcDbVisualStyle
  2
Linepattern
 70
    14
177
     2
291
     1
 71
     2
176
     1
 72
     2
176
     1
 73
     0
176
     1
 90
        0
176
     1
 40
0.6
176
     1
 41
30.0
176
     1
 62
     5
 63
     7
421
 16777215
176
     1
 74
     1
176
     1
 91
        4
176
     1
 64
     7
176
     1
 65
   257
176
     1
 75
     7
176
     1
175
     7
176
     1
 42
1.0
176
     1
 92
        8
176
     1
 66
     7
176
     1
 43
1.0
176
     1
 76
     1
176
     1
 77
     6
176
     1
 78
     2
176
     1
 67
     7
176
     1
 79
     5
176
     1
170
     0
176
     1
171
     0
176
     1
290
     0
176
     1
 93
        1
176
     1
 44
0.0
176
     1
173
     0
176
     1
  0
VISUALSTYLE
  5
3C
102
{ACAD_REACTORS
330
2A
102
}
102
{ACAD_XDICTIONARY
360
22C
102
}
330
2A
100
AcDbVisualStyle
  2
OverhangOff
 70
    21
177
     2
291
     1
 71
     2
176
     0
 72
     2
176
     0
 73
     0
176
     0
 90
        0
176
     0
 40
0.6
176
     0
 41
30.0
176
     0
 62
     5
 63
     7
421
 16777215
176
     0
 74
     1
176
     0
 91
        4
176
     0
 64
     7
176
     0
 65
   257
176
     0
 75
     1
176
     0
175
     1
176
     0
 42
1.0
176
     0
 92
        9
176
     2
 66
     7
176
     0
 43
1.0
176
     0
 76
     1
176
     0
 77
     6
176
     0
 78
     2
176
     0
 67
     7
176
     0
 79
     5
176
     0
170
     0
176
     0
171
     0
176
     0
290
     0
176
     0
 93
        1
176
     0
 44
0.0
176
     0
173
     0
176
     0
  0
VISUALSTYLE
  5
33
102
{ACAD_REACTORS
330
2A
102
}
102
{ACAD_XDICTIONARY
360
21A
102
}
330
2A
100
AcDbVisualStyle
  2
Realistic
 70
     8
177
     2
291
     0
 71
     2
176
     1
 72
     3
176
     1
 73
     0
176
     1
 90
        2
176
     1
 40
0.6
176
     1
 41
30.0
176
     1
 62
     5
 63
     7
421
 16777215
176
     1
 74
     0
176
     1
 91
        0
176
     1
 64
     7
176
     1
 65
   257
176
     1
 75
     1
176
     1
175
     1
176
     1
 42
1.0
176
     1
 92
        8
176
     1
 66
   257
176
     1
 43
1.0
176
     1
 76
     1
176
     1
 77
     6
176
     1
 78
     2
176
     1
 67
     7
176
     1
 79
     3
176
     1
170
     0
176
     1
171
     0
176
     1
290
     0
176
     1
 93
       13
176
     1
 44
0.0
176
     1
173
     0
176
     1
  0
VISUALSTYLE
  5
42
102
{ACAD_REACTORS
330
2A
102
}
102
{ACAD_XDICTIONARY
360
238
102
}
330
2A
100
AcDbVisualStyle
  2
Shaded
 70
    27
177
     2
291
     0
 71
     2
176
     1
 72
     2
176
     1
 73
     1
176
     1
 90
        2
176
     1
 40
0.6
176
     1
 41
30.0
176
     1
 62
     5
 63
     7
421
 16777215
176
     1
 74
     0
176
     1
 91
        4
176
     1
 64
     7
176
     1
 65
   257
176
     1
 75
     1
176
     1
175
     1
176
     1
 42
1.0
176
     1
 92
        8
176
     1
 66
   257
176
     1
 43
1.0
176
     1
 76
     1
176
     1
 77
     6
176
     1
 78
     2
176
     1
 67
     8
425
  7895160
176
     1
 79
     3
176
     1
170
     0
176
     1
171
     0
176
     1
290
     0
176
     1
 93
        5
176
     1
 44
0.0
176
     1
173
     0
176
     1
  0
VISUALSTYLE
  5
41
102
{ACAD_REACTORS
330
2A
102
}
102
{ACAD_XDICTIONARY
360
236
102
}
330
2A
100
AcDbVisualStyle
  2
Shaded with edges
 70
    26
177
     2
291
     0
 71
     2
176
     1
 72
     2
176
     1
 73
     1
176
     1
 90
        2
176
     1
 40
0.6
176
     1
 41
30.0
176
     1
 62
     5
 63
     7
421
 16777215
176
     1
 74
     1
176
     1
 91
       10
176
     1
 64
     7
176
     1
 65
   257
176
     1
 75
     2
176
     1
175
     1
176
     1
 42
1.0
176
     1
 92
        8
176
     1
 66
   257
176
     1
 43
1.0
176
     1
 76
     1
176
     1
 77
     6
176
     1
 78
     2
176
     1
 67
     7
176
     1
 79
     3
176
     1
170
     0
176
     1
171
     0
176
     1
290
     0
176
     1
 93
        5
176
     1
 44
0.0
176
     1
173
     0
176
     1
  0
VISUALSTYLE
  5
3E
102
{ACAD_REACTORS
330
2A
102
}
102
{ACAD_XDICTIONARY
360
230
102
}
330
2A
100
AcDbVisualStyle
  2
Shades of Gray
 70
    23
177
     2
291
     0
 71
     2
176
     1
 72
     2
176
     1
 73
     3
176
     1
 90
        0
176
     1
 40
0.6
176
     1
 41
30.0
176
     1
 62
     5
 63
     7
421
 16777215
176
     1
 74
     2
176
     1
 91
        2
176
     1
 64
     7
176
     1
 65
     7
176
     1
 75
     1
176
     1
175
     1
176
     1
 42
40.0
176
     1
 92
        8
176
     1
 66
     7
176
     1
 43
1.0
176
     1
 76
     1
176
     1
 77
     6
176
     1
 78
     2
176
     1
 67
     7
176
     1
 79
     3
176
     1
170
     0
176
     1
171
     0
176
     1
290
     0
176
     1
 93
        1
176
     1
 44
0.0
176
     1
173
     0
176
     1
  0
VISUALSTYLE
  5
3F
102
{ACAD_REACTORS
330
2A
102
}
102
{ACAD_XDICTIONARY
360
232
102
}
330
2A
100
AcDbVisualStyle
  2
Sketchy
 70
    24
177
     2
291
     0
 71
     1
176
     1
 72
     2
176
     1
 73
     2
176
     1
 90
        0
176
     1
 40
0.6
176
     1
 41
30.0
176
     1
 62
     5
 63
     7
421
 16777215
176
     1
 74
     2
176
     1
 91
        2
176
     1
 64
     7
176
     1
 65
     7
176
     1
 75
     1
176
     1
175
     1
176
     1
 42
40.0
176
     1
 92
       11
176
     1
 66
     7
176
     1
 43
1.0
176
     1
 76
     1
176
     1
 77
     6
176
     1
 78
     2
176
     1
 67
     7
176
     1
 79
     6
176
     1
170
     0
176
     1
171
     0
176
     1
290
     0
176
     1
 93
        1
176
     1
 44
0.0
176
     1
173
     0
176
     1
  0
VISUALSTYLE
  5
37
102
{ACAD_REACTORS
330
2A
102
}
102
{ACAD_XDICTIONARY
360
222
102
}
330
2A
100
AcDbVisualStyle
  2
Thicken
 70
    13
177
     2
291
     1
 71
     2
176
     1
 72
     2
176
     1
 73
     0
176
     1
 90
        0
176
     1
 40
0.6
176
     1
 41
30.0
176
     1
 62
     5
 63
     7
421
 16777215
176
     1
 74
     1
176
     1
 91
        4
176
     1
 64
     7
176
     1
 65
   257
176
     1
 75
     1
176
     1
175
     1
176
     1
 42
1.0
176
     1
 92
       12
176
     1
 66
     7
176
     1
 43
1.0
176
     1
 76
     1
176
     1
 77
     6
176
     1
 78
     2
176
     1
 67
     7
176
     1
 79
     5
176
     1
170
     0
176
     1
171
     0
176
     1
290
     0
176
     1
 93
        1
176
     1
 44
0.0
176
     1
173
     0
176
     1
  0
VISUALSTYLE
  5
30
102
{ACAD_REACTORS
330
2A
102
}
102
{ACAD_XDICTIONARY
360
214
102
}
330
2A
100
AcDbVisualStyle
  2
Wireframe
 70
     5
177
     2
291
     0
 71
     0
176
     1
 72
     2
176
     1
 73
     0
176
     1
 90
        0
176
     1
 40
0.6
176
     1
 41
30.0
176
     1
 62
     5
 63
     7
421
 16777215
176
     1
 74
     1
176
     1
 91
        4
176
     1
 64
     7
176
     1
 65
   257
176
     1
 75
     1
176
     1
175
     1
176
     1
 42
1.0
176
     1
 92
        0
176
     1
 66
   257
176
     1
 43
1.0
176
     1
 76
     1
176
     1
 77
     6
176
     1
 78
     2
176
     1
 67
     7
176
     1
 79
     3
176
     1
170
     0
176
     1
171
     0
176
     1
290
     0
176
     1
 93
        1
176
     1
 44
0.0
176
     1
173
     0
176
     1
  0
VISUALSTYLE
  5
40
102
{ACAD_REACTORS
330
2A
102
}
102
{ACAD_XDICTIONARY
360
234
102
}
330
2A
100
AcDbVisualStyle
  2
X-Ray
 70
    25
177
     2
291
     0
 71
     2
176
     1
 72
     2
176
     1
 73
     1
176
     1
 90
        1
176
     1
 40
0.5
176
     1
 41
30.0
176
     1
 62
     5
 63
     7
421
 16777215
176
     1
 74
     1
176
     1
 91
        0
176
     1
 64
     7
176
     1
 65
   257
176
     1
 75
     1
176
     1
175
     1
176
     1
 42
1.0
176
     1
 92
        8
176
     1
 66
     7
176
     1
 43
1.0
176
     1
 76
     1
176
     1
 77
     6
176
     1
 78
     2
176
     1
 67
     7
176
     1
 79
     3
176
     1
170
     0
176
     1
171
     0
176
     1
290
     0
176
     1
 93
       13
176
     1
 44
0.0
176
     1
173
     0
176
     1
  0
DICTIONARYVAR
  5
209
102
{ACAD_REACTORS
330
208
102
}
330
208
100
DictionaryVariables
280
     0
  1
1:1
  0
DICTIONARYVAR
  5
243
102
{ACAD_REACTORS
330
208
102
}
330
208
100
DictionaryVariables
280
     0
  1
3.500000
  0
DICTIONARYVAR
  5
244
102
{ACAD_REACTORS
330
208
102
}
330
208
100
DictionaryVariables
280
     0
  1
acadiso.lin
  0
DICTIONARYVAR
  5
23F
102
{ACAD_REACTORS
330
208
102
}
330
208
100
DictionaryVariables
280
     0
  1
Standard
  0
DICTIONARYVAR
  5
23E
102
{ACAD_REACTORS
330
208
102
}
330
208
100
DictionaryVariables
280
     0
  1
Standard
  0
DICTIONARYVAR
  5
242
102
{ACAD_REACTORS
330
208
102
}
330
208
100
DictionaryVariables
280
     0
  1
0
  0
DICTIONARY
  5
23A
330
5A
100
AcDbDictionary
280
     1
281
     1
  3
ACAD_ROUNDTRIP_2008_TABLESTYLE_CELLSTYLEMAP
360
23B
  0
DICTIONARY
  5
212
330
2F
100
AcDbDictionary
280
     1
281
     1
  3
ACAD_XREC_ROUNDTRIP
360
213
  0
DICTIONARY
  5
218
330
32
100
AcDbDictionary
280
     1
281
     1
  3
ACAD_XREC_ROUNDTRIP
360
219
  0
DICTIONARY
  5
220
330
36
100
AcDbDictionary
280
     1
281
     1
  3
ACAD_XREC_ROUNDTRIP
360
221
  0
DICTIONARY
  5
228
330
3A
100
AcDbDictionary
280
     1
281
     1
  3
ACAD_XREC_ROUNDTRIP
360
229
  0
DICTIONARY
  5
21C
330
34
100
AcDbDictionary
280
     1
281
     1
  3
ACAD_XREC_ROUNDTRIP
360
21D
  0
DICTIONARY
  5
21E
330
35
100
AcDbDictionary
280
     1
281
     1
  3
ACAD_XREC_ROUNDTRIP
360
21F
  0
DICTIONARY
  5
22E
330
3D
100
AcDbDictionary
280
     1
281
     1
  3
ACAD_XREC_ROUNDTRIP
360
22F
  0
DICTIONARY
  5
226
330
39
100
AcDbDictionary
280
     1
281
     1
  3
ACAD_XREC_ROUNDTRIP
360
227
  0
DICTIONARY
  5
20A
330
2B
100
AcDbDictionary
280
     1
281
     1
  3
ACAD_XREC_ROUNDTRIP
360
20B
  0
DICTIONARY
  5
20C
330
2C
100
AcDbDictionary
280
     1
281
     1
  3
ACAD_XREC_ROUNDTRIP
360
20D
  0
DICTIONARY
  5
20E
330
2D
100
AcDbDictionary
280
     1
281
     1
  3
ACAD_XREC_ROUNDTRIP
360
20F
  0
DICTIONARY
  5
210
330
2E
100
AcDbDictionary
280
     1
281
     1
  3
ACAD_XREC_ROUNDTRIP
360
211
  0
DICTIONARY
  5
216
330
31
100
AcDbDictionary
280
     1
281
     1
  3
ACAD_XREC_ROUNDTRIP
360
217
  0
DICTIONARY
  5
22A
330
3B
100
AcDbDictionary
280
     1
281
     1
  3
ACAD_XREC_ROUNDTRIP
360
22B
  0
DICTIONARY
  5
224
330
38
100
AcDbDictionary
280
     1
281
     1
  3
ACAD_XREC_ROUNDTRIP
360
225
  0
DICTIONARY
  5
22C
330
3C
100
AcDbDictionary
280
     1
281
     1
  3
ACAD_XREC_ROUNDTRIP
360
22D
  0
DICTIONARY
  5
21A
330
33
100
AcDbDictionary
280
     1
281
     1
  3
ACAD_XREC_ROUNDTRIP
360
21B
  0
DICTIONARY
  5
238
330
42
100
AcDbDictionary
280
     1
281
     1
  3
ACAD_XREC_ROUNDTRIP
360
239
  0
DICTIONARY
  5
236
330
41
100
AcDbDictionary
280
     1
281
     1
  3
ACAD_XREC_ROUNDTRIP
360
237
  0
DICTIONARY
  5
230
330
3E
100
AcDbDictionary
280
     1
281
     1
  3
ACAD_XREC_ROUNDTRIP
360
231
  0
DICTIONARY
  5
232
330
3F
100
AcDbDictionary
280
     1
281
     1
  3
ACAD_XREC_ROUNDTRIP
360
233
  0
DICTIONARY
  5
222
330
37
100
AcDbDictionary
280
     1
281
     1
  3
ACAD_XREC_ROUNDTRIP
360
223
  0
DICTIONARY
  5
214
330
30
100
AcDbDictionary
280
     1
281
     1
  3
ACAD_XREC_ROUNDTRIP
360
215
  0
DICTIONARY
  5
234
330
40
100
AcDbDictionary
280
     1
281
     1
  3
ACAD_XREC_ROUNDTRIP
360
235
  0
CELLSTYLEMAP
  5
23B
102
{ACAD_REACTORS
330
23A
102
}
330
23A
100
AcDbCellStyleMap
 90
        3
300
CELLSTYLE
  1
TABLEFORMAT_BEGIN
 90
        5
170
     1
 91
        0
 92
    32768
 62
   257
 93
        1
300
CONTENTFORMAT
  1
CONTENTFORMAT_BEGIN
 90
        0
 91
        0
 92
        4
 93
        0
300

 40
0.0
140
1.0
 94
        5
 62
     0
340
11
144
6.0
309
CONTENTFORMAT_END
171
     1
301
MARGIN
  1
CELLMARGIN_BEGIN
 40
1.5
 40
1.5
 40
1.5
 40
1.5
 40
1.5
 40
1.5
309
CELLMARGIN_END
 94
        6
 95
        1
302
GRIDFORMAT
  1
GRIDFORMAT_BEGIN
 90
        0
 91
        1
 62
     0
 92
       -2
340
14
 93
        0
 40
0.045
309
GRIDFORMAT_END
 95
        2
302
GRIDFORMAT
  1
GRIDFORMAT_BEGIN
 90
        0
 91
        1
 62
     0
 92
       -2
340
14
 93
        0
 40
0.045
309
GRIDFORMAT_END
 95
        4
302
GRIDFORMAT
  1
GRIDFORMAT_BEGIN
 90
        0
 91
        1
 62
     0
 92
       -2
340
14
 93
        0
 40
0.045
309
GRIDFORMAT_END
 95
        8
302
GRIDFORMAT
  1
GRIDFORMAT_BEGIN
 90
        0
 91
        1
 62
     0
 92
       -2
340
14
 93
        0
 40
0.045
309
GRIDFORMAT_END
 95
       16
302
GRIDFORMAT
  1
GRIDFORMAT_BEGIN
 90
        0
 91
        1
 62
     0
 92
       -2
340
14
 93
        0
 40
0.045
309
GRIDFORMAT_END
 95
       32
302
GRIDFORMAT
  1
GRIDFORMAT_BEGIN
 90
        0
 91
        1
 62
     0
 92
       -2
340
14
 93
        0
 40
0.045
309
GRIDFORMAT_END
309
TABLEFORMAT_END
  1
CELLSTYLE_BEGIN
 90
        1
 91
        1
300
_TITLE
309
CELLSTYLE_END
300
CELLSTYLE
  1
TABLEFORMAT_BEGIN
 90
        5
170
     1
 91
        0
 92
        0
 62
   257
 93
        1
300
CONTENTFORMAT
  1
CONTENTFORMAT_BEGIN
 90
        0
 91
        0
 92
        4
 93
        0
300

 40
0.0
140
1.0
 94
        5
 62
     0
340
11
144
4.5
309
CONTENTFORMAT_END
171
     1
301
MARGIN
  1
CELLMARGIN_BEGIN
 40
1.5
 40
1.5
 40
1.5
 40
1.5
 40
1.5
 40
1.5
309
CELLMARGIN_END
 94
        6
 95
        1
302
GRIDFORMAT
  1
GRIDFORMAT_BEGIN
 90
        0
 91
        1
 62
     0
 92
       -2
340
14
 93
        0
 40
0.045
309
GRIDFORMAT_END
 95
        2
302
GRIDFORMAT
  1
GRIDFORMAT_BEGIN
 90
        0
 91
        1
 62
     0
 92
       -2
340
14
 93
        0
 40
0.045
309
GRIDFORMAT_END
 95
        4
302
GRIDFORMAT
  1
GRIDFORMAT_BEGIN
 90
        0
 91
        1
 62
     0
 92
       -2
340
14
 93
        0
 40
0.045
309
GRIDFORMAT_END
 95
        8
302
GRIDFORMAT
  1
GRIDFORMAT_BEGIN
 90
        0
 91
        1
 62
     0
 92
       -2
340
14
 93
        0
 40
0.045
309
GRIDFORMAT_END
 95
       16
302
GRIDFORMAT
  1
GRIDFORMAT_BEGIN
 90
        0
 91
        1
 62
     0
 92
       -2
340
14
 93
        0
 40
0.045
309
GRIDFORMAT_END
 95
       32
302
GRIDFORMAT
  1
GRIDFORMAT_BEGIN
 90
        0
 91
        1
 62
     0
 92
       -2
340
14
 93
        0
 40
0.045
309
GRIDFORMAT_END
309
TABLEFORMAT_END
  1
CELLSTYLE_BEGIN
 90
        2
 91
        1
300
_HEADER
309
CELLSTYLE_END
300
CELLSTYLE
  1
TABLEFORMAT_BEGIN
 90
        5
170
     1
 91
        0
 92
        0
 62
   257
 93
        1
300
CONTENTFORMAT
  1
CONTENTFORMAT_BEGIN
 90
        0
 91
        0
 92
        4
 93
        0
300

 40
0.0
140
1.0
 94
        2
 62
     0
340
11
144
4.5
309
CONTENTFORMAT_END
171
     1
301
MARGIN
  1
CELLMARGIN_BEGIN
 40
1.5
 40
1.5
 40
1.5
 40
1.5
 40
1.5
 40
1.5
309
CELLMARGIN_END
 94
        6
 95
        1
302
GRIDFORMAT
  1
GRIDFORMAT_BEGIN
 90
        0
 91
        1
 62
     0
 92
       -2
340
14
 93
        0
 40
0.045
309
GRIDFORMAT_END
 95
        2
302
GRIDFORMAT
  1
GRIDFORMAT_BEGIN
 90
        0
 91
        1
 62
     0
 92
       -2
340
14
 93
        0
 40
0.045
309
GRIDFORMAT_END
 95
        4
302
GRIDFORMAT
  1
GRIDFORMAT_BEGIN
 90
        0
 91
        1
 62
     0
 92
       -2
340
14
 93
        0
 40
0.045
309
GRIDFORMAT_END
 95
        8
302
GRIDFORMAT
  1
GRIDFORMAT_BEGIN
 90
        0
 91
        1
 62
     0
 92
       -2
340
14
 93
        0
 40
0.045
309
GRIDFORMAT_END
 95
       16
302
GRIDFORMAT
  1
GRIDFORMAT_BEGIN
 90
        0
 91
        1
 62
     0
 92
       -2
340
14
 93
        0
 40
0.045
309
GRIDFORMAT_END
 95
       32
302
GRIDFORMAT
  1
GRIDFORMAT_BEGIN
 90
        0
 91
        1
 62
     0
 92
       -2
340
14
 93
        0
 40
0.045
309
GRIDFORMAT_END
309
TABLEFORMAT_END
  1
CELLSTYLE_BEGIN
 90
        3
 91
        2
300
_DATA
309
CELLSTYLE_END
  0
XRECORD
  5
213
102
{ACAD_REACTORS
330
212
102
}
330
212
100
AcDbXrecord
280
     1
102
RTVSPost2010Prop28
280
     1
102
RTVSPost2010PropOp28
 70
     1
102
RTVSPost2010Prop29
280
     1
102
RTVSPost2010PropOp29
 70
     1
102
RTVSPost2010Prop30
280
     0
102
RTVSPost2010PropOp30
 70
     1
102
RTVSPost2010Prop31
280
     0
102
RTVSPost2010PropOp31
 70
     1
102
RTVSPost2010Prop32
280
     0
102
RTVSPost2010PropOp32
 70
     1
102
RTVSPost2010Prop33
280
     0
102
RTVSPost2010PropOp33
 70
     1
102
RTVSPost2010Prop34
280
     0
102
RTVSPost2010PropOp34
 70
     1
102
RTVSPost2010Prop35
280
     0
102
RTVSPost2010PropOp35
 70
     1
102
RTVSPost2010Prop36
280
     0
102
RTVSPost2010PropOp36
 70
     1
102
RTVSPost2010Prop37
 90
       50
102
RTVSPost2010PropOp37
 70
     1
102
RTVSPost2010Prop38
140
0.0
102
RTVSPost2010PropOp38
 70
     1
102
RTVSPost2010Prop39
140
1.0
102
RTVSPost2010PropOp39
 70
     1
102
RTVSPost2010Prop40
 90
        0
102
RTVSPost2010PropOp40
 70
     1
102
RTVSPost2010Prop41ColorIndex
 90
       18
102
RTVSPost2010Prop41ColorRGB
 90
        0
102
RTVSPost2010PropOp41
 70
     1
102
RTVSPost2010Prop42
 90
       50
102
RTVSPost2010PropOp42
 70
     1
102
RTVSPost2010Prop43
 90
        3
102
RTVSPost2010PropOp43
 70
     1
102
RTVSPost2010Prop44ColorIndex
 90
        5
102
RTVSPost2010Prop44ColorRGB
 90
      255
102
RTVSPost2010PropOp44
 70
     1
102
RTVSPost2010Prop45
280
     0
102
RTVSPost2010PropOp45
 70
     1
102
RTVSPost2010Prop46
 90
       50
102
RTVSPost2010PropOp46
 70
     1
102
RTVSPost2010Prop47
 90
       50
102
RTVSPost2010PropOp47
 70
     1
102
RTVSPost2010Prop48
 90
       50
102
RTVSPost2010PropOp48
 70
     1
102
RTVSPost2010Prop49
280
     0
102
RTVSPost2010PropOp49
 70
     1
102
RTVSPost2010Prop50
 90
       50
102
RTVSPost2010PropOp50
 70
     1
102
RTVSPost2010Prop51ColorIndex
 90
      256
102
RTVSPost2010Prop51ColorRGB
 90
-16777216
102
RTVSPost2010PropOp51
 70
     0
102
RTVSPost2010Prop52
140
1.0
102
RTVSPost2010PropOp52
 70
     0
102
RTVSPost2010Prop53
 90
        2
102
RTVSPost2010PropOp53
 70
     1
102
RTVSPost2010Prop54
  1
strokes_ogs.tif
102
RTVSPost2010PropOp54
 70
     1
102
RTVSPost2010Prop55
280
     0
102
RTVSPost2010PropOp55
 70
     1
102
RTVSPost2010Prop56
140
1.0
102
RTVSPost2010PropOp56
 70
     1
102
RTVSPost2010Prop57
140
1.0
102
RTVSPost2010PropOp57
 70
     1
  0
XRECORD
  5
219
102
{ACAD_REACTORS
330
218
102
}
330
218
100
AcDbXrecord
280
     1
102
RTVSPost2010Prop28
280
     0
102
RTVSPost2010PropOp28
 70
     1
102
RTVSPost2010Prop29
280
     1
102
RTVSPost2010PropOp29
 70
     1
102
RTVSPost2010Prop30
280
     1
102
RTVSPost2010PropOp30
 70
     1
102
RTVSPost2010Prop31
280
     0
102
RTVSPost2010PropOp31
 70
     1
102
RTVSPost2010Prop32
280
     0
102
RTVSPost2010PropOp32
 70
     1
102
RTVSPost2010Prop33
280
     0
102
RTVSPost2010PropOp33
 70
     1
102
RTVSPost2010Prop34
280
     0
102
RTVSPost2010PropOp34
 70
     1
102
RTVSPost2010Prop35
280
     0
102
RTVSPost2010PropOp35
 70
     1
102
RTVSPost2010Prop36
280
     0
102
RTVSPost2010PropOp36
 70
     1
102
RTVSPost2010Prop37
 90
       50
102
RTVSPost2010PropOp37
 70
     1
102
RTVSPost2010Prop38
140
0.0
102
RTVSPost2010PropOp38
 70
     1
102
RTVSPost2010Prop39
140
1.0
102
RTVSPost2010PropOp39
 70
     1
102
RTVSPost2010Prop40
 90
        0
102
RTVSPost2010PropOp40
 70
     1
102
RTVSPost2010Prop41ColorIndex
 90
       18
102
RTVSPost2010Prop41ColorRGB
 90
        0
102
RTVSPost2010PropOp41
 70
     1
102
RTVSPost2010Prop42
 90
       50
102
RTVSPost2010PropOp42
 70
     1
102
RTVSPost2010Prop43
 90
        3
102
RTVSPost2010PropOp43
 70
     1
102
RTVSPost2010Prop44ColorIndex
 90
        5
102
RTVSPost2010Prop44ColorRGB
 90
      255
102
RTVSPost2010PropOp44
 70
     1
102
RTVSPost2010Prop45
280
     0
102
RTVSPost2010PropOp45
 70
     1
102
RTVSPost2010Prop46
 90
       50
102
RTVSPost2010PropOp46
 70
     1
102
RTVSPost2010Prop47
 90
       50
102
RTVSPost2010PropOp47
 70
     1
102
RTVSPost2010Prop48
 90
       50
102
RTVSPost2010PropOp48
 70
     1
102
RTVSPost2010Prop49
280
     0
102
RTVSPost2010PropOp49
 70
     1
102
RTVSPost2010Prop50
 90
       50
102
RTVSPost2010PropOp50
 70
     1
102
RTVSPost2010Prop51ColorIndex
 90
      256
102
RTVSPost2010Prop51ColorRGB
 90
-16777216
102
RTVSPost2010PropOp51
 70
     0
102
RTVSPost2010Prop52
140
1.0
102
RTVSPost2010PropOp52
 70
     0
102
RTVSPost2010Prop53
 90
        2
102
RTVSPost2010PropOp53
 70
     1
102
RTVSPost2010Prop54
  1
strokes_ogs.tif
102
RTVSPost2010PropOp54
 70
     1
102
RTVSPost2010Prop55
280
     0
102
RTVSPost2010PropOp55
 70
     1
102
RTVSPost2010Prop56
140
1.0
102
RTVSPost2010PropOp56
 70
     1
102
RTVSPost2010Prop57
140
1.0
102
RTVSPost2010PropOp57
 70
     1
  0
XRECORD
  5
221
102
{ACAD_REACTORS
330
220
102
}
330
220
100
AcDbXrecord
280
     1
102
RTVSPost2010Prop28
280
     0
102
RTVSPost2010PropOp28
 70
     1
102
RTVSPost2010Prop29
280
     1
102
RTVSPost2010PropOp29
 70
     1
102
RTVSPost2010Prop30
280
     1
102
RTVSPost2010PropOp30
 70
     1
102
RTVSPost2010Prop31
280
     0
102
RTVSPost2010PropOp31
 70
     1
102
RTVSPost2010Prop32
280
     0
102
RTVSPost2010PropOp32
 70
     1
102
RTVSPost2010Prop33
280
     0
102
RTVSPost2010PropOp33
 70
     1
102
RTVSPost2010Prop34
280
     0
102
RTVSPost2010PropOp34
 70
     1
102
RTVSPost2010Prop35
280
     0
102
RTVSPost2010PropOp35
 70
     1
102
RTVSPost2010Prop36
280
     0
102
RTVSPost2010PropOp36
 70
     1
102
RTVSPost2010Prop37
 90
       50
102
RTVSPost2010PropOp37
 70
     1
102
RTVSPost2010Prop38
140
0.0
102
RTVSPost2010PropOp38
 70
     1
102
RTVSPost2010Prop39
140
1.0
102
RTVSPost2010PropOp39
 70
     1
102
RTVSPost2010Prop40
 90
        0
102
RTVSPost2010PropOp40
 70
     1
102
RTVSPost2010Prop41ColorIndex
 90
       18
102
RTVSPost2010Prop41ColorRGB
 90
        0
102
RTVSPost2010PropOp41
 70
     1
102
RTVSPost2010Prop42
 90
       50
102
RTVSPost2010PropOp42
 70
     1
102
RTVSPost2010Prop43
 90
        3
102
RTVSPost2010PropOp43
 70
     1
102
RTVSPost2010Prop44ColorIndex
 90
        5
102
RTVSPost2010Prop44ColorRGB
 90
      255
102
RTVSPost2010PropOp44
 70
     1
102
RTVSPost2010Prop45
280
     0
102
RTVSPost2010PropOp45
 70
     1
102
RTVSPost2010Prop46
 90
       50
102
RTVSPost2010PropOp46
 70
     1
102
RTVSPost2010Prop47
 90
       50
102
RTVSPost2010PropOp47
 70
     1
102
RTVSPost2010Prop48
 90
       50
102
RTVSPost2010PropOp48
 70
     1
102
RTVSPost2010Prop49
280
     0
102
RTVSPost2010PropOp49
 70
     1
102
RTVSPost2010Prop50
 90
       50
102
RTVSPost2010PropOp50
 70
     1
102
RTVSPost2010Prop51ColorIndex
 90
      256
102
RTVSPost2010Prop51ColorRGB
 90
-16777216
102
RTVSPost2010PropOp51
 70
     0
102
RTVSPost2010Prop52
140
1.0
102
RTVSPost2010PropOp52
 70
     0
102
RTVSPost2010Prop53
 90
        2
102
RTVSPost2010PropOp53
 70
     1
102
RTVSPost2010Prop54
  1
strokes_ogs.tif
102
RTVSPost2010PropOp54
 70
     1
102
RTVSPost2010Prop55
280
     0
102
RTVSPost2010PropOp55
 70
     1
102
RTVSPost2010Prop56
140
1.0
102
RTVSPost2010PropOp56
 70
     1
102
RTVSPost2010Prop57
140
1.0
102
RTVSPost2010PropOp57
 70
     1
  0
XRECORD
  5
229
102
{ACAD_REACTORS
330
228
102
}
330
228
100
AcDbXrecord
280
     1
102
RTVSPost2010Prop28
280
     0
102
RTVSPost2010PropOp28
 70
     1
102
RTVSPost2010Prop29
280
     1
102
RTVSPost2010PropOp29
 70
     1
102
RTVSPost2010Prop30
280
     1
102
RTVSPost2010PropOp30
 70
     1
102
RTVSPost2010Prop31
280
     0
102
RTVSPost2010PropOp31
 70
     1
102
RTVSPost2010Prop32
280
     0
102
RTVSPost2010PropOp32
 70
     1
102
RTVSPost2010Prop33
280
     0
102
RTVSPost2010PropOp33
 70
     1
102
RTVSPost2010Prop34
280
     0
102
RTVSPost2010PropOp34
 70
     1
102
RTVSPost2010Prop35
280
     0
102
RTVSPost2010PropOp35
 70
     1
102
RTVSPost2010Prop36
280
     0
102
RTVSPost2010PropOp36
 70
     1
102
RTVSPost2010Prop37
 90
       50
102
RTVSPost2010PropOp37
 70
     1
102
RTVSPost2010Prop38
140
0.0
102
RTVSPost2010PropOp38
 70
     1
102
RTVSPost2010Prop39
140
1.0
102
RTVSPost2010PropOp39
 70
     1
102
RTVSPost2010Prop40
 90
        0
102
RTVSPost2010PropOp40
 70
     1
102
RTVSPost2010Prop41ColorIndex
 90
       18
102
RTVSPost2010Prop41ColorRGB
 90
        0
102
RTVSPost2010PropOp41
 70
     1
102
RTVSPost2010Prop42
 90
       50
102
RTVSPost2010PropOp42
 70
     1
102
RTVSPost2010Prop43
 90
        3
102
RTVSPost2010PropOp43
 70
     1
102
RTVSPost2010Prop44ColorIndex
 90
        5
102
RTVSPost2010Prop44ColorRGB
 90
      255
102
RTVSPost2010PropOp44
 70
     1
102
RTVSPost2010Prop45
280
     0
102
RTVSPost2010PropOp45
 70
     1
102
RTVSPost2010Prop46
 90
       50
102
RTVSPost2010PropOp46
 70
     1
102
RTVSPost2010Prop47
 90
       50
102
RTVSPost2010PropOp47
 70
     1
102
RTVSPost2010Prop48
 90
       50
102
RTVSPost2010PropOp48
 70
     1
102
RTVSPost2010Prop49
280
     0
102
RTVSPost2010PropOp49
 70
     1
102
RTVSPost2010Prop50
 90
       50
102
RTVSPost2010PropOp50
 70
     1
102
RTVSPost2010Prop51ColorIndex
 90
      256
102
RTVSPost2010Prop51ColorRGB
 90
-16777216
102
RTVSPost2010PropOp51
 70
     0
102
RTVSPost2010Prop52
140
1.0
102
RTVSPost2010PropOp52
 70
     0
102
RTVSPost2010Prop53
 90
        2
102
RTVSPost2010PropOp53
 70
     1
102
RTVSPost2010Prop54
  1
strokes_ogs.tif
102
RTVSPost2010PropOp54
 70
     1
102
RTVSPost2010Prop55
280
     0
102
RTVSPost2010PropOp55
 70
     1
102
RTVSPost2010Prop56
140
1.0
102
RTVSPost2010PropOp56
 70
     1
102
RTVSPost2010Prop57
140
1.0
102
RTVSPost2010PropOp57
 70
     1
  0
XRECORD
  5
21D
102
{ACAD_REACTORS
330
21C
102
}
330
21C
100
AcDbXrecord
280
     1
102
RTVSPost2010Prop28
280
     0
102
RTVSPost2010PropOp28
 70
     1
102
RTVSPost2010Prop29
280
     1
102
RTVSPost2010PropOp29
 70
     1
102
RTVSPost2010Prop30
280
     1
102
RTVSPost2010PropOp30
 70
     1
102
RTVSPost2010Prop31
280
     0
102
RTVSPost2010PropOp31
 70
     1
102
RTVSPost2010Prop32
280
     0
102
RTVSPost2010PropOp32
 70
     1
102
RTVSPost2010Prop33
280
     0
102
RTVSPost2010PropOp33
 70
     1
102
RTVSPost2010Prop34
280
     0
102
RTVSPost2010PropOp34
 70
     1
102
RTVSPost2010Prop35
280
     0
102
RTVSPost2010PropOp35
 70
     1
102
RTVSPost2010Prop36
280
     0
102
RTVSPost2010PropOp36
 70
     1
102
RTVSPost2010Prop37
 90
       50
102
RTVSPost2010PropOp37
 70
     1
102
RTVSPost2010Prop38
140
0.0
102
RTVSPost2010PropOp38
 70
     1
102
RTVSPost2010Prop39
140
1.0
102
RTVSPost2010PropOp39
 70
     1
102
RTVSPost2010Prop40
 90
        0
102
RTVSPost2010PropOp40
 70
     1
102
RTVSPost2010Prop41ColorIndex
 90
       18
102
RTVSPost2010Prop41ColorRGB
 90
        0
102
RTVSPost2010PropOp41
 70
     1
102
RTVSPost2010Prop42
 90
       50
102
RTVSPost2010PropOp42
 70
     1
102
RTVSPost2010Prop43
 90
        3
102
RTVSPost2010PropOp43
 70
     1
102
RTVSPost2010Prop44ColorIndex
 90
        5
102
RTVSPost2010Prop44ColorRGB
 90
      255
102
RTVSPost2010PropOp44
 70
     1
102
RTVSPost2010Prop45
280
     0
102
RTVSPost2010PropOp45
 70
     1
102
RTVSPost2010Prop46
 90
       50
102
RTVSPost2010PropOp46
 70
     1
102
RTVSPost2010Prop47
 90
       50
102
RTVSPost2010PropOp47
 70
     1
102
RTVSPost2010Prop48
 90
       50
102
RTVSPost2010PropOp48
 70
     1
102
RTVSPost2010Prop49
280
     0
102
RTVSPost2010PropOp49
 70
     1
102
RTVSPost2010Prop50
 90
       50
102
RTVSPost2010PropOp50
 70
     1
102
RTVSPost2010Prop51ColorIndex
 90
      256
102
RTVSPost2010Prop51ColorRGB
 90
-16777216
102
RTVSPost2010PropOp51
 70
     0
102
RTVSPost2010Prop52
140
1.0
102
RTVSPost2010PropOp52
 70
     0
102
RTVSPost2010Prop53
 90
        2
102
RTVSPost2010PropOp53
 70
     1
102
RTVSPost2010Prop54
  1
strokes_ogs.tif
102
RTVSPost2010PropOp54
 70
     1
102
RTVSPost2010Prop55
280
     0
102
RTVSPost2010PropOp55
 70
     1
102
RTVSPost2010Prop56
140
1.0
102
RTVSPost2010PropOp56
 70
     1
102
RTVSPost2010Prop57
140
1.0
102
RTVSPost2010PropOp57
 70
     1
  0
XRECORD
  5
21F
102
{ACAD_REACTORS
330
21E
102
}
330
21E
100
AcDbXrecord
280
     1
102
RTVSPost2010Prop28
280
     0
102
RTVSPost2010PropOp28
 70
     1
102
RTVSPost2010Prop29
280
     1
102
RTVSPost2010PropOp29
 70
     1
102
RTVSPost2010Prop30
280
     1
102
RTVSPost2010PropOp30
 70
     1
102
RTVSPost2010Prop31
280
     0
102
RTVSPost2010PropOp31
 70
     1
102
RTVSPost2010Prop32
280
     0
102
RTVSPost2010PropOp32
 70
     1
102
RTVSPost2010Prop33
280
     0
102
RTVSPost2010PropOp33
 70
     1
102
RTVSPost2010Prop34
280
     0
102
RTVSPost2010PropOp34
 70
     1
102
RTVSPost2010Prop35
280
     0
102
RTVSPost2010PropOp35
 70
     1
102
RTVSPost2010Prop36
280
     0
102
RTVSPost2010PropOp36
 70
     1
102
RTVSPost2010Prop37
 90
       50
102
RTVSPost2010PropOp37
 70
     1
102
RTVSPost2010Prop38
140
0.0
102
RTVSPost2010PropOp38
 70
     1
102
RTVSPost2010Prop39
140
1.0
102
RTVSPost2010PropOp39
 70
     1
102
RTVSPost2010Prop40
 90
        0
102
RTVSPost2010PropOp40
 70
     1
102
RTVSPost2010Prop41ColorIndex
 90
       18
102
RTVSPost2010Prop41ColorRGB
 90
        0
102
RTVSPost2010PropOp41
 70
     1
102
RTVSPost2010Prop42
 90
       50
102
RTVSPost2010PropOp42
 70
     1
102
RTVSPost2010Prop43
 90
        3
102
RTVSPost2010PropOp43
 70
     1
102
RTVSPost2010Prop44ColorIndex
 90
        5
102
RTVSPost2010Prop44ColorRGB
 90
      255
102
RTVSPost2010PropOp44
 70
     1
102
RTVSPost2010Prop45
280
     0
102
RTVSPost2010PropOp45
 70
     1
102
RTVSPost2010Prop46
 90
       50
102
RTVSPost2010PropOp46
 70
     1
102
RTVSPost2010Prop47
 90
       50
102
RTVSPost2010PropOp47
 70
     1
102
RTVSPost2010Prop48
 90
       50
102
RTVSPost2010PropOp48
 70
     1
102
RTVSPost2010Prop49
280
     0
102
RTVSPost2010PropOp49
 70
     1
102
RTVSPost2010Prop50
 90
       50
102
RTVSPost2010PropOp50
 70
     1
102
RTVSPost2010Prop51ColorIndex
 90
      256
102
RTVSPost2010Prop51ColorRGB
 90
-16777216
102
RTVSPost2010PropOp51
 70
     0
102
RTVSPost2010Prop52
140
1.0
102
RTVSPost2010PropOp52
 70
     0
102
RTVSPost2010Prop53
 90
        2
102
RTVSPost2010PropOp53
 70
     1
102
RTVSPost2010Prop54
  1
strokes_ogs.tif
102
RTVSPost2010PropOp54
 70
     1
102
RTVSPost2010Prop55
280
     0
102
RTVSPost2010PropOp55
 70
     1
102
RTVSPost2010Prop56
140
1.0
102
RTVSPost2010PropOp56
 70
     1
102
RTVSPost2010Prop57
140
1.0
102
RTVSPost2010PropOp57
 70
     1
  0
XRECORD
  5
22F
102
{ACAD_REACTORS
330
22E
102
}
330
22E
100
AcDbXrecord
280
     1
102
RTVSPost2010Prop28
280
     0
102
RTVSPost2010PropOp28
 70
     0
102
RTVSPost2010Prop29
280
     1
102
RTVSPost2010PropOp29
 70
     0
102
RTVSPost2010Prop30
280
     1
102
RTVSPost2010PropOp30
 70
     0
102
RTVSPost2010Prop31
280
     0
102
RTVSPost2010PropOp31
 70
     0
102
RTVSPost2010Prop32
280
     0
102
RTVSPost2010PropOp32
 70
     0
102
RTVSPost2010Prop33
280
     0
102
RTVSPost2010PropOp33
 70
     0
102
RTVSPost2010Prop34
280
     0
102
RTVSPost2010PropOp34
 70
     0
102
RTVSPost2010Prop35
280
     0
102
RTVSPost2010PropOp35
 70
     0
102
RTVSPost2010Prop36
280
     0
102
RTVSPost2010PropOp36
 70
     0
102
RTVSPost2010Prop37
 90
       50
102
RTVSPost2010PropOp37
 70
     0
102
RTVSPost2010Prop38
140
0.0
102
RTVSPost2010PropOp38
 70
     0
102
RTVSPost2010Prop39
140
1.0
102
RTVSPost2010PropOp39
 70
     0
102
RTVSPost2010Prop40
 90
        0
102
RTVSPost2010PropOp40
 70
     0
102
RTVSPost2010Prop41ColorIndex
 90
       18
102
RTVSPost2010Prop41ColorRGB
 90
        0
102
RTVSPost2010PropOp41
 70
     0
102
RTVSPost2010Prop42
 90
       50
102
RTVSPost2010PropOp42
 70
     0
102
RTVSPost2010Prop43
 90
        3
102
RTVSPost2010PropOp43
 70
     0
102
RTVSPost2010Prop44ColorIndex
 90
        5
102
RTVSPost2010Prop44ColorRGB
 90
      255
102
RTVSPost2010PropOp44
 70
     0
102
RTVSPost2010Prop45
280
     0
102
RTVSPost2010PropOp45
 70
     0
102
RTVSPost2010Prop46
 90
       50
102
RTVSPost2010PropOp46
 70
     0
102
RTVSPost2010Prop47
 90
       50
102
RTVSPost2010PropOp47
 70
     0
102
RTVSPost2010Prop48
 90
       50
102
RTVSPost2010PropOp48
 70
     0
102
RTVSPost2010Prop49
280
     0
102
RTVSPost2010PropOp49
 70
     0
102
RTVSPost2010Prop50
 90
       50
102
RTVSPost2010PropOp50
 70
     0
102
RTVSPost2010Prop51ColorIndex
 90
      256
102
RTVSPost2010Prop51ColorRGB
 90
-16777216
102
RTVSPost2010PropOp51
 70
     0
102
RTVSPost2010Prop52
140
1.0
102
RTVSPost2010PropOp52
 70
     0
102
RTVSPost2010Prop53
 90
        2
102
RTVSPost2010PropOp53
 70
     0
102
RTVSPost2010Prop54
  1
strokes_ogs.tif
102
RTVSPost2010PropOp54
 70
     0
102
RTVSPost2010Prop55
280
     0
102
RTVSPost2010PropOp55
 70
     0
102
RTVSPost2010Prop56
140
1.0
102
RTVSPost2010PropOp56
 70
     0
102
RTVSPost2010Prop57
140
1.0
102
RTVSPost2010PropOp57
 70
     0
  0
XRECORD
  5
227
102
{ACAD_REACTORS
330
226
102
}
330
226
100
AcDbXrecord
280
     1
102
RTVSPost2010Prop28
280
     0
102
RTVSPost2010PropOp28
 70
     1
102
RTVSPost2010Prop29
280
     1
102
RTVSPost2010PropOp29
 70
     1
102
RTVSPost2010Prop30
280
     1
102
RTVSPost2010PropOp30
 70
     1
102
RTVSPost2010Prop31
280
     0
102
RTVSPost2010PropOp31
 70
     1
102
RTVSPost2010Prop32
280
     0
102
RTVSPost2010PropOp32
 70
     1
102
RTVSPost2010Prop33
280
     0
102
RTVSPost2010PropOp33
 70
     1
102
RTVSPost2010Prop34
280
     0
102
RTVSPost2010PropOp34
 70
     1
102
RTVSPost2010Prop35
280
     0
102
RTVSPost2010PropOp35
 70
     1
102
RTVSPost2010Prop36
280
     0
102
RTVSPost2010PropOp36
 70
     1
102
RTVSPost2010Prop37
 90
       50
102
RTVSPost2010PropOp37
 70
     1
102
RTVSPost2010Prop38
140
0.0
102
RTVSPost2010PropOp38
 70
     1
102
RTVSPost2010Prop39
140
1.0
102
RTVSPost2010PropOp39
 70
     1
102
RTVSPost2010Prop40
 90
        0
102
RTVSPost2010PropOp40
 70
     1
102
RTVSPost2010Prop41ColorIndex
 90
       18
102
RTVSPost2010Prop41ColorRGB
 90
        0
102
RTVSPost2010PropOp41
 70
     1
102
RTVSPost2010Prop42
 90
       50
102
RTVSPost2010PropOp42
 70
     1
102
RTVSPost2010Prop43
 90
        3
102
RTVSPost2010PropOp43
 70
     1
102
RTVSPost2010Prop44ColorIndex
 90
        5
102
RTVSPost2010Prop44ColorRGB
 90
      255
102
RTVSPost2010PropOp44
 70
     1
102
RTVSPost2010Prop45
280
     0
102
RTVSPost2010PropOp45
 70
     1
102
RTVSPost2010Prop46
 90
       50
102
RTVSPost2010PropOp46
 70
     1
102
RTVSPost2010Prop47
 90
       50
102
RTVSPost2010PropOp47
 70
     1
102
RTVSPost2010Prop48
 90
       50
102
RTVSPost2010PropOp48
 70
     1
102
RTVSPost2010Prop49
280
     0
102
RTVSPost2010PropOp49
 70
     1
102
RTVSPost2010Prop50
 90
       50
102
RTVSPost2010PropOp50
 70
     1
102
RTVSPost2010Prop51ColorIndex
 90
      256
102
RTVSPost2010Prop51ColorRGB
 90
-16777216
102
RTVSPost2010PropOp51
 70
     0
102
RTVSPost2010Prop52
140
1.0
102
RTVSPost2010PropOp52
 70
     0
102
RTVSPost2010Prop53
 90
        2
102
RTVSPost2010PropOp53
 70
     1
102
RTVSPost2010Prop54
  1
strokes_ogs.tif
102
RTVSPost2010PropOp54
 70
     1
102
RTVSPost2010Prop55
280
     0
102
RTVSPost2010PropOp55
 70
     1
102
RTVSPost2010Prop56
140
1.0
102
RTVSPost2010PropOp56
 70
     1
102
RTVSPost2010Prop57
140
1.0
102
RTVSPost2010PropOp57
 70
     1
  0
XRECORD
  5
20B
102
{ACAD_REACTORS
330
20A
102
}
330
20A
100
AcDbXrecord
280
     1
102
RTVSPost2010Prop28
280
     0
102
RTVSPost2010PropOp28
 70
     1
102
RTVSPost2010Prop29
280
     1
102
RTVSPost2010PropOp29
 70
     1
102
RTVSPost2010Prop30
280
     1
102
RTVSPost2010PropOp30
 70
     1
102
RTVSPost2010Prop31
280
     0
102
RTVSPost2010PropOp31
 70
     1
102
RTVSPost2010Prop32
280
     0
102
RTVSPost2010PropOp32
 70
     1
102
RTVSPost2010Prop33
280
     0
102
RTVSPost2010PropOp33
 70
     1
102
RTVSPost2010Prop34
280
     0
102
RTVSPost2010PropOp34
 70
     1
102
RTVSPost2010Prop35
280
     0
102
RTVSPost2010PropOp35
 70
     1
102
RTVSPost2010Prop36
280
     0
102
RTVSPost2010PropOp36
 70
     1
102
RTVSPost2010Prop37
 90
       50
102
RTVSPost2010PropOp37
 70
     1
102
RTVSPost2010Prop38
140
0.0
102
RTVSPost2010PropOp38
 70
     1
102
RTVSPost2010Prop39
140
1.0
102
RTVSPost2010PropOp39
 70
     1
102
RTVSPost2010Prop40
 90
        0
102
RTVSPost2010PropOp40
 70
     1
102
RTVSPost2010Prop41ColorIndex
 90
       18
102
RTVSPost2010Prop41ColorRGB
 90
        0
102
RTVSPost2010PropOp41
 70
     1
102
RTVSPost2010Prop42
 90
       50
102
RTVSPost2010PropOp42
 70
     1
102
RTVSPost2010Prop43
 90
        3
102
RTVSPost2010PropOp43
 70
     1
102
RTVSPost2010Prop44ColorIndex
 90
        5
102
RTVSPost2010Prop44ColorRGB
 90
      255
102
RTVSPost2010PropOp44
 70
     1
102
RTVSPost2010Prop45
280
     0
102
RTVSPost2010PropOp45
 70
     1
102
RTVSPost2010Prop46
 90
       50
102
RTVSPost2010PropOp46
 70
     1
102
RTVSPost2010Prop47
 90
       50
102
RTVSPost2010PropOp47
 70
     1
102
RTVSPost2010Prop48
 90
       50
102
RTVSPost2010PropOp48
 70
     1
102
RTVSPost2010Prop49
280
     0
102
RTVSPost2010PropOp49
 70
     1
102
RTVSPost2010Prop50
 90
       50
102
RTVSPost2010PropOp50
 70
     1
102
RTVSPost2010Prop51ColorIndex
 90
      256
102
RTVSPost2010Prop51ColorRGB
 90
-16777216
102
RTVSPost2010PropOp51
 70
     0
102
RTVSPost2010Prop52
140
1.0
102
RTVSPost2010PropOp52
 70
     0
102
RTVSPost2010Prop53
 90
        2
102
RTVSPost2010PropOp53
 70
     1
102
RTVSPost2010Prop54
  1
strokes_ogs.tif
102
RTVSPost2010PropOp54
 70
     1
102
RTVSPost2010Prop55
280
     0
102
RTVSPost2010PropOp55
 70
     1
102
RTVSPost2010Prop56
140
1.0
102
RTVSPost2010PropOp56
 70
     1
102
RTVSPost2010Prop57
140
1.0
102
RTVSPost2010PropOp57
 70
     1
  0
XRECORD
  5
20D
102
{ACAD_REACTORS
330
20C
102
}
330
20C
100
AcDbXrecord
280
     1
102
RTVSPost2010Prop28
280
     0
102
RTVSPost2010PropOp28
 70
     1
102
RTVSPost2010Prop29
280
     1
102
RTVSPost2010PropOp29
 70
     1
102
RTVSPost2010Prop30
280
     1
102
RTVSPost2010PropOp30
 70
     1
102
RTVSPost2010Prop31
280
     0
102
RTVSPost2010PropOp31
 70
     1
102
RTVSPost2010Prop32
280
     0
102
RTVSPost2010PropOp32
 70
     1
102
RTVSPost2010Prop33
280
     0
102
RTVSPost2010PropOp33
 70
     1
102
RTVSPost2010Prop34
280
     0
102
RTVSPost2010PropOp34
 70
     1
102
RTVSPost2010Prop35
280
     0
102
RTVSPost2010PropOp35
 70
     1
102
RTVSPost2010Prop36
280
     0
102
RTVSPost2010PropOp36
 70
     1
102
RTVSPost2010Prop37
 90
       50
102
RTVSPost2010PropOp37
 70
     1
102
RTVSPost2010Prop38
140
0.0
102
RTVSPost2010PropOp38
 70
     1
102
RTVSPost2010Prop39
140
1.0
102
RTVSPost2010PropOp39
 70
     1
102
RTVSPost2010Prop40
 90
        0
102
RTVSPost2010PropOp40
 70
     1
102
RTVSPost2010Prop41ColorIndex
 90
       18
102
RTVSPost2010Prop41ColorRGB
 90
        0
102
RTVSPost2010PropOp41
 70
     1
102
RTVSPost2010Prop42
 90
       50
102
RTVSPost2010PropOp42
 70
     1
102
RTVSPost2010Prop43
 90
        3
102
RTVSPost2010PropOp43
 70
     1
102
RTVSPost2010Prop44ColorIndex
 90
        5
102
RTVSPost2010Prop44ColorRGB
 90
      255
102
RTVSPost2010PropOp44
 70
     1
102
RTVSPost2010Prop45
280
     0
102
RTVSPost2010PropOp45
 70
     1
102
RTVSPost2010Prop46
 90
       50
102
RTVSPost2010PropOp46
 70
     1
102
RTVSPost2010Prop47
 90
       50
102
RTVSPost2010PropOp47
 70
     1
102
RTVSPost2010Prop48
 90
       50
102
RTVSPost2010PropOp48
 70
     1
102
RTVSPost2010Prop49
280
     0
102
RTVSPost2010PropOp49
 70
     1
102
RTVSPost2010Prop50
 90
       50
102
RTVSPost2010PropOp50
 70
     1
102
RTVSPost2010Prop51ColorIndex
 90
      256
102
RTVSPost2010Prop51ColorRGB
 90
-16777216
102
RTVSPost2010PropOp51
 70
     0
102
RTVSPost2010Prop52
140
1.0
102
RTVSPost2010PropOp52
 70
     0
102
RTVSPost2010Prop53
 90
        2
102
RTVSPost2010PropOp53
 70
     1
102
RTVSPost2010Prop54
  1
strokes_ogs.tif
102
RTVSPost2010PropOp54
 70
     1
102
RTVSPost2010Prop55
280
     0
102
RTVSPost2010PropOp55
 70
     1
102
RTVSPost2010Prop56
140
1.0
102
RTVSPost2010PropOp56
 70
     1
102
RTVSPost2010Prop57
140
1.0
102
RTVSPost2010PropOp57
 70
     1
  0
XRECORD
  5
20F
102
{ACAD_REACTORS
330
20E
102
}
330
20E
100
AcDbXrecord
280
     1
102
RTVSPost2010Prop28
280
     0
102
RTVSPost2010PropOp28
 70
     1
102
RTVSPost2010Prop29
280
     1
102
RTVSPost2010PropOp29
 70
     1
102
RTVSPost2010Prop30
280
     1
102
RTVSPost2010PropOp30
 70
     1
102
RTVSPost2010Prop31
280
     0
102
RTVSPost2010PropOp31
 70
     1
102
RTVSPost2010Prop32
280
     0
102
RTVSPost2010PropOp32
 70
     1
102
RTVSPost2010Prop33
280
     0
102
RTVSPost2010PropOp33
 70
     1
102
RTVSPost2010Prop34
280
     0
102
RTVSPost2010PropOp34
 70
     1
102
RTVSPost2010Prop35
280
     0
102
RTVSPost2010PropOp35
 70
     1
102
RTVSPost2010Prop36
280
     0
102
RTVSPost2010PropOp36
 70
     1
102
RTVSPost2010Prop37
 90
       50
102
RTVSPost2010PropOp37
 70
     1
102
RTVSPost2010Prop38
140
0.0
102
RTVSPost2010PropOp38
 70
     1
102
RTVSPost2010Prop39
140
1.0
102
RTVSPost2010PropOp39
 70
     1
102
RTVSPost2010Prop40
 90
        0
102
RTVSPost2010PropOp40
 70
     1
102
RTVSPost2010Prop41ColorIndex
 90
       18
102
RTVSPost2010Prop41ColorRGB
 90
        0
102
RTVSPost2010PropOp41
 70
     1
102
RTVSPost2010Prop42
 90
       50
102
RTVSPost2010PropOp42
 70
     1
102
RTVSPost2010Prop43
 90
        3
102
RTVSPost2010PropOp43
 70
     1
102
RTVSPost2010Prop44ColorIndex
 90
        5
102
RTVSPost2010Prop44ColorRGB
 90
      255
102
RTVSPost2010PropOp44
 70
     1
102
RTVSPost2010Prop45
280
     0
102
RTVSPost2010PropOp45
 70
     1
102
RTVSPost2010Prop46
 90
       50
102
RTVSPost2010PropOp46
 70
     1
102
RTVSPost2010Prop47
 90
       50
102
RTVSPost2010PropOp47
 70
     1
102
RTVSPost2010Prop48
 90
       50
102
RTVSPost2010PropOp48
 70
     1
102
RTVSPost2010Prop49
280
     0
102
RTVSPost2010PropOp49
 70
     1
102
RTVSPost2010Prop50
 90
       50
102
RTVSPost2010PropOp50
 70
     1
102
RTVSPost2010Prop51ColorIndex
 90
      256
102
RTVSPost2010Prop51ColorRGB
 90
-16777216
102
RTVSPost2010PropOp51
 70
     0
102
RTVSPost2010Prop52
140
1.0
102
RTVSPost2010PropOp52
 70
     0
102
RTVSPost2010Prop53
 90
        2
102
RTVSPost2010PropOp53
 70
     1
102
RTVSPost2010Prop54
  1
strokes_ogs.tif
102
RTVSPost2010PropOp54
 70
     1
102
RTVSPost2010Prop55
280
     0
102
RTVSPost2010PropOp55
 70
     1
102
RTVSPost2010Prop56
140
1.0
102
RTVSPost2010PropOp56
 70
     1
102
RTVSPost2010Prop57
140
1.0
102
RTVSPost2010PropOp57
 70
     1
  0
XRECORD
  5
211
102
{ACAD_REACTORS
330
210
102
}
330
210
100
AcDbXrecord
280
     1
102
RTVSPost2010Prop28
280
     0
102
RTVSPost2010PropOp28
 70
     1
102
RTVSPost2010Prop29
280
     1
102
RTVSPost2010PropOp29
 70
     1
102
RTVSPost2010Prop30
280
     1
102
RTVSPost2010PropOp30
 70
     1
102
RTVSPost2010Prop31
280
     0
102
RTVSPost2010PropOp31
 70
     1
102
RTVSPost2010Prop32
280
     0
102
RTVSPost2010PropOp32
 70
     1
102
RTVSPost2010Prop33
280
     0
102
RTVSPost2010PropOp33
 70
     1
102
RTVSPost2010Prop34
280
     0
102
RTVSPost2010PropOp34
 70
     1
102
RTVSPost2010Prop35
280
     0
102
RTVSPost2010PropOp35
 70
     1
102
RTVSPost2010Prop36
280
     0
102
RTVSPost2010PropOp36
 70
     1
102
RTVSPost2010Prop37
 90
       50
102
RTVSPost2010PropOp37
 70
     1
102
RTVSPost2010Prop38
140
0.0
102
RTVSPost2010PropOp38
 70
     1
102
RTVSPost2010Prop39
140
1.0
102
RTVSPost2010PropOp39
 70
     1
102
RTVSPost2010Prop40
 90
        0
102
RTVSPost2010PropOp40
 70
     1
102
RTVSPost2010Prop41ColorIndex
 90
       18
102
RTVSPost2010Prop41ColorRGB
 90
        0
102
RTVSPost2010PropOp41
 70
     1
102
RTVSPost2010Prop42
 90
       50
102
RTVSPost2010PropOp42
 70
     1
102
RTVSPost2010Prop43
 90
        3
102
RTVSPost2010PropOp43
 70
     1
102
RTVSPost2010Prop44ColorIndex
 90
        5
102
RTVSPost2010Prop44ColorRGB
 90
      255
102
RTVSPost2010PropOp44
 70
     1
102
RTVSPost2010Prop45
280
     0
102
RTVSPost2010PropOp45
 70
     1
102
RTVSPost2010Prop46
 90
       50
102
RTVSPost2010PropOp46
 70
     1
102
RTVSPost2010Prop47
 90
       50
102
RTVSPost2010PropOp47
 70
     1
102
RTVSPost2010Prop48
 90
       50
102
RTVSPost2010PropOp48
 70
     1
102
RTVSPost2010Prop49
280
     0
102
RTVSPost2010PropOp49
 70
     1
102
RTVSPost2010Prop50
 90
       50
102
RTVSPost2010PropOp50
 70
     1
102
RTVSPost2010Prop51ColorIndex
 90
      256
102
RTVSPost2010Prop51ColorRGB
 90
-16777216
102
RTVSPost2010PropOp51
 70
     0
102
RTVSPost2010Prop52
140
1.0
102
RTVSPost2010PropOp52
 70
     0
102
RTVSPost2010Prop53
 90
        2
102
RTVSPost2010PropOp53
 70
     1
102
RTVSPost2010Prop54
  1
strokes_ogs.tif
102
RTVSPost2010PropOp54
 70
     1
102
RTVSPost2010Prop55
280
     0
102
RTVSPost2010PropOp55
 70
     1
102
RTVSPost2010Prop56
140
1.0
102
RTVSPost2010PropOp56
 70
     1
102
RTVSPost2010Prop57
140
1.0
102
RTVSPost2010PropOp57
 70
     1
  0
XRECORD
  5
217
102
{ACAD_REACTORS
330
216
102
}
330
216
100
AcDbXrecord
280
     1
102
RTVSPost2010Prop28
280
     0
102
RTVSPost2010PropOp28
 70
     1
102
RTVSPost2010Prop29
280
     1
102
RTVSPost2010PropOp29
 70
     1
102
RTVSPost2010Prop30
280
     1
102
RTVSPost2010PropOp30
 70
     1
102
RTVSPost2010Prop31
280
     0
102
RTVSPost2010PropOp31
 70
     1
102
RTVSPost2010Prop32
280
     0
102
RTVSPost2010PropOp32
 70
     1
102
RTVSPost2010Prop33
280
     0
102
RTVSPost2010PropOp33
 70
     1
102
RTVSPost2010Prop34
280
     0
102
RTVSPost2010PropOp34
 70
     1
102
RTVSPost2010Prop35
280
     0
102
RTVSPost2010PropOp35
 70
     1
102
RTVSPost2010Prop36
280
     0
102
RTVSPost2010PropOp36
 70
     1
102
RTVSPost2010Prop37
 90
       50
102
RTVSPost2010PropOp37
 70
     1
102
RTVSPost2010Prop38
140
0.0
102
RTVSPost2010PropOp38
 70
     1
102
RTVSPost2010Prop39
140
1.0
102
RTVSPost2010PropOp39
 70
     1
102
RTVSPost2010Prop40
 90
        0
102
RTVSPost2010PropOp40
 70
     1
102
RTVSPost2010Prop41ColorIndex
 90
       18
102
RTVSPost2010Prop41ColorRGB
 90
        0
102
RTVSPost2010PropOp41
 70
     1
102
RTVSPost2010Prop42
 90
       50
102
RTVSPost2010PropOp42
 70
     1
102
RTVSPost2010Prop43
 90
        3
102
RTVSPost2010PropOp43
 70
     1
102
RTVSPost2010Prop44ColorIndex
 90
        5
102
RTVSPost2010Prop44ColorRGB
 90
      255
102
RTVSPost2010PropOp44
 70
     1
102
RTVSPost2010Prop45
280
     0
102
RTVSPost2010PropOp45
 70
     1
102
RTVSPost2010Prop46
 90
       50
102
RTVSPost2010PropOp46
 70
     1
102
RTVSPost2010Prop47
 90
       50
102
RTVSPost2010PropOp47
 70
     1
102
RTVSPost2010Prop48
 90
       50
102
RTVSPost2010PropOp48
 70
     1
102
RTVSPost2010Prop49
280
     0
102
RTVSPost2010PropOp49
 70
     1
102
RTVSPost2010Prop50
 90
       50
102
RTVSPost2010PropOp50
 70
     1
102
RTVSPost2010Prop51ColorIndex
 90
      256
102
RTVSPost2010Prop51ColorRGB
 90
-16777216
102
RTVSPost2010PropOp51
 70
     0
102
RTVSPost2010Prop52
140
1.0
102
RTVSPost2010PropOp52
 70
     0
102
RTVSPost2010Prop53
 90
        2
102
RTVSPost2010PropOp53
 70
     1
102
RTVSPost2010Prop54
  1
strokes_ogs.tif
102
RTVSPost2010PropOp54
 70
     1
102
RTVSPost2010Prop55
280
     0
102
RTVSPost2010PropOp55
 70
     1
102
RTVSPost2010Prop56
140
1.0
102
RTVSPost2010PropOp56
 70
     1
102
RTVSPost2010Prop57
140
1.0
102
RTVSPost2010PropOp57
 70
     1
  0
XRECORD
  5
22B
102
{ACAD_REACTORS
330
22A
102
}
330
22A
100
AcDbXrecord
280
     1
102
RTVSPost2010Prop28
280
     0
102
RTVSPost2010PropOp28
 70
     0
102
RTVSPost2010Prop29
280
     1
102
RTVSPost2010PropOp29
 70
     0
102
RTVSPost2010Prop30
280
     1
102
RTVSPost2010PropOp30
 70
     0
102
RTVSPost2010Prop31
280
     0
102
RTVSPost2010PropOp31
 70
     0
102
RTVSPost2010Prop32
280
     0
102
RTVSPost2010PropOp32
 70
     0
102
RTVSPost2010Prop33
280
     0
102
RTVSPost2010PropOp33
 70
     0
102
RTVSPost2010Prop34
280
     0
102
RTVSPost2010PropOp34
 70
     0
102
RTVSPost2010Prop35
280
     0
102
RTVSPost2010PropOp35
 70
     0
102
RTVSPost2010Prop36
280
     0
102
RTVSPost2010PropOp36
 70
     0
102
RTVSPost2010Prop37
 90
       50
102
RTVSPost2010PropOp37
 70
     0
102
RTVSPost2010Prop38
140
0.0
102
RTVSPost2010PropOp38
 70
     0
102
RTVSPost2010Prop39
140
1.0
102
RTVSPost2010PropOp39
 70
     0
102
RTVSPost2010Prop40
 90
        0
102
RTVSPost2010PropOp40
 70
     0
102
RTVSPost2010Prop41ColorIndex
 90
       18
102
RTVSPost2010Prop41ColorRGB
 90
        0
102
RTVSPost2010PropOp41
 70
     0
102
RTVSPost2010Prop42
 90
       50
102
RTVSPost2010PropOp42
 70
     0
102
RTVSPost2010Prop43
 90
        3
102
RTVSPost2010PropOp43
 70
     0
102
RTVSPost2010Prop44ColorIndex
 90
        5
102
RTVSPost2010Prop44ColorRGB
 90
      255
102
RTVSPost2010PropOp44
 70
     0
102
RTVSPost2010Prop45
280
     0
102
RTVSPost2010PropOp45
 70
     0
102
RTVSPost2010Prop46
 90
       50
102
RTVSPost2010PropOp46
 70
     0
102
RTVSPost2010Prop47
 90
       50
102
RTVSPost2010PropOp47
 70
     0
102
RTVSPost2010Prop48
 90
       50
102
RTVSPost2010PropOp48
 70
     0
102
RTVSPost2010Prop49
280
     0
102
RTVSPost2010PropOp49
 70
     0
102
RTVSPost2010Prop50
 90
       50
102
RTVSPost2010PropOp50
 70
     0
102
RTVSPost2010Prop51ColorIndex
 90
      256
102
RTVSPost2010Prop51ColorRGB
 90
-16777216
102
RTVSPost2010PropOp51
 70
     0
102
RTVSPost2010Prop52
140
1.0
102
RTVSPost2010PropOp52
 70
     0
102
RTVSPost2010Prop53
 90
        2
102
RTVSPost2010PropOp53
 70
     0
102
RTVSPost2010Prop54
  1
strokes_ogs.tif
102
RTVSPost2010PropOp54
 70
     0
102
RTVSPost2010Prop55
280
     0
102
RTVSPost2010PropOp55
 70
     0
102
RTVSPost2010Prop56
140
1.0
102
RTVSPost2010PropOp56
 70
     0
102
RTVSPost2010Prop57
140
1.0
102
RTVSPost2010PropOp57
 70
     0
  0
XRECORD
  5
225
102
{ACAD_REACTORS
330
224
102
}
330
224
100
AcDbXrecord
280
     1
102
RTVSPost2010Prop28
280
     0
102
RTVSPost2010PropOp28
 70
     1
102
RTVSPost2010Prop29
280
     1
102
RTVSPost2010PropOp29
 70
     1
102
RTVSPost2010Prop30
280
     1
102
RTVSPost2010PropOp30
 70
     1
102
RTVSPost2010Prop31
280
     0
102
RTVSPost2010PropOp31
 70
     1
102
RTVSPost2010Prop32
280
     0
102
RTVSPost2010PropOp32
 70
     1
102
RTVSPost2010Prop33
280
     0
102
RTVSPost2010PropOp33
 70
     1
102
RTVSPost2010Prop34
280
     0
102
RTVSPost2010PropOp34
 70
     1
102
RTVSPost2010Prop35
280
     0
102
RTVSPost2010PropOp35
 70
     1
102
RTVSPost2010Prop36
280
     0
102
RTVSPost2010PropOp36
 70
     1
102
RTVSPost2010Prop37
 90
       50
102
RTVSPost2010PropOp37
 70
     1
102
RTVSPost2010Prop38
140
0.0
102
RTVSPost2010PropOp38
 70
     1
102
RTVSPost2010Prop39
140
1.0
102
RTVSPost2010PropOp39
 70
     1
102
RTVSPost2010Prop40
 90
        0
102
RTVSPost2010PropOp40
 70
     1
102
RTVSPost2010Prop41ColorIndex
 90
       18
102
RTVSPost2010Prop41ColorRGB
 90
        0
102
RTVSPost2010PropOp41
 70
     1
102
RTVSPost2010Prop42
 90
       50
102
RTVSPost2010PropOp42
 70
     1
102
RTVSPost2010Prop43
 90
        3
102
RTVSPost2010PropOp43
 70
     1
102
RTVSPost2010Prop44ColorIndex
 90
        5
102
RTVSPost2010Prop44ColorRGB
 90
      255
102
RTVSPost2010PropOp44
 70
     1
102
RTVSPost2010Prop45
280
     0
102
RTVSPost2010PropOp45
 70
     1
102
RTVSPost2010Prop46
 90
       50
102
RTVSPost2010PropOp46
 70
     1
102
RTVSPost2010Prop47
 90
       50
102
RTVSPost2010PropOp47
 70
     1
102
RTVSPost2010Prop48
 90
       50
102
RTVSPost2010PropOp48
 70
     1
102
RTVSPost2010Prop49
280
     0
102
RTVSPost2010PropOp49
 70
     1
102
RTVSPost2010Prop50
 90
       50
102
RTVSPost2010PropOp50
 70
     1
102
RTVSPost2010Prop51ColorIndex
 90
      256
102
RTVSPost2010Prop51ColorRGB
 90
-16777216
102
RTVSPost2010PropOp51
 70
     0
102
RTVSPost2010Prop52
140
1.0
102
RTVSPost2010PropOp52
 70
     0
102
RTVSPost2010Prop53
 90
        2
102
RTVSPost2010PropOp53
 70
     1
102
RTVSPost2010Prop54
  1
strokes_ogs.tif
102
RTVSPost2010PropOp54
 70
     1
102
RTVSPost2010Prop55
280
     0
102
RTVSPost2010PropOp55
 70
     1
102
RTVSPost2010Prop56
140
1.0
102
RTVSPost2010PropOp56
 70
     1
102
RTVSPost2010Prop57
140
1.0
102
RTVSPost2010PropOp57
 70
     1
  0
XRECORD
  5
22D
102
{ACAD_REACTORS
330
22C
102
}
330
22C
100
AcDbXrecord
280
     1
102
RTVSPost2010Prop28
280
     0
102
RTVSPost2010PropOp28
 70
     0
102
RTVSPost2010Prop29
280
     1
102
RTVSPost2010PropOp29
 70
     0
102
RTVSPost2010Prop30
280
     1
102
RTVSPost2010PropOp30
 70
     0
102
RTVSPost2010Prop31
280
     0
102
RTVSPost2010PropOp31
 70
     0
102
RTVSPost2010Prop32
280
     0
102
RTVSPost2010PropOp32
 70
     0
102
RTVSPost2010Prop33
280
     0
102
RTVSPost2010PropOp33
 70
     0
102
RTVSPost2010Prop34
280
     0
102
RTVSPost2010PropOp34
 70
     0
102
RTVSPost2010Prop35
280
     0
102
RTVSPost2010PropOp35
 70
     0
102
RTVSPost2010Prop36
280
     0
102
RTVSPost2010PropOp36
 70
     0
102
RTVSPost2010Prop37
 90
       50
102
RTVSPost2010PropOp37
 70
     0
102
RTVSPost2010Prop38
140
0.0
102
RTVSPost2010PropOp38
 70
     0
102
RTVSPost2010Prop39
140
1.0
102
RTVSPost2010PropOp39
 70
     0
102
RTVSPost2010Prop40
 90
        0
102
RTVSPost2010PropOp40
 70
     0
102
RTVSPost2010Prop41ColorIndex
 90
       18
102
RTVSPost2010Prop41ColorRGB
 90
        0
102
RTVSPost2010PropOp41
 70
     0
102
RTVSPost2010Prop42
 90
       50
102
RTVSPost2010PropOp42
 70
     0
102
RTVSPost2010Prop43
 90
        3
102
RTVSPost2010PropOp43
 70
     0
102
RTVSPost2010Prop44ColorIndex
 90
        5
102
RTVSPost2010Prop44ColorRGB
 90
      255
102
RTVSPost2010PropOp44
 70
     0
102
RTVSPost2010Prop45
280
     0
102
RTVSPost2010PropOp45
 70
     0
102
RTVSPost2010Prop46
 90
       50
102
RTVSPost2010PropOp46
 70
     0
102
RTVSPost2010Prop47
 90
       50
102
RTVSPost2010PropOp47
 70
     0
102
RTVSPost2010Prop48
 90
       50
102
RTVSPost2010PropOp48
 70
     0
102
RTVSPost2010Prop49
280
     0
102
RTVSPost2010PropOp49
 70
     0
102
RTVSPost2010Prop50
 90
       50
102
RTVSPost2010PropOp50
 70
     0
102
RTVSPost2010Prop51ColorIndex
 90
      256
102
RTVSPost2010Prop51ColorRGB
 90
-16777216
102
RTVSPost2010PropOp51
 70
     0
102
RTVSPost2010Prop52
140
1.0
102
RTVSPost2010PropOp52
 70
     0
102
RTVSPost2010Prop53
 90
        2
102
RTVSPost2010PropOp53
 70
     0
102
RTVSPost2010Prop54
  1
strokes_ogs.tif
102
RTVSPost2010PropOp54
 70
     0
102
RTVSPost2010Prop55
280
     0
102
RTVSPost2010PropOp55
 70
     0
102
RTVSPost2010Prop56
140
1.0
102
RTVSPost2010PropOp56
 70
     0
102
RTVSPost2010Prop57
140
1.0
102
RTVSPost2010PropOp57
 70
     0
  0
XRECORD
  5
21B
102
{ACAD_REACTORS
330
21A
102
}
330
21A
100
AcDbXrecord
280
     1
102
RTVSPost2010Prop28
280
     0
102
RTVSPost2010PropOp28
 70
     1
102
RTVSPost2010Prop29
280
     1
102
RTVSPost2010PropOp29
 70
     1
102
RTVSPost2010Prop30
280
     1
102
RTVSPost2010PropOp30
 70
     1
102
RTVSPost2010Prop31
280
     0
102
RTVSPost2010PropOp31
 70
     1
102
RTVSPost2010Prop32
280
     0
102
RTVSPost2010PropOp32
 70
     1
102
RTVSPost2010Prop33
280
     0
102
RTVSPost2010PropOp33
 70
     1
102
RTVSPost2010Prop34
280
     0
102
RTVSPost2010PropOp34
 70
     1
102
RTVSPost2010Prop35
280
     0
102
RTVSPost2010PropOp35
 70
     1
102
RTVSPost2010Prop36
280
     0
102
RTVSPost2010PropOp36
 70
     1
102
RTVSPost2010Prop37
 90
       50
102
RTVSPost2010PropOp37
 70
     1
102
RTVSPost2010Prop38
140
0.0
102
RTVSPost2010PropOp38
 70
     1
102
RTVSPost2010Prop39
140
1.0
102
RTVSPost2010PropOp39
 70
     1
102
RTVSPost2010Prop40
 90
        0
102
RTVSPost2010PropOp40
 70
     1
102
RTVSPost2010Prop41ColorIndex
 90
       18
102
RTVSPost2010Prop41ColorRGB
 90
        0
102
RTVSPost2010PropOp41
 70
     1
102
RTVSPost2010Prop42
 90
       50
102
RTVSPost2010PropOp42
 70
     1
102
RTVSPost2010Prop43
 90
        3
102
RTVSPost2010PropOp43
 70
     1
102
RTVSPost2010Prop44ColorIndex
 90
        5
102
RTVSPost2010Prop44ColorRGB
 90
      255
102
RTVSPost2010PropOp44
 70
     1
102
RTVSPost2010Prop45
280
     0
102
RTVSPost2010PropOp45
 70
     1
102
RTVSPost2010Prop46
 90
       50
102
RTVSPost2010PropOp46
 70
     1
102
RTVSPost2010Prop47
 90
       50
102
RTVSPost2010PropOp47
 70
     1
102
RTVSPost2010Prop48
 90
       50
102
RTVSPost2010PropOp48
 70
     1
102
RTVSPost2010Prop49
280
     0
102
RTVSPost2010PropOp49
 70
     1
102
RTVSPost2010Prop50
 90
       50
102
RTVSPost2010PropOp50
 70
     1
102
RTVSPost2010Prop51ColorIndex
 90
      256
102
RTVSPost2010Prop51ColorRGB
 90
-16777216
102
RTVSPost2010PropOp51
 70
     0
102
RTVSPost2010Prop52
140
1.0
102
RTVSPost2010PropOp52
 70
     0
102
RTVSPost2010Prop53
 90
        2
102
RTVSPost2010PropOp53
 70
     1
102
RTVSPost2010Prop54
  1
strokes_ogs.tif
102
RTVSPost2010PropOp54
 70
     1
102
RTVSPost2010Prop55
280
     0
102
RTVSPost2010PropOp55
 70
     1
102
RTVSPost2010Prop56
140
1.0
102
RTVSPost2010PropOp56
 70
     1
102
RTVSPost2010Prop57
140
1.0
102
RTVSPost2010PropOp57
 70
     1
  0
XRECORD
  5
239
102
{ACAD_REACTORS
330
238
102
}
330
238
100
AcDbXrecord
280
     1
102
RTVSPost2010Prop28
280
     0
102
RTVSPost2010PropOp28
 70
     1
102
RTVSPost2010Prop29
280
     1
102
RTVSPost2010PropOp29
 70
     1
102
RTVSPost2010Prop30
280
     1
102
RTVSPost2010PropOp30
 70
     1
102
RTVSPost2010Prop31
280
     0
102
RTVSPost2010PropOp31
 70
     1
102
RTVSPost2010Prop32
280
     0
102
RTVSPost2010PropOp32
 70
     1
102
RTVSPost2010Prop33
280
     0
102
RTVSPost2010PropOp33
 70
     1
102
RTVSPost2010Prop34
280
     0
102
RTVSPost2010PropOp34
 70
     1
102
RTVSPost2010Prop35
280
     0
102
RTVSPost2010PropOp35
 70
     1
102
RTVSPost2010Prop36
280
     0
102
RTVSPost2010PropOp36
 70
     1
102
RTVSPost2010Prop37
 90
       50
102
RTVSPost2010PropOp37
 70
     1
102
RTVSPost2010Prop38
140
0.0
102
RTVSPost2010PropOp38
 70
     1
102
RTVSPost2010Prop39
140
1.0
102
RTVSPost2010PropOp39
 70
     1
102
RTVSPost2010Prop40
 90
        0
102
RTVSPost2010PropOp40
 70
     1
102
RTVSPost2010Prop41ColorIndex
 90
       18
102
RTVSPost2010Prop41ColorRGB
 90
        0
102
RTVSPost2010PropOp41
 70
     1
102
RTVSPost2010Prop42
 90
       50
102
RTVSPost2010PropOp42
 70
     1
102
RTVSPost2010Prop43
 90
        3
102
RTVSPost2010PropOp43
 70
     1
102
RTVSPost2010Prop44ColorIndex
 90
        5
102
RTVSPost2010Prop44ColorRGB
 90
      255
102
RTVSPost2010PropOp44
 70
     1
102
RTVSPost2010Prop45
280
     0
102
RTVSPost2010PropOp45
 70
     1
102
RTVSPost2010Prop46
 90
       50
102
RTVSPost2010PropOp46
 70
     1
102
RTVSPost2010Prop47
 90
       50
102
RTVSPost2010PropOp47
 70
     1
102
RTVSPost2010Prop48
 90
       50
102
RTVSPost2010PropOp48
 70
     1
102
RTVSPost2010Prop49
280
     0
102
RTVSPost2010PropOp49
 70
     1
102
RTVSPost2010Prop50
 90
       50
102
RTVSPost2010PropOp50
 70
     1
102
RTVSPost2010Prop51ColorIndex
 90
      256
102
RTVSPost2010Prop51ColorRGB
 90
-16777216
102
RTVSPost2010PropOp51
 70
     0
102
RTVSPost2010Prop52
140
1.0
102
RTVSPost2010PropOp52
 70
     0
102
RTVSPost2010Prop53
 90
        2
102
RTVSPost2010PropOp53
 70
     1
102
RTVSPost2010Prop54
  1
strokes_ogs.tif
102
RTVSPost2010PropOp54
 70
     1
102
RTVSPost2010Prop55
280
     0
102
RTVSPost2010PropOp55
 70
     1
102
RTVSPost2010Prop56
140
1.0
102
RTVSPost2010PropOp56
 70
     1
102
RTVSPost2010Prop57
140
1.0
102
RTVSPost2010PropOp57
 70
     1
  0
XRECORD
  5
237
102
{ACAD_REACTORS
330
236
102
}
330
236
100
AcDbXrecord
280
     1
102
RTVSPost2010Prop28
280
     0
102
RTVSPost2010PropOp28
 70
     1
102
RTVSPost2010Prop29
280
     1
102
RTVSPost2010PropOp29
 70
     1
102
RTVSPost2010Prop30
280
     1
102
RTVSPost2010PropOp30
 70
     1
102
RTVSPost2010Prop31
280
     0
102
RTVSPost2010PropOp31
 70
     1
102
RTVSPost2010Prop32
280
     0
102
RTVSPost2010PropOp32
 70
     1
102
RTVSPost2010Prop33
280
     0
102
RTVSPost2010PropOp33
 70
     1
102
RTVSPost2010Prop34
280
     0
102
RTVSPost2010PropOp34
 70
     1
102
RTVSPost2010Prop35
280
     0
102
RTVSPost2010PropOp35
 70
     1
102
RTVSPost2010Prop36
280
     0
102
RTVSPost2010PropOp36
 70
     1
102
RTVSPost2010Prop37
 90
       50
102
RTVSPost2010PropOp37
 70
     1
102
RTVSPost2010Prop38
140
0.0
102
RTVSPost2010PropOp38
 70
     1
102
RTVSPost2010Prop39
140
1.0
102
RTVSPost2010PropOp39
 70
     1
102
RTVSPost2010Prop40
 90
        0
102
RTVSPost2010PropOp40
 70
     1
102
RTVSPost2010Prop41ColorIndex
 90
       18
102
RTVSPost2010Prop41ColorRGB
 90
        0
102
RTVSPost2010PropOp41
 70
     1
102
RTVSPost2010Prop42
 90
       50
102
RTVSPost2010PropOp42
 70
     1
102
RTVSPost2010Prop43
 90
        3
102
RTVSPost2010PropOp43
 70
     1
102
RTVSPost2010Prop44ColorIndex
 90
        5
102
RTVSPost2010Prop44ColorRGB
 90
      255
102
RTVSPost2010PropOp44
 70
     1
102
RTVSPost2010Prop45
280
     0
102
RTVSPost2010PropOp45
 70
     1
102
RTVSPost2010Prop46
 90
       50
102
RTVSPost2010PropOp46
 70
     1
102
RTVSPost2010Prop47
 90
       50
102
RTVSPost2010PropOp47
 70
     1
102
RTVSPost2010Prop48
 90
       50
102
RTVSPost2010PropOp48
 70
     1
102
RTVSPost2010Prop49
280
     0
102
RTVSPost2010PropOp49
 70
     1
102
RTVSPost2010Prop50
 90
       50
102
RTVSPost2010PropOp50
 70
     1
102
RTVSPost2010Prop51ColorIndex
 90
      256
102
RTVSPost2010Prop51ColorRGB
 90
-16777216
102
RTVSPost2010PropOp51
 70
     0
102
RTVSPost2010Prop52
140
1.0
102
RTVSPost2010PropOp52
 70
     0
102
RTVSPost2010Prop53
 90
        2
102
RTVSPost2010PropOp53
 70
     1
102
RTVSPost2010Prop54
  1
strokes_ogs.tif
102
RTVSPost2010PropOp54
 70
     1
102
RTVSPost2010Prop55
280
     0
102
RTVSPost2010PropOp55
 70
     1
102
RTVSPost2010Prop56
140
1.0
102
RTVSPost2010PropOp56
 70
     1
102
RTVSPost2010Prop57
140
1.0
102
RTVSPost2010PropOp57
 70
     1
  0
XRECORD
  5
231
102
{ACAD_REACTORS
330
230
102
}
330
230
100
AcDbXrecord
280
     1
102
RTVSPost2010Prop28
280
     0
102
RTVSPost2010PropOp28
 70
     1
102
RTVSPost2010Prop29
280
     1
102
RTVSPost2010PropOp29
 70
     1
102
RTVSPost2010Prop30
280
     1
102
RTVSPost2010PropOp30
 70
     1
102
RTVSPost2010Prop31
280
     0
102
RTVSPost2010PropOp31
 70
     1
102
RTVSPost2010Prop32
280
     0
102
RTVSPost2010PropOp32
 70
     1
102
RTVSPost2010Prop33
280
     0
102
RTVSPost2010PropOp33
 70
     1
102
RTVSPost2010Prop34
280
     0
102
RTVSPost2010PropOp34
 70
     1
102
RTVSPost2010Prop35
280
     0
102
RTVSPost2010PropOp35
 70
     1
102
RTVSPost2010Prop36
280
     0
102
RTVSPost2010PropOp36
 70
     1
102
RTVSPost2010Prop37
 90
       50
102
RTVSPost2010PropOp37
 70
     1
102
RTVSPost2010Prop38
140
0.0
102
RTVSPost2010PropOp38
 70
     1
102
RTVSPost2010Prop39
140
1.0
102
RTVSPost2010PropOp39
 70
     1
102
RTVSPost2010Prop40
 90
        0
102
RTVSPost2010PropOp40
 70
     1
102
RTVSPost2010Prop41ColorIndex
 90
       18
102
RTVSPost2010Prop41ColorRGB
 90
        0
102
RTVSPost2010PropOp41
 70
     1
102
RTVSPost2010Prop42
 90
       50
102
RTVSPost2010PropOp42
 70
     1
102
RTVSPost2010Prop43
 90
        3
102
RTVSPost2010PropOp43
 70
     1
102
RTVSPost2010Prop44ColorIndex
 90
        5
102
RTVSPost2010Prop44ColorRGB
 90
      255
102
RTVSPost2010PropOp44
 70
     1
102
RTVSPost2010Prop45
280
     0
102
RTVSPost2010PropOp45
 70
     1
102
RTVSPost2010Prop46
 90
       50
102
RTVSPost2010PropOp46
 70
     1
102
RTVSPost2010Prop47
 90
       50
102
RTVSPost2010PropOp47
 70
     1
102
RTVSPost2010Prop48
 90
       50
102
RTVSPost2010PropOp48
 70
     1
102
RTVSPost2010Prop49
280
     0
102
RTVSPost2010PropOp49
 70
     1
102
RTVSPost2010Prop50
 90
       50
102
RTVSPost2010PropOp50
 70
     1
102
RTVSPost2010Prop51ColorIndex
 90
      256
102
RTVSPost2010Prop51ColorRGB
 90
-16777216
102
RTVSPost2010PropOp51
 70
     0
102
RTVSPost2010Prop52
140
1.0
102
RTVSPost2010PropOp52
 70
     0
102
RTVSPost2010Prop53
 90
        2
102
RTVSPost2010PropOp53
 70
     1
102
RTVSPost2010Prop54
  1
strokes_ogs.tif
102
RTVSPost2010PropOp54
 70
     1
102
RTVSPost2010Prop55
280
     0
102
RTVSPost2010PropOp55
 70
     1
102
RTVSPost2010Prop56
140
1.0
102
RTVSPost2010PropOp56
 70
     1
102
RTVSPost2010Prop57
140
1.0
102
RTVSPost2010PropOp57
 70
     1
  0
XRECORD
  5
233
102
{ACAD_REACTORS
330
232
102
}
330
232
100
AcDbXrecord
280
     1
102
RTVSPost2010Prop28
280
     0
102
RTVSPost2010PropOp28
 70
     1
102
RTVSPost2010Prop29
280
     1
102
RTVSPost2010PropOp29
 70
     1
102
RTVSPost2010Prop30
280
     1
102
RTVSPost2010PropOp30
 70
     1
102
RTVSPost2010Prop31
280
     0
102
RTVSPost2010PropOp31
 70
     1
102
RTVSPost2010Prop32
280
     0
102
RTVSPost2010PropOp32
 70
     1
102
RTVSPost2010Prop33
280
     0
102
RTVSPost2010PropOp33
 70
     1
102
RTVSPost2010Prop34
280
     0
102
RTVSPost2010PropOp34
 70
     1
102
RTVSPost2010Prop35
280
     0
102
RTVSPost2010PropOp35
 70
     1
102
RTVSPost2010Prop36
280
     0
102
RTVSPost2010PropOp36
 70
     1
102
RTVSPost2010Prop37
 90
       50
102
RTVSPost2010PropOp37
 70
     1
102
RTVSPost2010Prop38
140
0.0
102
RTVSPost2010PropOp38
 70
     1
102
RTVSPost2010Prop39
140
1.0
102
RTVSPost2010PropOp39
 70
     1
102
RTVSPost2010Prop40
 90
        0
102
RTVSPost2010PropOp40
 70
     1
102
RTVSPost2010Prop41ColorIndex
 90
       18
102
RTVSPost2010Prop41ColorRGB
 90
        0
102
RTVSPost2010PropOp41
 70
     1
102
RTVSPost2010Prop42
 90
       50
102
RTVSPost2010PropOp42
 70
     1
102
RTVSPost2010Prop43
 90
        3
102
RTVSPost2010PropOp43
 70
     1
102
RTVSPost2010Prop44ColorIndex
 90
        5
102
RTVSPost2010Prop44ColorRGB
 90
      255
102
RTVSPost2010PropOp44
 70
     1
102
RTVSPost2010Prop45
280
     0
102
RTVSPost2010PropOp45
 70
     1
102
RTVSPost2010Prop46
 90
       50
102
RTVSPost2010PropOp46
 70
     1
102
RTVSPost2010Prop47
 90
       50
102
RTVSPost2010PropOp47
 70
     1
102
RTVSPost2010Prop48
 90
       50
102
RTVSPost2010PropOp48
 70
     1
102
RTVSPost2010Prop49
280
     0
102
RTVSPost2010PropOp49
 70
     1
102
RTVSPost2010Prop50
 90
       50
102
RTVSPost2010PropOp50
 70
     1
102
RTVSPost2010Prop51ColorIndex
 90
      256
102
RTVSPost2010Prop51ColorRGB
 90
-16777216
102
RTVSPost2010PropOp51
 70
     0
102
RTVSPost2010Prop52
140
1.0
102
RTVSPost2010PropOp52
 70
     0
102
RTVSPost2010Prop53
 90
        2
102
RTVSPost2010PropOp53
 70
     1
102
RTVSPost2010Prop54
  1
strokes_ogs.tif
102
RTVSPost2010PropOp54
 70
     1
102
RTVSPost2010Prop55
280
     0
102
RTVSPost2010PropOp55
 70
     1
102
RTVSPost2010Prop56
140
1.0
102
RTVSPost2010PropOp56
 70
     1
102
RTVSPost2010Prop57
140
1.0
102
RTVSPost2010PropOp57
 70
     1
  0
XRECORD
  5
223
102
{ACAD_REACTORS
330
222
102
}
330
222
100
AcDbXrecord
280
     1
102
RTVSPost2010Prop28
280
     0
102
RTVSPost2010PropOp28
 70
     1
102
RTVSPost2010Prop29
280
     1
102
RTVSPost2010PropOp29
 70
     1
102
RTVSPost2010Prop30
280
     1
102
RTVSPost2010PropOp30
 70
     1
102
RTVSPost2010Prop31
280
     0
102
RTVSPost2010PropOp31
 70
     1
102
RTVSPost2010Prop32
280
     0
102
RTVSPost2010PropOp32
 70
     1
102
RTVSPost2010Prop33
280
     0
102
RTVSPost2010PropOp33
 70
     1
102
RTVSPost2010Prop34
280
     0
102
RTVSPost2010PropOp34
 70
     1
102
RTVSPost2010Prop35
280
     0
102
RTVSPost2010PropOp35
 70
     1
102
RTVSPost2010Prop36
280
     0
102
RTVSPost2010PropOp36
 70
     1
102
RTVSPost2010Prop37
 90
       50
102
RTVSPost2010PropOp37
 70
     1
102
RTVSPost2010Prop38
140
0.0
102
RTVSPost2010PropOp38
 70
     1
102
RTVSPost2010Prop39
140
1.0
102
RTVSPost2010PropOp39
 70
     1
102
RTVSPost2010Prop40
 90
        0
102
RTVSPost2010PropOp40
 70
     1
102
RTVSPost2010Prop41ColorIndex
 90
       18
102
RTVSPost2010Prop41ColorRGB
 90
        0
102
RTVSPost2010PropOp41
 70
     1
102
RTVSPost2010Prop42
 90
       50
102
RTVSPost2010PropOp42
 70
     1
102
RTVSPost2010Prop43
 90
        3
102
RTVSPost2010PropOp43
 70
     1
102
RTVSPost2010Prop44ColorIndex
 90
        5
102
RTVSPost2010Prop44ColorRGB
 90
      255
102
RTVSPost2010PropOp44
 70
     1
102
RTVSPost2010Prop45
280
     0
102
RTVSPost2010PropOp45
 70
     1
102
RTVSPost2010Prop46
 90
       50
102
RTVSPost2010PropOp46
 70
     1
102
RTVSPost2010Prop47
 90
       50
102
RTVSPost2010PropOp47
 70
     1
102
RTVSPost2010Prop48
 90
       50
102
RTVSPost2010PropOp48
 70
     1
102
RTVSPost2010Prop49
280
     0
102
RTVSPost2010PropOp49
 70
     1
102
RTVSPost2010Prop50
 90
       50
102
RTVSPost2010PropOp50
 70
     1
102
RTVSPost2010Prop51ColorIndex
 90
      256
102
RTVSPost2010Prop51ColorRGB
 90
-16777216
102
RTVSPost2010PropOp51
 70
     0
102
RTVSPost2010Prop52
140
1.0
102
RTVSPost2010PropOp52
 70
     0
102
RTVSPost2010Prop53
 90
        2
102
RTVSPost2010PropOp53
 70
     1
102
RTVSPost2010Prop54
  1
strokes_ogs.tif
102
RTVSPost2010PropOp54
 70
     1
102
RTVSPost2010Prop55
280
     0
102
RTVSPost2010PropOp55
 70
     1
102
RTVSPost2010Prop56
140
1.0
102
RTVSPost2010PropOp56
 70
     1
102
RTVSPost2010Prop57
140
1.0
102
RTVSPost2010PropOp57
 70
     1
  0
XRECORD
  5
215
102
{ACAD_REACTORS
330
214
102
}
330
214
100
AcDbXrecord
280
     1
102
RTVSPost2010Prop28
280
     0
102
RTVSPost2010PropOp28
 70
     1
102
RTVSPost2010Prop29
280
     1
102
RTVSPost2010PropOp29
 70
     1
102
RTVSPost2010Prop30
280
     1
102
RTVSPost2010PropOp30
 70
     1
102
RTVSPost2010Prop31
280
     0
102
RTVSPost2010PropOp31
 70
     1
102
RTVSPost2010Prop32
280
     0
102
RTVSPost2010PropOp32
 70
     1
102
RTVSPost2010Prop33
280
     0
102
RTVSPost2010PropOp33
 70
     1
102
RTVSPost2010Prop34
280
     0
102
RTVSPost2010PropOp34
 70
     1
102
RTVSPost2010Prop35
280
     0
102
RTVSPost2010PropOp35
 70
     1
102
RTVSPost2010Prop36
280
     0
102
RTVSPost2010PropOp36
 70
     1
102
RTVSPost2010Prop37
 90
       50
102
RTVSPost2010PropOp37
 70
     1
102
RTVSPost2010Prop38
140
0.0
102
RTVSPost2010PropOp38
 70
     1
102
RTVSPost2010Prop39
140
1.0
102
RTVSPost2010PropOp39
 70
     1
102
RTVSPost2010Prop40
 90
        0
102
RTVSPost2010PropOp40
 70
     1
102
RTVSPost2010Prop41ColorIndex
 90
       18
102
RTVSPost2010Prop41ColorRGB
 90
        0
102
RTVSPost2010PropOp41
 70
     1
102
RTVSPost2010Prop42
 90
       50
102
RTVSPost2010PropOp42
 70
     1
102
RTVSPost2010Prop43
 90
        3
102
RTVSPost2010PropOp43
 70
     1
102
RTVSPost2010Prop44ColorIndex
 90
        5
102
RTVSPost2010Prop44ColorRGB
 90
      255
102
RTVSPost2010PropOp44
 70
     1
102
RTVSPost2010Prop45
280
     0
102
RTVSPost2010PropOp45
 70
     1
102
RTVSPost2010Prop46
 90
       50
102
RTVSPost2010PropOp46
 70
     1
102
RTVSPost2010Prop47
 90
       50
102
RTVSPost2010PropOp47
 70
     1
102
RTVSPost2010Prop48
 90
       50
102
RTVSPost2010PropOp48
 70
     1
102
RTVSPost2010Prop49
280
     0
102
RTVSPost2010PropOp49
 70
     1
102
RTVSPost2010Prop50
 90
       50
102
RTVSPost2010PropOp50
 70
     1
102
RTVSPost2010Prop51ColorIndex
 90
      256
102
RTVSPost2010Prop51ColorRGB
 90
-16777216
102
RTVSPost2010PropOp51
 70
     0
102
RTVSPost2010Prop52
140
1.0
102
RTVSPost2010PropOp52
 70
     0
102
RTVSPost2010Prop53
 90
        2
102
RTVSPost2010PropOp53
 70
     1
102
RTVSPost2010Prop54
  1
strokes_ogs.tif
102
RTVSPost2010PropOp54
 70
     1
102
RTVSPost2010Prop55
280
     0
102
RTVSPost2010PropOp55
 70
     1
102
RTVSPost2010Prop56
140
1.0
102
RTVSPost2010PropOp56
 70
     1
102
RTVSPost2010Prop57
140
1.0
102
RTVSPost2010PropOp57
 70
     1
  0
XRECORD
  5
235
102
{ACAD_REACTORS
330
234
102
}
330
234
100
AcDbXrecord
280
     1
102
RTVSPost2010Prop28
280
     0
102
RTVSPost2010PropOp28
 70
     1
102
RTVSPost2010Prop29
280
     1
102
RTVSPost2010PropOp29
 70
     1
102
RTVSPost2010Prop30
280
     1
102
RTVSPost2010PropOp30
 70
     1
102
RTVSPost2010Prop31
280
     0
102
RTVSPost2010PropOp31
 70
     1
102
RTVSPost2010Prop32
280
     0
102
RTVSPost2010PropOp32
 70
     1
102
RTVSPost2010Prop33
280
     0
102
RTVSPost2010PropOp33
 70
     1
102
RTVSPost2010Prop34
280
     0
102
RTVSPost2010PropOp34
 70
     1
102
RTVSPost2010Prop35
280
     0
102
RTVSPost2010PropOp35
 70
     1
102
RTVSPost2010Prop36
280
     0
102
RTVSPost2010PropOp36
 70
     1
102
RTVSPost2010Prop37
 90
       50
102
RTVSPost2010PropOp37
 70
     1
102
RTVSPost2010Prop38
140
0.0
102
RTVSPost2010PropOp38
 70
     1
102
RTVSPost2010Prop39
140
1.0
102
RTVSPost2010PropOp39
 70
     1
102
RTVSPost2010Prop40
 90
        0
102
RTVSPost2010PropOp40
 70
     1
102
RTVSPost2010Prop41ColorIndex
 90
       18
102
RTVSPost2010Prop41ColorRGB
 90
        0
102
RTVSPost2010PropOp41
 70
     1
102
RTVSPost2010Prop42
 90
       50
102
RTVSPost2010PropOp42
 70
     1
102
RTVSPost2010Prop43
 90
        3
102
RTVSPost2010PropOp43
 70
     1
102
RTVSPost2010Prop44ColorIndex
 90
        5
102
RTVSPost2010Prop44ColorRGB
 90
      255
102
RTVSPost2010PropOp44
 70
     1
102
RTVSPost2010Prop45
280
     0
102
RTVSPost2010PropOp45
 70
     1
102
RTVSPost2010Prop46
 90
       50
102
RTVSPost2010PropOp46
 70
     1
102
RTVSPost2010Prop47
 90
       50
102
RTVSPost2010PropOp47
 70
     1
102
RTVSPost2010Prop48
 90
       50
102
RTVSPost2010PropOp48
 70
     1
102
RTVSPost2010Prop49
280
     0
102
RTVSPost2010PropOp49
 70
     1
102
RTVSPost2010Prop50
 90
       50
102
RTVSPost2010PropOp50
 70
     1
102
RTVSPost2010Prop51ColorIndex
 90
      256
102
RTVSPost2010Prop51ColorRGB
 90
-16777216
102
RTVSPost2010PropOp51
 70
     0
102
RTVSPost2010Prop52
140
1.0
102
RTVSPost2010PropOp52
 70
     0
102
RTVSPost2010Prop53
 90
        2
102
RTVSPost2010PropOp53
 70
     1
102
RTVSPost2010Prop54
  1
strokes_ogs.tif
102
RTVSPost2010PropOp54
 70
     1
102
RTVSPost2010Prop55
280
     0
102
RTVSPost2010PropOp55
 70
     1
102
RTVSPost2010Prop56
140
1.0
102
RTVSPost2010PropOp56
 70
     1
102
RTVSPost2010Prop57
140
1.0
102
RTVSPost2010PropOp57
 70
     1
  0
ENDSEC
  0
EOF
