  0
SECTION
  2
HEADER
  9
$ACADVER
  1
AC1024
  9
$ACADMAINTVER
 70
     6
  9
$DWGCODEPAGE
  3
ANSI_1252
  9
$LASTSAVEDBY
  1
c.meyer
  9
$INSBASE
 10
0.0
 20
0.0
 30
0.0
  9
$EXTMIN
 10
-1083.737515287143
 20
-134.843136896309
 30
0.0
  9
$EXTMAX
 10
1386.534338565091
 20
841.626863103691
 30
0.0
  9
$LIMMIN
 10
0.0
 20
0.0
  9
$LIMMAX
 10
420.0
 20
297.0
  9
$ORTHOMODE
 70
     0
  9
$REGENMODE
 70
     1
  9
$FILLMODE
 70
     1
  9
$QTEXTMODE
 70
     0
  9
$MIRRTEXT
 70
     1
  9
$LTSCALE
 40
5.0
  9
$ATTMODE
 70
     1
  9
$TEXTSIZE
 40
2.5
  9
$TRACEWID
 40
1.0
  9
$TEXTSTYLE
  7
Standard
  9
$CLAYER
  8
0
  9
$CELTYPE
  6
ByLayer
  9
$CECOLOR
 62
   256
  9
$CELTSCALE
 40
1.0
  9
$DISPSILH
 70
     0
  9
$DIMSCALE
 40
1.0
  9
$DIMASZ
 40
2.5
  9
$DIMEXO
 40
0.625
  9
$DIMDLI
 40
3.75
  9
$DIMRND
 40
0.0
  9
$DIMDLE
 40
0.0
  9
$DIMEXE
 40
1.25
  9
$DIMTP
 40
0.0
  9
$DIMTM
 40
0.0
  9
$DIMTXT
 40
2.5
  9
$DIMCEN
 40
2.5
  9
$DIMTSZ
 40
0.0
  9
$DIMTOL
 70
     0
  9
$DIMLIM
 70
     0
  9
$DIMTIH
 70
     0
  9
$DIMTOH
 70
     0
  9
$DIMSE1
 70
     0
  9
$DIMSE2
 70
     0
  9
$DIMTAD
 70
     1
  9
$DIMZIN
 70
     8
  9
$DIMBLK
  1

  9
$DIMASO
 70
     1
  9
$DIMSHO
 70
     1
  9
$DIMPOST
  1

  9
$DIMAPOST
  1

  9
$DIMALT
 70
     0
  9
$DIMALTD
 70
     3
  9
$DIMALTF
 40
0.03937007874
  9
$DIMLFAC
 40
1.0
  9
$DIMTOFL
 70
     1
  9
$DIMTVP
 40
0.0
  9
$DIMTIX
 70
     0
  9
$DIMSOXD
 70
     0
  9
$DIMSAH
 70
     0
  9
$DIMBLK1
  1

  9
$DIMBLK2
  1

  9
$DIMSTYLE
  2
ISO-25
  9
$DIMCLRD
 70
     0
  9
$DIMCLRE
 70
     0
  9
$DIMCLRT
 70
     0
  9
$DIMTFAC
 40
1.0
  9
$DIMGAP
 40
0.625
  9
$DIMJUST
 70
     0
  9
$DIMSD1
 70
     0
  9
$DIMSD2
 70
     0
  9
$DIMTOLJ
 70
     0
  9
$DIMTZIN
 70
     8
  9
$DIMALTZ
 70
     0
  9
$DIMALTTZ
 70
     0
  9
$DIMUPT
 70
     0
  9
$DIMDEC
 70
     2
  9
$DIMTDEC
 70
     2
  9
$DIMALTU
 70
     2
  9
$DIMALTTD
 70
     3
  9
$DIMTXSTY
  7
Standard
  9
$DIMAUNIT
 70
     0
  9
$DIMADEC
 70
     0
  9
$DIMALTRND
 40
0.0
  9
$DIMAZIN
 70
     0
  9
$DIMDSEP
 70
    44
  9
$DIMATFIT
 70
     3
  9
$DIMFRAC
 70
     0
  9
$DIMLDRBLK
  1

  9
$DIMLUNIT
 70
     2
  9
$DIMLWD
 70
    -2
  9
$DIMLWE
 70
    -2
  9
$DIMTMOVE
 70
     0
  9
$DIMFXL
 40
1.0
  9
$DIMFXLON
 70
     0
  9
$DIMJOGANG
 40
0.785398163397
  9
$DIMTFILL
 70
     0
  9
$DIMTFILLCLR
 70
     0
  9
$DIMARCSYM
 70
     0
  9
$DIMLTYPE
  6

  9
$DIMLTEX1
  6

  9
$DIMLTEX2
  6

  9
$DIMTXTDIRECTION
 70
     0
  9
$LUNITS
 70
     2
  9
$LUPREC
 70
     4
  9
$SKETCHINC
 40
1.0
  9
$FILLETRAD
 40
10.0
  9
$AUNITS
 70
     0
  9
$AUPREC
 70
     0
  9
$MENU
  1
.
  9
$ELEVATION
 40
0.0
  9
$PELEVATION
 40
0.0
  9
$THICKNESS
 40
0.0
  9
$LIMCHECK
 70
     0
  9
$CHAMFERA
 40
0.0
  9
$CHAMFERB
 40
0.0
  9
$CHAMFERC
 40
0.0
  9
$CHAMFERD
 40
0.0
  9
$SKPOLY
 70
     0
  9
$TDCREATE
 40
2458747.538824317
  9
$TDUCREATE
 40
2458747.455490984
  9
$TDUPDATE
 40
2458747.538825405
  9
$TDUUPDATE
 40
2458747.455492072
  9
$TDINDWG
 40
0.0000000116
  9
$TDUSRTIMER
 40
0.0000000116
  9
$USRTIMER
 70
     1
  9
$ANGBASE
 50
0.0
  9
$ANGDIR
 70
     0
  9
$PDMODE
 70
     2
  9
$PDSIZE
 40
1.0
  9
$PLINEWID
 40
0.0
  9
$SPLFRAME
 70
     0
  9
$SPLINETYPE
 70
     6
  9
$SPLINESEGS
 70
     8
  9
$HANDSEED
  5
1B1
  9
$SURFTAB1
 70
     6
  9
$SURFTAB2
 70
     6
  9
$SURFTYPE
 70
     6
  9
$SURFU
 70
     6
  9
$SURFV
 70
     6
  9
$UCSBASE
  2

  9
$UCSNAME
  2

  9
$UCSORG
 10
0.0
 20
0.0
 30
0.0
  9
$UCSXDIR
 10
1.0
 20
0.0
 30
0.0
  9
$UCSYDIR
 10
0.0
 20
1.0
 30
0.0
  9
$UCSORTHOREF
  2

  9
$UCSORTHOVIEW
 70
     0
  9
$UCSORGTOP
 10
0.0
 20
0.0
 30
0.0
  9
$UCSORGBOTTOM
 10
0.0
 20
0.0
 30
0.0
  9
$UCSORGLEFT
 10
0.0
 20
0.0
 30
0.0
  9
$UCSORGRIGHT
 10
0.0
 20
0.0
 30
0.0
  9
$UCSORGFRONT
 10
0.0
 20
0.0
 30
0.0
  9
$UCSORGBACK
 10
0.0
 20
0.0
 30
0.0
  9
$PUCSBASE
  2

  9
$PUCSNAME
  2

  9
$PUCSORG
 10
0.0
 20
0.0
 30
0.0
  9
$PUCSXDIR
 10
1.0
 20
0.0
 30
0.0
  9
$PUCSYDIR
 10
0.0
 20
1.0
 30
0.0
  9
$PUCSORTHOREF
  2

  9
$PUCSORTHOVIEW
 70
     0
  9
$PUCSORGTOP
 10
0.0
 20
0.0
 30
0.0
  9
$PUCSORGBOTTOM
 10
0.0
 20
0.0
 30
0.0
  9
$PUCSORGLEFT
 10
0.0
 20
0.0
 30
0.0
  9
$PUCSORGRIGHT
 10
0.0
 20
0.0
 30
0.0
  9
$PUCSORGFRONT
 10
0.0
 20
0.0
 30
0.0
  9
$PUCSORGBACK
 10
0.0
 20
0.0
 30
0.0
  9
$USERI1
 70
     0
  9
$USERI2
 70
     0
  9
$USERI3
 70
     0
  9
$USERI4
 70
     0
  9
$USERI5
 70
     0
  9
$USERR1
 40
0.0
  9
$USERR2
 40
0.0
  9
$USERR3
 40
0.0
  9
$USERR4
 40
0.0
  9
$USERR5
 40
0.0
  9
$WORLDVIEW
 70
     1
  9
$SHADEDGE
 70
     3
  9
$SHADEDIF
 70
    70
  9
$TILEMODE
 70
     1
  9
$MAXACTVP
 70
    64
  9
$PINSBASE
 10
0.0
 20
0.0
 30
0.0
  9
$PLIMCHECK
 70
     0
  9
$PEXTMIN
 10
1.000000000000E+20
 20
1.000000000000E+20
 30
1.000000000000E+20
  9
$PEXTMAX
 10
-1.000000000000E+20
 20
-1.000000000000E+20
 30
-1.000000000000E+20
  9
$PLIMMIN
 10
0.0
 20
0.0
  9
$PLIMMAX
 10
420.0
 20
297.0
  9
$UNITMODE
 70
     0
  9
$VISRETAIN
 70
     1
  9
$PLINEGEN
 70
     0
  9
$PSLTSCALE
 70
     1
  9
$TREEDEPTH
 70
  3020
  9
$CMLSTYLE
  2
Standard
  9
$CMLJUST
 70
     0
  9
$CMLSCALE
 40
20.0
  9
$PROXYGRAPHICS
 70
     1
  9
$MEASUREMENT
 70
     1
  9
$CELWEIGHT
370
    -1
  9
$ENDCAPS
280
     0
  9
$JOINSTYLE
280
     0
  9
$LWDISPLAY
290
     0
  9
$INSUNITS
 70
     4
  9
$HYPERLINKBASE
  1

  9
$STYLESHEET
  1

  9
$XEDIT
290
     1
  9
$CEPSNTYPE
380
     0
  9
$PSTYLEMODE
290
     1
  9
$FINGERPRINTGUID
  2
{b8084497-e3b7-4e25-a427-fe0add84072b}
  9
$VERSIONGUID
  2
{FAEB1C32-E019-11D5-929B-00C0DF256EC4}
  9
$EXTNAMES
290
     1
  9
$PSVPSCALE
 40
0.0
  9
$OLESTARTUP
290
     0
  9
$SORTENTS
280
   127
  9
$INDEXCTL
280
     0
  9
$HIDETEXT
280
     1
  9
$XCLIPFRAME
280
     2
  9
$HALOGAP
280
     0
  9
$OBSCOLOR
 70
   257
  9
$OBSLTYPE
280
     0
  9
$INTERSECTIONDISPLAY
280
     0
  9
$INTERSECTIONCOLOR
 70
   257
  9
$DIMASSOC
280
     2
  9
$PROJECTNAME
  1

  9
$CAMERADISPLAY
290
     0
  9
$LENSLENGTH
 40
50.0
  9
$CAMERAHEIGHT
 40
0.0
  9
$STEPSPERSEC
 40
2.0
  9
$STEPSIZE
 40
6.0
  9
$3DDWFPREC
 40
2.0
  9
$PSOLWIDTH
 40
5.0
  9
$PSOLHEIGHT
 40
80.0
  9
$LOFTANG1
 40
1.570796326795
  9
$LOFTANG2
 40
1.570796326795
  9
$LOFTMAG1
 40
0.0
  9
$LOFTMAG2
 40
0.0
  9
$LOFTPARAM
 70
     7
  9
$LOFTNORMALS
280
     1
  9
$LATITUDE
 40
37.795
  9
$LONGITUDE
 40
-122.394
  9
$NORTHDIRECTION
 40
0.0
  9
$TIMEZONE
 70
 -8000
  9
$LIGHTGLYPHDISPLAY
280
     1
  9
$TILEMODELIGHTSYNCH
280
     1
  9
$CMATERIAL
347
44
  9
$SOLIDHIST
280
     0
  9
$SHOWHIST
280
     1
  9
$DWFFRAME
280
     2
  9
$DGNFRAME
280
     2
  9
$REALWORLDSCALE
290
     1
  9
$INTERFERECOLOR
 62
   256
  9
$CSHADOW
280
     0
  9
$SHADOWPLANELOCATION
 40
0.0
  0
ENDSEC
  0
SECTION
  2
CLASSES
  0
CLASS
  1
ACDBDICTIONARYWDFLT
  2
AcDbDictionaryWithDefault
  3
ObjectDBX Classes
 90
        0
 91
        3
280
     0
281
     0
  0
CLASS
  1
VISUALSTYLE
  2
AcDbVisualStyle
  3
ObjectDBX Classes
 90
     4095
 91
        3
280
     0
281
     0
  0
CLASS
  1
MATERIAL
  2
AcDbMaterial
  3
ObjectDBX Classes
 90
     1153
 91
        3
280
     0
281
     0
  0
CLASS
  1
SCALE
  2
AcDbScale
  3
ObjectDBX Classes
 90
     1153
 91
        3
280
     0
281
     0
  0
CLASS
  1
TABLESTYLE
  2
AcDbTableStyle
  3
ObjectDBX Classes
 90
     4095
 91
        3
280
     0
281
     0
  0
CLASS
  1
MLEADERSTYLE
  2
AcDbMLeaderStyle
  3
ACDB_MLEADERSTYLE_CLASS
 90
     4095
 91
        3
280
     0
281
     0
  0
CLASS
  1
SUN
  2
AcDbSun
  3
SCENEOE
 90
     1153
 91
        3
280
     0
281
     0
  0
CLASS
  1
IMAGEDEF
  2
AcDbRasterImageDef
  3
ISM
 90
        0
 91
        3
280
     0
281
     0
  0
CLASS
  1
IMAGE
  2
AcDbRasterImage
  3
ISM
 90
      127
 91
        4
280
     0
281
     1
  0
CLASS
  1
IMAGEDEF_REACTOR
  2
AcDbRasterImageDefReactor
  3
ISM
 90
        1
 91
        3
280
     0
281
     0
  0
CLASS
  1
DICTIONARYVAR
  2
AcDbDictionaryVar
  3
ObjectDBX Classes
 90
        0
 91
        3
280
     0
281
     0
  0
CLASS
  1
CELLSTYLEMAP
  2
AcDbCellStyleMap
  3
ObjectDBX Classes
 90
     1152
 91
        3
280
     0
281
     0
  0
CLASS
  1
WIPEOUTVARIABLES
  2
AcDbWipeoutVariables
  3
WipeOut|AutoCAD Express Tool|expresstools@autodesk.com
 90
        0
 91
        3
280
     0
281
     0
  0
ENDSEC
  0
SECTION
  2
TABLES
  0
TABLE
  2
VPORT
  5
8
330
0
100
AcDbSymbolTable
 70
     1
  0
VPORT
  5
29
330
8
100
AcDbSymbolTableRecord
100
AcDbViewportTableRecord
  2
*Active
 70
     0
 10
0.0
 20
0.0
 11
1.0
 21
1.0
 12
151.398411638974
 22
353.391863103691
 13
0.0
 23
0.0
 14
10.0
 24
10.0
 15
10.0
 25
10.0
 16
0.0
 26
0.0
 36
1.0
 17
0.0
 27
0.0
 37
0.0
 40
976.47
 41
2.529798000811
 42
50.0
 43
0.0
 44
0.0
 50
0.0
 51
0.0
 71
     0
 72
   100
 73
     1
 74
     3
 75
     0
 76
     0
 77
     0
 78
     0
281
     0
 65
     1
110
0.0
120
0.0
130
0.0
111
1.0
121
0.0
131
0.0
112
0.0
122
1.0
132
0.0
 79
     0
146
0.0
348
2F
 60
     3
 61
     5
292
     1
282
     1
141
0.0
142
0.0
 63
   250
361
6D
  0
ENDTAB
  0
TABLE
  2
LTYPE
  5
5
330
0
100
AcDbSymbolTable
 70
     3
  0
LTYPE
  5
14
330
5
100
AcDbSymbolTableRecord
100
AcDbLinetypeTableRecord
  2
ByBlock
 70
     0
  3

 72
    65
 73
     0
 40
0.0
  0
LTYPE
  5
15
330
5
100
AcDbSymbolTableRecord
100
AcDbLinetypeTableRecord
  2
ByLayer
 70
     0
  3

 72
    65
 73
     0
 40
0.0
  0
LTYPE
  5
16
330
5
100
AcDbSymbolTableRecord
100
AcDbLinetypeTableRecord
  2
Continuous
 70
     0
  3
Solid line
 72
    65
 73
     0
 40
0.0
  0
LTYPE
  5
6E
330
5
100
AcDbSymbolTableRecord
100
AcDbLinetypeTableRecord
  2
AUSGEZOGEN
 70
     0
  3

 72
    65
 73
     0
 40
0.0
  0
LTYPE
  5
70
330
5
100
AcDbSymbolTableRecord
100
AcDbLinetypeTableRecord
  2
DASHDOT
 70
     0
  3

 72
    65
 73
     4
 40
1.0
 49
0.5
 74
     0
 49
-0.25
 74
     0
 49
0.0
 74
     0
 49
-0.25
 74
     0
  0
ENDTAB
  0
TABLE
  2
LAYER
  5
2
330
0
100
AcDbSymbolTable
 70
     4
  0
LAYER
  5
10
330
2
100
AcDbSymbolTableRecord
100
AcDbLayerTableRecord
  2
0
 70
     0
 62
     7
  6
Continuous
370
    -3
390
F
347
46
  0
LAYER
  5
72
330
2
100
AcDbSymbolTableRecord
100
AcDbLayerTableRecord
  2
Layer0
 70
     0
 62
     7
  6
Continuous
370
    -3
390
F
347
46
  0
LAYER
  5
73
330
2
100
AcDbSymbolTableRecord
100
AcDbLayerTableRecord
  2
Layer1
 70
     0
 62
     7
  6
Continuous
370
    -3
390
F
347
46
  0
LAYER
  5
74
330
2
100
AcDbSymbolTableRecord
100
AcDbLayerTableRecord
  2
Layer100
 70
     0
 62
    18
420
        0
  6
Continuous
370
    -3
390
F
347
46
  0
ENDTAB
  0
TABLE
  2
STYLE
  5
3
330
0
100
AcDbSymbolTable
 70
     3
  0
STYLE
  5
11
330
3
100
AcDbSymbolTableRecord
100
AcDbTextStyleTableRecord
  2
Standard
 70
     0
 40
0.0
 41
1.0
 50
0.0
 71
     0
 42
2.5
  3
txt
  4

  0
STYLE
  5
6F
330
3
100
AcDbSymbolTableRecord
100
AcDbTextStyleTableRecord
  2
Arial
 70
     0
 40
0.0
 41
1.0
 50
0.0
 71
     0
 42
2.5
  3
arial.ttf
  4

1001
ACAD
1000
Arial
1071
        0
  0
STYLE
  5
71
330
3
100
AcDbSymbolTableRecord
100
AcDbTextStyleTableRecord
  2
Toleranzfont
 70
     0
 40
0.0
 41
1.0
 50
0.0
 71
     0
 42
2.5
  3
IGES1003.SHX
  4

  0
ENDTAB
  0
TABLE
  2
VIEW
  5
6
330
0
100
AcDbSymbolTable
 70
     0
  0
ENDTAB
  0
TABLE
  2
UCS
  5
7
330
0
100
AcDbSymbolTable
 70
     0
  0
ENDTAB
  0
TABLE
  2
APPID
  5
9
330
0
100
AcDbSymbolTable
 70
     1
  0
APPID
  5
12
330
9
100
AcDbSymbolTableRecord
100
AcDbRegAppTableRecord
  2
ACAD
 70
     0
  0
ENDTAB
  0
TABLE
  2
DIMSTYLE
  5
A
330
0
100
AcDbSymbolTable
 70
     1
100
AcDbDimStyleTable
  0
DIMSTYLE
105
27
102
{ACAD_REACTORS
330
94
330
A0
330
AC
330
B8
330
FC
102
}
330
A
100
AcDbSymbolTableRecord
100
AcDbDimStyleTableRecord
  2
ISO-25
 70
     0
 41
2.5
 42
0.625
 43
3.75
 44
1.25
 73
     0
 74
     0
 77
     1
 78
     8
140
2.5
141
2.5
143
0.03937007874
147
0.625
171
     3
172
     1
178
     0
271
     2
272
     2
274
     3
278
    44
283
     0
284
     8
340
11
  0
ENDTAB
  0
TABLE
  2
BLOCK_RECORD
  5
1
330
0
100
AcDbSymbolTable
 70
    15
  0
BLOCK_RECORD
  5
1F
330
1
100
AcDbSymbolTableRecord
100
AcDbBlockTableRecord
  2
*Model_Space
340
22
 70
     0
280
     1
281
     0
  0
BLOCK_RECORD
  5
1B
330
1
100
AcDbSymbolTableRecord
100
AcDbBlockTableRecord
  2
*Paper_Space
340
1E
 70
     0
280
     1
281
     0
  0
BLOCK_RECORD
  5
23
330
1
100
AcDbSymbolTableRecord
100
AcDbBlockTableRecord
  2
*Paper_Space0
340
26
 70
     0
280
     1
281
     0
  0
BLOCK_RECORD
  5
89
330
1
100
AcDbSymbolTableRecord
100
AcDbBlockTableRecord
  2
*D1
340
0
 70
     0
280
     1
281
     0
  0
BLOCK_RECORD
  5
95
330
1
100
AcDbSymbolTableRecord
100
AcDbBlockTableRecord
  2
*D2
340
0
 70
     0
280
     1
281
     0
  0
BLOCK_RECORD
  5
A1
330
1
100
AcDbSymbolTableRecord
100
AcDbBlockTableRecord
  2
*D3
340
0
 70
     0
280
     1
281
     0
  0
BLOCK_RECORD
  5
AD
330
1
100
AcDbSymbolTableRecord
100
AcDbBlockTableRecord
  2
*D4
340
0
 70
     0
280
     1
281
     0
  0
BLOCK_RECORD
  5
B9
330
1
100
AcDbSymbolTableRecord
100
AcDbBlockTableRecord
  2
_D_4_nNn04
340
0
102
{BLKREFS
331
C0
102
}
 70
     0
280
     1
281
     0
  0
BLOCK_RECORD
  5
C1
330
1
100
AcDbSymbolTableRecord
100
AcDbBlockTableRecord
  2
_D_5_nNn05
340
0
102
{BLKREFS
331
C7
102
}
 70
     0
280
     1
281
     0
  0
BLOCK_RECORD
  5
F0
330
1
100
AcDbSymbolTableRecord
100
AcDbBlockTableRecord
  2
*D7
340
0
 70
     0
280
     1
281
     0
  0
BLOCK_RECORD
  5
FD
330
1
100
AcDbSymbolTableRecord
100
AcDbBlockTableRecord
  2
A4-NABER_nNn07
340
0
102
{BLKREFS
331
173
102
}
 70
     0
280
     1
281
     0
  0
BLOCK_RECORD
  5
100
330
1
100
AcDbSymbolTableRecord
100
AcDbBlockTableRecord
  2
A4-NABER_nNn08
340
0
102
{BLKREFS
331
171
102
}
 70
     0
280
     1
281
     0
  0
BLOCK_RECORD
  5
103
330
1
100
AcDbSymbolTableRecord
100
AcDbBlockTableRecord
  2
A4-Textliste_nNn09
340
0
102
{BLKREFS
331
113
102
}
 70
     0
280
     1
281
     0
  0
BLOCK_RECORD
  5
106
330
1
100
AcDbSymbolTableRecord
100
AcDbBlockTableRecord
  2
Zeichnungskoordinaten_nNn010
340
0
102
{BLKREFS
331
10B
102
}
 70
     0
280
     1
281
     0
  0
BLOCK_RECORD
  5
10C
330
1
100
AcDbSymbolTableRecord
100
AcDbBlockTableRecord
  2
Zeichnungsrahmen_nNn011
340
0
102
{BLKREFS
331
112
102
}
 70
     0
280
     1
281
     0
  0
BLOCK_RECORD
  5
11F
330
1
100
AcDbSymbolTableRecord
100
AcDbBlockTableRecord
  2
Schriftfeld_nNn012
340
0
102
{BLKREFS
331
158
102
}
 70
     0
280
     1
281
     0
  0
BLOCK_RECORD
  5
159
330
1
100
AcDbSymbolTableRecord
100
AcDbBlockTableRecord
  2
Beschriftung_nNn013
340
0
102
{BLKREFS
331
164
102
}
 70
     0
280
     1
281
     0
  0
ENDTAB
  0
ENDSEC
  0
SECTION
  2
BLOCKS
  0
BLOCK
  5
20
330
1F
100
AcDbEntity
  8
0
100
AcDbBlockBegin
  2
*Model_Space
 70
     0
 10
0.0
 20
0.0
 30
0.0
  3
*Model_Space
  1

  0
ENDBLK
  5
21
330
1F
100
AcDbEntity
  8
0
100
AcDbBlockEnd
  0
BLOCK
  5
1C
330
1B
100
AcDbEntity
 67
     1
  8
0
100
AcDbBlockBegin
  2
*Paper_Space
 70
     0
 10
0.0
 20
0.0
 30
0.0
  3
*Paper_Space
  1

  0
ENDBLK
  5
1D
330
1B
100
AcDbEntity
 67
     1
  8
0
100
AcDbBlockEnd
  0
BLOCK
  5
24
330
23
100
AcDbEntity
  8
0
100
AcDbBlockBegin
  2
*Paper_Space0
 70
     0
 10
0.0
 20
0.0
 30
0.0
  3
*Paper_Space0
  1

  0
ENDBLK
  5
25
330
23
100
AcDbEntity
  8
0
100
AcDbBlockEnd
  0
BLOCK
  5
8A
330
89
100
AcDbEntity
  8
0
100
AcDbBlockBegin
  2
*D1
 70
     1
 10
0.0
 20
0.0
 30
0.0
  3
*D1
  1

  0
HATCH
  5
8C
330
89
100
AcDbEntity
  8
Layer1
  6
AUSGEZOGEN
 62
     7
370
    18
100
AcDbHatch
 10
0.0
 20
0.0
 30
0.0
210
0.0
220
0.0
230
1.0
  2
SOLID
 70
     1
 71
     0
 91
        1
 92
        2
 72
     0
 73
     1
 93
        3
 10
35.86943898405914
 20
646.7081368963088
 10
47.86943898405914
 20
644.3081368963088
 10
47.86943898405914
 20
649.1081368963088
 97
        0
 75
     0
 76
     1
 98
        0
  0
HATCH
  5
8D
330
89
100
AcDbEntity
  8
Layer1
  6
AUSGEZOGEN
 62
     7
370
    18
100
AcDbHatch
 10
0.0
 20
0.0
 30
0.0
210
0.0
220
0.0
230
1.0
  2
SOLID
 70
     1
 71
     0
 91
        1
 92
        2
 72
     0
 73
     1
 93
        3
 10
250.8694389840592
 20
646.7081368963088
 10
238.8694389840592
 20
649.1081368963088
 10
238.8694389840592
 20
644.3081368963088
 97
        0
 75
     0
 76
     1
 98
        0
  0
LINE
  5
8E
330
89
100
AcDbEntity
  8
Layer1
  6
AUSGEZOGEN
 62
     7
370
    18
100
AcDbLine
 10
238.869438984059
 20
646.708136896309
 30
0.0
 11
47.869438984059
 21
646.708136896309
 31
0.0
  0
LINE
  5
8F
330
89
100
AcDbEntity
  8
Layer1
  6
AUSGEZOGEN
 62
     7
370
    18
100
AcDbLine
 10
250.869438984059
 20
579.208136896309
 30
0.0
 11
250.869438984059
 21
650.708136896309
 31
0.0
  0
LINE
  5
90
330
89
100
AcDbEntity
  8
Layer1
  6
AUSGEZOGEN
 62
     7
370
    18
100
AcDbLine
 10
35.869438984059
 20
579.208136896309
 30
0.0
 11
35.869438984059
 21
650.708136896309
 31
0.0
  0
TEXT
  5
91
330
89
100
AcDbEntity
  8
Layer1
  6
AUSGEZOGEN
 62
     7
370
    18
100
AcDbText
 10
131.761504286101
 20
649.780127415908
 30
0.0
 40
7.0
  1
215
 41
0.820056232427
  7
Arial
 72
     5
 11
145.125140649738
 21
649.780127415908
 31
0.0
100
AcDbText
  0
TEXT
  5
92
330
89
100
AcDbEntity
  8
Layer1
  6
AUSGEZOGEN
 62
     7
370
    18
100
AcDbText
 10
145.125140649738
 20
654.750127415908
 30
0.0
 40
4.9
  1
+1.0
 41
0.819446735962
  7
Arial
 72
     5
 11
156.187261861859
 21
654.750127415908
 31
0.0
100
AcDbText
  0
TEXT
  5
93
330
89
100
AcDbEntity
  8
Layer1
  6
AUSGEZOGEN
 62
     7
370
    18
100
AcDbText
 10
145.125140649738
 20
646.910127415908
 30
0.0
 40
4.9
  1
-0.0
 41
0.819000819001
  7
Arial
 72
     5
 11
154.776655801253
 21
646.910127415908
 31
0.0
100
AcDbText
  0
ENDBLK
  5
8B
330
89
100
AcDbEntity
  8
0
100
AcDbBlockEnd
  0
BLOCK
  5
96
330
95
100
AcDbEntity
  8
0
100
AcDbBlockBegin
  2
*D2
 70
     1
 10
0.0
 20
0.0
 30
0.0
  3
*D2
  1

  0
HATCH
  5
98
330
95
100
AcDbEntity
  8
Layer1
  6
AUSGEZOGEN
 62
     7
370
    18
100
AcDbHatch
 10
0.0
 20
0.0
 30
0.0
210
0.0
220
0.0
230
1.0
  2
SOLID
 70
     1
 71
     0
 91
        1
 92
        2
 72
     0
 73
     1
 93
        3
 10
325.3694389840592
 20
496.2081368963088
 10
327.7694389840591
 20
508.2081368963088
 10
322.9694389840592
 20
508.2081368963088
 97
        0
 75
     0
 76
     1
 98
        0
  0
HATCH
  5
99
330
95
100
AcDbEntity
  8
Layer1
  6
AUSGEZOGEN
 62
     7
370
    18
100
AcDbHatch
 10
0.0
 20
0.0
 30
0.0
210
0.0
220
0.0
230
1.0
  2
SOLID
 70
     1
 71
     0
 91
        1
 92
        2
 72
     0
 73
     1
 93
        3
 10
325.3694389840592
 20
584.2081368963088
 10
322.9694389840592
 20
572.2081368963088
 10
327.7694389840591
 20
572.2081368963088
 97
        0
 75
     0
 76
     1
 98
        0
  0
LINE
  5
9A
330
95
100
AcDbEntity
  8
Layer1
  6
AUSGEZOGEN
 62
     7
370
    18
100
AcDbLine
 10
325.369438984059
 20
572.208136896309
 30
0.0
 11
325.369438984059
 21
508.208136896309
 31
0.0
  0
LINE
  5
9B
330
95
100
AcDbEntity
  8
Layer1
  6
AUSGEZOGEN
 62
     7
370
    18
100
AcDbLine
 10
245.869438984059
 20
584.208136896309
 30
0.0
 11
329.369438984059
 21
584.208136896309
 31
0.0
  0
LINE
  5
9C
330
95
100
AcDbEntity
  8
Layer1
  6
AUSGEZOGEN
 62
     7
370
    18
100
AcDbLine
 10
245.869438984059
 20
496.208136896309
 30
0.0
 11
329.369438984059
 21
496.208136896309
 31
0.0
  0
TEXT
  5
9D
330
95
100
AcDbEntity
  8
Layer1
  6
AUSGEZOGEN
 62
     7
370
    18
100
AcDbText
 10
321.880987747726
 20
529.540148445087
 30
0.0
 40
7.0
  1
88
 50
90.0
 41
0.820056232427
  7
Arial
 72
     5
 11
321.880987747726
 21
538.449239354178
 31
0.0
100
AcDbText
  0
TEXT
  5
9E
330
95
100
AcDbEntity
  8
Layer1
  6
AUSGEZOGEN
 62
     7
370
    18
100
AcDbText
 10
316.910987747726
 20
538.449239354178
 30
0.0
 40
4.9
  1
+1.0
 50
90.0
 41
0.819446735962
  7
Arial
 72
     5
 11
316.910987747726
 21
549.511360566299
 31
0.0
100
AcDbText
  0
TEXT
  5
9F
330
95
100
AcDbEntity
  8
Layer1
  6
AUSGEZOGEN
 62
     7
370
    18
100
AcDbText
 10
324.750987747726
 20
538.449239354178
 30
0.0
 40
4.9
  1
-0.0
 50
90.0
 41
0.819000819001
  7
Arial
 72
     5
 11
324.750987747726
 21
548.100754505693
 31
0.0
100
AcDbText
  0
ENDBLK
  5
97
330
95
100
AcDbEntity
  8
0
100
AcDbBlockEnd
  0
BLOCK
  5
A2
330
A1
100
AcDbEntity
  8
0
100
AcDbBlockBegin
  2
*D3
 70
     1
 10
0.0
 20
0.0
 30
0.0
  3
*D3
  1

  0
HATCH
  5
A4
330
A1
100
AcDbEntity
  8
Layer1
  6
AUSGEZOGEN
 62
     7
370
    18
100
AcDbHatch
 10
0.0
 20
0.0
 30
0.0
210
0.0
220
0.0
230
1.0
  2
SOLID
 70
     1
 71
     0
 91
        1
 92
        2
 72
     0
 73
     1
 93
        3
 10
-26.63056101594086
 20
592.9581368963088
 10
-29.03056101594086
 20
580.9581368963088
 10
-24.23056101594086
 20
580.9581368963088
 97
        0
 75
     0
 76
     1
 98
        0
  0
HATCH
  5
A5
330
A1
100
AcDbEntity
  8
Layer1
  6
AUSGEZOGEN
 62
     7
370
    18
100
AcDbHatch
 10
0.0
 20
0.0
 30
0.0
210
0.0
220
0.0
230
1.0
  2
SOLID
 70
     1
 71
     0
 91
        1
 92
        2
 72
     0
 73
     1
 93
        3
 10
-26.63056101594086
 20
487.4581368963088
 10
-24.23056101594086
 20
499.4581368963088
 10
-29.03056101594085
 20
499.4581368963088
 97
        0
 75
     0
 76
     1
 98
        0
  0
LINE
  5
A6
330
A1
100
AcDbEntity
  8
Layer1
  6
AUSGEZOGEN
 62
     7
370
    18
100
AcDbLine
 10
-26.630561015941
 20
499.458136896309
 30
0.0
 11
-26.630561015941
 21
580.958136896309
 31
0.0
  0
LINE
  5
A7
330
A1
100
AcDbEntity
  8
Layer1
  6
AUSGEZOGEN
 62
     7
370
    18
100
AcDbLine
 10
32.869438984059
 20
487.458136896309
 30
0.0
 11
-30.630561015941
 21
487.458136896309
 31
0.0
  0
LINE
  5
A8
330
A1
100
AcDbEntity
  8
Layer1
  6
AUSGEZOGEN
 62
     7
370
    18
100
AcDbLine
 10
32.869438984059
 20
592.958136896309
 30
0.0
 11
-30.630561015941
 21
592.958136896309
 31
0.0
  0
TEXT
  5
A9
330
A1
100
AcDbEntity
  8
Layer1
  6
AUSGEZOGEN
 62
     7
370
    18
100
AcDbText
 10
-29.36418620677
 20
524.319839326937
 30
0.0
 40
7.0
  1
105.5
 50
90.0
 41
0.820056232427
  7
Arial
 72
     5
 11
-29.36418620677
 21
544.365293872391
 31
0.0
100
AcDbText
  0
TEXT
  5
AA
330
A1
100
AcDbEntity
  8
Layer1
  6
AUSGEZOGEN
 62
     7
370
    18
100
AcDbText
 10
-34.33418620677
 20
544.365293872391
 30
0.0
 40
4.9
  1
+0.3
 50
90.0
 41
0.819446735962
  7
Arial
 72
     5
 11
-34.33418620677
 21
555.427415084512
 31
0.0
100
AcDbText
  0
TEXT
  5
AB
330
A1
100
AcDbEntity
  8
Layer1
  6
AUSGEZOGEN
 62
     7
370
    18
100
AcDbText
 10
-26.49418620677
 20
544.365293872391
 30
0.0
 40
4.9
  1
-0.0
 50
90.0
 41
0.819000819001
  7
Arial
 72
     5
 11
-26.49418620677
 21
554.016809023906
 31
0.0
100
AcDbText
  0
ENDBLK
  5
A3
330
A1
100
AcDbEntity
  8
0
100
AcDbBlockEnd
  0
BLOCK
  5
AE
330
AD
100
AcDbEntity
  8
0
100
AcDbBlockBegin
  2
*D4
 70
     1
 10
0.0
 20
0.0
 30
0.0
  3
*D4
  1

  0
HATCH
  5
B0
330
AD
100
AcDbEntity
  8
Layer1
  6
AUSGEZOGEN
 62
     7
370
    18
100
AcDbHatch
 10
0.0
 20
0.0
 30
0.0
210
0.0
220
0.0
230
1.0
  2
SOLID
 70
     1
 71
     0
 91
        1
 92
        2
 72
     0
 73
     1
 93
        3
 10
256.3694389840592
 20
670.7081368963088
 10
244.3694389840592
 20
673.1081368963088
 10
244.3694389840592
 20
668.3081368963088
 97
        0
 75
     0
 76
     1
 98
        0
  0
HATCH
  5
B1
330
AD
100
AcDbEntity
  8
Layer1
  6
AUSGEZOGEN
 62
     7
370
    18
100
AcDbHatch
 10
0.0
 20
0.0
 30
0.0
210
0.0
220
0.0
230
1.0
  2
SOLID
 70
     1
 71
     0
 91
        1
 92
        2
 72
     0
 73
     1
 93
        3
 10
30.36943898405914
 20
670.7081368963088
 10
42.36943898405914
 20
668.3081368963088
 10
42.36943898405914
 20
673.1081368963088
 97
        0
 75
     0
 76
     1
 98
        0
  0
LINE
  5
B2
330
AD
100
AcDbEntity
  8
Layer1
  6
AUSGEZOGEN
 62
     7
370
    18
100
AcDbLine
 10
42.369438984059
 20
670.708136896309
 30
0.0
 11
244.369438984059
 21
670.708136896309
 31
0.0
  0
LINE
  5
B3
330
AD
100
AcDbEntity
  8
Layer1
  6
AUSGEZOGEN
 62
     7
370
    18
100
AcDbLine
 10
30.369438984059
 20
590.458136896309
 30
0.0
 11
30.369438984059
 21
674.708136896309
 31
0.0
  0
LINE
  5
B4
330
AD
100
AcDbEntity
  8
Layer1
  6
AUSGEZOGEN
 62
     7
370
    18
100
AcDbLine
 10
256.369438984059
 20
590.458136896309
 30
0.0
 11
256.369438984059
 21
674.708136896309
 31
0.0
  0
TEXT
  5
B5
330
AD
100
AcDbEntity
  8
Layer1
  6
AUSGEZOGEN
 62
     7
370
    18
100
AcDbText
 10
132.108927801388
 20
674.131216418095
 30
0.0
 40
7.0
  1
226
 41
0.820056232427
  7
Arial
 72
     5
 11
145.472564165024
 21
674.131216418095
 31
0.0
100
AcDbText
  0
TEXT
  5
B6
330
AD
100
AcDbEntity
  8
Layer1
  6
AUSGEZOGEN
 62
     7
370
    18
100
AcDbText
 10
145.472564165024
 20
679.101216418095
 30
0.0
 40
4.9
  1
+0.3
 41
0.819446735962
  7
Arial
 72
     5
 11
156.534685377145
 21
679.101216418095
 31
0.0
100
AcDbText
  0
TEXT
  5
B7
330
AD
100
AcDbEntity
  8
Layer1
  6
AUSGEZOGEN
 62
     7
370
    18
100
AcDbText
 10
145.472564165024
 20
671.261216418095
 30
0.0
 40
4.9
  1
-0.0
 41
0.819000819001
  7
Arial
 72
     5
 11
155.124079316539
 21
671.261216418095
 31
0.0
100
AcDbText
  0
ENDBLK
  5
AF
330
AD
100
AcDbEntity
  8
0
100
AcDbBlockEnd
  0
BLOCK
  5
BA
330
B9
100
AcDbEntity
  8
0
100
AcDbBlockBegin
  2
_D_4_nNn04
 70
     0
 10
0.0
 20
0.0
 30
0.0
  3
_D_4_nNn04
  1

  0
HATCH
  5
BC
330
B9
100
AcDbEntity
  8
Layer1
  6
AUSGEZOGEN
 62
     7
370
    18
100
AcDbHatch
 10
0.0
 20
0.0
 30
0.0
210
0.0
220
0.0
230
1.0
  2
SOLID
 70
     1
 71
     0
 91
        1
 92
        2
 72
     0
 73
     1
 93
        3
 10
255.6372059370592
 20
592.2259038493088
 10
265.3952795174591
 20
599.4383930173088
 10
262.8496951050591
 20
601.9839774295087
 97
        0
 75
     0
 76
     1
 98
        0
  0
LINE
  5
BD
330
B9
100
AcDbEntity
  8
Layer1
  6
AUSGEZOGEN
 62
     7
370
    18
100
AcDbLine
 10
255.637205937059
 20
592.225903849309
 30
0.0
 11
314.144140023459
 21
650.732837935709
 31
0.0
  0
LINE
  5
BE
330
B9
100
AcDbEntity
  8
Layer1
  6
AUSGEZOGEN
 62
     7
370
    18
100
AcDbLine
 10
255.637205937059
 20
592.225903849309
 30
0.0
 11
253.869438984059
 21
590.458136896309
 31
0.0
  0
TEXT
  5
BF
330
B9
100
AcDbEntity
  8
Layer1
  6
AUSGEZOGEN
 62
     7
370
    18
100
AcDbText
 10
299.572541382365
 20
639.002026682403
 30
0.0
 40
7.0
  1
R2,5
 50
45.0
 41
0.805630936228
  7
Arial
 72
     5
 11
311.328191619591
 21
650.757676919629
 31
0.0
100
AcDbText
  0
ENDBLK
  5
BB
330
B9
100
AcDbEntity
  8
0
100
AcDbBlockEnd
  0
BLOCK
  5
C2
330
C1
100
AcDbEntity
  8
0
100
AcDbBlockBegin
  2
_D_5_nNn05
 70
     0
 10
0.0
 20
0.0
 30
0.0
  3
_D_5_nNn05
  1

  0
HATCH
  5
C4
330
C1
100
AcDbEntity
  8
Layer1
  6
AUSGEZOGEN
 62
     7
370
    18
100
AcDbHatch
 10
0.0
 20
0.0
 30
0.0
210
0.0
220
0.0
230
1.0
  2
SOLID
 70
     1
 71
     0
 91
        1
 92
        2
 72
     0
 73
     1
 93
        3
 10
37.33390507705914
 20
582.7436708013088
 10
44.46537684625915
 20
572.9262317051088
 10
47.03194457165915
 20
575.4506583947087
 97
        0
 75
     0
 76
     1
 98
        0
  0
LINE
  5
C5
330
C1
100
AcDbEntity
  8
Layer1
  6
AUSGEZOGEN
 62
     7
370
    18
100
AcDbLine
 10
37.333905077059
 20
582.743670801309
 30
0.0
 11
57.108918100659
 21
562.638547366109
 31
0.0
  0
TEXT
  5
C6
330
C1
100
AcDbEntity
  8
Layer1
  6
AUSGEZOGEN
 62
     7
370
    18
100
AcDbText
 10
50.87449599667
 20
571.734593598486
 30
0.0
 40
7.0
  1
R5
 50
315.000000015244
 41
0.70067264574
  7
Arial
 72
     5
 11
57.061680333699
 21
565.54740926475
 31
0.0
100
AcDbText
  0
ENDBLK
  5
C3
330
C1
100
AcDbEntity
  8
0
100
AcDbBlockEnd
  0
BLOCK
  5
F1
330
F0
100
AcDbEntity
  8
0
100
AcDbBlockBegin
  2
*D7
 70
     1
 10
0.0
 20
0.0
 30
0.0
  3
*D7
  1

  0
HATCH
  5
F3
330
F0
100
AcDbEntity
  8
Layer1
  6
AUSGEZOGEN
 62
     7
370
    18
100
AcDbHatch
 10
0.0
 20
0.0
 30
0.0
210
0.0
220
0.0
230
1.0
  2
SOLID
 70
     1
 71
     0
 91
        1
 92
        2
 72
     0
 73
     1
 93
        3
 10
209.7178430772591
 20
297.0732160859088
 10
212.1178430772592
 20
309.0732160859088
 10
207.3178430772591
 20
309.0732160859088
 97
        0
 75
     0
 76
     1
 98
        0
  0
HATCH
  5
F4
330
F0
100
AcDbEntity
  8
Layer1
  6
AUSGEZOGEN
 62
     7
370
    18
100
AcDbHatch
 10
0.0
 20
0.0
 30
0.0
210
0.0
220
0.0
230
1.0
  2
SOLID
 70
     1
 71
     0
 91
        1
 92
        2
 72
     0
 73
     1
 93
        3
 10
209.7178430772591
 20
299.4114846761088
 10
207.3178430772591
 20
287.4114846761088
 10
212.1178430772592
 20
287.4114846761088
 97
        0
 75
     0
 76
     1
 98
        0
  0
LINE
  5
F5
330
F0
100
AcDbEntity
  8
Layer1
  6
AUSGEZOGEN
 62
     7
370
    18
100
AcDbLine
 10
209.717843077259
 20
287.411484676109
 30
0.0
 11
209.717843077259
 21
309.073216085909
 31
0.0
  0
LINE
  5
F6
330
F0
100
AcDbEntity
  8
Layer1
  6
AUSGEZOGEN
 62
     7
370
    18
100
AcDbLine
 10
209.717843077259
 20
309.073216085909
 30
0.0
 11
209.717843077259
 21
309.599887292951
 31
0.0
  0
LINE
  5
F7
330
F0
100
AcDbEntity
  8
Layer1
  6
AUSGEZOGEN
 62
     7
370
    18
100
AcDbLine
 10
256.250627781459
 20
299.411484676109
 30
0.0
 11
205.717843077259
 21
299.411484676109
 31
0.0
  0
LINE
  5
F8
330
F0
100
AcDbEntity
  8
Layer1
  6
AUSGEZOGEN
 62
     7
370
    18
100
AcDbLine
 10
256.250627781459
 20
297.073216085909
 30
0.0
 11
205.717843077259
 21
297.073216085909
 31
0.0
  0
TEXT
  5
F9
330
F0
100
AcDbEntity
  8
Layer1
  6
AUSGEZOGEN
 62
     7
370
    18
100
AcDbText
 10
204.447424551259
 20
287.401402444466
 30
0.0
 40
7.0
  1
2.3
 50
90.0
 41
0.820056232427
  7
Arial
 72
     5
 11
204.447424551259
 21
298.53776608083
 31
0.0
100
AcDbText
  0
TEXT
  5
FA
330
F0
100
AcDbEntity
  8
Layer1
  6
AUSGEZOGEN
 62
     7
370
    18
100
AcDbText
 10
199.477424551259
 20
298.53776608083
 30
0.0
 40
4.9
  1
+0.1
 50
90.0
 41
0.819446735962
  7
Arial
 72
     5
 11
199.477424551259
 21
309.599887292951
 31
0.0
100
AcDbText
  0
TEXT
  5
FB
330
F0
100
AcDbEntity
  8
Layer1
  6
AUSGEZOGEN
 62
     7
370
    18
100
AcDbText
 10
207.317424551259
 20
298.53776608083
 30
0.0
 40
4.9
  1
-0.0
 50
90.0
 41
0.819000819001
  7
Arial
 72
     5
 11
207.317424551259
 21
308.189281232345
 31
0.0
100
AcDbText
  0
ENDBLK
  5
F2
330
F0
100
AcDbEntity
  8
0
100
AcDbBlockEnd
  0
BLOCK
  5
FE
330
FD
100
AcDbEntity
  8
0
100
AcDbBlockBegin
  2
A4-NABER_nNn07
 70
     0
 10
0.0
 20
0.0
 30
0.0
  3
A4-NABER_nNn07
  1

  0
INSERT
  5
171
330
FD
100
AcDbEntity
  8
0
100
AcDbBlockReference
  2
A4-NABER_nNn08
 10
0.0
 20
0.0
 30
0.0
  0
TEXT
  5
172
330
FD
100
AcDbEntity
  8
Layer100
  6
AUSGEZOGEN
 62
    18
420
        0
370
    18
100
AcDbText
 10
187.762357276163
 20
43.424912910305
 30
0.0
 40
10.583333333333
  1
Einbaumaße
 41
0.90372298842
  7
Arial
 72
     5
 11
263.445467354105
 21
43.424912910305
 31
0.0
100
AcDbText
  0
ENDBLK
  5
FF
330
FD
100
AcDbEntity
  8
0
100
AcDbBlockEnd
  0
BLOCK
  5
101
330
100
100
AcDbEntity
  8
0
100
AcDbBlockBegin
  2
A4-NABER_nNn08
 70
     0
 10
0.0
 20
0.0
 30
0.0
  3
A4-NABER_nNn08
  1

  0
INSERT
  5
113
330
100
100
AcDbEntity
  8
0
100
AcDbBlockReference
  2
A4-Textliste_nNn09
 10
0.0
 20
0.0
 30
0.0
  0
LINE
  5
114
330
100
100
AcDbEntity
  8
Layer1
  6
AUSGEZOGEN
 62
    18
420
        0
370
    18
100
AcDbLine
 10
-148.601588361026
 20
-90.458136896309
 30
0.0
 11
-148.601588361026
 21
797.241863103691
 31
0.0
  0
LINE
  5
115
330
100
100
AcDbEntity
  8
Layer1
  6
AUSGEZOGEN
 62
    18
420
        0
370
    18
100
AcDbLine
 10
-148.601588361026
 20
-90.458136896309
 30
0.0
 11
451.398411638974
 21
-90.458136896309
 31
0.0
  0
LINE
  5
116
330
100
100
AcDbEntity
  8
Layer1
  6
AUSGEZOGEN
 62
    18
420
        0
370
    18
100
AcDbLine
 10
451.398411638974
 20
-90.458136896309
 30
0.0
 11
451.398411638974
 21
797.241863103691
 31
0.0
  0
LINE
  5
117
330
100
100
AcDbEntity
  8
Layer1
  6
AUSGEZOGEN
 62
    18
420
        0
370
    18
100
AcDbLine
 10
-148.601588361026
 20
797.241863103691
 30
0.0
 11
451.398411638974
 21
797.241863103691
 31
0.0
  0
LINE
  5
118
330
100
100
AcDbEntity
  8
Layer100
  6
AUSGEZOGEN
 62
    18
420
        0
370
    50
100
AcDbLine
 10
-133.601588361026
 20
-75.458136896309
 30
0.0
 11
-133.601588361026
 21
90.293474840849
 31
0.0
  0
TEXT
  5
119
330
100
100
AcDbEntity
  8
Layer100
  6
AUSGEZOGEN
 62
    18
420
        0
370
    50
100
AcDbText
 10
72.866522416006
 20
78.29414157931
 30
0.0
 40
4.233333333333
  1
Weitergabe und Vervielfältigung,
 50
0.000002504478
 41
1.085122205146
  7
Arial
 72
     5
 11
165.525722416006
 21
78.294145629572
 31
0.0
100
AcDbText
  0
TEXT
  5
11A
330
100
100
AcDbEntity
  8
Layer100
  6
AUSGEZOGEN
 62
    18
420
        0
370
    50
100
AcDbText
 10
72.895097712078
 20
71.520808247226
 30
0.0
 40
4.233333333333
  1
sowie Verwertung und Mitteilung
 50
0.000002504478
 41
1.084506693109
  7
Arial
 72
     5
 11
165.497147712078
 21
71.52081229499
 31
0.0
100
AcDbText
  0
TEXT
  5
11B
330
100
100
AcDbEntity
  8
Layer100
  6
AUSGEZOGEN
 62
    18
420
        0
370
    50
100
AcDbText
 10
68.67869800815
 20
64.747474729588
 30
0.0
 40
4.233333333333
  1
dieser Zeichnung ist nicht gestattet,
 50
0.000002504478
 41
1.087014938969
  7
Arial
 72
     5
 11
169.713548008149
 21
64.747479145961
 31
0.0
100
AcDbText
  0
TEXT
  5
11C
330
100
100
AcDbEntity
  8
Layer100
  6
AUSGEZOGEN
 62
    18
420
        0
370
    50
100
AcDbText
 10
72.107698304221
 20
57.974141546141
 30
0.0
 40
4.233333333333
  1
soweit nicht ausdrücklich erlaubt.
 50
0.000002504478
 41
1.086254882812
  7
Arial
 72
     5
 11
166.284548304221
 21
57.974145662742
 31
0.0
100
AcDbText
  0
TEXT
  5
11D
330
100
100
AcDbEntity
  8
Layer100
  6
AUSGEZOGEN
 62
    18
420
        0
370
    50
100
AcDbText
 10
84.280648600293
 20
51.200808744904
 30
0.0
 40
4.233333333333
  1
Alle Rechte vorbehalten!
 50
0.000002504478
 41
1.084802051822
  7
Arial
 72
     5
 11
154.111598600293
 21
51.200811797312
 31
0.0
100
AcDbText
  0
LINE
  5
11E
330
100
100
AcDbEntity
  8
Layer100
  6
AUSGEZOGEN
 62
    18
420
        0
370
    50
100
AcDbLine
 10
436.398411638974
 20
90.291863103691
 30
0.0
 11
-133.601588361026
 21
90.293474840849
 31
0.0
  0
INSERT
  5
158
330
100
100
AcDbEntity
  8
0
100
AcDbBlockReference
  2
Schriftfeld_nNn012
 10
0.0
 20
0.0
 30
0.0
  0
INSERT
  5
164
330
100
100
AcDbEntity
  8
0
100
AcDbBlockReference
  2
Beschriftung_nNn013
 10
0.0
 20
0.0
 30
0.0
  0
TEXT
  5
165
330
100
100
AcDbEntity
  8
Layer100
  6
AUSGEZOGEN
 62
    18
420
        0
370
    18
100
AcDbText
 10
-107.558103417718
 20
29.794412911944
 30
0.0
 40
6.349999666214
  1
-
 41
0.967741971819
  7
Arial
 72
     5
 11
-104.700603460633
 21
29.794412911944
 31
0.0
100
AcDbText
  0
TEXT
  5
166
330
100
100
AcDbEntity
  8
Layer100
  6
AUSGEZOGEN
 62
    18
420
        0
370
    18
100
AcDbText
 10
-83.854279346588
 20
29.90219773619
 30
0.0
 40
6.349999666214
  1
-
 41
0.967741971819
  7
Arial
 72
     5
 11
-80.996779389503
 21
29.90219773619
 31
0.0
100
AcDbText
  0
TEXT
  5
167
330
100
100
AcDbEntity
  8
Layer100
  6
AUSGEZOGEN
 62
    18
420
        0
370
    18
100
AcDbText
 10
-8.160970657733
 20
29.907454733714
 30
0.0
 40
6.349999666214
  1
-
 41
0.967741971819
  7
Arial
 72
     5
 11
-5.303470700649
 21
29.907454733714
 31
0.0
100
AcDbText
  0
TEXT
  5
168
330
100
100
AcDbEntity
  8
Layer100
  6
AUSGEZOGEN
 62
    18
420
        0
370
    18
100
AcDbText
 10
33.445042222362
 20
29.907454733714
 30
0.0
 40
6.349999666214
  1
-
 41
0.967741971819
  7
Arial
 72
     5
 11
36.302542179447
 21
29.907454733714
 31
0.0
100
AcDbText
  0
TEXT
  5
169
330
100
100
AcDbEntity
  8
Layer100
  6
AUSGEZOGEN
 62
    18
420
        0
370
    18
100
AcDbText
 10
54.1629939328
 20
-22.685442190725
 30
0.0
 40
3.873380611636
  1
Naber GmbH
 41
0.96475869975
  7
Arial
 72
     5
 11
84.887601909581
 21
-22.685442190725
 31
0.0
100
AcDbText
  0
TEXT
  5
16A
330
100
100
AcDbEntity
  8
Layer100
  6
AUSGEZOGEN
 62
    18
420
        0
370
    18
100
AcDbText
 10
54.1629939328
 20
-27.720836801154
 30
0.0
 40
3.873380611636
  1
Enschedestr. 24
 41
0.976824042946
  7
Arial
 72
     5
 11
92.324497594629
 21
-27.720836801154
 31
0.0
100
AcDbText
  0
TEXT
  5
16B
330
100
100
AcDbEntity
  8
Layer100
  6
AUSGEZOGEN
 62
    18
420
        0
370
    18
100
AcDbText
 10
54.1629939328
 20
-32.756231411584
 30
0.0
 40
3.873380611636
  1
48529 Nordhorn
 41
0.972993785506
  7
Arial
 72
     5
 11
92.174861245711
 21
-32.756231411584
 31
0.0
100
AcDbText
  0
TEXT
  5
16C
330
100
100
AcDbEntity
  8
Layer100
  6
AUSGEZOGEN
 62
    18
420
        0
370
    18
100
AcDbText
 10
54.1629939328
 20
-42.827020632444
 30
0.0
 40
3.873380611636
  1
0049-(0)5921-704-0
 41
0.975798499711
  7
Arial
 72
     5
 11
101.079652711232
 21
-42.827020632444
 31
0.0
100
AcDbText
  0
IMAGE
  5
16F
330
100
100
AcDbEntity
  8
Layer0
  6
AUSGEZOGEN
 62
    18
420
        0
370
    18
160
               140
310
8C0000000100000084000000060000000500000000106705EB8B5B40B0886BE7C53845C00000000000000000488B2580C2D26640B0886BE7C53845C00000000000000000488B2580C2D266402091B3DC56812EC0000000000000000000106705EB8B5B402091B3DC56812EC0000000000000000000106705EB8B5B40B0886B
310
E7C53845C00000000000000000
100
AcDbRasterImage
 90
        0
 10
110.186219549796
 20
-42.443539550311
 30
0.0
 11
0.01914837958104111
 21
0.0
 31
0.0
 12
0.0
 22
0.02883448962880801
 32
0.0
 13
3781.0
 23
943.0
340
16E
 70
     7
280
     0
281
    50
282
    50
283
     0
360
170
 71
     1
 91
        2
 14
-0.5
 24
-0.5
 14
3780.5
 24
942.5
290
     0
  0
ENDBLK
  5
102
330
100
100
AcDbEntity
  8
0
100
AcDbBlockEnd
  0
BLOCK
  5
104
330
103
100
AcDbEntity
  8
0
100
AcDbBlockBegin
  2
A4-Textliste_nNn09
 70
     0
 10
0.0
 20
0.0
 30
0.0
  3
A4-Textliste_nNn09
  1

  0
INSERT
  5
10B
330
103
100
AcDbEntity
  8
0
100
AcDbBlockReference
  2
Zeichnungskoordinaten_nNn010
 10
0.0
 20
0.0
 30
0.0
  0
INSERT
  5
112
330
103
100
AcDbEntity
  8
0
100
AcDbBlockReference
  2
Zeichnungsrahmen_nNn011
 10
0.0
 20
0.0
 30
0.0
  0
ENDBLK
  5
105
330
103
100
AcDbEntity
  8
0
100
AcDbBlockEnd
  0
BLOCK
  5
107
330
106
100
AcDbEntity
  8
0
100
AcDbBlockBegin
  2
Zeichnungskoordinaten_nNn010
 70
     0
 10
0.0
 20
0.0
 30
0.0
  3
Zeichnungskoordinaten_nNn010
  1

  0
LINE
  5
109
330
106
100
AcDbEntity
  8
Layer100
  6
AUSGEZOGEN
 62
    18
420
        0
370
    18
100
AcDbLine
 10
-133.601588361026
 20
-75.458136896309
 30
0.0
 11
-133.601588361026
 21
782.241863103691
 31
0.0
  0
LINE
  5
10A
330
106
100
AcDbEntity
  8
Layer100
  6
AUSGEZOGEN
 62
    18
420
        0
370
    18
100
AcDbLine
 10
-133.601588361026
 20
782.241863103691
 30
0.0
 11
-118.601588361026
 21
782.241863103691
 31
0.0
  0
ENDBLK
  5
108
330
106
100
AcDbEntity
  8
0
100
AcDbBlockEnd
  0
BLOCK
  5
10D
330
10C
100
AcDbEntity
  8
0
100
AcDbBlockBegin
  2
Zeichnungsrahmen_nNn011
 70
     0
 10
0.0
 20
0.0
 30
0.0
  3
Zeichnungsrahmen_nNn011
  1

  0
LINE
  5
10F
330
10C
100
AcDbEntity
  8
Layer100
  6
AUSGEZOGEN
 62
    18
420
        0
370
    50
100
AcDbLine
 10
436.398411638974
 20
-75.458136896309
 30
0.0
 11
436.398411638974
 21
782.241863103691
 31
0.0
  0
LINE
  5
110
330
10C
100
AcDbEntity
  8
Layer100
  6
AUSGEZOGEN
 62
    18
420
        0
370
    50
100
AcDbLine
 10
-133.601588361026
 20
-75.458136896309
 30
0.0
 11
436.398411638974
 21
-75.458136896309
 31
0.0
  0
LINE
  5
111
330
10C
100
AcDbEntity
  8
Layer100
  6
AUSGEZOGEN
 62
    18
420
        0
370
    50
100
AcDbLine
 10
-118.601588361026
 20
782.241863103691
 30
0.0
 11
436.398411638974
 21
782.241863103691
 31
0.0
  0
ENDBLK
  5
10E
330
10C
100
AcDbEntity
  8
0
100
AcDbBlockEnd
  0
BLOCK
  5
120
330
11F
100
AcDbEntity
  8
0
100
AcDbBlockBegin
  2
Schriftfeld_nNn012
 70
     0
 10
0.0
 20
0.0
 30
0.0
  3
Schriftfeld_nNn012
  1

  0
LINE
  5
122
330
11F
100
AcDbEntity
  8
Layer100
  6
AUSGEZOGEN
 62
    18
420
        0
370
    50
100
AcDbLine
 10
51.558411638974
 20
90.291825035604
 30
0.0
 11
51.558411638974
 21
-75.458174964396
 31
0.0
  0
LINE
  5
123
330
11F
100
AcDbEntity
  8
Layer100
  6
AUSGEZOGEN
 62
    18
420
        0
370
    50
100
AcDbLine
 10
184.158411638974
 20
90.291842654427
 30
0.0
 11
184.158411638974
 21
-75.458157345573
 31
0.0
  0
LINE
  5
124
330
11F
100
AcDbEntity
  8
Layer100
  6
AUSGEZOGEN
 62
    18
420
        0
370
    18
100
AcDbLine
 10
-88.841588361026
 20
39.291820688218
 30
0.0
 11
-88.841588361026
 21
-75.458179311782
 31
0.0
  0
LINE
  5
125
330
11F
100
AcDbEntity
  8
Layer100
  6
AUSGEZOGEN
 62
    18
420
        0
370
    18
100
AcDbLine
 10
28.158411638974
 20
39.291732565276
 30
0.0
 11
28.158411638974
 21
-75.458267434724
 31
0.0
  0
LINE
  5
126
330
11F
100
AcDbEntity
  8
Layer100
  6
AUSGEZOGEN
 62
    18
420
        0
370
    18
100
AcDbLine
 10
-10.841588361026
 20
-75.458267434724
 30
0.0
 11
-10.841588361026
 21
90.291732565276
 31
0.0
  0
TEXT
  5
127
330
11F
100
AcDbEntity
  8
Layer100
  6
AUSGEZOGEN
 62
    18
420
        0
370
    18
100
AcDbText
 10
186.798411638973
 20
63.327863090817
 30
0.0
 40
4.95
  1
Rohstoff/Raw material
 41
1.084377276038
  7
Arial
 72
     5
 11
260.496486638973
 21
63.327863090817
 31
0.0
100
AcDbText
  0
TEXT
  5
128
330
11F
100
AcDbEntity
  8
Layer100
  6
AUSGEZOGEN
 62
    18
420
        0
370
    18
100
AcDbText
 10
186.798411638973
 20
31.452863090817
 30
0.0
 40
4.95
  1
Benennung/Designation
 41
1.081895683695
  7
Arial
 72
     5
 11
266.577561638973
 21
31.452863090817
 31
0.0
100
AcDbText
  0
TEXT
  5
129
330
11F
100
AcDbEntity
  8
Layer100
  6
AUSGEZOGEN
 62
    18
420
        0
370
    18
100
AcDbText
 10
186.408411638973
 20
-31.659636909183
 30
0.0
 40
4.95
  1
Sachnummer/Part-No.
 41
1.080626575441
  7
Arial
 72
     5
 11
260.680686638973
 21
-31.659636909183
 31
0.0
100
AcDbText
  0
LINE
  5
12A
330
11F
100
AcDbEntity
  8
Layer100
  6
AUSGEZOGEN
 62
    18
420
        0
370
    18
100
AcDbLine
 10
82.758411638974
 20
39.291863103691
 30
0.0
 11
82.758411638974
 21
1.041863103691
 31
0.0
  0
TEXT
  5
12B
330
11F
100
AcDbEntity
  8
Layer100
  6
AUSGEZOGEN
 62
    18
420
        0
370
    18
100
AcDbText
 10
53.807381099522
 20
7.54799293887
 30
0.0
 40
4.95
  1
Gepr.
 41
1.076768834145
  7
Arial
 72
     5
 11
72.414431099522
 21
7.54799293887
 31
0.0
100
AcDbText
  0
TEXT
  5
12C
330
11F
100
AcDbEntity
  8
Layer100
  6
AUSGEZOGEN
 62
    18
420
        0
370
    18
100
AcDbText
 10
53.807381099522
 20
1.11299293887
 30
0.0
 40
4.95
  1
Check.
 41
1.077923572744
  7
Arial
 72
     5
 11
76.985756099522
 21
1.11299293887
 31
0.0
100
AcDbText
  0
TEXT
  5
12D
330
11F
100
AcDbEntity
  8
Layer100
  6
AUSGEZOGEN
 62
    18
420
        0
370
    18
100
AcDbText
 10
85.007351048504
 20
33.050549335609
 30
0.0
 40
4.95
  1
Datum
 41
1.075650693262
  7
Arial
 72
     5
 11
106.896251048504
 21
33.050549335609
 31
0.0
100
AcDbText
  0
TEXT
  5
12E
330
11F
100
AcDbEntity
  8
Layer100
  6
AUSGEZOGEN
 62
    18
420
        0
370
    18
100
AcDbText
 10
85.007351048504
 20
26.615549335609
 30
0.0
 40
4.95
  1
Date
 41
1.076492537313
  7
Arial
 72
     5
 11
100.716176048504
 21
26.615549335609
 31
0.0
100
AcDbText
  0
TEXT
  5
12F
330
11F
100
AcDbEntity
  8
Layer100
  6
AUSGEZOGEN
 62
    18
420
        0
370
    18
100
AcDbText
 10
131.808411638973
 20
33.048863142315
 30
0.0
 40
4.95
  1
Name
 41
1.072387859253
  7
Arial
 72
     5
 11
151.571286638974
 21
33.048863142315
 31
0.0
100
AcDbText
  0
TEXT
  5
130
330
11F
100
AcDbEntity
  8
Layer100
  6
AUSGEZOGEN
 62
    18
420
        0
370
    18
100
AcDbText
 10
131.808411638973
 20
26.613863142315
 30
0.0
 40
4.95
  1
Name
 41
1.072387859253
  7
Arial
 72
     5
 11
151.571286638974
 21
26.613863142315
 31
0.0
100
AcDbText
  0
TEXT
  5
131
330
11F
100
AcDbEntity
  8
Layer100
  6
AUSGEZOGEN
 62
    18
420
        0
370
    18
100
AcDbText
 10
53.8008421035
 20
20.302374778776
 30
0.0
 40
4.95
  1
Bearb.
 41
1.078672178988
  7
Arial
 72
     5
 11
75.7565671035
 21
20.302374778776
 31
0.0
100
AcDbText
  0
TEXT
  5
132
330
11F
100
AcDbEntity
  8
Layer100
  6
AUSGEZOGEN
 62
    18
420
        0
370
    18
100
AcDbText
 10
53.8008421035
 20
13.867374778776
 30
0.0
 40
4.95
  1
Drawn
 41
1.075502107612
  7
Arial
 72
     5
 11
75.2714671035
 21
13.867374778776
 31
0.0
100
AcDbText
  0
TEXT
  5
133
330
11F
100
AcDbEntity
  8
Layer100
  6
AUSGEZOGEN
 62
    18
420
        0
370
    18
100
AcDbText
 10
-128.679031268941
 20
-68.799363103691
 30
0.0
 40
4.95
  1
Ausg.
 41
1.076912300364
  7
Arial
 72
     5
 11
-109.653706268941
 21
-68.799363103691
 31
0.0
100
AcDbText
  0
TEXT
  5
134
330
11F
100
AcDbEntity
  8
Layer100
  6
AUSGEZOGEN
 62
    18
420
        0
370
    18
100
AcDbText
 10
-128.679031268941
 20
-75.234363103691
 30
0.0
 40
4.95
  1
Issue
 41
1.078087529976
  7
Arial
 72
     5
 11
-110.876356268941
 21
-75.234363103691
 31
0.0
100
AcDbText
  0
TEXT
  5
135
330
11F
100
AcDbEntity
  8
Layer100
  6
AUSGEZOGEN
 62
    18
420
        0
370
    18
100
AcDbText
 10
-86.201588361026
 20
-68.951136857685
 30
0.0
 40
4.95
  1
Änderung
 41
1.077825512227
  7
Arial
 72
     5
 11
-53.912738361026
 21
-68.951136857685
 31
0.0
100
AcDbText
  0
TEXT
  5
136
330
11F
100
AcDbEntity
  8
Layer100
  6
AUSGEZOGEN
 62
    18
420
        0
370
    18
100
AcDbText
 10
-86.201588361026
 20
-75.386136857685
 30
0.0
 40
4.95
  1
Modification
 41
1.083926413321
  7
Arial
 72
     5
 11
-46.245188361026
 21
-75.386136857685
 31
0.0
100
AcDbText
  0
TEXT
  5
137
330
11F
100
AcDbEntity
  8
Layer100
  6
AUSGEZOGEN
 62
    18
420
        0
370
    18
100
AcDbText
 10
-8.591588361027
 20
-68.951136857685
 30
0.0
 40
4.95
  1
Datum
 41
1.075650693262
  7
Arial
 72
     5
 11
13.297311638973
 21
-68.951136857685
 31
0.0
100
AcDbText
  0
TEXT
  5
138
330
11F
100
AcDbEntity
  8
Layer100
  6
AUSGEZOGEN
 62
    18
420
        0
370
    18
100
AcDbText
 10
-8.591588361027
 20
-75.386136857685
 30
0.0
 40
4.95
  1
Date
 41
1.076492537313
  7
Arial
 72
     5
 11
7.117236638973
 21
-75.386136857685
 31
0.0
100
AcDbText
  0
TEXT
  5
139
330
11F
100
AcDbEntity
  8
Layer100
  6
AUSGEZOGEN
 62
    18
420
        0
370
    18
100
AcDbText
 10
30.408411638973
 20
-68.951136857685
 30
0.0
 40
4.95
  1
Name
 41
1.072387859253
  7
Arial
 72
     5
 11
50.171286638973
 21
-68.951136857685
 31
0.0
100
AcDbText
  0
TEXT
  5
13A
330
11F
100
AcDbEntity
  8
Layer100
  6
AUSGEZOGEN
 62
    18
420
        0
370
    18
100
AcDbText
 10
30.408411638973
 20
-75.386136857685
 30
0.0
 40
4.95
  1
Name
 41
1.072387859253
  7
Arial
 72
     5
 11
50.171286638973
 21
-75.386136857685
 31
0.0
100
AcDbText
  0
LINE
  5
13B
330
11F
100
AcDbEntity
  8
Layer100
  6
AUSGEZOGEN
 62
    18
420
        0
370
    18
100
AcDbLine
 10
129.558411638974
 20
39.291863103691
 30
0.0
 11
129.558411638974
 21
1.041863103691
 31
0.0
  0
TEXT
  5
13C
330
11F
100
AcDbEntity
  8
Layer100
  6
AUSGEZOGEN
 62
    18
420
        0
370
    18
100
AcDbText
 10
342.408411638973
 20
82.701863103691
 30
0.0
 40
4.95
  1
Menge
 41
1.074408249356
  7
Arial
 72
     5
 11
365.101686638973
 21
82.701863103691
 31
0.0
100
AcDbText
  0
TEXT
  5
13D
330
11F
100
AcDbEntity
  8
Layer100
  6
AUSGEZOGEN
 62
    18
420
        0
370
    18
100
AcDbText
 10
342.408411638973
 20
76.266863103691
 30
0.0
 40
4.95
  1
Quantity
 41
1.081088880339
  7
Arial
 72
     5
 11
370.224936638973
 21
76.266863103691
 31
0.0
100
AcDbText
  0
TEXT
  5
13E
330
11F
100
AcDbEntity
  8
Layer100
  6
AUSGEZOGEN
 62
    18
420
        0
370
    18
100
AcDbText
 10
187.188411638973
 20
82.773863142315
 30
0.0
 40
4.95
  1
Maßstab
 41
1.076703499079
  7
Arial
 72
     5
 11
216.128586638973
 21
82.773863142315
 31
0.0
100
AcDbText
  0
TEXT
  5
13F
330
11F
100
AcDbEntity
  8
Layer100
  6
AUSGEZOGEN
 62
    18
420
        0
370
    18
100
AcDbText
 10
187.188411638973
 20
76.338863142315
 30
0.0
 40
4.95
  1
Scale
 41
1.076768834145
  7
Arial
 72
     5
 11
205.795461638973
 21
76.338863142315
 31
0.0
100
AcDbText
  0
TEXT
  5
140
330
11F
100
AcDbEntity
  8
Layer100
  6
AUSGEZOGEN
 62
    18
420
        0
370
    18
100
AcDbText
 10
-6.641588361026
 20
83.226863103691
 30
0.0
 40
4.95
  1
 Maße in mm
 41
1.079690569745
  7
Arial
 72
     5
 11
36.883761638974
 21
83.226863103691
 31
0.0
100
AcDbText
  0
TEXT
  5
141
330
11F
100
AcDbEntity
  8
Layer100
  6
AUSGEZOGEN
 62
    18
420
        0
370
    18
100
AcDbText
 10
-6.641588361026
 20
76.791863103691
 30
0.0
 40
4.95
  1
Dimensions in
 41
1.081916714204
  7
Arial
 72
     5
 11
40.299261638974
 21
76.791863103691
 31
0.0
100
AcDbText
  0
TEXT
  5
142
330
11F
100
AcDbEntity
  8
Layer100
  6
AUSGEZOGEN
 62
    18
420
        0
370
    18
100
AcDbText
 10
-6.641588361026
 20
70.356863103691
 30
0.0
 40
4.95
  1
 millimeters
 41
1.084880260734
  7
Arial
 72
     5
 11
31.255611638974
 21
70.356863103691
 31
0.0
100
AcDbText
  0
CIRCLE
  5
143
330
11F
100
AcDbEntity
  8
Layer100
  6
AUSGEZOGEN
 62
    18
420
        0
370
    18
100
AcDbCircle
 10
30.065826475991
 20
52.099600593473
 30
0.0
 40
8.4176041224053
  0
CIRCLE
  5
144
330
11F
100
AcDbEntity
  8
Layer100
  6
AUSGEZOGEN
 62
    18
420
        0
370
    18
100
AcDbCircle
 10
30.065826475991
 20
52.099600593473
 30
0.0
 40
5.646700507614215
  0
LINE
  5
145
330
11F
100
AcDbEntity
  8
Layer100
  6
AUSGEZOGEN
 62
    18
420
        0
370
    18
100
AcDbLine
 10
-1.932143067156
 20
46.452900085859
 30
0.0
 11
-1.932143067156
 21
57.746301101087
 31
0.0
  0
LINE
  5
146
330
11F
100
AcDbEntity
  8
Layer100
  6
AUSGEZOGEN
 62
    18
420
        0
370
    18
100
AcDbLine
 10
15.949075206955
 20
43.681996471068
 30
0.0
 11
15.949075206955
 21
60.517204715878
 31
0.0
  0
LINE
  5
147
330
11F
100
AcDbEntity
  8
Layer100
  6
AUSGEZOGEN
 62
    18
420
        0
370
    18
100
AcDbLine
 10
-1.932143067156
 20
57.746301101087
 30
0.0
 11
15.949075206955
 21
60.517204715878
 31
0.0
  0
LINE
  5
148
330
11F
100
AcDbEntity
  8
Layer100
  6
AUSGEZOGEN
 62
    18
420
        0
370
    18
100
AcDbLine
 10
15.949075206955
 20
43.681996471068
 30
0.0
 11
-1.932143067156
 21
46.452900085859
 31
0.0
  0
LINE
  5
149
330
11F
100
AcDbEntity
  8
Layer100
  6
DASHDOT
 62
    18
420
        0
370
    18
100
AcDbLine
 10
30.065826475991
 20
41.747316342805
 30
0.0
 11
30.065826475991
 21
61.386926877107
 31
0.0
  0
LINE
  5
14A
330
11F
100
AcDbEntity
  8
Layer100
  6
DASHDOT
 62
    18
420
        0
370
    18
100
AcDbLine
 10
20.693933615441
 20
52.099600593473
 30
0.0
 11
39.481523175167
 21
52.099600593473
 31
0.0
  0
LINE
  5
14B
330
11F
100
AcDbEntity
  8
Layer100
  6
DASHDOT
 62
    18
420
        0
370
    18
100
AcDbLine
 10
-2.792563500659
 20
52.099600593473
 30
0.0
 11
16.753764691358
 21
52.099600593473
 31
0.0
  0
LINE
  5
14C
330
11F
100
AcDbEntity
  8
Layer100
  6
AUSGEZOGEN
 62
    18
420
        0
370
    50
100
AcDbLine
 10
-133.601588361026
 20
-62.708136896309
 30
0.0
 11
436.398411638974
 21
-62.708136896309
 31
0.0
  0
LINE
  5
14D
330
11F
100
AcDbEntity
  8
Layer100
  6
AUSGEZOGEN
 62
    18
420
        0
370
    18
100
AcDbLine
 10
-133.601588361026
 20
-49.958136896309
 30
0.0
 11
51.558411638974
 21
-49.958136896309
 31
0.0
  0
LINE
  5
14E
330
11F
100
AcDbEntity
  8
Layer100
  6
AUSGEZOGEN
 62
    18
420
        0
370
    18
100
AcDbLine
 10
-133.601588361026
 20
-37.208136896309
 30
0.0
 11
51.558411638974
 21
-37.208136896309
 31
0.0
  0
LINE
  5
14F
330
11F
100
AcDbEntity
  8
Layer100
  6
AUSGEZOGEN
 62
    18
420
        0
370
    50
100
AcDbLine
 10
184.158411638974
 20
-24.458136896309
 30
0.0
 11
436.398411638974
 21
-24.458136896309
 31
0.0
  0
LINE
  5
150
330
11F
100
AcDbEntity
  8
Layer100
  6
AUSGEZOGEN
 62
    18
420
        0
370
    18
100
AcDbLine
 10
-133.601588361026
 20
-24.458136896309
 30
0.0
 11
51.558411638974
 21
-24.458136896309
 31
0.0
  0
LINE
  5
151
330
11F
100
AcDbEntity
  8
Layer100
  6
AUSGEZOGEN
 62
    18
420
        0
370
    18
100
AcDbLine
 10
-133.601588361026
 20
-11.708136896309
 30
0.0
 11
51.558411638974
 21
-11.708136896309
 31
0.0
  0
LINE
  5
152
330
11F
100
AcDbEntity
  8
Layer100
  6
AUSGEZOGEN
 62
    18
420
        0
370
    18
100
AcDbLine
 10
-133.601588361026
 20
1.041863103691
 30
0.0
 11
184.158411638974
 21
1.041863103691
 31
0.0
  0
LINE
  5
153
330
11F
100
AcDbEntity
  8
Layer100
  6
AUSGEZOGEN
 62
    18
420
        0
370
    18
100
AcDbLine
 10
-133.601588361026
 20
13.791863103691
 30
0.0
 11
184.158411638974
 21
13.791863103691
 31
0.0
  0
LINE
  5
154
330
11F
100
AcDbEntity
  8
Layer100
  6
AUSGEZOGEN
 62
    18
420
        0
370
    18
100
AcDbLine
 10
-133.601588361026
 20
26.541863103691
 30
0.0
 11
184.158411638974
 21
26.541863103691
 31
0.0
  0
LINE
  5
155
330
11F
100
AcDbEntity
  8
Layer100
  6
AUSGEZOGEN
 62
    18
420
        0
370
    50
100
AcDbLine
 10
-133.601588361026
 20
39.291863103691
 30
0.0
 11
436.398411638974
 21
39.291863103691
 31
0.0
  0
LINE
  5
156
330
11F
100
AcDbEntity
  8
Layer100
  6
AUSGEZOGEN
 62
    18
420
        0
370
    50
100
AcDbLine
 10
340.158411638974
 20
90.291842654427
 30
0.0
 11
340.158411638974
 21
71.16714581997
 31
0.0
  0
LINE
  5
157
330
11F
100
AcDbEntity
  8
Layer100
  6
AUSGEZOGEN
 62
    18
420
        0
370
    50
100
AcDbLine
 10
436.398355457028
 20
71.166863103774
 30
0.0
 11
184.158411638974
 21
71.167604088386
 31
0.0
  0
ENDBLK
  5
121
330
11F
100
AcDbEntity
  8
0
100
AcDbBlockEnd
  0
BLOCK
  5
15A
330
159
100
AcDbEntity
  8
0
100
AcDbBlockBegin
  2
Beschriftung_nNn013
 70
     0
 10
0.0
 20
0.0
 30
0.0
  3
Beschriftung_nNn013
  1

  0
TEXT
  5
15C
330
159
100
AcDbEntity
  8
Layer100
  6
AUSGEZOGEN
 62
    18
420
        0
370
    18
100
AcDbText
 10
-110.833631231059
 20
60.15286325771
 30
0.0
 40
6.349999666214
  1
Kundenzeichnung
 41
1.032581817144
  7
Arial
 72
     5
 11
-37.573452399243
 21
60.15286325771
 31
0.0
100
AcDbText
  0
TEXT
  5
15D
330
159
100
AcDbEntity
  8
Layer100
  6
AUSGEZOGEN
 62
    18
420
        0
370
    18
100
AcDbText
 10
223.848411638974
 20
77.541863103691
 30
0.0
 40
6.349999666214
  1
1:2
 41
1.022756754879
  7
Arial
 72
     5
 11
236.447751440047
 21
77.541863103691
 31
0.0
100
AcDbText
  0
TEXT
  5
15E
330
159
100
AcDbEntity
  8
Layer100
  6
AUSGEZOGEN
 62
    18
420
        0
370
    18
100
AcDbText
 10
384.528411638974
 20
78.179363103691
 30
0.0
 40
6.349999666214
  1
1
 41
0.974226840702
  7
Arial
 72
     5
 11
389.329011566876
 21
78.179363103691
 31
0.0
100
AcDbText
  0
TEXT
  5
15F
330
159
100
AcDbEntity
  8
Layer100
  6
AUSGEZOGEN
 62
    18
420
        0
370
    18
100
AcDbText
 10
187.398411638974
 20
7.891863103691
 30
0.0
 40
10.583333333333
  1
EVOline BackFlip
 41
0.91412523149
  7
Arial
 72
     5
 11
292.463395120259
 21
7.891863103691
 31
0.0
100
AcDbText
  0
TEXT
  5
160
330
159
100
AcDbEntity
  8
Layer100
  6
AUSGEZOGEN
 62
    18
420
        0
370
    18
100
AcDbText
 10
187.398411638974
 20
-13.108136896309
 30
0.0
 40
10.583333333333
  1
schwarz lackiert
 41
0.920241742008
  7
Arial
 72
     5
 11
284.089438460765
 21
-13.108136896309
 31
0.0
100
AcDbText
  0
TEXT
  5
161
330
159
100
AcDbEntity
  8
Layer100
  6
AUSGEZOGEN
 62
    18
420
        0
370
    18
100
AcDbText
 10
187.398411638974
 20
-55.108136896309
 30
0.0
 40
10.583333333333
  1
8031164
 41
0.902739323416
  7
Arial
 72
     5
 11
239.2956916897
 21
-55.108136896309
 31
0.0
100
AcDbText
  0
TEXT
  5
162
330
159
100
AcDbEntity
  8
Layer100
  6
AUSGEZOGEN
 62
    18
420
        0
370
    18
100
AcDbText
 10
84.618411638974
 20
16.341863103691
 30
0.0
 40
6.349999666214
  1
12.12.18
 41
1.034889233423
  7
Arial
 72
     5
 11
120.3150510689
 21
16.341863103691
 31
0.0
100
AcDbText
  0
TEXT
  5
163
330
159
100
AcDbEntity
  8
Layer100
  6
AUSGEZOGEN
 62
    18
420
        0
370
    18
100
AcDbText
 10
132.198411638974
 20
16.341863103691
 30
0.0
 40
6.349999666214
  1
CM
 41
0.997270426658
  7
Arial
 72
     5
 11
145.946631427644
 21
16.341863103691
 31
0.0
100
AcDbText
  0
ENDBLK
  5
15B
330
159
100
AcDbEntity
  8
0
100
AcDbBlockEnd
  0
ENDSEC
  0
SECTION
  2
ENTITIES
  0
LINE
  5
75
330
1F
100
AcDbEntity
  8
Layer0
  6
AUSGEZOGEN
 62
     7
370
    25
100
AcDbLine
 10
-6.630561015941
 20
626.708136896309
 30
0.0
 11
293.369438984059
 21
626.708136896309
 31
0.0
  0
ARC
  5
76
330
1F
100
AcDbEntity
  8
Layer0
  6
AUSGEZOGEN
 62
     7
370
    25
100
AcDbCircle
 10
32.869438984059
 20
590.458136896309
 30
0.0
 40
2.500000000000014
100
AcDbArc
 50
90.0
 51
180.0
  0
LINE
  5
77
330
1F
100
AcDbEntity
  8
Layer0
  6
AUSGEZOGEN
 62
     7
370
    25
100
AcDbLine
 10
30.369438984059
 20
590.458136896309
 30
0.0
 11
30.369438984059
 21
489.958136896309
 31
0.0
  0
ARC
  5
78
330
1F
100
AcDbEntity
  8
Layer0
  6
AUSGEZOGEN
 62
     7
370
    25
100
AcDbCircle
 10
32.869438984059
 20
489.958136896309
 30
0.0
 40
2.500000000000014
100
AcDbArc
 50
180.0
 51
270.0
  0
LINE
  5
79
330
1F
100
AcDbEntity
  8
Layer0
  6
AUSGEZOGEN
 62
     7
370
    25
100
AcDbLine
 10
32.869438984059
 20
487.458136896309
 30
0.0
 11
253.869438984059
 21
487.458136896309
 31
0.0
  0
ARC
  5
7A
330
1F
100
AcDbEntity
  8
Layer0
  6
AUSGEZOGEN
 62
     7
370
    25
100
AcDbCircle
 10
253.869438984059
 20
489.958136896309
 30
0.0
 40
2.5
100
AcDbArc
 50
270.0
 51
0.0
  0
LINE
  5
7B
330
1F
100
AcDbEntity
  8
Layer0
  6
AUSGEZOGEN
 62
     7
370
    25
100
AcDbLine
 10
256.369438984059
 20
489.958136896309
 30
0.0
 11
256.369438984059
 21
590.458136896309
 31
0.0
  0
ARC
  5
7C
330
1F
100
AcDbEntity
  8
Layer0
  6
AUSGEZOGEN
 62
     7
370
    25
100
AcDbCircle
 10
253.869438984059
 20
590.458136896309
 30
0.0
 40
2.5
100
AcDbArc
 50
0.0
 51
90.0
  0
LINE
  5
7D
330
1F
100
AcDbEntity
  8
Layer0
  6
AUSGEZOGEN
 62
     7
370
    25
100
AcDbLine
 10
253.869438984059
 20
592.958136896309
 30
0.0
 11
32.869438984059
 21
592.958136896309
 31
0.0
  0
LINE
  5
7E
330
1F
100
AcDbEntity
  8
Layer0
  6
AUSGEZOGEN
 62
     7
370
    25
100
AcDbLine
 10
293.369438984059
 20
453.708136896309
 30
0.0
 11
-6.630561015941
 21
453.708136896309
 31
0.0
  0
LINE
  5
7F
330
1F
100
AcDbEntity
  8
Layer0
  6
AUSGEZOGEN
 62
     7
370
    25
100
AcDbLine
 10
-6.630561015941
 20
453.708136896309
 30
0.0
 11
-6.630561015941
 21
626.708136896309
 31
0.0
  0
LINE
  5
80
330
1F
100
AcDbEntity
  8
Layer0
  6
AUSGEZOGEN
 62
     7
370
    25
100
AcDbLine
 10
293.369438984059
 20
626.708136896309
 30
0.0
 11
293.369438984059
 21
453.708136896309
 31
0.0
  0
ARC
  5
81
330
1F
100
AcDbEntity
  8
Layer0
  6
AUSGEZOGEN
 62
     7
370
    25
100
AcDbCircle
 10
245.869438984059
 20
579.208136896309
 30
0.0
 40
5.0
100
AcDbArc
 50
0.0
 51
90.0
  0
LINE
  5
82
330
1F
100
AcDbEntity
  8
Layer0
  6
AUSGEZOGEN
 62
     7
370
    25
100
AcDbLine
 10
245.869438984059
 20
584.208136896309
 30
0.0
 11
40.869438984059
 21
584.208136896309
 31
0.0
  0
ARC
  5
83
330
1F
100
AcDbEntity
  8
Layer0
  6
AUSGEZOGEN
 62
     7
370
    25
100
AcDbCircle
 10
40.869438984059
 20
579.208136896309
 30
0.0
 40
5.0
100
AcDbArc
 50
90.0
 51
180.0
  0
LINE
  5
84
330
1F
100
AcDbEntity
  8
Layer0
  6
AUSGEZOGEN
 62
     7
370
    25
100
AcDbLine
 10
35.869438984059
 20
579.208136896309
 30
0.0
 11
35.869438984059
 21
501.208136896309
 31
0.0
  0
ARC
  5
85
330
1F
100
AcDbEntity
  8
Layer0
  6
AUSGEZOGEN
 62
     7
370
    25
100
AcDbCircle
 10
40.869438984059
 20
501.208136896309
 30
0.0
 40
5.0
100
AcDbArc
 50
180.0
 51
270.0
  0
LINE
  5
86
330
1F
100
AcDbEntity
  8
Layer0
  6
AUSGEZOGEN
 62
     7
370
    25
100
AcDbLine
 10
40.869438984059
 20
496.208136896309
 30
0.0
 11
245.869438984059
 21
496.208136896309
 31
0.0
  0
ARC
  5
87
330
1F
100
AcDbEntity
  8
Layer0
  6
AUSGEZOGEN
 62
     7
370
    25
100
AcDbCircle
 10
245.869438984059
 20
501.208136896309
 30
0.0
 40
5.0
100
AcDbArc
 50
270.0
 51
0.0
  0
LINE
  5
88
330
1F
100
AcDbEntity
  8
Layer0
  6
AUSGEZOGEN
 62
     7
370
    25
100
AcDbLine
 10
250.869438984059
 20
501.208136896309
 30
0.0
 11
250.869438984059
 21
579.208136896309
 31
0.0
  0
DIMENSION
  5
94
330
1F
100
AcDbEntity
  8
Layer1
  6
AUSGEZOGEN
 62
     7
370
    18
100
AcDbDimension
280
     0
  2
*D1
 10
35.869438984059
 20
646.708136896309
 30
0.0
 11
143.97438307398
 21
653.280127415908
 31
0.0
 70
   160
 71
     5
 42
-1.0
 73
     0
 74
     0
 75
     0
  3
ISO-25
100
AcDbAlignedDimension
 13
250.869438984059
 23
579.208136896309
 33
0.0
 14
35.869438984059
 24
579.208136896309
 34
0.0
 50
180.0
100
AcDbRotatedDimension
1001
ACAD
1000
DSTYLE
1002
{
1070
     3
1000
<>\S+1.0^ -0.0
1070
   340
1005
6F
1070
    44
1040
8.571428571429
1070
   280
1070
     3
1070
    77
1070
     1
1070
   179
1070
     2
1070
   271
1070
     2
1070
   173
1070
     1
1070
    41
1040
12.0
1070
   147
1040
1.0
1070
   140
1040
7.0
1070
   178
1070
     7
1070
   177
1070
     7
1070
   176
1070
     7
1002
}
  0
DIMENSION
  5
A0
330
1F
100
AcDbEntity
  8
Layer1
  6
AUSGEZOGEN
 62
     7
370
    18
100
AcDbDimension
280
     0
  2
*D2
 10
325.369438984059
 20
496.208136896309
 30
0.0
 11
318.380987747726
 21
539.525754505693
 31
0.0
 70
   160
 71
     5
 42
-1.0
 73
     0
 74
     0
 75
     0
 53
90.0
  3
ISO-25
100
AcDbAlignedDimension
 13
245.869438984059
 23
584.208136896309
 33
0.0
 14
245.869438984059
 24
496.208136896309
 34
0.0
 50
-90.0
100
AcDbRotatedDimension
1001
ACAD
1000
DSTYLE
1002
{
1070
     3
1000
<>\S+1.0^ -0.0
1070
   340
1005
6F
1070
    44
1040
8.571428571429
1070
   280
1070
     3
1070
    77
1070
     1
1070
   179
1070
     2
1070
   271
1070
     2
1070
   173
1070
     1
1070
    41
1040
12.0
1070
   147
1040
1.0
1070
   140
1040
7.0
1070
   178
1070
     7
1070
   177
1070
     7
1070
   176
1070
     7
1002
}
  0
DIMENSION
  5
AC
330
1F
100
AcDbEntity
  8
Layer1
  6
AUSGEZOGEN
 62
     7
370
    18
100
AcDbDimension
280
     0
  2
*D3
 10
-26.630561015941
 20
592.958136896309
 30
0.0
 11
-32.86418620677
 21
539.873627205725
 31
0.0
 70
   160
 71
     5
 42
-1.0
 73
     0
 74
     0
 75
     0
 53
90.0
  3
ISO-25
100
AcDbAlignedDimension
 13
32.869438984059
 23
487.458136896309
 33
0.0
 14
32.869438984059
 24
592.958136896309
 34
0.0
 50
90.0
100
AcDbRotatedDimension
1001
ACAD
1000
DSTYLE
1002
{
1070
     3
1000
<>\S+0.3^ -0.0
1070
   340
1005
6F
1070
    44
1040
8.571428571429
1070
   280
1070
     3
1070
    77
1070
     1
1070
   179
1070
     2
1070
   271
1070
     2
1070
   173
1070
     1
1070
    41
1040
12.0
1070
   147
1040
1.0
1070
   140
1040
7.0
1070
   178
1070
     7
1070
   177
1070
     7
1070
   176
1070
     7
1002
}
  0
DIMENSION
  5
B8
330
1F
100
AcDbEntity
  8
Layer1
  6
AUSGEZOGEN
 62
     7
370
    18
100
AcDbDimension
280
     0
  2
*D4
 10
256.369438984059
 20
670.708136896309
 30
0.0
 11
144.321806589267
 21
677.631216418095
 31
0.0
 70
   160
 71
     5
 42
-1.0
 73
     0
 74
     0
 75
     0
  3
ISO-25
100
AcDbAlignedDimension
 13
30.369438984059
 23
590.458136896309
 33
0.0
 14
256.369438984059
 24
590.458136896309
 34
0.0
100
AcDbRotatedDimension
1001
ACAD
1000
DSTYLE
1002
{
1070
     3
1000
<>\S+0.3^ -0.0
1070
   340
1005
6F
1070
    44
1040
8.571428571429
1070
   280
1070
     3
1070
    77
1070
     1
1070
   179
1070
     0
1070
   271
1070
     0
1070
   173
1070
     1
1070
    41
1040
12.0
1070
   147
1040
1.0
1070
   140
1040
7.0
1070
   178
1070
     7
1070
   177
1070
     7
1070
   176
1070
     7
1002
}
  0
INSERT
  5
C0
330
1F
100
AcDbEntity
  8
0
100
AcDbBlockReference
  2
_D_4_nNn04
 10
0.0
 20
0.0
 30
0.0
  0
INSERT
  5
C7
330
1F
100
AcDbEntity
  8
0
100
AcDbBlockReference
  2
_D_5_nNn05
 10
0.0
 20
0.0
 30
0.0
  0
LINE
  5
C8
330
1F
100
AcDbEntity
  8
Layer0
  6
AUSGEZOGEN
 62
     7
370
    25
100
AcDbLine
 10
307.333631231059
 20
286.830155289309
 30
0.0
 11
307.333631231059
 21
304.150663365109
 31
0.0
  0
LINE
  5
C9
330
1F
100
AcDbEntity
  8
Layer0
  6
AUSGEZOGEN
 62
     7
370
    25
100
AcDbLine
 10
307.333631231059
 20
286.830155289309
 30
0.0
 11
220.833631231059
 21
211.918957862109
 31
0.0
  0
LINE
  5
CA
330
1F
100
AcDbEntity
  8
Layer0
  6
AUSGEZOGEN
 62
     7
370
    25
100
AcDbLine
 10
220.833631231059
 20
211.918957862109
 30
0.0
 11
220.833631231059
 21
229.239465937709
 31
0.0
  0
LINE
  5
CB
330
1F
100
AcDbEntity
  8
Layer0
  6
AUSGEZOGEN
 62
     7
370
    25
100
AcDbLine
 10
307.333631231059
 20
304.150663365109
 30
0.0
 11
220.833631231059
 21
229.239465937709
 31
0.0
  0
LINE
  5
CC
330
1F
100
AcDbEntity
  8
Layer0
  6
AUSGEZOGEN
 62
     7
370
    25
100
AcDbLine
 10
47.526010095659
 20
379.150663365109
 30
0.0
 11
307.333631231059
 21
304.150663365109
 31
0.0
  0
LINE
  5
CD
330
1F
100
AcDbEntity
  8
Layer0
  6
AUSGEZOGEN
 62
     7
370
    25
100
AcDbLine
 10
220.833631231059
 20
229.239465937709
 30
0.0
 11
-38.973989904341
 21
304.239465937709
 31
0.0
  0
LINE
  5
CE
330
1F
100
AcDbEntity
  8
Layer0
  6
AUSGEZOGEN
 62
     7
370
    25
100
AcDbLine
 10
-38.973989904341
 20
304.239465937709
 30
0.0
 11
47.526010095659
 21
379.150663365109
 31
0.0
  0
ARC
  5
CF
330
1F
100
AcDbEntity
  8
Layer0
  6
AUSGEZOGEN
 62
     7
370
    25
100
AcDbCircle
 10
63.630873193859
 20
350.854492650309
 30
0.0
 40
4.00018962149933
100
AcDbArc
 50
72.1202345869
 51
123.141245838
  0
LINE
  5
D0
330
1F
100
AcDbEntity
  8
Layer0
  6
AUSGEZOGEN
 62
     7
370
    25
100
AcDbLine
 10
61.443950035659
 20
354.203952921509
 30
0.0
 11
11.193950035659
 21
310.686176381309
 31
0.0
  0
LWPOLYLINE
  5
D1
330
1F
100
AcDbEntity
  8
Layer0
  6
AUSGEZOGEN
 62
     7
370
    25
100
AcDbPolyline
 90
       20
 70
     0
 43
0.0
 10
11.193950035659
 20
310.686176381309
 10
11.098120643459
 20
310.594646925709
 10
11.017735442259
 20
310.499473325309
 10
10.953343544459
 20
310.401305712309
 10
10.905384812059
 20
310.300814671309
 10
10.874186851859
 20
310.198686657509
 10
10.859962777659
 20
310.095619309309
 10
10.862809754059
 20
309.992316680909
 10
10.882708333659
 20
309.889484434109
 10
10.919522588659
 20
309.787825017309
 10
10.973001040459
 20
309.688032867509
 10
11.042778377059
 20
309.590789666309
 10
11.128377948659
 20
309.496759683509
 10
11.229215023059
 20
309.406585238909
 10
11.344600781059
 20
309.320882315509
 10
11.473747020659
 20
309.240236351309
 10
11.615771542459
 20
309.165198239909
 10
11.769704174659
 20
309.096280567709
 10
11.934493401459
 20
309.033954112309
 10
12.109013545259
 20
308.978644626509
  0
LINE
  5
D2
330
1F
100
AcDbEntity
  8
Layer0
  6
AUSGEZOGEN
 62
     7
370
    25
100
AcDbLine
 10
12.109013545259
 20
308.978644626509
 30
0.0
 11
203.500627781459
 21
253.728644626509
 31
0.0
  0
ARC
  5
D3
330
1F
100
AcDbEntity
  8
Layer0
  6
AUSGEZOGEN
 62
     7
370
    25
100
AcDbCircle
 10
204.728768132859
 20
257.535636652509
 30
0.0
 40
4.000189621499068
100
AcDbArc
 50
252.1202345869
 51
303.141245838
  0
LINE
  5
D4
330
1F
100
AcDbEntity
  8
Layer0
  6
AUSGEZOGEN
 62
     7
370
    25
100
AcDbLine
 10
206.915691291059
 20
254.186176381309
 30
0.0
 11
257.165691291059
 21
297.703952921509
 31
0.0
  0
LWPOLYLINE
  5
D5
330
1F
100
AcDbEntity
  8
Layer0
  6
AUSGEZOGEN
 62
     7
370
    25
100
AcDbPolyline
 90
       20
 70
     0
 43
0.0
 10
257.165691291059
 20
297.703952921509
 10
257.261520683259
 20
297.795482377109
 10
257.341905884459
 20
297.890655977509
 10
257.406297782259
 20
297.988823590509
 10
257.454256514659
 20
298.089314631509
 10
257.485454474859
 20
298.191442645309
 10
257.499678549059
 20
298.294509993509
 10
257.496831572659
 20
298.397812621909
 10
257.476932993059
 20
298.500644868709
 10
257.440118738059
 20
298.602304285509
 10
257.386640286259
 20
298.702096435309
 10
257.316862949659
 20
298.799339636309
 10
257.231263378059
 20
298.893369619309
 10
257.130426303659
 20
298.983544063909
 10
257.015040545659
 20
299.069246987309
 10
256.885894306059
 20
299.149892951509
 10
256.743869784259
 20
299.224931062909
 10
256.589937152059
 20
299.293848735109
 10
256.425147925259
 20
299.356175190509
 10
256.250627781459
 20
299.411484676109
  0
LINE
  5
D6
330
1F
100
AcDbEntity
  8
Layer0
  6
AUSGEZOGEN
 62
     7
370
    25
100
AcDbLine
 10
256.250627781459
 20
299.411484676109
 30
0.0
 11
64.859013545259
 21
354.661484676109
 31
0.0
  0
LINE
  5
D7
330
1F
100
AcDbEntity
  8
Layer0
  6
AUSGEZOGEN
 62
     7
370
    25
100
AcDbLine
 10
220.833631231059
 20
211.918957862109
 30
0.0
 11
-38.973989904341
 21
286.918957862109
 31
0.0
  0
LINE
  5
D8
330
1F
100
AcDbEntity
  8
Layer0
  6
AUSGEZOGEN
 62
     7
370
    25
100
AcDbLine
 10
-38.973989904341
 20
286.918957862109
 30
0.0
 11
-38.973989904341
 21
304.239465937709
 31
0.0
  0
LWPOLYLINE
  5
D9
330
1F
100
AcDbEntity
  8
Layer0
  6
AUSGEZOGEN
 62
     7
370
    25
100
AcDbPolyline
 90
       28
 70
     0
 43
0.0
 10
246.777551570259
 20
291.869291434909
 10
246.915587752859
 20
291.997293484509
 10
247.038505085659
 20
292.129092019909
 10
247.145887655259
 20
292.264241076709
 10
247.237372112859
 20
292.402283353109
 10
247.312648904059
 20
292.542751758109
 10
247.371463316259
 20
292.685170990709
 10
247.413616340059
 20
292.829059149709
 10
247.438965342659
 20
292.973929362709
 10
247.447424551259
 20
293.119291434909
 10
247.438965342659
 20
293.264653507309
 10
247.413616340059
 20
293.409523720309
 10
247.371463316259
 20
293.553411879109
 10
247.312648904059
 20
293.695831111909
 10
247.237372112859
 20
293.836299516709
 10
247.145887655259
 20
293.974341793309
 10
247.038505085659
 20
294.109490850109
 10
246.915587752859
 20
294.241289385509
 10
246.777551570259
 20
294.369291434909
 10
246.624863608259
 20
294.493063880109
 10
246.458040515059
 20
294.612187914309
 10
246.277646766859
 20
294.726260459109
 10
246.084292759059
 20
294.834895529709
 10
245.878632740659
 20
294.937725538909
 10
245.661362599659
 20
295.034402542709
 10
245.433217509859
 20
295.124599416909
 10
245.194969441659
 20
295.208010963509
 10
244.947424551259
 20
295.284354944509
  0
LINE
  5
DA
330
1F
100
AcDbEntity
  8
Layer0
  6
AUSGEZOGEN
 62
     7
370
    25
100
AcDbLine
 10
244.947424551259
 20
295.284354944509
 30
0.0
 11
67.412216775459
 21
346.534354944509
 31
0.0
  0
ARC
  5
DB
330
1F
100
AcDbEntity
  8
Layer0
  6
AUSGEZOGEN
 62
     7
370
    25
100
AcDbCircle
 10
64.959582990659
 20
338.893149927109
 30
0.0
 40
8.025174552565243
100
AcDbArc
 50
72.204681959
 51
123.0567984658
  0
LINE
  5
DC
330
1F
100
AcDbEntity
  8
Layer0
  6
AUSGEZOGEN
 62
     7
370
    25
100
AcDbLine
 10
60.582089756459
 20
345.619291434909
 30
0.0
 11
21.582089756459
 21
311.844300687309
 31
0.0
  0
LWPOLYLINE
  5
DD
330
1F
100
AcDbEntity
  8
Layer0
  6
AUSGEZOGEN
 62
     7
370
    25
100
AcDbPolyline
 90
       28
 70
     0
 43
0.0
 10
21.582089756459
 20
311.844300687309
 10
21.444053573859
 20
311.716298637909
 10
21.321136241059
 20
311.584500102509
 10
21.213753671459
 20
311.449351045709
 10
21.122269213859
 20
311.311308769109
 10
21.046992422459
 20
311.170840364309
 10
20.988178010459
 20
311.028421131509
 10
20.946024986659
 20
310.884532972709
 10
20.920675984059
 20
310.739662759709
 10
20.912216775459
 20
310.594300687309
 10
20.920675984059
 20
310.448938615109
 10
20.946024986659
 20
310.304068402109
 10
20.988178010459
 20
310.160180243109
 10
21.046992422459
 20
310.017761010509
 10
21.122269213859
 20
309.877292605509
 10
21.213753671459
 20
309.739250329109
 10
21.321136241059
 20
309.604101272309
 10
21.444053573859
 20
309.472302736909
 10
21.582089756459
 20
309.344300687309
 10
21.734777718459
 20
309.220528242109
 10
21.901600811659
 20
309.101404208109
 10
22.081994559859
 20
308.987331663109
 10
22.275348567659
 20
308.878696592709
 10
22.481008586059
 20
308.775866583509
 10
22.698278727059
 20
308.679189579509
 10
22.926423816859
 20
308.588992705509
 10
23.164671885059
 20
308.505581158909
 10
23.412216775459
 20
308.429237177909
  0
LINE
  5
DE
330
1F
100
AcDbEntity
  8
Layer0
  6
AUSGEZOGEN
 62
     7
370
    25
100
AcDbLine
 10
23.412216775459
 20
308.429237177909
 30
0.0
 11
200.947424551259
 21
257.179237177909
 31
0.0
  0
ARC
  5
DF
330
1F
100
AcDbEntity
  8
Layer0
  6
AUSGEZOGEN
 62
     7
370
    25
100
AcDbCircle
 10
203.400058336059
 20
264.820442195309
 30
0.0
 40
8.025174552565723
100
AcDbArc
 50
252.2046819591
 51
303.0567984658
  0
LINE
  5
E0
330
1F
100
AcDbEntity
  8
Layer0
  6
AUSGEZOGEN
 62
     7
370
    25
100
AcDbLine
 10
207.777551570259
 20
258.094300687309
 30
0.0
 11
246.777551570259
 21
291.869291434909
 31
0.0
  0
LINE
  5
E1
330
1F
100
AcDbEntity
  8
Layer0
  6
AUSGEZOGEN
 62
     7
370
    25
100
AcDbLine
 10
61.443950035659
 20
351.865684331309
 30
0.0
 11
11.971568483059
 21
309.021345120909
 31
0.0
  0
ARC
  5
E2
330
1F
100
AcDbEntity
  8
Layer0
  6
AUSGEZOGEN
 62
     7
370
    25
100
AcDbCircle
 10
63.630873193859
 20
348.516224060109
 30
0.0
 40
4.000189621499234
100
AcDbArc
 50
72.1202345869
 51
123.141245838
  0
LINE
  5
E3
330
1F
100
AcDbEntity
  8
Layer0
  6
AUSGEZOGEN
 62
     7
370
    25
100
AcDbLine
 10
256.250627781459
 20
297.073216085909
 30
0.0
 11
64.859013545259
 21
352.323216085909
 31
0.0
  0
LINE
  5
E4
330
1F
100
AcDbEntity
  8
Layer0
  6
AUSGEZOGEN
 62
     7
370
    25
100
AcDbLine
 10
256.388072843659
 20
297.030515591509
 30
0.0
 11
256.250627781459
 21
297.073216085909
 31
0.0
  0
LINE
  5
E5
330
1F
100
AcDbEntity
  8
Layer0
  6
AUSGEZOGEN
 62
     7
370
    25
100
AcDbLine
 10
256.250627781459
 20
297.073216085909
 30
0.0
 11
256.250627781459
 21
299.411484676109
 31
0.0
  0
LINE
  5
E6
330
1F
100
AcDbEntity
  8
Layer0
  6
AUSGEZOGEN
 62
     7
370
    25
100
AcDbLine
 10
67.412216775459
 20
331.552115458909
 30
0.0
 11
67.412216775459
 21
346.534354944509
 31
0.0
  0
LINE
  5
E7
330
1F
100
AcDbEntity
  8
Layer0
  6
AUSGEZOGEN
 62
     7
370
    25
100
AcDbLine
 10
236.302551570259
 20
282.797675330309
 30
0.0
 11
67.412216775459
 21
331.552115458909
 31
0.0
  0
LINE
  5
E8
330
1F
100
AcDbEntity
  8
Layer0
  6
AUSGEZOGEN
 62
     7
370
    25
100
AcDbLine
 10
64.859013545259
 20
352.323216085909
 30
0.0
 11
64.859013545259
 21
354.661484676109
 31
0.0
  0
LINE
  5
E9
330
1F
100
AcDbEntity
  8
Layer0
  6
AUSGEZOGEN
 62
     7
370
    25
100
AcDbLine
 10
61.443950035659
 20
351.865684331309
 30
0.0
 11
61.443950035659
 21
354.203952921509
 31
0.0
  0
LINE
  5
EA
330
1F
100
AcDbEntity
  8
Layer0
  6
AUSGEZOGEN
 62
     7
370
    25
100
AcDbLine
 10
60.582089756459
 20
330.637051949509
 30
0.0
 11
60.582089756459
 21
345.619291434909
 31
0.0
  0
LINE
  5
EB
330
1F
100
AcDbEntity
  8
Layer0
  6
AUSGEZOGEN
 62
     7
370
    25
100
AcDbLine
 10
60.582089756459
 20
330.637051949509
 30
0.0
 11
32.057089756459
 21
305.933677306509
 31
0.0
  0
ARC
  5
EC
330
1F
100
AcDbEntity
  8
Layer0
  6
AUSGEZOGEN
 62
     7
370
    25
100
AcDbCircle
 10
64.959582990659
 20
323.910910441709
 30
0.0
 40
8.025174552565154
100
AcDbArc
 50
72.204681959
 51
123.0567984658
  0
LINE
  5
ED
330
1F
100
AcDbEntity
  8
Layer0
  6
AUSGEZOGEN
 62
     8
420
  8421504
370
    25
100
AcDbLine
 10
244.947424551259
 20
290.284354944509
 30
0.0
 11
244.947424551259
 21
295.284354944509
 31
0.0
  0
LINE
  5
EE
330
1F
100
AcDbEntity
  8
Layer0
  6
AUSGEZOGEN
 62
     8
420
  8421504
370
    25
100
AcDbLine
 10
11.193950035659
 20
309.436176381309
 30
0.0
 11
11.193950035659
 21
310.686176381309
 31
0.0
  0
LINE
  5
EF
330
1F
100
AcDbEntity
  8
Layer0
  6
AUSGEZOGEN
 62
     8
420
  8421504
370
    25
100
AcDbLine
 10
21.582089756459
 20
309.344300687309
 30
0.0
 11
21.582089756459
 21
311.844300687309
 31
0.0
  0
DIMENSION
  5
FC
330
1F
100
AcDbEntity
  8
Layer1
  6
AUSGEZOGEN
 62
     7
370
    18
100
AcDbDimension
280
     0
  2
*D7
 10
209.717843077259
 20
297.073216085909
 30
0.0
 11
200.947424551259
 21
298.500644868709
 31
0.0
 70
   160
 71
     5
 42
-1.0
 73
     0
 74
     0
 75
     0
 53
90.0
  3
ISO-25
100
AcDbAlignedDimension
 13
256.250627781459
 23
299.411484676109
 33
0.0
 14
256.250627781459
 24
297.073216085909
 34
0.0
 50
-90.0
100
AcDbRotatedDimension
1001
ACAD
1000
DSTYLE
1002
{
1070
     3
1000
<>\S+0.1^ -0.0
1070
   340
1005
6F
1070
    44
1040
8.571428571429
1070
   280
1070
     3
1070
    77
1070
     1
1070
   179
1070
     1
1070
   271
1070
     1
1070
   173
1070
     1
1070
    41
1040
12.0
1070
   147
1040
1.0
1070
   140
1040
7.0
1070
   178
1070
     7
1070
   177
1070
     7
1070
   176
1070
     7
1002
}
  0
INSERT
  5
173
330
1F
100
AcDbEntity
  8
0
100
AcDbBlockReference
  2
A4-NABER_nNn07
 10
0.0
 20
0.0
 30
0.0
  0
ENDSEC
  0
SECTION
  2
OBJECTS
  0
DICTIONARY
  5
C
330
0
100
AcDbDictionary
281
     1
  3
ACAD_DETAILVIEWSTYLE
350
1AC
  3
ACAD_GROUP
350
D
  3
ACAD_IMAGE_DICT
350
16D
  3
ACAD_LAYOUT
350
1A
  3
ACAD_MATERIAL
350
43
  3
ACAD_MLEADERSTYLE
350
6B
  3
ACAD_MLINESTYLE
350
17
  3
ACAD_PLOTSETTINGS
350
19
  3
ACAD_PLOTSTYLENAME
350
E
  3
ACAD_SCALELIST
350
47
  3
ACAD_SECTIONVIEWSTYLE
350
1AD
  3
ACAD_TABLESTYLE
350
69
  3
ACAD_VISUALSTYLE
350
2A
  3
ACAD_WIPEOUT_VARS
350
1A9
  3
ACDB_RECOMPOSE_DATA
350
1A8
  3
AcDbVariableDictionary
350
174
  0
SUN
  5
6D
330
29
100
AcDbSun
 90
        1
290
     0
 63
     7
421
 16777215
 40
1.0
291
     1
 91
  2455826
 92
 54000000
292
     0
 70
     2
 71
   256
280
     1
  0
IMAGEDEF_REACTOR
  5
170
330
16F
100
AcDbRasterImageDefReactor
 90
        2
330
16F
  0
DICTIONARY
  5
1AC
102
{ACAD_REACTORS
330
C
102
}
330
C
100
AcDbDictionary
281
     1
  0
DICTIONARY
  5
D
102
{ACAD_REACTORS
330
C
102
}
330
C
100
AcDbDictionary
281
     1
  0
DICTIONARY
  5
16D
102
{ACAD_REACTORS
330
C
102
}
330
C
100
AcDbDictionary
281
     1
  3
NABER.JPG
350
16E
  0
DICTIONARY
  5
1A
102
{ACAD_REACTORS
330
C
102
}
330
C
100
AcDbDictionary
281
     1
  3
Layout1
350
1E
  3
Layout2
350
26
  3
Model
350
22
  0
DICTIONARY
  5
43
102
{ACAD_REACTORS
330
C
102
}
330
C
100
AcDbDictionary
281
     1
  3
ByBlock
350
45
  3
ByLayer
350
44
  3
Global
350
46
  0
DICTIONARY
  5
6B
102
{ACAD_REACTORS
330
C
102
}
330
C
100
AcDbDictionary
281
     1
  3
Standard
350
6C
  0
DICTIONARY
  5
17
102
{ACAD_REACTORS
330
C
102
}
330
C
100
AcDbDictionary
281
     1
  3
Standard
350
18
  0
DICTIONARY
  5
19
102
{ACAD_REACTORS
330
C
102
}
330
C
100
AcDbDictionary
281
     1
  0
ACDBDICTIONARYWDFLT
  5
E
102
{ACAD_REACTORS
330
C
102
}
330
C
100
AcDbDictionary
281
     1
  3
Normal
350
F
100
AcDbDictionaryWithDefault
340
F
  0
DICTIONARY
  5
47
102
{ACAD_REACTORS
330
C
102
}
330
C
100
AcDbDictionary
281
     1
  3
A0
350
48
  3
A1
350
49
  3
A2
350
4A
  3
A3
350
4B
  3
A4
350
4C
  3
A5
350
4D
  3
A6
350
4E
  3
A7
350
4F
  3
A8
350
50
  3
A9
350
51
  3
B0
350
52
  3
B1
350
53
  3
B2
350
54
  3
B3
350
55
  3
B4
350
56
  3
B5
350
57
  3
B6
350
58
  3
B7
350
59
  3
B8
350
5A
  3
B9
350
5B
  3
C0
350
5C
  3
C1
350
5D
  3
C2
350
5E
  3
C3
350
5F
  3
C4
350
60
  3
C5
350
61
  3
C6
350
62
  3
C7
350
63
  3
C8
350
64
  3
C9
350
65
  3
D0
350
66
  3
D1
350
67
  3
D2
350
68
  0
DICTIONARY
  5
1AD
102
{ACAD_REACTORS
330
C
102
}
330
C
100
AcDbDictionary
281
     1
  0
DICTIONARY
  5
69
102
{ACAD_REACTORS
330
C
102
}
330
C
100
AcDbDictionary
281
     1
  3
Standard
350
6A
  0
DICTIONARY
  5
2A
102
{ACAD_REACTORS
330
C
102
}
330
C
100
AcDbDictionary
281
     1
  3
2dWireframe
350
2F
  3
Basic
350
32
  3
Brighten
350
36
  3
ColorChange
350
3A
  3
Conceptual
350
34
  3
Dim
350
35
  3
EdgeColorOff
350
3D
  3
Facepattern
350
39
  3
Flat
350
2B
  3
FlatWithEdges
350
2C
  3
Gouraud
350
2D
  3
GouraudWithEdges
350
2E
  3
Hidden
350
31
  3
JitterOff
350
3B
  3
Linepattern
350
38
  3
OverhangOff
350
3C
  3
Realistic
350
33
  3
Shaded
350
42
  3
Shaded with edges
350
41
  3
Shades of Gray
350
3E
  3
Sketchy
350
3F
  3
Thicken
350
37
  3
Wireframe
350
30
  3
X-Ray
350
40
  0
WIPEOUTVARIABLES
  5
1A9
102
{ACAD_REACTORS
330
C
102
}
330
C
100
AcDbWipeoutVariables
 70
     0
  0
XRECORD
  5
1A8
102
{ACAD_REACTORS
330
C
102
}
330
C
100
AcDbXrecord
280
     1
 90
        1
330
6A
  0
DICTIONARY
  5
174
102
{ACAD_REACTORS
330
C
102
}
330
C
100
AcDbDictionary
281
     1
  3
CANNOSCALE
350
175
  3
CENTEREXE
350
1AF
  3
CENTERLTYPEFILE
350
1B0
  3
CMLEADERSTYLE
350
1AB
  3
CTABLESTYLE
350
1AA
  3
WIPEOUTFRAME
350
1AE
  0
IMAGEDEF
  5
16E
102
{ACAD_REACTORS
330
16D
330
170
102
}
330
16D
100
AcDbRasterImageDef
 90
        0
  1
NABER.JPG
 10
3781.0
 20
943.0
 11
0.0002644802962179318
 21
0.0002644802962179318
280
     1
281
     0
  0
LAYOUT
  5
1E
102
{ACAD_REACTORS
330
1A
102
}
330
1A
100
AcDbPlotSettings
  1

  2
none_device
  4

  6

 40
0.0
 41
0.0
 42
0.0
 43
0.0
 44
0.0
 45
0.0
 46
0.0
 47
0.0
 48
0.0
 49
0.0
140
0.0
141
0.0
142
1.0
143
1.0
 70
   688
 72
     1
 73
     0
 74
     5
  7

 75
    16
 76
     0
 77
     2
 78
   300
147
1.0
148
0.0
149
0.0
100
AcDbLayout
  1
Layout1
 70
     1
 71
     1
 10
0.0
 20
0.0
 11
420.0
 21
297.0
 12
0.0
 22
0.0
 32
0.0
 14
1.000000000000E+20
 24
1.000000000000E+20
 34
1.000000000000E+20
 15
-1.000000000000E+20
 25
-1.000000000000E+20
 35
-1.000000000000E+20
146
0.0
 13
0.0
 23
0.0
 33
0.0
 16
1.0
 26
0.0
 36
0.0
 17
0.0
 27
1.0
 37
0.0
 76
     0
330
1B
  0
LAYOUT
  5
26
102
{ACAD_REACTORS
330
1A
102
}
330
1A
100
AcDbPlotSettings
  1

  2
none_device
  4

  6

 40
0.0
 41
0.0
 42
0.0
 43
0.0
 44
0.0
 45
0.0
 46
0.0
 47
0.0
 48
0.0
 49
0.0
140
0.0
141
0.0
142
1.0
143
1.0
 70
   688
 72
     1
 73
     0
 74
     5
  7

 75
    16
 76
     0
 77
     2
 78
   300
147
1.0
148
0.0
149
0.0
100
AcDbLayout
  1
Layout2
 70
     1
 71
     2
 10
0.0
 20
0.0
 11
0.0
 21
0.0
 12
0.0
 22
0.0
 32
0.0
 14
0.0
 24
0.0
 34
0.0
 15
0.0
 25
0.0
 35
0.0
146
0.0
 13
0.0
 23
0.0
 33
0.0
 16
1.0
 26
0.0
 36
0.0
 17
0.0
 27
1.0
 37
0.0
 76
     0
330
23
  0
LAYOUT
  5
22
102
{ACAD_REACTORS
330
1A
102
}
330
1A
100
AcDbPlotSettings
  1

  2
none_device
  4
Letter_(8.50_x_11.00_Inches)
  6

 40
6.35
 41
6.35
 42
6.35000508
 43
6.35000508
 44
215.9
 45
279.4
 46
0.0
 47
0.0
 48
0.0
 49
0.0
140
0.0
141
0.0
142
1.0
143
1.0
 70
  1712
 72
     1
 73
     0
 74
     0
  7

 75
     0
 76
     0
 77
     2
 78
   300
147
1.0
148
0.0
149
0.0
100
AcDbLayout
  1
Model
 70
     1
 71
     0
 10
0.0
 20
0.0
 11
420.0
 21
297.0
 12
0.0
 22
0.0
 32
0.0
 14
-1083.737515287143
 24
-134.843136896309
 34
0.0
 15
1386.534338565091
 25
841.626863103691
 35
0.0
146
0.0
 13
0.0
 23
0.0
 33
0.0
 16
1.0
 26
0.0
 36
0.0
 17
0.0
 27
1.0
 37
0.0
 76
     0
330
1F
331
29
  0
MATERIAL
  5
45
102
{ACAD_REACTORS
330
43
102
}
330
43
100
AcDbMaterial
  1
ByBlock
 72
     1
 94
      127
  0
MATERIAL
  5
44
102
{ACAD_REACTORS
330
43
102
}
330
43
100
AcDbMaterial
  1
ByLayer
 72
     1
 94
      127
  0
MATERIAL
  5
46
102
{ACAD_REACTORS
330
43
102
}
330
43
100
AcDbMaterial
  1
Global
 72
     1
 94
      127
  0
MLEADERSTYLE
  5
6C
102
{ACAD_REACTORS
330
6B
102
}
330
6B
100
AcDbMLeaderStyle
179
     2
170
     2
171
     1
172
     0
 90
        2
 40
0.0
 41
0.0
173
     1
 91
-1056964608
340
14
 92
       -2
290
     1
 42
2.0
291
     1
 43
8.0
  3
Standard
341
0
 44
4.0
300

342
11
174
     1
178
     6
175
     1
176
     0
 93
-1056964608
 45
4.0
292
     0
297
     0
 46
4.0
343
0
 94
-1056964608
 47
1.0
 49
1.0
140
1.0
293
     1
141
0.0
294
     1
177
     0
142
1.0
295
     0
296
     0
143
3.75
271
     0
272
     9
273
     9
  0
MLINESTYLE
  5
18
102
{ACAD_REACTORS
330
17
102
}
330
17
100
AcDbMlineStyle
  2
Standard
 70
     0
  3

 62
   256
 51
90.0
 52
90.0
 71
     2
 49
0.5
 62
   256
  6
BYLAYER
 49
-0.5
 62
   256
  6
BYLAYER
  0
ACDBPLACEHOLDER
  5
F
102
{ACAD_REACTORS
330
E
102
}
330
E
  0
SCALE
  5
48
102
{ACAD_REACTORS
330
47
102
}
330
47
100
AcDbScale
 70
     0
300
1:1
140
1.0
141
1.0
290
     1
  0
SCALE
  5
49
102
{ACAD_REACTORS
330
47
102
}
330
47
100
AcDbScale
 70
     0
300
1:2
140
1.0
141
2.0
290
     0
  0
SCALE
  5
4A
102
{ACAD_REACTORS
330
47
102
}
330
47
100
AcDbScale
 70
     0
300
1:4
140
1.0
141
4.0
290
     0
  0
SCALE
  5
4B
102
{ACAD_REACTORS
330
47
102
}
330
47
100
AcDbScale
 70
     0
300
1:5
140
1.0
141
5.0
290
     0
  0
SCALE
  5
4C
102
{ACAD_REACTORS
330
47
102
}
330
47
100
AcDbScale
 70
     0
300
1:8
140
1.0
141
8.0
290
     0
  0
SCALE
  5
4D
102
{ACAD_REACTORS
330
47
102
}
330
47
100
AcDbScale
 70
     0
300
1:10
140
1.0
141
10.0
290
     0
  0
SCALE
  5
4E
102
{ACAD_REACTORS
330
47
102
}
330
47
100
AcDbScale
 70
     0
300
1:16
140
1.0
141
16.0
290
     0
  0
SCALE
  5
4F
102
{ACAD_REACTORS
330
47
102
}
330
47
100
AcDbScale
 70
     0
300
1:20
140
1.0
141
20.0
290
     0
  0
SCALE
  5
50
102
{ACAD_REACTORS
330
47
102
}
330
47
100
AcDbScale
 70
     0
300
1:30
140
1.0
141
30.0
290
     0
  0
SCALE
  5
51
102
{ACAD_REACTORS
330
47
102
}
330
47
100
AcDbScale
 70
     0
300
1:40
140
1.0
141
40.0
290
     0
  0
SCALE
  5
52
102
{ACAD_REACTORS
330
47
102
}
330
47
100
AcDbScale
 70
     0
300
1:50
140
1.0
141
50.0
290
     0
  0
SCALE
  5
53
102
{ACAD_REACTORS
330
47
102
}
330
47
100
AcDbScale
 70
     0
300
1:100
140
1.0
141
100.0
290
     0
  0
SCALE
  5
54
102
{ACAD_REACTORS
330
47
102
}
330
47
100
AcDbScale
 70
     0
300
2:1
140
2.0
141
1.0
290
     0
  0
SCALE
  5
55
102
{ACAD_REACTORS
330
47
102
}
330
47
100
AcDbScale
 70
     0
300
4:1
140
4.0
141
1.0
290
     0
  0
SCALE
  5
56
102
{ACAD_REACTORS
330
47
102
}
330
47
100
AcDbScale
 70
     0
300
8:1
140
8.0
141
1.0
290
     0
  0
SCALE
  5
57
102
{ACAD_REACTORS
330
47
102
}
330
47
100
AcDbScale
 70
     0
300
10:1
140
10.0
141
1.0
290
     0
  0
SCALE
  5
58
102
{ACAD_REACTORS
330
47
102
}
330
47
100
AcDbScale
 70
     0
300
100:1
140
100.0
141
1.0
290
     0
  0
SCALE
  5
59
102
{ACAD_REACTORS
330
47
102
}
330
47
100
AcDbScale
 70
     0
300
1/128" = 1'-0"
140
0.0078125
141
12.0
290
     0
  0
SCALE
  5
5A
102
{ACAD_REACTORS
330
47
102
}
330
47
100
AcDbScale
 70
     0
300
1/64" = 1'-0"
140
0.015625
141
12.0
290
     0
  0
SCALE
  5
5B
102
{ACAD_REACTORS
330
47
102
}
330
47
100
AcDbScale
 70
     0
300
1/32" = 1'-0"
140
0.03125
141
12.0
290
     0
  0
SCALE
  5
5C
102
{ACAD_REACTORS
330
47
102
}
330
47
100
AcDbScale
 70
     0
300
1/16" = 1'-0"
140
0.0625
141
12.0
290
     0
  0
SCALE
  5
5D
102
{ACAD_REACTORS
330
47
102
}
330
47
100
AcDbScale
 70
     0
300
3/32" = 1'-0"
140
0.09375
141
12.0
290
     0
  0
SCALE
  5
5E
102
{ACAD_REACTORS
330
47
102
}
330
47
100
AcDbScale
 70
     0
300
1/8" = 1'-0"
140
0.125
141
12.0
290
     0
  0
SCALE
  5
5F
102
{ACAD_REACTORS
330
47
102
}
330
47
100
AcDbScale
 70
     0
300
3/16" = 1'-0"
140
0.1875
141
12.0
290
     0
  0
SCALE
  5
60
102
{ACAD_REACTORS
330
47
102
}
330
47
100
AcDbScale
 70
     0
300
1/4" = 1'-0"
140
0.25
141
12.0
290
     0
  0
SCALE
  5
61
102
{ACAD_REACTORS
330
47
102
}
330
47
100
AcDbScale
 70
     0
300
3/8" = 1'-0"
140
0.375
141
12.0
290
     0
  0
SCALE
  5
62
102
{ACAD_REACTORS
330
47
102
}
330
47
100
AcDbScale
 70
     0
300
1/2" = 1'-0"
140
0.5
141
12.0
290
     0
  0
SCALE
  5
63
102
{ACAD_REACTORS
330
47
102
}
330
47
100
AcDbScale
 70
     0
300
3/4" = 1'-0"
140
0.75
141
12.0
290
     0
  0
SCALE
  5
64
102
{ACAD_REACTORS
330
47
102
}
330
47
100
AcDbScale
 70
     0
300
1" = 1'-0"
140
1.0
141
12.0
290
     0
  0
SCALE
  5
65
102
{ACAD_REACTORS
330
47
102
}
330
47
100
AcDbScale
 70
     0
300
1-1/2" = 1'-0"
140
1.5
141
12.0
290
     0
  0
SCALE
  5
66
102
{ACAD_REACTORS
330
47
102
}
330
47
100
AcDbScale
 70
     0
300
3" = 1'-0"
140
3.0
141
12.0
290
     0
  0
SCALE
  5
67
102
{ACAD_REACTORS
330
47
102
}
330
47
100
AcDbScale
 70
     0
300
6" = 1'-0"
140
6.0
141
12.0
290
     0
  0
SCALE
  5
68
102
{ACAD_REACTORS
330
47
102
}
330
47
100
AcDbScale
 70
     0
300
1'-0" = 1'-0"
140
12.0
141
12.0
290
     0
  0
TABLESTYLE
  5
6A
102
{ACAD_REACTORS
330
69
102
}
102
{ACAD_XDICTIONARY
360
1A6
102
}
330
69
100
AcDbTableStyle
  3
Standard
 70
     0
 71
     0
 40
0.06
 41
0.06
280
     0
281
     0
  7
Standard
140
4.5
170
     2
 62
     0
 63
   257
283
     0
 90
        4
 91
        0
  1

274
    -2
284
     1
 64
     0
275
    -2
285
     1
 65
     0
276
    -2
286
     1
 66
     0
277
    -2
287
     1
 67
     0
278
    -2
288
     1
 68
     0
279
    -2
289
     1
 69
     0
  7
Standard
140
6.0
170
     5
 62
     0
 63
   257
283
     0
 90
        4
 91
        0
  1

274
    -2
284
     1
 64
     0
275
    -2
285
     1
 65
     0
276
    -2
286
     1
 66
     0
277
    -2
287
     1
 67
     0
278
    -2
288
     1
 68
     0
279
    -2
289
     1
 69
     0
  7
Standard
140
4.5
170
     5
 62
     0
 63
   257
283
     0
 90
        4
 91
        0
  1

274
    -2
284
     1
 64
     0
275
    -2
285
     1
 65
     0
276
    -2
286
     1
 66
     0
277
    -2
287
     1
 67
     0
278
    -2
288
     1
 68
     0
279
    -2
289
     1
 69
     0
  0
VISUALSTYLE
  5
2F
102
{ACAD_REACTORS
330
2A
102
}
102
{ACAD_XDICTIONARY
360
17E
102
}
330
2A
100
AcDbVisualStyle
  2
2dWireframe
 70
     4
177
     2
291
     0
 71
     0
176
     1
 72
     2
176
     1
 73
     0
176
     1
 90
        0
176
     1
 40
0.6
176
     1
 41
30.0
176
     1
 62
     5
 63
     7
421
 16777215
176
     1
 74
     1
176
     1
 91
        4
176
     1
 64
     7
176
     1
 65
   257
176
     1
 75
     1
176
     1
175
     1
176
     1
 42
1.0
176
     1
 92
        0
176
     1
 66
   257
176
     1
 43
1.0
176
     1
 76
     1
176
     1
 77
     6
176
     1
 78
     2
176
     1
 67
     7
176
     1
 79
     5
176
     1
170
     0
176
     1
171
     0
176
     1
290
     0
176
     1
 93
        1
176
     1
 44
0.0
176
     1
173
     0
176
     1
  0
VISUALSTYLE
  5
32
102
{ACAD_REACTORS
330
2A
102
}
102
{ACAD_XDICTIONARY
360
184
102
}
330
2A
100
AcDbVisualStyle
  2
Basic
 70
     7
177
     2
291
     1
 71
     1
176
     1
 72
     0
176
     1
 73
     1
176
     1
 90
        0
176
     1
 40
0.6
176
     1
 41
30.0
176
     1
 62
     5
 63
     7
421
 16777215
176
     1
 74
     0
176
     1
 91
        4
176
     1
 64
     7
176
     1
 65
   257
176
     1
 75
     1
176
     1
175
     1
176
     1
 42
1.0
176
     1
 92
        8
176
     1
 66
     7
176
     1
 43
1.0
176
     1
 76
     1
176
     1
 77
     6
176
     1
 78
     2
176
     1
 67
     7
176
     1
 79
     5
176
     1
170
     0
176
     1
171
     0
176
     1
290
     0
176
     1
 93
        1
176
     1
 44
0.0
176
     1
173
     0
176
     1
  0
VISUALSTYLE
  5
36
102
{ACAD_REACTORS
330
2A
102
}
102
{ACAD_XDICTIONARY
360
18C
102
}
330
2A
100
AcDbVisualStyle
  2
Brighten
 70
    12
177
     2
291
     1
 71
     2
176
     1
 72
     2
176
     1
 73
     0
176
     1
 90
        0
176
     1
 40
0.6
176
     1
 41
30.0
176
     1
 62
     5
 63
     7
421
 16777215
176
     1
 74
     1
176
     1
 91
        4
176
     1
 64
     7
176
     1
 65
   257
176
     1
 75
     1
176
     1
175
     1
176
     1
 42
1.0
176
     1
 92
        8
176
     1
 66
     7
176
     1
 43
1.0
176
     1
 76
     1
176
     1
 77
     6
176
     1
 78
     2
176
     1
 67
     7
176
     1
 79
     5
176
     1
170
     0
176
     1
171
     0
176
     1
290
     0
176
     1
 93
        1
176
     1
 44
50.0
176
     1
173
     0
176
     1
  0
VISUALSTYLE
  5
3A
102
{ACAD_REACTORS
330
2A
102
}
102
{ACAD_XDICTIONARY
360
194
102
}
330
2A
100
AcDbVisualStyle
  2
ColorChange
 70
    16
177
     2
291
     1
 71
     2
176
     1
 72
     2
176
     1
 73
     3
176
     1
 90
        0
176
     1
 40
0.6
176
     1
 41
30.0
176
     1
 62
     5
 63
     8
421
  8421504
176
     1
 74
     1
176
     1
 91
        4
176
     1
 64
     7
176
     1
 65
   257
176
     1
 75
     1
176
     1
175
     1
176
     1
 42
1.0
176
     1
 92
        8
176
     1
 66
     8
424
  8421504
176
     1
 43
1.0
176
     1
 76
     1
176
     1
 77
     6
176
     1
 78
     2
176
     1
 67
     7
176
     1
 79
     5
176
     1
170
     0
176
     1
171
     0
176
     1
290
     0
176
     1
 93
        1
176
     1
 44
0.0
176
     1
173
     0
176
     1
  0
VISUALSTYLE
  5
34
102
{ACAD_REACTORS
330
2A
102
}
102
{ACAD_XDICTIONARY
360
188
102
}
330
2A
100
AcDbVisualStyle
  2
Conceptual
 70
     9
177
     2
291
     0
 71
     3
176
     1
 72
     2
176
     1
 73
     0
176
     1
 90
        0
176
     1
 40
0.6
176
     1
 41
30.0
176
     1
 62
     5
 63
     7
421
 16777215
176
     1
 74
     2
176
     1
 91
        2
176
     1
 64
     7
176
     1
 65
   257
176
     1
 75
     1
176
     1
175
     1
176
     1
 42
179.0
176
     1
 92
        8
176
     1
 66
     7
176
     1
 43
1.0
176
     1
 76
     1
176
     1
 77
     6
176
     1
 78
     2
176
     1
 67
     7
176
     1
 79
     3
176
     1
170
     0
176
     1
171
     0
176
     1
290
     0
176
     1
 93
        1
176
     1
 44
0.0
176
     1
173
     0
176
     1
  0
VISUALSTYLE
  5
35
102
{ACAD_REACTORS
330
2A
102
}
102
{ACAD_XDICTIONARY
360
18A
102
}
330
2A
100
AcDbVisualStyle
  2
Dim
 70
    11
177
     2
291
     1
 71
     2
176
     1
 72
     2
176
     1
 73
     0
176
     1
 90
        0
176
     1
 40
0.6
176
     1
 41
30.0
176
     1
 62
     5
 63
     7
421
 16777215
176
     1
 74
     1
176
     1
 91
        4
176
     1
 64
     7
176
     1
 65
   257
176
     1
 75
     1
176
     1
175
     1
176
     1
 42
1.0
176
     1
 92
        8
176
     1
 66
     7
176
     1
 43
1.0
176
     1
 76
     1
176
     1
 77
     6
176
     1
 78
     2
176
     1
 67
     7
176
     1
 79
     5
176
     1
170
     0
176
     1
171
     0
176
     1
290
     0
176
     1
 93
        1
176
     1
 44
-50.0
176
     1
173
     0
176
     1
  0
VISUALSTYLE
  5
3D
102
{ACAD_REACTORS
330
2A
102
}
102
{ACAD_XDICTIONARY
360
19A
102
}
330
2A
100
AcDbVisualStyle
  2
EdgeColorOff
 70
    22
177
     2
291
     1
 71
     2
176
     0
 72
     2
176
     0
 73
     0
176
     0
 90
        0
176
     0
 40
0.6
176
     0
 41
30.0
176
     0
 62
     5
 63
     7
421
 16777215
176
     0
 74
     1
176
     0
 91
        4
176
     0
 64
     7
176
     0
 65
   257
176
     0
 75
     1
176
     0
175
     1
176
     0
 42
1.0
176
     0
 92
        8
176
     2
 66
     7
176
     0
 43
1.0
176
     0
 76
     1
176
     0
 77
     6
176
     0
 78
     2
176
     0
 67
     7
176
     0
 79
     5
176
     0
170
     0
176
     0
171
     0
176
     0
290
     0
176
     0
 93
        1
176
     0
 44
0.0
176
     0
173
     0
176
     0
  0
VISUALSTYLE
  5
39
102
{ACAD_REACTORS
330
2A
102
}
102
{ACAD_XDICTIONARY
360
192
102
}
330
2A
100
AcDbVisualStyle
  2
Facepattern
 70
    15
177
     2
291
     1
 71
     2
176
     1
 72
     2
176
     1
 73
     0
176
     1
 90
        0
176
     1
 40
0.6
176
     1
 41
30.0
176
     1
 62
     5
 63
     7
421
 16777215
176
     1
 74
     1
176
     1
 91
        4
176
     1
 64
     7
176
     1
 65
   257
176
     1
 75
     1
176
     1
175
     1
176
     1
 42
1.0
176
     1
 92
        8
176
     1
 66
     7
176
     1
 43
1.0
176
     1
 76
     1
176
     1
 77
     6
176
     1
 78
     2
176
     1
 67
     7
176
     1
 79
     5
176
     1
170
     0
176
     1
171
     0
176
     1
290
     0
176
     1
 93
        1
176
     1
 44
0.0
176
     1
173
     0
176
     1
  0
VISUALSTYLE
  5
2B
102
{ACAD_REACTORS
330
2A
102
}
102
{ACAD_XDICTIONARY
360
176
102
}
330
2A
100
AcDbVisualStyle
  2
Flat
 70
     0
177
     2
291
     1
 71
     2
176
     1
 72
     1
176
     1
 73
     1
176
     1
 90
        2
176
     1
 40
0.6
176
     1
 41
30.0
176
     1
 62
     5
 63
     7
421
 16777215
176
     1
 74
     0
176
     1
 91
        0
176
     1
 64
     7
176
     1
 65
   257
176
     1
 75
     1
176
     1
175
     1
176
     1
 42
1.0
176
     1
 92
        8
176
     1
 66
     7
176
     1
 43
1.0
176
     1
 76
     1
176
     1
 77
     6
176
     1
 78
     2
176
     1
 67
     7
176
     1
 79
     5
176
     1
170
     0
176
     1
171
     0
176
     1
290
     0
176
     1
 93
       13
176
     1
 44
0.0
176
     1
173
     0
176
     1
  0
VISUALSTYLE
  5
2C
102
{ACAD_REACTORS
330
2A
102
}
102
{ACAD_XDICTIONARY
360
178
102
}
330
2A
100
AcDbVisualStyle
  2
FlatWithEdges
 70
     1
177
     2
291
     1
 71
     2
176
     1
 72
     1
176
     1
 73
     1
176
     1
 90
        2
176
     1
 40
0.6
176
     1
 41
30.0
176
     1
 62
     5
 63
     7
421
 16777215
176
     1
 74
     1
176
     1
 91
        0
176
     1
 64
     7
176
     1
 65
   257
176
     1
 75
     1
176
     1
175
     1
176
     1
 42
1.0
176
     1
 92
        0
176
     1
 66
   257
176
     1
 43
1.0
176
     1
 76
     1
176
     1
 77
     6
176
     1
 78
     2
176
     1
 67
     7
176
     1
 79
     5
176
     1
170
     0
176
     1
171
     0
176
     1
290
     0
176
     1
 93
       13
176
     1
 44
0.0
176
     1
173
     0
176
     1
  0
VISUALSTYLE
  5
2D
102
{ACAD_REACTORS
330
2A
102
}
102
{ACAD_XDICTIONARY
360
17A
102
}
330
2A
100
AcDbVisualStyle
  2
Gouraud
 70
     2
177
     2
291
     1
 71
     2
176
     1
 72
     2
176
     1
 73
     1
176
     1
 90
        2
176
     1
 40
0.6
176
     1
 41
30.0
176
     1
 62
     5
 63
     7
421
 16777215
176
     1
 74
     0
176
     1
 91
        0
176
     1
 64
     7
176
     1
 65
   257
176
     1
 75
     1
176
     1
175
     1
176
     1
 42
1.0
176
     1
 92
        0
176
     1
 66
     7
176
     1
 43
1.0
176
     1
 76
     1
176
     1
 77
     6
176
     1
 78
     2
176
     1
 67
     7
176
     1
 79
     5
176
     1
170
     0
176
     1
171
     0
176
     1
290
     0
176
     1
 93
       13
176
     1
 44
0.0
176
     1
173
     0
176
     1
  0
VISUALSTYLE
  5
2E
102
{ACAD_REACTORS
330
2A
102
}
102
{ACAD_XDICTIONARY
360
17C
102
}
330
2A
100
AcDbVisualStyle
  2
GouraudWithEdges
 70
     3
177
     2
291
     1
 71
     2
176
     1
 72
     2
176
     1
 73
     1
176
     1
 90
        2
176
     1
 40
0.6
176
     1
 41
30.0
176
     1
 62
     5
 63
     7
421
 16777215
176
     1
 74
     1
176
     1
 91
        0
176
     1
 64
     7
176
     1
 65
   257
176
     1
 75
     1
176
     1
175
     1
176
     1
 42
1.0
176
     1
 92
        0
176
     1
 66
   257
176
     1
 43
1.0
176
     1
 76
     1
176
     1
 77
     6
176
     1
 78
     2
176
     1
 67
     7
176
     1
 79
     5
176
     1
170
     0
176
     1
171
     0
176
     1
290
     0
176
     1
 93
       13
176
     1
 44
0.0
176
     1
173
     0
176
     1
  0
VISUALSTYLE
  5
31
102
{ACAD_REACTORS
330
2A
102
}
102
{ACAD_XDICTIONARY
360
182
102
}
330
2A
100
AcDbVisualStyle
  2
Hidden
 70
     6
177
     2
291
     0
 71
     1
176
     1
 72
     2
176
     1
 73
     2
176
     1
 90
        0
176
     1
 40
0.6
176
     1
 41
30.0
176
     1
 62
     5
 63
     7
421
 16777215
176
     1
 74
     2
176
     1
 91
        2
176
     1
 64
     7
176
     1
 65
   257
176
     1
 75
     2
176
     1
175
     1
176
     1
 42
40.0
176
     1
 92
        0
176
     1
 66
   257
176
     1
 43
1.0
176
     1
 76
     1
176
     1
 77
     6
176
     1
 78
     2
176
     1
 67
     7
176
     1
 79
     3
176
     1
170
     0
176
     1
171
     0
176
     1
290
     0
176
     1
 93
        1
176
     1
 44
0.0
176
     1
173
     0
176
     1
  0
VISUALSTYLE
  5
3B
102
{ACAD_REACTORS
330
2A
102
}
102
{ACAD_XDICTIONARY
360
196
102
}
330
2A
100
AcDbVisualStyle
  2
JitterOff
 70
    20
177
     2
291
     1
 71
     2
176
     0
 72
     2
176
     0
 73
     0
176
     0
 90
        0
176
     0
 40
0.6
176
     0
 41
30.0
176
     0
 62
     5
 63
     7
421
 16777215
176
     0
 74
     1
176
     0
 91
        4
176
     0
 64
     7
176
     0
 65
   257
176
     0
 75
     1
176
     0
175
     1
176
     0
 42
1.0
176
     0
 92
       10
176
     2
 66
     7
176
     0
 43
1.0
176
     0
 76
     1
176
     0
 77
     6
176
     0
 78
     2
176
     0
 67
     7
176
     0
 79
     5
176
     0
170
     0
176
     0
171
     0
176
     0
290
     0
176
     0
 93
        1
176
     0
 44
0.0
176
     0
173
     0
176
     0
  0
VISUALSTYLE
  5
38
102
{ACAD_REACTORS
330
2A
102
}
102
{ACAD_XDICTIONARY
360
190
102
}
330
2A
100
AcDbVisualStyle
  2
Linepattern
 70
    14
177
     2
291
     1
 71
     2
176
     1
 72
     2
176
     1
 73
     0
176
     1
 90
        0
176
     1
 40
0.6
176
     1
 41
30.0
176
     1
 62
     5
 63
     7
421
 16777215
176
     1
 74
     1
176
     1
 91
        4
176
     1
 64
     7
176
     1
 65
   257
176
     1
 75
     7
176
     1
175
     7
176
     1
 42
1.0
176
     1
 92
        8
176
     1
 66
     7
176
     1
 43
1.0
176
     1
 76
     1
176
     1
 77
     6
176
     1
 78
     2
176
     1
 67
     7
176
     1
 79
     5
176
     1
170
     0
176
     1
171
     0
176
     1
290
     0
176
     1
 93
        1
176
     1
 44
0.0
176
     1
173
     0
176
     1
  0
VISUALSTYLE
  5
3C
102
{ACAD_REACTORS
330
2A
102
}
102
{ACAD_XDICTIONARY
360
198
102
}
330
2A
100
AcDbVisualStyle
  2
OverhangOff
 70
    21
177
     2
291
     1
 71
     2
176
     0
 72
     2
176
     0
 73
     0
176
     0
 90
        0
176
     0
 40
0.6
176
     0
 41
30.0
176
     0
 62
     5
 63
     7
421
 16777215
176
     0
 74
     1
176
     0
 91
        4
176
     0
 64
     7
176
     0
 65
   257
176
     0
 75
     1
176
     0
175
     1
176
     0
 42
1.0
176
     0
 92
        9
176
     2
 66
     7
176
     0
 43
1.0
176
     0
 76
     1
176
     0
 77
     6
176
     0
 78
     2
176
     0
 67
     7
176
     0
 79
     5
176
     0
170
     0
176
     0
171
     0
176
     0
290
     0
176
     0
 93
        1
176
     0
 44
0.0
176
     0
173
     0
176
     0
  0
VISUALSTYLE
  5
33
102
{ACAD_REACTORS
330
2A
102
}
102
{ACAD_XDICTIONARY
360
186
102
}
330
2A
100
AcDbVisualStyle
  2
Realistic
 70
     8
177
     2
291
     0
 71
     2
176
     1
 72
     3
176
     1
 73
     0
176
     1
 90
        2
176
     1
 40
0.6
176
     1
 41
30.0
176
     1
 62
     5
 63
     7
421
 16777215
176
     1
 74
     0
176
     1
 91
        0
176
     1
 64
     7
176
     1
 65
   257
176
     1
 75
     1
176
     1
175
     1
176
     1
 42
1.0
176
     1
 92
        8
176
     1
 66
   257
176
     1
 43
1.0
176
     1
 76
     1
176
     1
 77
     6
176
     1
 78
     2
176
     1
 67
     7
176
     1
 79
     3
176
     1
170
     0
176
     1
171
     0
176
     1
290
     0
176
     1
 93
       13
176
     1
 44
0.0
176
     1
173
     0
176
     1
  0
VISUALSTYLE
  5
42
102
{ACAD_REACTORS
330
2A
102
}
102
{ACAD_XDICTIONARY
360
1A4
102
}
330
2A
100
AcDbVisualStyle
  2
Shaded
 70
    27
177
     2
291
     0
 71
     2
176
     1
 72
     2
176
     1
 73
     1
176
     1
 90
        2
176
     1
 40
0.6
176
     1
 41
30.0
176
     1
 62
     5
 63
     7
421
 16777215
176
     1
 74
     0
176
     1
 91
        4
176
     1
 64
     7
176
     1
 65
   257
176
     1
 75
     1
176
     1
175
     1
176
     1
 42
1.0
176
     1
 92
        8
176
     1
 66
   257
176
     1
 43
1.0
176
     1
 76
     1
176
     1
 77
     6
176
     1
 78
     2
176
     1
 67
     8
425
  7895160
176
     1
 79
     3
176
     1
170
     0
176
     1
171
     0
176
     1
290
     0
176
     1
 93
        5
176
     1
 44
0.0
176
     1
173
     0
176
     1
  0
VISUALSTYLE
  5
41
102
{ACAD_REACTORS
330
2A
102
}
102
{ACAD_XDICTIONARY
360
1A2
102
}
330
2A
100
AcDbVisualStyle
  2
Shaded with edges
 70
    26
177
     2
291
     0
 71
     2
176
     1
 72
     2
176
     1
 73
     1
176
     1
 90
        2
176
     1
 40
0.6
176
     1
 41
30.0
176
     1
 62
     5
 63
     7
421
 16777215
176
     1
 74
     1
176
     1
 91
       10
176
     1
 64
     7
176
     1
 65
   257
176
     1
 75
     2
176
     1
175
     1
176
     1
 42
1.0
176
     1
 92
        8
176
     1
 66
   257
176
     1
 43
1.0
176
     1
 76
     1
176
     1
 77
     6
176
     1
 78
     2
176
     1
 67
     7
176
     1
 79
     3
176
     1
170
     0
176
     1
171
     0
176
     1
290
     0
176
     1
 93
        5
176
     1
 44
0.0
176
     1
173
     0
176
     1
  0
VISUALSTYLE
  5
3E
102
{ACAD_REACTORS
330
2A
102
}
102
{ACAD_XDICTIONARY
360
19C
102
}
330
2A
100
AcDbVisualStyle
  2
Shades of Gray
 70
    23
177
     2
291
     0
 71
     2
176
     1
 72
     2
176
     1
 73
     3
176
     1
 90
        0
176
     1
 40
0.6
176
     1
 41
30.0
176
     1
 62
     5
 63
     7
421
 16777215
176
     1
 74
     2
176
     1
 91
        2
176
     1
 64
     7
176
     1
 65
     7
176
     1
 75
     1
176
     1
175
     1
176
     1
 42
40.0
176
     1
 92
        8
176
     1
 66
     7
176
     1
 43
1.0
176
     1
 76
     1
176
     1
 77
     6
176
     1
 78
     2
176
     1
 67
     7
176
     1
 79
     3
176
     1
170
     0
176
     1
171
     0
176
     1
290
     0
176
     1
 93
        1
176
     1
 44
0.0
176
     1
173
     0
176
     1
  0
VISUALSTYLE
  5
3F
102
{ACAD_REACTORS
330
2A
102
}
102
{ACAD_XDICTIONARY
360
19E
102
}
330
2A
100
AcDbVisualStyle
  2
Sketchy
 70
    24
177
     2
291
     0
 71
     1
176
     1
 72
     2
176
     1
 73
     2
176
     1
 90
        0
176
     1
 40
0.6
176
     1
 41
30.0
176
     1
 62
     5
 63
     7
421
 16777215
176
     1
 74
     2
176
     1
 91
        2
176
     1
 64
     7
176
     1
 65
     7
176
     1
 75
     1
176
     1
175
     1
176
     1
 42
40.0
176
     1
 92
       11
176
     1
 66
     7
176
     1
 43
1.0
176
     1
 76
     1
176
     1
 77
     6
176
     1
 78
     2
176
     1
 67
     7
176
     1
 79
     6
176
     1
170
     0
176
     1
171
     0
176
     1
290
     0
176
     1
 93
        1
176
     1
 44
0.0
176
     1
173
     0
176
     1
  0
VISUALSTYLE
  5
37
102
{ACAD_REACTORS
330
2A
102
}
102
{ACAD_XDICTIONARY
360
18E
102
}
330
2A
100
AcDbVisualStyle
  2
Thicken
 70
    13
177
     2
291
     1
 71
     2
176
     1
 72
     2
176
     1
 73
     0
176
     1
 90
        0
176
     1
 40
0.6
176
     1
 41
30.0
176
     1
 62
     5
 63
     7
421
 16777215
176
     1
 74
     1
176
     1
 91
        4
176
     1
 64
     7
176
     1
 65
   257
176
     1
 75
     1
176
     1
175
     1
176
     1
 42
1.0
176
     1
 92
       12
176
     1
 66
     7
176
     1
 43
1.0
176
     1
 76
     1
176
     1
 77
     6
176
     1
 78
     2
176
     1
 67
     7
176
     1
 79
     5
176
     1
170
     0
176
     1
171
     0
176
     1
290
     0
176
     1
 93
        1
176
     1
 44
0.0
176
     1
173
     0
176
     1
  0
VISUALSTYLE
  5
30
102
{ACAD_REACTORS
330
2A
102
}
102
{ACAD_XDICTIONARY
360
180
102
}
330
2A
100
AcDbVisualStyle
  2
Wireframe
 70
     5
177
     2
291
     0
 71
     0
176
     1
 72
     2
176
     1
 73
     0
176
     1
 90
        0
176
     1
 40
0.6
176
     1
 41
30.0
176
     1
 62
     5
 63
     7
421
 16777215
176
     1
 74
     1
176
     1
 91
        4
176
     1
 64
     7
176
     1
 65
   257
176
     1
 75
     1
176
     1
175
     1
176
     1
 42
1.0
176
     1
 92
        0
176
     1
 66
   257
176
     1
 43
1.0
176
     1
 76
     1
176
     1
 77
     6
176
     1
 78
     2
176
     1
 67
     7
176
     1
 79
     3
176
     1
170
     0
176
     1
171
     0
176
     1
290
     0
176
     1
 93
        1
176
     1
 44
0.0
176
     1
173
     0
176
     1
  0
VISUALSTYLE
  5
40
102
{ACAD_REACTORS
330
2A
102
}
102
{ACAD_XDICTIONARY
360
1A0
102
}
330
2A
100
AcDbVisualStyle
  2
X-Ray
 70
    25
177
     2
291
     0
 71
     2
176
     1
 72
     2
176
     1
 73
     1
176
     1
 90
        1
176
     1
 40
0.5
176
     1
 41
30.0
176
     1
 62
     5
 63
     7
421
 16777215
176
     1
 74
     1
176
     1
 91
        0
176
     1
 64
     7
176
     1
 65
   257
176
     1
 75
     1
176
     1
175
     1
176
     1
 42
1.0
176
     1
 92
        8
176
     1
 66
     7
176
     1
 43
1.0
176
     1
 76
     1
176
     1
 77
     6
176
     1
 78
     2
176
     1
 67
     7
176
     1
 79
     3
176
     1
170
     0
176
     1
171
     0
176
     1
290
     0
176
     1
 93
       13
176
     1
 44
0.0
176
     1
173
     0
176
     1
  0
DICTIONARYVAR
  5
175
102
{ACAD_REACTORS
330
174
102
}
330
174
100
DictionaryVariables
280
     0
  1
1:1
  0
DICTIONARYVAR
  5
1AF
102
{ACAD_REACTORS
330
174
102
}
330
174
100
DictionaryVariables
280
     0
  1
3.500000
  0
DICTIONARYVAR
  5
1B0
102
{ACAD_REACTORS
330
174
102
}
330
174
100
DictionaryVariables
280
     0
  1
acadiso.lin
  0
DICTIONARYVAR
  5
1AB
102
{ACAD_REACTORS
330
174
102
}
330
174
100
DictionaryVariables
280
     0
  1
Standard
  0
DICTIONARYVAR
  5
1AA
102
{ACAD_REACTORS
330
174
102
}
330
174
100
DictionaryVariables
280
     0
  1
Standard
  0
DICTIONARYVAR
  5
1AE
102
{ACAD_REACTORS
330
174
102
}
330
174
100
DictionaryVariables
280
     0
  1
0
  0
DICTIONARY
  5
1A6
330
6A
100
AcDbDictionary
280
     1
281
     1
  3
ACAD_ROUNDTRIP_2008_TABLESTYLE_CELLSTYLEMAP
360
1A7
  0
DICTIONARY
  5
17E
330
2F
100
AcDbDictionary
280
     1
281
     1
  3
ACAD_XREC_ROUNDTRIP
360
17F
  0
DICTIONARY
  5
184
330
32
100
AcDbDictionary
280
     1
281
     1
  3
ACAD_XREC_ROUNDTRIP
360
185
  0
DICTIONARY
  5
18C
330
36
100
AcDbDictionary
280
     1
281
     1
  3
ACAD_XREC_ROUNDTRIP
360
18D
  0
DICTIONARY
  5
194
330
3A
100
AcDbDictionary
280
     1
281
     1
  3
ACAD_XREC_ROUNDTRIP
360
195
  0
DICTIONARY
  5
188
330
34
100
AcDbDictionary
280
     1
281
     1
  3
ACAD_XREC_ROUNDTRIP
360
189
  0
DICTIONARY
  5
18A
330
35
100
AcDbDictionary
280
     1
281
     1
  3
ACAD_XREC_ROUNDTRIP
360
18B
  0
DICTIONARY
  5
19A
330
3D
100
AcDbDictionary
280
     1
281
     1
  3
ACAD_XREC_ROUNDTRIP
360
19B
  0
DICTIONARY
  5
192
330
39
100
AcDbDictionary
280
     1
281
     1
  3
ACAD_XREC_ROUNDTRIP
360
193
  0
DICTIONARY
  5
176
330
2B
100
AcDbDictionary
280
     1
281
     1
  3
ACAD_XREC_ROUNDTRIP
360
177
  0
DICTIONARY
  5
178
330
2C
100
AcDbDictionary
280
     1
281
     1
  3
ACAD_XREC_ROUNDTRIP
360
179
  0
DICTIONARY
  5
17A
330
2D
100
AcDbDictionary
280
     1
281
     1
  3
ACAD_XREC_ROUNDTRIP
360
17B
  0
DICTIONARY
  5
17C
330
2E
100
AcDbDictionary
280
     1
281
     1
  3
ACAD_XREC_ROUNDTRIP
360
17D
  0
DICTIONARY
  5
182
330
31
100
AcDbDictionary
280
     1
281
     1
  3
ACAD_XREC_ROUNDTRIP
360
183
  0
DICTIONARY
  5
196
330
3B
100
AcDbDictionary
280
     1
281
     1
  3
ACAD_XREC_ROUNDTRIP
360
197
  0
DICTIONARY
  5
190
330
38
100
AcDbDictionary
280
     1
281
     1
  3
ACAD_XREC_ROUNDTRIP
360
191
  0
DICTIONARY
  5
198
330
3C
100
AcDbDictionary
280
     1
281
     1
  3
ACAD_XREC_ROUNDTRIP
360
199
  0
DICTIONARY
  5
186
330
33
100
AcDbDictionary
280
     1
281
     1
  3
ACAD_XREC_ROUNDTRIP
360
187
  0
DICTIONARY
  5
1A4
330
42
100
AcDbDictionary
280
     1
281
     1
  3
ACAD_XREC_ROUNDTRIP
360
1A5
  0
DICTIONARY
  5
1A2
330
41
100
AcDbDictionary
280
     1
281
     1
  3
ACAD_XREC_ROUNDTRIP
360
1A3
  0
DICTIONARY
  5
19C
330
3E
100
AcDbDictionary
280
     1
281
     1
  3
ACAD_XREC_ROUNDTRIP
360
19D
  0
DICTIONARY
  5
19E
330
3F
100
AcDbDictionary
280
     1
281
     1
  3
ACAD_XREC_ROUNDTRIP
360
19F
  0
DICTIONARY
  5
18E
330
37
100
AcDbDictionary
280
     1
281
     1
  3
ACAD_XREC_ROUNDTRIP
360
18F
  0
DICTIONARY
  5
180
330
30
100
AcDbDictionary
280
     1
281
     1
  3
ACAD_XREC_ROUNDTRIP
360
181
  0
DICTIONARY
  5
1A0
330
40
100
AcDbDictionary
280
     1
281
     1
  3
ACAD_XREC_ROUNDTRIP
360
1A1
  0
CELLSTYLEMAP
  5
1A7
102
{ACAD_REACTORS
330
1A6
102
}
330
1A6
100
AcDbCellStyleMap
 90
        3
300
CELLSTYLE
  1
TABLEFORMAT_BEGIN
 90
        5
170
     1
 91
        0
 92
    32768
 62
   257
 93
        1
300
CONTENTFORMAT
  1
CONTENTFORMAT_BEGIN
 90
        0
 91
        0
 92
        4
 93
        0
300

 40
0.0
140
1.0
 94
        5
 62
     0
340
11
144
6.0
309
CONTENTFORMAT_END
171
     1
301
MARGIN
  1
CELLMARGIN_BEGIN
 40
1.5
 40
1.5
 40
1.5
 40
1.5
 40
1.5
 40
1.5
309
CELLMARGIN_END
 94
        6
 95
        1
302
GRIDFORMAT
  1
GRIDFORMAT_BEGIN
 90
        0
 91
        1
 62
     0
 92
       -2
340
14
 93
        0
 40
0.045
309
GRIDFORMAT_END
 95
        2
302
GRIDFORMAT
  1
GRIDFORMAT_BEGIN
 90
        0
 91
        1
 62
     0
 92
       -2
340
14
 93
        0
 40
0.045
309
GRIDFORMAT_END
 95
        4
302
GRIDFORMAT
  1
GRIDFORMAT_BEGIN
 90
        0
 91
        1
 62
     0
 92
       -2
340
14
 93
        0
 40
0.045
309
GRIDFORMAT_END
 95
        8
302
GRIDFORMAT
  1
GRIDFORMAT_BEGIN
 90
        0
 91
        1
 62
     0
 92
       -2
340
14
 93
        0
 40
0.045
309
GRIDFORMAT_END
 95
       16
302
GRIDFORMAT
  1
GRIDFORMAT_BEGIN
 90
        0
 91
        1
 62
     0
 92
       -2
340
14
 93
        0
 40
0.045
309
GRIDFORMAT_END
 95
       32
302
GRIDFORMAT
  1
GRIDFORMAT_BEGIN
 90
        0
 91
        1
 62
     0
 92
       -2
340
14
 93
        0
 40
0.045
309
GRIDFORMAT_END
309
TABLEFORMAT_END
  1
CELLSTYLE_BEGIN
 90
        1
 91
        1
300
_TITLE
309
CELLSTYLE_END
300
CELLSTYLE
  1
TABLEFORMAT_BEGIN
 90
        5
170
     1
 91
        0
 92
        0
 62
   257
 93
        1
300
CONTENTFORMAT
  1
CONTENTFORMAT_BEGIN
 90
        0
 91
        0
 92
        4
 93
        0
300

 40
0.0
140
1.0
 94
        5
 62
     0
340
11
144
4.5
309
CONTENTFORMAT_END
171
     1
301
MARGIN
  1
CELLMARGIN_BEGIN
 40
1.5
 40
1.5
 40
1.5
 40
1.5
 40
1.5
 40
1.5
309
CELLMARGIN_END
 94
        6
 95
        1
302
GRIDFORMAT
  1
GRIDFORMAT_BEGIN
 90
        0
 91
        1
 62
     0
 92
       -2
340
14
 93
        0
 40
0.045
309
GRIDFORMAT_END
 95
        2
302
GRIDFORMAT
  1
GRIDFORMAT_BEGIN
 90
        0
 91
        1
 62
     0
 92
       -2
340
14
 93
        0
 40
0.045
309
GRIDFORMAT_END
 95
        4
302
GRIDFORMAT
  1
GRIDFORMAT_BEGIN
 90
        0
 91
        1
 62
     0
 92
       -2
340
14
 93
        0
 40
0.045
309
GRIDFORMAT_END
 95
        8
302
GRIDFORMAT
  1
GRIDFORMAT_BEGIN
 90
        0
 91
        1
 62
     0
 92
       -2
340
14
 93
        0
 40
0.045
309
GRIDFORMAT_END
 95
       16
302
GRIDFORMAT
  1
GRIDFORMAT_BEGIN
 90
        0
 91
        1
 62
     0
 92
       -2
340
14
 93
        0
 40
0.045
309
GRIDFORMAT_END
 95
       32
302
GRIDFORMAT
  1
GRIDFORMAT_BEGIN
 90
        0
 91
        1
 62
     0
 92
       -2
340
14
 93
        0
 40
0.045
309
GRIDFORMAT_END
309
TABLEFORMAT_END
  1
CELLSTYLE_BEGIN
 90
        2
 91
        1
300
_HEADER
309
CELLSTYLE_END
300
CELLSTYLE
  1
TABLEFORMAT_BEGIN
 90
        5
170
     1
 91
        0
 92
        0
 62
   257
 93
        1
300
CONTENTFORMAT
  1
CONTENTFORMAT_BEGIN
 90
        0
 91
        0
 92
        4
 93
        0
300

 40
0.0
140
1.0
 94
        2
 62
     0
340
11
144
4.5
309
CONTENTFORMAT_END
171
     1
301
MARGIN
  1
CELLMARGIN_BEGIN
 40
1.5
 40
1.5
 40
1.5
 40
1.5
 40
1.5
 40
1.5
309
CELLMARGIN_END
 94
        6
 95
        1
302
GRIDFORMAT
  1
GRIDFORMAT_BEGIN
 90
        0
 91
        1
 62
     0
 92
       -2
340
14
 93
        0
 40
0.045
309
GRIDFORMAT_END
 95
        2
302
GRIDFORMAT
  1
GRIDFORMAT_BEGIN
 90
        0
 91
        1
 62
     0
 92
       -2
340
14
 93
        0
 40
0.045
309
GRIDFORMAT_END
 95
        4
302
GRIDFORMAT
  1
GRIDFORMAT_BEGIN
 90
        0
 91
        1
 62
     0
 92
       -2
340
14
 93
        0
 40
0.045
309
GRIDFORMAT_END
 95
        8
302
GRIDFORMAT
  1
GRIDFORMAT_BEGIN
 90
        0
 91
        1
 62
     0
 92
       -2
340
14
 93
        0
 40
0.045
309
GRIDFORMAT_END
 95
       16
302
GRIDFORMAT
  1
GRIDFORMAT_BEGIN
 90
        0
 91
        1
 62
     0
 92
       -2
340
14
 93
        0
 40
0.045
309
GRIDFORMAT_END
 95
       32
302
GRIDFORMAT
  1
GRIDFORMAT_BEGIN
 90
        0
 91
        1
 62
     0
 92
       -2
340
14
 93
        0
 40
0.045
309
GRIDFORMAT_END
309
TABLEFORMAT_END
  1
CELLSTYLE_BEGIN
 90
        3
 91
        2
300
_DATA
309
CELLSTYLE_END
  0
XRECORD
  5
17F
102
{ACAD_REACTORS
330
17E
102
}
330
17E
100
AcDbXrecord
280
     1
102
RTVSPost2010Prop28
280
     1
102
RTVSPost2010PropOp28
 70
     1
102
RTVSPost2010Prop29
280
     1
102
RTVSPost2010PropOp29
 70
     1
102
RTVSPost2010Prop30
280
     0
102
RTVSPost2010PropOp30
 70
     1
102
RTVSPost2010Prop31
280
     0
102
RTVSPost2010PropOp31
 70
     1
102
RTVSPost2010Prop32
280
     0
102
RTVSPost2010PropOp32
 70
     1
102
RTVSPost2010Prop33
280
     0
102
RTVSPost2010PropOp33
 70
     1
102
RTVSPost2010Prop34
280
     0
102
RTVSPost2010PropOp34
 70
     1
102
RTVSPost2010Prop35
280
     0
102
RTVSPost2010PropOp35
 70
     1
102
RTVSPost2010Prop36
280
     0
102
RTVSPost2010PropOp36
 70
     1
102
RTVSPost2010Prop37
 90
       50
102
RTVSPost2010PropOp37
 70
     1
102
RTVSPost2010Prop38
140
0.0
102
RTVSPost2010PropOp38
 70
     1
102
RTVSPost2010Prop39
140
1.0
102
RTVSPost2010PropOp39
 70
     1
102
RTVSPost2010Prop40
 90
        0
102
RTVSPost2010PropOp40
 70
     1
102
RTVSPost2010Prop41ColorIndex
 90
       18
102
RTVSPost2010Prop41ColorRGB
 90
        0
102
RTVSPost2010PropOp41
 70
     1
102
RTVSPost2010Prop42
 90
       50
102
RTVSPost2010PropOp42
 70
     1
102
RTVSPost2010Prop43
 90
        3
102
RTVSPost2010PropOp43
 70
     1
102
RTVSPost2010Prop44ColorIndex
 90
        5
102
RTVSPost2010Prop44ColorRGB
 90
      255
102
RTVSPost2010PropOp44
 70
     1
102
RTVSPost2010Prop45
280
     0
102
RTVSPost2010PropOp45
 70
     1
102
RTVSPost2010Prop46
 90
       50
102
RTVSPost2010PropOp46
 70
     1
102
RTVSPost2010Prop47
 90
       50
102
RTVSPost2010PropOp47
 70
     1
102
RTVSPost2010Prop48
 90
       50
102
RTVSPost2010PropOp48
 70
     1
102
RTVSPost2010Prop49
280
     0
102
RTVSPost2010PropOp49
 70
     1
102
RTVSPost2010Prop50
 90
       50
102
RTVSPost2010PropOp50
 70
     1
102
RTVSPost2010Prop51ColorIndex
 90
      256
102
RTVSPost2010Prop51ColorRGB
 90
-16777216
102
RTVSPost2010PropOp51
 70
     0
102
RTVSPost2010Prop52
140
1.0
102
RTVSPost2010PropOp52
 70
     0
102
RTVSPost2010Prop53
 90
        2
102
RTVSPost2010PropOp53
 70
     1
102
RTVSPost2010Prop54
  1
strokes_ogs.tif
102
RTVSPost2010PropOp54
 70
     1
102
RTVSPost2010Prop55
280
     0
102
RTVSPost2010PropOp55
 70
     1
102
RTVSPost2010Prop56
140
1.0
102
RTVSPost2010PropOp56
 70
     1
102
RTVSPost2010Prop57
140
1.0
102
RTVSPost2010PropOp57
 70
     1
  0
XRECORD
  5
185
102
{ACAD_REACTORS
330
184
102
}
330
184
100
AcDbXrecord
280
     1
102
RTVSPost2010Prop28
280
     0
102
RTVSPost2010PropOp28
 70
     1
102
RTVSPost2010Prop29
280
     1
102
RTVSPost2010PropOp29
 70
     1
102
RTVSPost2010Prop30
280
     1
102
RTVSPost2010PropOp30
 70
     1
102
RTVSPost2010Prop31
280
     0
102
RTVSPost2010PropOp31
 70
     1
102
RTVSPost2010Prop32
280
     0
102
RTVSPost2010PropOp32
 70
     1
102
RTVSPost2010Prop33
280
     0
102
RTVSPost2010PropOp33
 70
     1
102
RTVSPost2010Prop34
280
     0
102
RTVSPost2010PropOp34
 70
     1
102
RTVSPost2010Prop35
280
     0
102
RTVSPost2010PropOp35
 70
     1
102
RTVSPost2010Prop36
280
     0
102
RTVSPost2010PropOp36
 70
     1
102
RTVSPost2010Prop37
 90
       50
102
RTVSPost2010PropOp37
 70
     1
102
RTVSPost2010Prop38
140
0.0
102
RTVSPost2010PropOp38
 70
     1
102
RTVSPost2010Prop39
140
1.0
102
RTVSPost2010PropOp39
 70
     1
102
RTVSPost2010Prop40
 90
        0
102
RTVSPost2010PropOp40
 70
     1
102
RTVSPost2010Prop41ColorIndex
 90
       18
102
RTVSPost2010Prop41ColorRGB
 90
        0
102
RTVSPost2010PropOp41
 70
     1
102
RTVSPost2010Prop42
 90
       50
102
RTVSPost2010PropOp42
 70
     1
102
RTVSPost2010Prop43
 90
        3
102
RTVSPost2010PropOp43
 70
     1
102
RTVSPost2010Prop44ColorIndex
 90
        5
102
RTVSPost2010Prop44ColorRGB
 90
      255
102
RTVSPost2010PropOp44
 70
     1
102
RTVSPost2010Prop45
280
     0
102
RTVSPost2010PropOp45
 70
     1
102
RTVSPost2010Prop46
 90
       50
102
RTVSPost2010PropOp46
 70
     1
102
RTVSPost2010Prop47
 90
       50
102
RTVSPost2010PropOp47
 70
     1
102
RTVSPost2010Prop48
 90
       50
102
RTVSPost2010PropOp48
 70
     1
102
RTVSPost2010Prop49
280
     0
102
RTVSPost2010PropOp49
 70
     1
102
RTVSPost2010Prop50
 90
       50
102
RTVSPost2010PropOp50
 70
     1
102
RTVSPost2010Prop51ColorIndex
 90
      256
102
RTVSPost2010Prop51ColorRGB
 90
-16777216
102
RTVSPost2010PropOp51
 70
     0
102
RTVSPost2010Prop52
140
1.0
102
RTVSPost2010PropOp52
 70
     0
102
RTVSPost2010Prop53
 90
        2
102
RTVSPost2010PropOp53
 70
     1
102
RTVSPost2010Prop54
  1
strokes_ogs.tif
102
RTVSPost2010PropOp54
 70
     1
102
RTVSPost2010Prop55
280
     0
102
RTVSPost2010PropOp55
 70
     1
102
RTVSPost2010Prop56
140
1.0
102
RTVSPost2010PropOp56
 70
     1
102
RTVSPost2010Prop57
140
1.0
102
RTVSPost2010PropOp57
 70
     1
  0
XRECORD
  5
18D
102
{ACAD_REACTORS
330
18C
102
}
330
18C
100
AcDbXrecord
280
     1
102
RTVSPost2010Prop28
280
     0
102
RTVSPost2010PropOp28
 70
     1
102
RTVSPost2010Prop29
280
     1
102
RTVSPost2010PropOp29
 70
     1
102
RTVSPost2010Prop30
280
     1
102
RTVSPost2010PropOp30
 70
     1
102
RTVSPost2010Prop31
280
     0
102
RTVSPost2010PropOp31
 70
     1
102
RTVSPost2010Prop32
280
     0
102
RTVSPost2010PropOp32
 70
     1
102
RTVSPost2010Prop33
280
     0
102
RTVSPost2010PropOp33
 70
     1
102
RTVSPost2010Prop34
280
     0
102
RTVSPost2010PropOp34
 70
     1
102
RTVSPost2010Prop35
280
     0
102
RTVSPost2010PropOp35
 70
     1
102
RTVSPost2010Prop36
280
     0
102
RTVSPost2010PropOp36
 70
     1
102
RTVSPost2010Prop37
 90
       50
102
RTVSPost2010PropOp37
 70
     1
102
RTVSPost2010Prop38
140
0.0
102
RTVSPost2010PropOp38
 70
     1
102
RTVSPost2010Prop39
140
1.0
102
RTVSPost2010PropOp39
 70
     1
102
RTVSPost2010Prop40
 90
        0
102
RTVSPost2010PropOp40
 70
     1
102
RTVSPost2010Prop41ColorIndex
 90
       18
102
RTVSPost2010Prop41ColorRGB
 90
        0
102
RTVSPost2010PropOp41
 70
     1
102
RTVSPost2010Prop42
 90
       50
102
RTVSPost2010PropOp42
 70
     1
102
RTVSPost2010Prop43
 90
        3
102
RTVSPost2010PropOp43
 70
     1
102
RTVSPost2010Prop44ColorIndex
 90
        5
102
RTVSPost2010Prop44ColorRGB
 90
      255
102
RTVSPost2010PropOp44
 70
     1
102
RTVSPost2010Prop45
280
     0
102
RTVSPost2010PropOp45
 70
     1
102
RTVSPost2010Prop46
 90
       50
102
RTVSPost2010PropOp46
 70
     1
102
RTVSPost2010Prop47
 90
       50
102
RTVSPost2010PropOp47
 70
     1
102
RTVSPost2010Prop48
 90
       50
102
RTVSPost2010PropOp48
 70
     1
102
RTVSPost2010Prop49
280
     0
102
RTVSPost2010PropOp49
 70
     1
102
RTVSPost2010Prop50
 90
       50
102
RTVSPost2010PropOp50
 70
     1
102
RTVSPost2010Prop51ColorIndex
 90
      256
102
RTVSPost2010Prop51ColorRGB
 90
-16777216
102
RTVSPost2010PropOp51
 70
     0
102
RTVSPost2010Prop52
140
1.0
102
RTVSPost2010PropOp52
 70
     0
102
RTVSPost2010Prop53
 90
        2
102
RTVSPost2010PropOp53
 70
     1
102
RTVSPost2010Prop54
  1
strokes_ogs.tif
102
RTVSPost2010PropOp54
 70
     1
102
RTVSPost2010Prop55
280
     0
102
RTVSPost2010PropOp55
 70
     1
102
RTVSPost2010Prop56
140
1.0
102
RTVSPost2010PropOp56
 70
     1
102
RTVSPost2010Prop57
140
1.0
102
RTVSPost2010PropOp57
 70
     1
  0
XRECORD
  5
195
102
{ACAD_REACTORS
330
194
102
}
330
194
100
AcDbXrecord
280
     1
102
RTVSPost2010Prop28
280
     0
102
RTVSPost2010PropOp28
 70
     1
102
RTVSPost2010Prop29
280
     1
102
RTVSPost2010PropOp29
 70
     1
102
RTVSPost2010Prop30
280
     1
102
RTVSPost2010PropOp30
 70
     1
102
RTVSPost2010Prop31
280
     0
102
RTVSPost2010PropOp31
 70
     1
102
RTVSPost2010Prop32
280
     0
102
RTVSPost2010PropOp32
 70
     1
102
RTVSPost2010Prop33
280
     0
102
RTVSPost2010PropOp33
 70
     1
102
RTVSPost2010Prop34
280
     0
102
RTVSPost2010PropOp34
 70
     1
102
RTVSPost2010Prop35
280
     0
102
RTVSPost2010PropOp35
 70
     1
102
RTVSPost2010Prop36
280
     0
102
RTVSPost2010PropOp36
 70
     1
102
RTVSPost2010Prop37
 90
       50
102
RTVSPost2010PropOp37
 70
     1
102
RTVSPost2010Prop38
140
0.0
102
RTVSPost2010PropOp38
 70
     1
102
RTVSPost2010Prop39
140
1.0
102
RTVSPost2010PropOp39
 70
     1
102
RTVSPost2010Prop40
 90
        0
102
RTVSPost2010PropOp40
 70
     1
102
RTVSPost2010Prop41ColorIndex
 90
       18
102
RTVSPost2010Prop41ColorRGB
 90
        0
102
RTVSPost2010PropOp41
 70
     1
102
RTVSPost2010Prop42
 90
       50
102
RTVSPost2010PropOp42
 70
     1
102
RTVSPost2010Prop43
 90
        3
102
RTVSPost2010PropOp43
 70
     1
102
RTVSPost2010Prop44ColorIndex
 90
        5
102
RTVSPost2010Prop44ColorRGB
 90
      255
102
RTVSPost2010PropOp44
 70
     1
102
RTVSPost2010Prop45
280
     0
102
RTVSPost2010PropOp45
 70
     1
102
RTVSPost2010Prop46
 90
       50
102
RTVSPost2010PropOp46
 70
     1
102
RTVSPost2010Prop47
 90
       50
102
RTVSPost2010PropOp47
 70
     1
102
RTVSPost2010Prop48
 90
       50
102
RTVSPost2010PropOp48
 70
     1
102
RTVSPost2010Prop49
280
     0
102
RTVSPost2010PropOp49
 70
     1
102
RTVSPost2010Prop50
 90
       50
102
RTVSPost2010PropOp50
 70
     1
102
RTVSPost2010Prop51ColorIndex
 90
      256
102
RTVSPost2010Prop51ColorRGB
 90
-16777216
102
RTVSPost2010PropOp51
 70
     0
102
RTVSPost2010Prop52
140
1.0
102
RTVSPost2010PropOp52
 70
     0
102
RTVSPost2010Prop53
 90
        2
102
RTVSPost2010PropOp53
 70
     1
102
RTVSPost2010Prop54
  1
strokes_ogs.tif
102
RTVSPost2010PropOp54
 70
     1
102
RTVSPost2010Prop55
280
     0
102
RTVSPost2010PropOp55
 70
     1
102
RTVSPost2010Prop56
140
1.0
102
RTVSPost2010PropOp56
 70
     1
102
RTVSPost2010Prop57
140
1.0
102
RTVSPost2010PropOp57
 70
     1
  0
XRECORD
  5
189
102
{ACAD_REACTORS
330
188
102
}
330
188
100
AcDbXrecord
280
     1
102
RTVSPost2010Prop28
280
     0
102
RTVSPost2010PropOp28
 70
     1
102
RTVSPost2010Prop29
280
     1
102
RTVSPost2010PropOp29
 70
     1
102
RTVSPost2010Prop30
280
     1
102
RTVSPost2010PropOp30
 70
     1
102
RTVSPost2010Prop31
280
     0
102
RTVSPost2010PropOp31
 70
     1
102
RTVSPost2010Prop32
280
     0
102
RTVSPost2010PropOp32
 70
     1
102
RTVSPost2010Prop33
280
     0
102
RTVSPost2010PropOp33
 70
     1
102
RTVSPost2010Prop34
280
     0
102
RTVSPost2010PropOp34
 70
     1
102
RTVSPost2010Prop35
280
     0
102
RTVSPost2010PropOp35
 70
     1
102
RTVSPost2010Prop36
280
     0
102
RTVSPost2010PropOp36
 70
     1
102
RTVSPost2010Prop37
 90
       50
102
RTVSPost2010PropOp37
 70
     1
102
RTVSPost2010Prop38
140
0.0
102
RTVSPost2010PropOp38
 70
     1
102
RTVSPost2010Prop39
140
1.0
102
RTVSPost2010PropOp39
 70
     1
102
RTVSPost2010Prop40
 90
        0
102
RTVSPost2010PropOp40
 70
     1
102
RTVSPost2010Prop41ColorIndex
 90
       18
102
RTVSPost2010Prop41ColorRGB
 90
        0
102
RTVSPost2010PropOp41
 70
     1
102
RTVSPost2010Prop42
 90
       50
102
RTVSPost2010PropOp42
 70
     1
102
RTVSPost2010Prop43
 90
        3
102
RTVSPost2010PropOp43
 70
     1
102
RTVSPost2010Prop44ColorIndex
 90
        5
102
RTVSPost2010Prop44ColorRGB
 90
      255
102
RTVSPost2010PropOp44
 70
     1
102
RTVSPost2010Prop45
280
     0
102
RTVSPost2010PropOp45
 70
     1
102
RTVSPost2010Prop46
 90
       50
102
RTVSPost2010PropOp46
 70
     1
102
RTVSPost2010Prop47
 90
       50
102
RTVSPost2010PropOp47
 70
     1
102
RTVSPost2010Prop48
 90
       50
102
RTVSPost2010PropOp48
 70
     1
102
RTVSPost2010Prop49
280
     0
102
RTVSPost2010PropOp49
 70
     1
102
RTVSPost2010Prop50
 90
       50
102
RTVSPost2010PropOp50
 70
     1
102
RTVSPost2010Prop51ColorIndex
 90
      256
102
RTVSPost2010Prop51ColorRGB
 90
-16777216
102
RTVSPost2010PropOp51
 70
     0
102
RTVSPost2010Prop52
140
1.0
102
RTVSPost2010PropOp52
 70
     0
102
RTVSPost2010Prop53
 90
        2
102
RTVSPost2010PropOp53
 70
     1
102
RTVSPost2010Prop54
  1
strokes_ogs.tif
102
RTVSPost2010PropOp54
 70
     1
102
RTVSPost2010Prop55
280
     0
102
RTVSPost2010PropOp55
 70
     1
102
RTVSPost2010Prop56
140
1.0
102
RTVSPost2010PropOp56
 70
     1
102
RTVSPost2010Prop57
140
1.0
102
RTVSPost2010PropOp57
 70
     1
  0
XRECORD
  5
18B
102
{ACAD_REACTORS
330
18A
102
}
330
18A
100
AcDbXrecord
280
     1
102
RTVSPost2010Prop28
280
     0
102
RTVSPost2010PropOp28
 70
     1
102
RTVSPost2010Prop29
280
     1
102
RTVSPost2010PropOp29
 70
     1
102
RTVSPost2010Prop30
280
     1
102
RTVSPost2010PropOp30
 70
     1
102
RTVSPost2010Prop31
280
     0
102
RTVSPost2010PropOp31
 70
     1
102
RTVSPost2010Prop32
280
     0
102
RTVSPost2010PropOp32
 70
     1
102
RTVSPost2010Prop33
280
     0
102
RTVSPost2010PropOp33
 70
     1
102
RTVSPost2010Prop34
280
     0
102
RTVSPost2010PropOp34
 70
     1
102
RTVSPost2010Prop35
280
     0
102
RTVSPost2010PropOp35
 70
     1
102
RTVSPost2010Prop36
280
     0
102
RTVSPost2010PropOp36
 70
     1
102
RTVSPost2010Prop37
 90
       50
102
RTVSPost2010PropOp37
 70
     1
102
RTVSPost2010Prop38
140
0.0
102
RTVSPost2010PropOp38
 70
     1
102
RTVSPost2010Prop39
140
1.0
102
RTVSPost2010PropOp39
 70
     1
102
RTVSPost2010Prop40
 90
        0
102
RTVSPost2010PropOp40
 70
     1
102
RTVSPost2010Prop41ColorIndex
 90
       18
102
RTVSPost2010Prop41ColorRGB
 90
        0
102
RTVSPost2010PropOp41
 70
     1
102
RTVSPost2010Prop42
 90
       50
102
RTVSPost2010PropOp42
 70
     1
102
RTVSPost2010Prop43
 90
        3
102
RTVSPost2010PropOp43
 70
     1
102
RTVSPost2010Prop44ColorIndex
 90
        5
102
RTVSPost2010Prop44ColorRGB
 90
      255
102
RTVSPost2010PropOp44
 70
     1
102
RTVSPost2010Prop45
280
     0
102
RTVSPost2010PropOp45
 70
     1
102
RTVSPost2010Prop46
 90
       50
102
RTVSPost2010PropOp46
 70
     1
102
RTVSPost2010Prop47
 90
       50
102
RTVSPost2010PropOp47
 70
     1
102
RTVSPost2010Prop48
 90
       50
102
RTVSPost2010PropOp48
 70
     1
102
RTVSPost2010Prop49
280
     0
102
RTVSPost2010PropOp49
 70
     1
102
RTVSPost2010Prop50
 90
       50
102
RTVSPost2010PropOp50
 70
     1
102
RTVSPost2010Prop51ColorIndex
 90
      256
102
RTVSPost2010Prop51ColorRGB
 90
-16777216
102
RTVSPost2010PropOp51
 70
     0
102
RTVSPost2010Prop52
140
1.0
102
RTVSPost2010PropOp52
 70
     0
102
RTVSPost2010Prop53
 90
        2
102
RTVSPost2010PropOp53
 70
     1
102
RTVSPost2010Prop54
  1
strokes_ogs.tif
102
RTVSPost2010PropOp54
 70
     1
102
RTVSPost2010Prop55
280
     0
102
RTVSPost2010PropOp55
 70
     1
102
RTVSPost2010Prop56
140
1.0
102
RTVSPost2010PropOp56
 70
     1
102
RTVSPost2010Prop57
140
1.0
102
RTVSPost2010PropOp57
 70
     1
  0
XRECORD
  5
19B
102
{ACAD_REACTORS
330
19A
102
}
330
19A
100
AcDbXrecord
280
     1
102
RTVSPost2010Prop28
280
     0
102
RTVSPost2010PropOp28
 70
     0
102
RTVSPost2010Prop29
280
     1
102
RTVSPost2010PropOp29
 70
     0
102
RTVSPost2010Prop30
280
     1
102
RTVSPost2010PropOp30
 70
     0
102
RTVSPost2010Prop31
280
     0
102
RTVSPost2010PropOp31
 70
     0
102
RTVSPost2010Prop32
280
     0
102
RTVSPost2010PropOp32
 70
     0
102
RTVSPost2010Prop33
280
     0
102
RTVSPost2010PropOp33
 70
     0
102
RTVSPost2010Prop34
280
     0
102
RTVSPost2010PropOp34
 70
     0
102
RTVSPost2010Prop35
280
     0
102
RTVSPost2010PropOp35
 70
     0
102
RTVSPost2010Prop36
280
     0
102
RTVSPost2010PropOp36
 70
     0
102
RTVSPost2010Prop37
 90
       50
102
RTVSPost2010PropOp37
 70
     0
102
RTVSPost2010Prop38
140
0.0
102
RTVSPost2010PropOp38
 70
     0
102
RTVSPost2010Prop39
140
1.0
102
RTVSPost2010PropOp39
 70
     0
102
RTVSPost2010Prop40
 90
        0
102
RTVSPost2010PropOp40
 70
     0
102
RTVSPost2010Prop41ColorIndex
 90
       18
102
RTVSPost2010Prop41ColorRGB
 90
        0
102
RTVSPost2010PropOp41
 70
     0
102
RTVSPost2010Prop42
 90
       50
102
RTVSPost2010PropOp42
 70
     0
102
RTVSPost2010Prop43
 90
        3
102
RTVSPost2010PropOp43
 70
     0
102
RTVSPost2010Prop44ColorIndex
 90
        5
102
RTVSPost2010Prop44ColorRGB
 90
      255
102
RTVSPost2010PropOp44
 70
     0
102
RTVSPost2010Prop45
280
     0
102
RTVSPost2010PropOp45
 70
     0
102
RTVSPost2010Prop46
 90
       50
102
RTVSPost2010PropOp46
 70
     0
102
RTVSPost2010Prop47
 90
       50
102
RTVSPost2010PropOp47
 70
     0
102
RTVSPost2010Prop48
 90
       50
102
RTVSPost2010PropOp48
 70
     0
102
RTVSPost2010Prop49
280
     0
102
RTVSPost2010PropOp49
 70
     0
102
RTVSPost2010Prop50
 90
       50
102
RTVSPost2010PropOp50
 70
     0
102
RTVSPost2010Prop51ColorIndex
 90
      256
102
RTVSPost2010Prop51ColorRGB
 90
-16777216
102
RTVSPost2010PropOp51
 70
     0
102
RTVSPost2010Prop52
140
1.0
102
RTVSPost2010PropOp52
 70
     0
102
RTVSPost2010Prop53
 90
        2
102
RTVSPost2010PropOp53
 70
     0
102
RTVSPost2010Prop54
  1
strokes_ogs.tif
102
RTVSPost2010PropOp54
 70
     0
102
RTVSPost2010Prop55
280
     0
102
RTVSPost2010PropOp55
 70
     0
102
RTVSPost2010Prop56
140
1.0
102
RTVSPost2010PropOp56
 70
     0
102
RTVSPost2010Prop57
140
1.0
102
RTVSPost2010PropOp57
 70
     0
  0
XRECORD
  5
193
102
{ACAD_REACTORS
330
192
102
}
330
192
100
AcDbXrecord
280
     1
102
RTVSPost2010Prop28
280
     0
102
RTVSPost2010PropOp28
 70
     1
102
RTVSPost2010Prop29
280
     1
102
RTVSPost2010PropOp29
 70
     1
102
RTVSPost2010Prop30
280
     1
102
RTVSPost2010PropOp30
 70
     1
102
RTVSPost2010Prop31
280
     0
102
RTVSPost2010PropOp31
 70
     1
102
RTVSPost2010Prop32
280
     0
102
RTVSPost2010PropOp32
 70
     1
102
RTVSPost2010Prop33
280
     0
102
RTVSPost2010PropOp33
 70
     1
102
RTVSPost2010Prop34
280
     0
102
RTVSPost2010PropOp34
 70
     1
102
RTVSPost2010Prop35
280
     0
102
RTVSPost2010PropOp35
 70
     1
102
RTVSPost2010Prop36
280
     0
102
RTVSPost2010PropOp36
 70
     1
102
RTVSPost2010Prop37
 90
       50
102
RTVSPost2010PropOp37
 70
     1
102
RTVSPost2010Prop38
140
0.0
102
RTVSPost2010PropOp38
 70
     1
102
RTVSPost2010Prop39
140
1.0
102
RTVSPost2010PropOp39
 70
     1
102
RTVSPost2010Prop40
 90
        0
102
RTVSPost2010PropOp40
 70
     1
102
RTVSPost2010Prop41ColorIndex
 90
       18
102
RTVSPost2010Prop41ColorRGB
 90
        0
102
RTVSPost2010PropOp41
 70
     1
102
RTVSPost2010Prop42
 90
       50
102
RTVSPost2010PropOp42
 70
     1
102
RTVSPost2010Prop43
 90
        3
102
RTVSPost2010PropOp43
 70
     1
102
RTVSPost2010Prop44ColorIndex
 90
        5
102
RTVSPost2010Prop44ColorRGB
 90
      255
102
RTVSPost2010PropOp44
 70
     1
102
RTVSPost2010Prop45
280
     0
102
RTVSPost2010PropOp45
 70
     1
102
RTVSPost2010Prop46
 90
       50
102
RTVSPost2010PropOp46
 70
     1
102
RTVSPost2010Prop47
 90
       50
102
RTVSPost2010PropOp47
 70
     1
102
RTVSPost2010Prop48
 90
       50
102
RTVSPost2010PropOp48
 70
     1
102
RTVSPost2010Prop49
280
     0
102
RTVSPost2010PropOp49
 70
     1
102
RTVSPost2010Prop50
 90
       50
102
RTVSPost2010PropOp50
 70
     1
102
RTVSPost2010Prop51ColorIndex
 90
      256
102
RTVSPost2010Prop51ColorRGB
 90
-16777216
102
RTVSPost2010PropOp51
 70
     0
102
RTVSPost2010Prop52
140
1.0
102
RTVSPost2010PropOp52
 70
     0
102
RTVSPost2010Prop53
 90
        2
102
RTVSPost2010PropOp53
 70
     1
102
RTVSPost2010Prop54
  1
strokes_ogs.tif
102
RTVSPost2010PropOp54
 70
     1
102
RTVSPost2010Prop55
280
     0
102
RTVSPost2010PropOp55
 70
     1
102
RTVSPost2010Prop56
140
1.0
102
RTVSPost2010PropOp56
 70
     1
102
RTVSPost2010Prop57
140
1.0
102
RTVSPost2010PropOp57
 70
     1
  0
XRECORD
  5
177
102
{ACAD_REACTORS
330
176
102
}
330
176
100
AcDbXrecord
280
     1
102
RTVSPost2010Prop28
280
     0
102
RTVSPost2010PropOp28
 70
     1
102
RTVSPost2010Prop29
280
     1
102
RTVSPost2010PropOp29
 70
     1
102
RTVSPost2010Prop30
280
     1
102
RTVSPost2010PropOp30
 70
     1
102
RTVSPost2010Prop31
280
     0
102
RTVSPost2010PropOp31
 70
     1
102
RTVSPost2010Prop32
280
     0
102
RTVSPost2010PropOp32
 70
     1
102
RTVSPost2010Prop33
280
     0
102
RTVSPost2010PropOp33
 70
     1
102
RTVSPost2010Prop34
280
     0
102
RTVSPost2010PropOp34
 70
     1
102
RTVSPost2010Prop35
280
     0
102
RTVSPost2010PropOp35
 70
     1
102
RTVSPost2010Prop36
280
     0
102
RTVSPost2010PropOp36
 70
     1
102
RTVSPost2010Prop37
 90
       50
102
RTVSPost2010PropOp37
 70
     1
102
RTVSPost2010Prop38
140
0.0
102
RTVSPost2010PropOp38
 70
     1
102
RTVSPost2010Prop39
140
1.0
102
RTVSPost2010PropOp39
 70
     1
102
RTVSPost2010Prop40
 90
        0
102
RTVSPost2010PropOp40
 70
     1
102
RTVSPost2010Prop41ColorIndex
 90
       18
102
RTVSPost2010Prop41ColorRGB
 90
        0
102
RTVSPost2010PropOp41
 70
     1
102
RTVSPost2010Prop42
 90
       50
102
RTVSPost2010PropOp42
 70
     1
102
RTVSPost2010Prop43
 90
        3
102
RTVSPost2010PropOp43
 70
     1
102
RTVSPost2010Prop44ColorIndex
 90
        5
102
RTVSPost2010Prop44ColorRGB
 90
      255
102
RTVSPost2010PropOp44
 70
     1
102
RTVSPost2010Prop45
280
     0
102
RTVSPost2010PropOp45
 70
     1
102
RTVSPost2010Prop46
 90
       50
102
RTVSPost2010PropOp46
 70
     1
102
RTVSPost2010Prop47
 90
       50
102
RTVSPost2010PropOp47
 70
     1
102
RTVSPost2010Prop48
 90
       50
102
RTVSPost2010PropOp48
 70
     1
102
RTVSPost2010Prop49
280
     0
102
RTVSPost2010PropOp49
 70
     1
102
RTVSPost2010Prop50
 90
       50
102
RTVSPost2010PropOp50
 70
     1
102
RTVSPost2010Prop51ColorIndex
 90
      256
102
RTVSPost2010Prop51ColorRGB
 90
-16777216
102
RTVSPost2010PropOp51
 70
     0
102
RTVSPost2010Prop52
140
1.0
102
RTVSPost2010PropOp52
 70
     0
102
RTVSPost2010Prop53
 90
        2
102
RTVSPost2010PropOp53
 70
     1
102
RTVSPost2010Prop54
  1
strokes_ogs.tif
102
RTVSPost2010PropOp54
 70
     1
102
RTVSPost2010Prop55
280
     0
102
RTVSPost2010PropOp55
 70
     1
102
RTVSPost2010Prop56
140
1.0
102
RTVSPost2010PropOp56
 70
     1
102
RTVSPost2010Prop57
140
1.0
102
RTVSPost2010PropOp57
 70
     1
  0
XRECORD
  5
179
102
{ACAD_REACTORS
330
178
102
}
330
178
100
AcDbXrecord
280
     1
102
RTVSPost2010Prop28
280
     0
102
RTVSPost2010PropOp28
 70
     1
102
RTVSPost2010Prop29
280
     1
102
RTVSPost2010PropOp29
 70
     1
102
RTVSPost2010Prop30
280
     1
102
RTVSPost2010PropOp30
 70
     1
102
RTVSPost2010Prop31
280
     0
102
RTVSPost2010PropOp31
 70
     1
102
RTVSPost2010Prop32
280
     0
102
RTVSPost2010PropOp32
 70
     1
102
RTVSPost2010Prop33
280
     0
102
RTVSPost2010PropOp33
 70
     1
102
RTVSPost2010Prop34
280
     0
102
RTVSPost2010PropOp34
 70
     1
102
RTVSPost2010Prop35
280
     0
102
RTVSPost2010PropOp35
 70
     1
102
RTVSPost2010Prop36
280
     0
102
RTVSPost2010PropOp36
 70
     1
102
RTVSPost2010Prop37
 90
       50
102
RTVSPost2010PropOp37
 70
     1
102
RTVSPost2010Prop38
140
0.0
102
RTVSPost2010PropOp38
 70
     1
102
RTVSPost2010Prop39
140
1.0
102
RTVSPost2010PropOp39
 70
     1
102
RTVSPost2010Prop40
 90
        0
102
RTVSPost2010PropOp40
 70
     1
102
RTVSPost2010Prop41ColorIndex
 90
       18
102
RTVSPost2010Prop41ColorRGB
 90
        0
102
RTVSPost2010PropOp41
 70
     1
102
RTVSPost2010Prop42
 90
       50
102
RTVSPost2010PropOp42
 70
     1
102
RTVSPost2010Prop43
 90
        3
102
RTVSPost2010PropOp43
 70
     1
102
RTVSPost2010Prop44ColorIndex
 90
        5
102
RTVSPost2010Prop44ColorRGB
 90
      255
102
RTVSPost2010PropOp44
 70
     1
102
RTVSPost2010Prop45
280
     0
102
RTVSPost2010PropOp45
 70
     1
102
RTVSPost2010Prop46
 90
       50
102
RTVSPost2010PropOp46
 70
     1
102
RTVSPost2010Prop47
 90
       50
102
RTVSPost2010PropOp47
 70
     1
102
RTVSPost2010Prop48
 90
       50
102
RTVSPost2010PropOp48
 70
     1
102
RTVSPost2010Prop49
280
     0
102
RTVSPost2010PropOp49
 70
     1
102
RTVSPost2010Prop50
 90
       50
102
RTVSPost2010PropOp50
 70
     1
102
RTVSPost2010Prop51ColorIndex
 90
      256
102
RTVSPost2010Prop51ColorRGB
 90
-16777216
102
RTVSPost2010PropOp51
 70
     0
102
RTVSPost2010Prop52
140
1.0
102
RTVSPost2010PropOp52
 70
     0
102
RTVSPost2010Prop53
 90
        2
102
RTVSPost2010PropOp53
 70
     1
102
RTVSPost2010Prop54
  1
strokes_ogs.tif
102
RTVSPost2010PropOp54
 70
     1
102
RTVSPost2010Prop55
280
     0
102
RTVSPost2010PropOp55
 70
     1
102
RTVSPost2010Prop56
140
1.0
102
RTVSPost2010PropOp56
 70
     1
102
RTVSPost2010Prop57
140
1.0
102
RTVSPost2010PropOp57
 70
     1
  0
XRECORD
  5
17B
102
{ACAD_REACTORS
330
17A
102
}
330
17A
100
AcDbXrecord
280
     1
102
RTVSPost2010Prop28
280
     0
102
RTVSPost2010PropOp28
 70
     1
102
RTVSPost2010Prop29
280
     1
102
RTVSPost2010PropOp29
 70
     1
102
RTVSPost2010Prop30
280
     1
102
RTVSPost2010PropOp30
 70
     1
102
RTVSPost2010Prop31
280
     0
102
RTVSPost2010PropOp31
 70
     1
102
RTVSPost2010Prop32
280
     0
102
RTVSPost2010PropOp32
 70
     1
102
RTVSPost2010Prop33
280
     0
102
RTVSPost2010PropOp33
 70
     1
102
RTVSPost2010Prop34
280
     0
102
RTVSPost2010PropOp34
 70
     1
102
RTVSPost2010Prop35
280
     0
102
RTVSPost2010PropOp35
 70
     1
102
RTVSPost2010Prop36
280
     0
102
RTVSPost2010PropOp36
 70
     1
102
RTVSPost2010Prop37
 90
       50
102
RTVSPost2010PropOp37
 70
     1
102
RTVSPost2010Prop38
140
0.0
102
RTVSPost2010PropOp38
 70
     1
102
RTVSPost2010Prop39
140
1.0
102
RTVSPost2010PropOp39
 70
     1
102
RTVSPost2010Prop40
 90
        0
102
RTVSPost2010PropOp40
 70
     1
102
RTVSPost2010Prop41ColorIndex
 90
       18
102
RTVSPost2010Prop41ColorRGB
 90
        0
102
RTVSPost2010PropOp41
 70
     1
102
RTVSPost2010Prop42
 90
       50
102
RTVSPost2010PropOp42
 70
     1
102
RTVSPost2010Prop43
 90
        3
102
RTVSPost2010PropOp43
 70
     1
102
RTVSPost2010Prop44ColorIndex
 90
        5
102
RTVSPost2010Prop44ColorRGB
 90
      255
102
RTVSPost2010PropOp44
 70
     1
102
RTVSPost2010Prop45
280
     0
102
RTVSPost2010PropOp45
 70
     1
102
RTVSPost2010Prop46
 90
       50
102
RTVSPost2010PropOp46
 70
     1
102
RTVSPost2010Prop47
 90
       50
102
RTVSPost2010PropOp47
 70
     1
102
RTVSPost2010Prop48
 90
       50
102
RTVSPost2010PropOp48
 70
     1
102
RTVSPost2010Prop49
280
     0
102
RTVSPost2010PropOp49
 70
     1
102
RTVSPost2010Prop50
 90
       50
102
RTVSPost2010PropOp50
 70
     1
102
RTVSPost2010Prop51ColorIndex
 90
      256
102
RTVSPost2010Prop51ColorRGB
 90
-16777216
102
RTVSPost2010PropOp51
 70
     0
102
RTVSPost2010Prop52
140
1.0
102
RTVSPost2010PropOp52
 70
     0
102
RTVSPost2010Prop53
 90
        2
102
RTVSPost2010PropOp53
 70
     1
102
RTVSPost2010Prop54
  1
strokes_ogs.tif
102
RTVSPost2010PropOp54
 70
     1
102
RTVSPost2010Prop55
280
     0
102
RTVSPost2010PropOp55
 70
     1
102
RTVSPost2010Prop56
140
1.0
102
RTVSPost2010PropOp56
 70
     1
102
RTVSPost2010Prop57
140
1.0
102
RTVSPost2010PropOp57
 70
     1
  0
XRECORD
  5
17D
102
{ACAD_REACTORS
330
17C
102
}
330
17C
100
AcDbXrecord
280
     1
102
RTVSPost2010Prop28
280
     0
102
RTVSPost2010PropOp28
 70
     1
102
RTVSPost2010Prop29
280
     1
102
RTVSPost2010PropOp29
 70
     1
102
RTVSPost2010Prop30
280
     1
102
RTVSPost2010PropOp30
 70
     1
102
RTVSPost2010Prop31
280
     0
102
RTVSPost2010PropOp31
 70
     1
102
RTVSPost2010Prop32
280
     0
102
RTVSPost2010PropOp32
 70
     1
102
RTVSPost2010Prop33
280
     0
102
RTVSPost2010PropOp33
 70
     1
102
RTVSPost2010Prop34
280
     0
102
RTVSPost2010PropOp34
 70
     1
102
RTVSPost2010Prop35
280
     0
102
RTVSPost2010PropOp35
 70
     1
102
RTVSPost2010Prop36
280
     0
102
RTVSPost2010PropOp36
 70
     1
102
RTVSPost2010Prop37
 90
       50
102
RTVSPost2010PropOp37
 70
     1
102
RTVSPost2010Prop38
140
0.0
102
RTVSPost2010PropOp38
 70
     1
102
RTVSPost2010Prop39
140
1.0
102
RTVSPost2010PropOp39
 70
     1
102
RTVSPost2010Prop40
 90
        0
102
RTVSPost2010PropOp40
 70
     1
102
RTVSPost2010Prop41ColorIndex
 90
       18
102
RTVSPost2010Prop41ColorRGB
 90
        0
102
RTVSPost2010PropOp41
 70
     1
102
RTVSPost2010Prop42
 90
       50
102
RTVSPost2010PropOp42
 70
     1
102
RTVSPost2010Prop43
 90
        3
102
RTVSPost2010PropOp43
 70
     1
102
RTVSPost2010Prop44ColorIndex
 90
        5
102
RTVSPost2010Prop44ColorRGB
 90
      255
102
RTVSPost2010PropOp44
 70
     1
102
RTVSPost2010Prop45
280
     0
102
RTVSPost2010PropOp45
 70
     1
102
RTVSPost2010Prop46
 90
       50
102
RTVSPost2010PropOp46
 70
     1
102
RTVSPost2010Prop47
 90
       50
102
RTVSPost2010PropOp47
 70
     1
102
RTVSPost2010Prop48
 90
       50
102
RTVSPost2010PropOp48
 70
     1
102
RTVSPost2010Prop49
280
     0
102
RTVSPost2010PropOp49
 70
     1
102
RTVSPost2010Prop50
 90
       50
102
RTVSPost2010PropOp50
 70
     1
102
RTVSPost2010Prop51ColorIndex
 90
      256
102
RTVSPost2010Prop51ColorRGB
 90
-16777216
102
RTVSPost2010PropOp51
 70
     0
102
RTVSPost2010Prop52
140
1.0
102
RTVSPost2010PropOp52
 70
     0
102
RTVSPost2010Prop53
 90
        2
102
RTVSPost2010PropOp53
 70
     1
102
RTVSPost2010Prop54
  1
strokes_ogs.tif
102
RTVSPost2010PropOp54
 70
     1
102
RTVSPost2010Prop55
280
     0
102
RTVSPost2010PropOp55
 70
     1
102
RTVSPost2010Prop56
140
1.0
102
RTVSPost2010PropOp56
 70
     1
102
RTVSPost2010Prop57
140
1.0
102
RTVSPost2010PropOp57
 70
     1
  0
XRECORD
  5
183
102
{ACAD_REACTORS
330
182
102
}
330
182
100
AcDbXrecord
280
     1
102
RTVSPost2010Prop28
280
     0
102
RTVSPost2010PropOp28
 70
     1
102
RTVSPost2010Prop29
280
     1
102
RTVSPost2010PropOp29
 70
     1
102
RTVSPost2010Prop30
280
     1
102
RTVSPost2010PropOp30
 70
     1
102
RTVSPost2010Prop31
280
     0
102
RTVSPost2010PropOp31
 70
     1
102
RTVSPost2010Prop32
280
     0
102
RTVSPost2010PropOp32
 70
     1
102
RTVSPost2010Prop33
280
     0
102
RTVSPost2010PropOp33
 70
     1
102
RTVSPost2010Prop34
280
     0
102
RTVSPost2010PropOp34
 70
     1
102
RTVSPost2010Prop35
280
     0
102
RTVSPost2010PropOp35
 70
     1
102
RTVSPost2010Prop36
280
     0
102
RTVSPost2010PropOp36
 70
     1
102
RTVSPost2010Prop37
 90
       50
102
RTVSPost2010PropOp37
 70
     1
102
RTVSPost2010Prop38
140
0.0
102
RTVSPost2010PropOp38
 70
     1
102
RTVSPost2010Prop39
140
1.0
102
RTVSPost2010PropOp39
 70
     1
102
RTVSPost2010Prop40
 90
        0
102
RTVSPost2010PropOp40
 70
     1
102
RTVSPost2010Prop41ColorIndex
 90
       18
102
RTVSPost2010Prop41ColorRGB
 90
        0
102
RTVSPost2010PropOp41
 70
     1
102
RTVSPost2010Prop42
 90
       50
102
RTVSPost2010PropOp42
 70
     1
102
RTVSPost2010Prop43
 90
        3
102
RTVSPost2010PropOp43
 70
     1
102
RTVSPost2010Prop44ColorIndex
 90
        5
102
RTVSPost2010Prop44ColorRGB
 90
      255
102
RTVSPost2010PropOp44
 70
     1
102
RTVSPost2010Prop45
280
     0
102
RTVSPost2010PropOp45
 70
     1
102
RTVSPost2010Prop46
 90
       50
102
RTVSPost2010PropOp46
 70
     1
102
RTVSPost2010Prop47
 90
       50
102
RTVSPost2010PropOp47
 70
     1
102
RTVSPost2010Prop48
 90
       50
102
RTVSPost2010PropOp48
 70
     1
102
RTVSPost2010Prop49
280
     0
102
RTVSPost2010PropOp49
 70
     1
102
RTVSPost2010Prop50
 90
       50
102
RTVSPost2010PropOp50
 70
     1
102
RTVSPost2010Prop51ColorIndex
 90
      256
102
RTVSPost2010Prop51ColorRGB
 90
-16777216
102
RTVSPost2010PropOp51
 70
     0
102
RTVSPost2010Prop52
140
1.0
102
RTVSPost2010PropOp52
 70
     0
102
RTVSPost2010Prop53
 90
        2
102
RTVSPost2010PropOp53
 70
     1
102
RTVSPost2010Prop54
  1
strokes_ogs.tif
102
RTVSPost2010PropOp54
 70
     1
102
RTVSPost2010Prop55
280
     0
102
RTVSPost2010PropOp55
 70
     1
102
RTVSPost2010Prop56
140
1.0
102
RTVSPost2010PropOp56
 70
     1
102
RTVSPost2010Prop57
140
1.0
102
RTVSPost2010PropOp57
 70
     1
  0
XRECORD
  5
197
102
{ACAD_REACTORS
330
196
102
}
330
196
100
AcDbXrecord
280
     1
102
RTVSPost2010Prop28
280
     0
102
RTVSPost2010PropOp28
 70
     0
102
RTVSPost2010Prop29
280
     1
102
RTVSPost2010PropOp29
 70
     0
102
RTVSPost2010Prop30
280
     1
102
RTVSPost2010PropOp30
 70
     0
102
RTVSPost2010Prop31
280
     0
102
RTVSPost2010PropOp31
 70
     0
102
RTVSPost2010Prop32
280
     0
102
RTVSPost2010PropOp32
 70
     0
102
RTVSPost2010Prop33
280
     0
102
RTVSPost2010PropOp33
 70
     0
102
RTVSPost2010Prop34
280
     0
102
RTVSPost2010PropOp34
 70
     0
102
RTVSPost2010Prop35
280
     0
102
RTVSPost2010PropOp35
 70
     0
102
RTVSPost2010Prop36
280
     0
102
RTVSPost2010PropOp36
 70
     0
102
RTVSPost2010Prop37
 90
       50
102
RTVSPost2010PropOp37
 70
     0
102
RTVSPost2010Prop38
140
0.0
102
RTVSPost2010PropOp38
 70
     0
102
RTVSPost2010Prop39
140
1.0
102
RTVSPost2010PropOp39
 70
     0
102
RTVSPost2010Prop40
 90
        0
102
RTVSPost2010PropOp40
 70
     0
102
RTVSPost2010Prop41ColorIndex
 90
       18
102
RTVSPost2010Prop41ColorRGB
 90
        0
102
RTVSPost2010PropOp41
 70
     0
102
RTVSPost2010Prop42
 90
       50
102
RTVSPost2010PropOp42
 70
     0
102
RTVSPost2010Prop43
 90
        3
102
RTVSPost2010PropOp43
 70
     0
102
RTVSPost2010Prop44ColorIndex
 90
        5
102
RTVSPost2010Prop44ColorRGB
 90
      255
102
RTVSPost2010PropOp44
 70
     0
102
RTVSPost2010Prop45
280
     0
102
RTVSPost2010PropOp45
 70
     0
102
RTVSPost2010Prop46
 90
       50
102
RTVSPost2010PropOp46
 70
     0
102
RTVSPost2010Prop47
 90
       50
102
RTVSPost2010PropOp47
 70
     0
102
RTVSPost2010Prop48
 90
       50
102
RTVSPost2010PropOp48
 70
     0
102
RTVSPost2010Prop49
280
     0
102
RTVSPost2010PropOp49
 70
     0
102
RTVSPost2010Prop50
 90
       50
102
RTVSPost2010PropOp50
 70
     0
102
RTVSPost2010Prop51ColorIndex
 90
      256
102
RTVSPost2010Prop51ColorRGB
 90
-16777216
102
RTVSPost2010PropOp51
 70
     0
102
RTVSPost2010Prop52
140
1.0
102
RTVSPost2010PropOp52
 70
     0
102
RTVSPost2010Prop53
 90
        2
102
RTVSPost2010PropOp53
 70
     0
102
RTVSPost2010Prop54
  1
strokes_ogs.tif
102
RTVSPost2010PropOp54
 70
     0
102
RTVSPost2010Prop55
280
     0
102
RTVSPost2010PropOp55
 70
     0
102
RTVSPost2010Prop56
140
1.0
102
RTVSPost2010PropOp56
 70
     0
102
RTVSPost2010Prop57
140
1.0
102
RTVSPost2010PropOp57
 70
     0
  0
XRECORD
  5
191
102
{ACAD_REACTORS
330
190
102
}
330
190
100
AcDbXrecord
280
     1
102
RTVSPost2010Prop28
280
     0
102
RTVSPost2010PropOp28
 70
     1
102
RTVSPost2010Prop29
280
     1
102
RTVSPost2010PropOp29
 70
     1
102
RTVSPost2010Prop30
280
     1
102
RTVSPost2010PropOp30
 70
     1
102
RTVSPost2010Prop31
280
     0
102
RTVSPost2010PropOp31
 70
     1
102
RTVSPost2010Prop32
280
     0
102
RTVSPost2010PropOp32
 70
     1
102
RTVSPost2010Prop33
280
     0
102
RTVSPost2010PropOp33
 70
     1
102
RTVSPost2010Prop34
280
     0
102
RTVSPost2010PropOp34
 70
     1
102
RTVSPost2010Prop35
280
     0
102
RTVSPost2010PropOp35
 70
     1
102
RTVSPost2010Prop36
280
     0
102
RTVSPost2010PropOp36
 70
     1
102
RTVSPost2010Prop37
 90
       50
102
RTVSPost2010PropOp37
 70
     1
102
RTVSPost2010Prop38
140
0.0
102
RTVSPost2010PropOp38
 70
     1
102
RTVSPost2010Prop39
140
1.0
102
RTVSPost2010PropOp39
 70
     1
102
RTVSPost2010Prop40
 90
        0
102
RTVSPost2010PropOp40
 70
     1
102
RTVSPost2010Prop41ColorIndex
 90
       18
102
RTVSPost2010Prop41ColorRGB
 90
        0
102
RTVSPost2010PropOp41
 70
     1
102
RTVSPost2010Prop42
 90
       50
102
RTVSPost2010PropOp42
 70
     1
102
RTVSPost2010Prop43
 90
        3
102
RTVSPost2010PropOp43
 70
     1
102
RTVSPost2010Prop44ColorIndex
 90
        5
102
RTVSPost2010Prop44ColorRGB
 90
      255
102
RTVSPost2010PropOp44
 70
     1
102
RTVSPost2010Prop45
280
     0
102
RTVSPost2010PropOp45
 70
     1
102
RTVSPost2010Prop46
 90
       50
102
RTVSPost2010PropOp46
 70
     1
102
RTVSPost2010Prop47
 90
       50
102
RTVSPost2010PropOp47
 70
     1
102
RTVSPost2010Prop48
 90
       50
102
RTVSPost2010PropOp48
 70
     1
102
RTVSPost2010Prop49
280
     0
102
RTVSPost2010PropOp49
 70
     1
102
RTVSPost2010Prop50
 90
       50
102
RTVSPost2010PropOp50
 70
     1
102
RTVSPost2010Prop51ColorIndex
 90
      256
102
RTVSPost2010Prop51ColorRGB
 90
-16777216
102
RTVSPost2010PropOp51
 70
     0
102
RTVSPost2010Prop52
140
1.0
102
RTVSPost2010PropOp52
 70
     0
102
RTVSPost2010Prop53
 90
        2
102
RTVSPost2010PropOp53
 70
     1
102
RTVSPost2010Prop54
  1
strokes_ogs.tif
102
RTVSPost2010PropOp54
 70
     1
102
RTVSPost2010Prop55
280
     0
102
RTVSPost2010PropOp55
 70
     1
102
RTVSPost2010Prop56
140
1.0
102
RTVSPost2010PropOp56
 70
     1
102
RTVSPost2010Prop57
140
1.0
102
RTVSPost2010PropOp57
 70
     1
  0
XRECORD
  5
199
102
{ACAD_REACTORS
330
198
102
}
330
198
100
AcDbXrecord
280
     1
102
RTVSPost2010Prop28
280
     0
102
RTVSPost2010PropOp28
 70
     0
102
RTVSPost2010Prop29
280
     1
102
RTVSPost2010PropOp29
 70
     0
102
RTVSPost2010Prop30
280
     1
102
RTVSPost2010PropOp30
 70
     0
102
RTVSPost2010Prop31
280
     0
102
RTVSPost2010PropOp31
 70
     0
102
RTVSPost2010Prop32
280
     0
102
RTVSPost2010PropOp32
 70
     0
102
RTVSPost2010Prop33
280
     0
102
RTVSPost2010PropOp33
 70
     0
102
RTVSPost2010Prop34
280
     0
102
RTVSPost2010PropOp34
 70
     0
102
RTVSPost2010Prop35
280
     0
102
RTVSPost2010PropOp35
 70
     0
102
RTVSPost2010Prop36
280
     0
102
RTVSPost2010PropOp36
 70
     0
102
RTVSPost2010Prop37
 90
       50
102
RTVSPost2010PropOp37
 70
     0
102
RTVSPost2010Prop38
140
0.0
102
RTVSPost2010PropOp38
 70
     0
102
RTVSPost2010Prop39
140
1.0
102
RTVSPost2010PropOp39
 70
     0
102
RTVSPost2010Prop40
 90
        0
102
RTVSPost2010PropOp40
 70
     0
102
RTVSPost2010Prop41ColorIndex
 90
       18
102
RTVSPost2010Prop41ColorRGB
 90
        0
102
RTVSPost2010PropOp41
 70
     0
102
RTVSPost2010Prop42
 90
       50
102
RTVSPost2010PropOp42
 70
     0
102
RTVSPost2010Prop43
 90
        3
102
RTVSPost2010PropOp43
 70
     0
102
RTVSPost2010Prop44ColorIndex
 90
        5
102
RTVSPost2010Prop44ColorRGB
 90
      255
102
RTVSPost2010PropOp44
 70
     0
102
RTVSPost2010Prop45
280
     0
102
RTVSPost2010PropOp45
 70
     0
102
RTVSPost2010Prop46
 90
       50
102
RTVSPost2010PropOp46
 70
     0
102
RTVSPost2010Prop47
 90
       50
102
RTVSPost2010PropOp47
 70
     0
102
RTVSPost2010Prop48
 90
       50
102
RTVSPost2010PropOp48
 70
     0
102
RTVSPost2010Prop49
280
     0
102
RTVSPost2010PropOp49
 70
     0
102
RTVSPost2010Prop50
 90
       50
102
RTVSPost2010PropOp50
 70
     0
102
RTVSPost2010Prop51ColorIndex
 90
      256
102
RTVSPost2010Prop51ColorRGB
 90
-16777216
102
RTVSPost2010PropOp51
 70
     0
102
RTVSPost2010Prop52
140
1.0
102
RTVSPost2010PropOp52
 70
     0
102
RTVSPost2010Prop53
 90
        2
102
RTVSPost2010PropOp53
 70
     0
102
RTVSPost2010Prop54
  1
strokes_ogs.tif
102
RTVSPost2010PropOp54
 70
     0
102
RTVSPost2010Prop55
280
     0
102
RTVSPost2010PropOp55
 70
     0
102
RTVSPost2010Prop56
140
1.0
102
RTVSPost2010PropOp56
 70
     0
102
RTVSPost2010Prop57
140
1.0
102
RTVSPost2010PropOp57
 70
     0
  0
XRECORD
  5
187
102
{ACAD_REACTORS
330
186
102
}
330
186
100
AcDbXrecord
280
     1
102
RTVSPost2010Prop28
280
     0
102
RTVSPost2010PropOp28
 70
     1
102
RTVSPost2010Prop29
280
     1
102
RTVSPost2010PropOp29
 70
     1
102
RTVSPost2010Prop30
280
     1
102
RTVSPost2010PropOp30
 70
     1
102
RTVSPost2010Prop31
280
     0
102
RTVSPost2010PropOp31
 70
     1
102
RTVSPost2010Prop32
280
     0
102
RTVSPost2010PropOp32
 70
     1
102
RTVSPost2010Prop33
280
     0
102
RTVSPost2010PropOp33
 70
     1
102
RTVSPost2010Prop34
280
     0
102
RTVSPost2010PropOp34
 70
     1
102
RTVSPost2010Prop35
280
     0
102
RTVSPost2010PropOp35
 70
     1
102
RTVSPost2010Prop36
280
     0
102
RTVSPost2010PropOp36
 70
     1
102
RTVSPost2010Prop37
 90
       50
102
RTVSPost2010PropOp37
 70
     1
102
RTVSPost2010Prop38
140
0.0
102
RTVSPost2010PropOp38
 70
     1
102
RTVSPost2010Prop39
140
1.0
102
RTVSPost2010PropOp39
 70
     1
102
RTVSPost2010Prop40
 90
        0
102
RTVSPost2010PropOp40
 70
     1
102
RTVSPost2010Prop41ColorIndex
 90
       18
102
RTVSPost2010Prop41ColorRGB
 90
        0
102
RTVSPost2010PropOp41
 70
     1
102
RTVSPost2010Prop42
 90
       50
102
RTVSPost2010PropOp42
 70
     1
102
RTVSPost2010Prop43
 90
        3
102
RTVSPost2010PropOp43
 70
     1
102
RTVSPost2010Prop44ColorIndex
 90
        5
102
RTVSPost2010Prop44ColorRGB
 90
      255
102
RTVSPost2010PropOp44
 70
     1
102
RTVSPost2010Prop45
280
     0
102
RTVSPost2010PropOp45
 70
     1
102
RTVSPost2010Prop46
 90
       50
102
RTVSPost2010PropOp46
 70
     1
102
RTVSPost2010Prop47
 90
       50
102
RTVSPost2010PropOp47
 70
     1
102
RTVSPost2010Prop48
 90
       50
102
RTVSPost2010PropOp48
 70
     1
102
RTVSPost2010Prop49
280
     0
102
RTVSPost2010PropOp49
 70
     1
102
RTVSPost2010Prop50
 90
       50
102
RTVSPost2010PropOp50
 70
     1
102
RTVSPost2010Prop51ColorIndex
 90
      256
102
RTVSPost2010Prop51ColorRGB
 90
-16777216
102
RTVSPost2010PropOp51
 70
     0
102
RTVSPost2010Prop52
140
1.0
102
RTVSPost2010PropOp52
 70
     0
102
RTVSPost2010Prop53
 90
        2
102
RTVSPost2010PropOp53
 70
     1
102
RTVSPost2010Prop54
  1
strokes_ogs.tif
102
RTVSPost2010PropOp54
 70
     1
102
RTVSPost2010Prop55
280
     0
102
RTVSPost2010PropOp55
 70
     1
102
RTVSPost2010Prop56
140
1.0
102
RTVSPost2010PropOp56
 70
     1
102
RTVSPost2010Prop57
140
1.0
102
RTVSPost2010PropOp57
 70
     1
  0
XRECORD
  5
1A5
102
{ACAD_REACTORS
330
1A4
102
}
330
1A4
100
AcDbXrecord
280
     1
102
RTVSPost2010Prop28
280
     0
102
RTVSPost2010PropOp28
 70
     1
102
RTVSPost2010Prop29
280
     1
102
RTVSPost2010PropOp29
 70
     1
102
RTVSPost2010Prop30
280
     1
102
RTVSPost2010PropOp30
 70
     1
102
RTVSPost2010Prop31
280
     0
102
RTVSPost2010PropOp31
 70
     1
102
RTVSPost2010Prop32
280
     0
102
RTVSPost2010PropOp32
 70
     1
102
RTVSPost2010Prop33
280
     0
102
RTVSPost2010PropOp33
 70
     1
102
RTVSPost2010Prop34
280
     0
102
RTVSPost2010PropOp34
 70
     1
102
RTVSPost2010Prop35
280
     0
102
RTVSPost2010PropOp35
 70
     1
102
RTVSPost2010Prop36
280
     0
102
RTVSPost2010PropOp36
 70
     1
102
RTVSPost2010Prop37
 90
       50
102
RTVSPost2010PropOp37
 70
     1
102
RTVSPost2010Prop38
140
0.0
102
RTVSPost2010PropOp38
 70
     1
102
RTVSPost2010Prop39
140
1.0
102
RTVSPost2010PropOp39
 70
     1
102
RTVSPost2010Prop40
 90
        0
102
RTVSPost2010PropOp40
 70
     1
102
RTVSPost2010Prop41ColorIndex
 90
       18
102
RTVSPost2010Prop41ColorRGB
 90
        0
102
RTVSPost2010PropOp41
 70
     1
102
RTVSPost2010Prop42
 90
       50
102
RTVSPost2010PropOp42
 70
     1
102
RTVSPost2010Prop43
 90
        3
102
RTVSPost2010PropOp43
 70
     1
102
RTVSPost2010Prop44ColorIndex
 90
        5
102
RTVSPost2010Prop44ColorRGB
 90
      255
102
RTVSPost2010PropOp44
 70
     1
102
RTVSPost2010Prop45
280
     0
102
RTVSPost2010PropOp45
 70
     1
102
RTVSPost2010Prop46
 90
       50
102
RTVSPost2010PropOp46
 70
     1
102
RTVSPost2010Prop47
 90
       50
102
RTVSPost2010PropOp47
 70
     1
102
RTVSPost2010Prop48
 90
       50
102
RTVSPost2010PropOp48
 70
     1
102
RTVSPost2010Prop49
280
     0
102
RTVSPost2010PropOp49
 70
     1
102
RTVSPost2010Prop50
 90
       50
102
RTVSPost2010PropOp50
 70
     1
102
RTVSPost2010Prop51ColorIndex
 90
      256
102
RTVSPost2010Prop51ColorRGB
 90
-16777216
102
RTVSPost2010PropOp51
 70
     0
102
RTVSPost2010Prop52
140
1.0
102
RTVSPost2010PropOp52
 70
     0
102
RTVSPost2010Prop53
 90
        2
102
RTVSPost2010PropOp53
 70
     1
102
RTVSPost2010Prop54
  1
strokes_ogs.tif
102
RTVSPost2010PropOp54
 70
     1
102
RTVSPost2010Prop55
280
     0
102
RTVSPost2010PropOp55
 70
     1
102
RTVSPost2010Prop56
140
1.0
102
RTVSPost2010PropOp56
 70
     1
102
RTVSPost2010Prop57
140
1.0
102
RTVSPost2010PropOp57
 70
     1
  0
XRECORD
  5
1A3
102
{ACAD_REACTORS
330
1A2
102
}
330
1A2
100
AcDbXrecord
280
     1
102
RTVSPost2010Prop28
280
     0
102
RTVSPost2010PropOp28
 70
     1
102
RTVSPost2010Prop29
280
     1
102
RTVSPost2010PropOp29
 70
     1
102
RTVSPost2010Prop30
280
     1
102
RTVSPost2010PropOp30
 70
     1
102
RTVSPost2010Prop31
280
     0
102
RTVSPost2010PropOp31
 70
     1
102
RTVSPost2010Prop32
280
     0
102
RTVSPost2010PropOp32
 70
     1
102
RTVSPost2010Prop33
280
     0
102
RTVSPost2010PropOp33
 70
     1
102
RTVSPost2010Prop34
280
     0
102
RTVSPost2010PropOp34
 70
     1
102
RTVSPost2010Prop35
280
     0
102
RTVSPost2010PropOp35
 70
     1
102
RTVSPost2010Prop36
280
     0
102
RTVSPost2010PropOp36
 70
     1
102
RTVSPost2010Prop37
 90
       50
102
RTVSPost2010PropOp37
 70
     1
102
RTVSPost2010Prop38
140
0.0
102
RTVSPost2010PropOp38
 70
     1
102
RTVSPost2010Prop39
140
1.0
102
RTVSPost2010PropOp39
 70
     1
102
RTVSPost2010Prop40
 90
        0
102
RTVSPost2010PropOp40
 70
     1
102
RTVSPost2010Prop41ColorIndex
 90
       18
102
RTVSPost2010Prop41ColorRGB
 90
        0
102
RTVSPost2010PropOp41
 70
     1
102
RTVSPost2010Prop42
 90
       50
102
RTVSPost2010PropOp42
 70
     1
102
RTVSPost2010Prop43
 90
        3
102
RTVSPost2010PropOp43
 70
     1
102
RTVSPost2010Prop44ColorIndex
 90
        5
102
RTVSPost2010Prop44ColorRGB
 90
      255
102
RTVSPost2010PropOp44
 70
     1
102
RTVSPost2010Prop45
280
     0
102
RTVSPost2010PropOp45
 70
     1
102
RTVSPost2010Prop46
 90
       50
102
RTVSPost2010PropOp46
 70
     1
102
RTVSPost2010Prop47
 90
       50
102
RTVSPost2010PropOp47
 70
     1
102
RTVSPost2010Prop48
 90
       50
102
RTVSPost2010PropOp48
 70
     1
102
RTVSPost2010Prop49
280
     0
102
RTVSPost2010PropOp49
 70
     1
102
RTVSPost2010Prop50
 90
       50
102
RTVSPost2010PropOp50
 70
     1
102
RTVSPost2010Prop51ColorIndex
 90
      256
102
RTVSPost2010Prop51ColorRGB
 90
-16777216
102
RTVSPost2010PropOp51
 70
     0
102
RTVSPost2010Prop52
140
1.0
102
RTVSPost2010PropOp52
 70
     0
102
RTVSPost2010Prop53
 90
        2
102
RTVSPost2010PropOp53
 70
     1
102
RTVSPost2010Prop54
  1
strokes_ogs.tif
102
RTVSPost2010PropOp54
 70
     1
102
RTVSPost2010Prop55
280
     0
102
RTVSPost2010PropOp55
 70
     1
102
RTVSPost2010Prop56
140
1.0
102
RTVSPost2010PropOp56
 70
     1
102
RTVSPost2010Prop57
140
1.0
102
RTVSPost2010PropOp57
 70
     1
  0
XRECORD
  5
19D
102
{ACAD_REACTORS
330
19C
102
}
330
19C
100
AcDbXrecord
280
     1
102
RTVSPost2010Prop28
280
     0
102
RTVSPost2010PropOp28
 70
     1
102
RTVSPost2010Prop29
280
     1
102
RTVSPost2010PropOp29
 70
     1
102
RTVSPost2010Prop30
280
     1
102
RTVSPost2010PropOp30
 70
     1
102
RTVSPost2010Prop31
280
     0
102
RTVSPost2010PropOp31
 70
     1
102
RTVSPost2010Prop32
280
     0
102
RTVSPost2010PropOp32
 70
     1
102
RTVSPost2010Prop33
280
     0
102
RTVSPost2010PropOp33
 70
     1
102
RTVSPost2010Prop34
280
     0
102
RTVSPost2010PropOp34
 70
     1
102
RTVSPost2010Prop35
280
     0
102
RTVSPost2010PropOp35
 70
     1
102
RTVSPost2010Prop36
280
     0
102
RTVSPost2010PropOp36
 70
     1
102
RTVSPost2010Prop37
 90
       50
102
RTVSPost2010PropOp37
 70
     1
102
RTVSPost2010Prop38
140
0.0
102
RTVSPost2010PropOp38
 70
     1
102
RTVSPost2010Prop39
140
1.0
102
RTVSPost2010PropOp39
 70
     1
102
RTVSPost2010Prop40
 90
        0
102
RTVSPost2010PropOp40
 70
     1
102
RTVSPost2010Prop41ColorIndex
 90
       18
102
RTVSPost2010Prop41ColorRGB
 90
        0
102
RTVSPost2010PropOp41
 70
     1
102
RTVSPost2010Prop42
 90
       50
102
RTVSPost2010PropOp42
 70
     1
102
RTVSPost2010Prop43
 90
        3
102
RTVSPost2010PropOp43
 70
     1
102
RTVSPost2010Prop44ColorIndex
 90
        5
102
RTVSPost2010Prop44ColorRGB
 90
      255
102
RTVSPost2010PropOp44
 70
     1
102
RTVSPost2010Prop45
280
     0
102
RTVSPost2010PropOp45
 70
     1
102
RTVSPost2010Prop46
 90
       50
102
RTVSPost2010PropOp46
 70
     1
102
RTVSPost2010Prop47
 90
       50
102
RTVSPost2010PropOp47
 70
     1
102
RTVSPost2010Prop48
 90
       50
102
RTVSPost2010PropOp48
 70
     1
102
RTVSPost2010Prop49
280
     0
102
RTVSPost2010PropOp49
 70
     1
102
RTVSPost2010Prop50
 90
       50
102
RTVSPost2010PropOp50
 70
     1
102
RTVSPost2010Prop51ColorIndex
 90
      256
102
RTVSPost2010Prop51ColorRGB
 90
-16777216
102
RTVSPost2010PropOp51
 70
     0
102
RTVSPost2010Prop52
140
1.0
102
RTVSPost2010PropOp52
 70
     0
102
RTVSPost2010Prop53
 90
        2
102
RTVSPost2010PropOp53
 70
     1
102
RTVSPost2010Prop54
  1
strokes_ogs.tif
102
RTVSPost2010PropOp54
 70
     1
102
RTVSPost2010Prop55
280
     0
102
RTVSPost2010PropOp55
 70
     1
102
RTVSPost2010Prop56
140
1.0
102
RTVSPost2010PropOp56
 70
     1
102
RTVSPost2010Prop57
140
1.0
102
RTVSPost2010PropOp57
 70
     1
  0
XRECORD
  5
19F
102
{ACAD_REACTORS
330
19E
102
}
330
19E
100
AcDbXrecord
280
     1
102
RTVSPost2010Prop28
280
     0
102
RTVSPost2010PropOp28
 70
     1
102
RTVSPost2010Prop29
280
     1
102
RTVSPost2010PropOp29
 70
     1
102
RTVSPost2010Prop30
280
     1
102
RTVSPost2010PropOp30
 70
     1
102
RTVSPost2010Prop31
280
     0
102
RTVSPost2010PropOp31
 70
     1
102
RTVSPost2010Prop32
280
     0
102
RTVSPost2010PropOp32
 70
     1
102
RTVSPost2010Prop33
280
     0
102
RTVSPost2010PropOp33
 70
     1
102
RTVSPost2010Prop34
280
     0
102
RTVSPost2010PropOp34
 70
     1
102
RTVSPost2010Prop35
280
     0
102
RTVSPost2010PropOp35
 70
     1
102
RTVSPost2010Prop36
280
     0
102
RTVSPost2010PropOp36
 70
     1
102
RTVSPost2010Prop37
 90
       50
102
RTVSPost2010PropOp37
 70
     1
102
RTVSPost2010Prop38
140
0.0
102
RTVSPost2010PropOp38
 70
     1
102
RTVSPost2010Prop39
140
1.0
102
RTVSPost2010PropOp39
 70
     1
102
RTVSPost2010Prop40
 90
        0
102
RTVSPost2010PropOp40
 70
     1
102
RTVSPost2010Prop41ColorIndex
 90
       18
102
RTVSPost2010Prop41ColorRGB
 90
        0
102
RTVSPost2010PropOp41
 70
     1
102
RTVSPost2010Prop42
 90
       50
102
RTVSPost2010PropOp42
 70
     1
102
RTVSPost2010Prop43
 90
        3
102
RTVSPost2010PropOp43
 70
     1
102
RTVSPost2010Prop44ColorIndex
 90
        5
102
RTVSPost2010Prop44ColorRGB
 90
      255
102
RTVSPost2010PropOp44
 70
     1
102
RTVSPost2010Prop45
280
     0
102
RTVSPost2010PropOp45
 70
     1
102
RTVSPost2010Prop46
 90
       50
102
RTVSPost2010PropOp46
 70
     1
102
RTVSPost2010Prop47
 90
       50
102
RTVSPost2010PropOp47
 70
     1
102
RTVSPost2010Prop48
 90
       50
102
RTVSPost2010PropOp48
 70
     1
102
RTVSPost2010Prop49
280
     0
102
RTVSPost2010PropOp49
 70
     1
102
RTVSPost2010Prop50
 90
       50
102
RTVSPost2010PropOp50
 70
     1
102
RTVSPost2010Prop51ColorIndex
 90
      256
102
RTVSPost2010Prop51ColorRGB
 90
-16777216
102
RTVSPost2010PropOp51
 70
     0
102
RTVSPost2010Prop52
140
1.0
102
RTVSPost2010PropOp52
 70
     0
102
RTVSPost2010Prop53
 90
        2
102
RTVSPost2010PropOp53
 70
     1
102
RTVSPost2010Prop54
  1
strokes_ogs.tif
102
RTVSPost2010PropOp54
 70
     1
102
RTVSPost2010Prop55
280
     0
102
RTVSPost2010PropOp55
 70
     1
102
RTVSPost2010Prop56
140
1.0
102
RTVSPost2010PropOp56
 70
     1
102
RTVSPost2010Prop57
140
1.0
102
RTVSPost2010PropOp57
 70
     1
  0
XRECORD
  5
18F
102
{ACAD_REACTORS
330
18E
102
}
330
18E
100
AcDbXrecord
280
     1
102
RTVSPost2010Prop28
280
     0
102
RTVSPost2010PropOp28
 70
     1
102
RTVSPost2010Prop29
280
     1
102
RTVSPost2010PropOp29
 70
     1
102
RTVSPost2010Prop30
280
     1
102
RTVSPost2010PropOp30
 70
     1
102
RTVSPost2010Prop31
280
     0
102
RTVSPost2010PropOp31
 70
     1
102
RTVSPost2010Prop32
280
     0
102
RTVSPost2010PropOp32
 70
     1
102
RTVSPost2010Prop33
280
     0
102
RTVSPost2010PropOp33
 70
     1
102
RTVSPost2010Prop34
280
     0
102
RTVSPost2010PropOp34
 70
     1
102
RTVSPost2010Prop35
280
     0
102
RTVSPost2010PropOp35
 70
     1
102
RTVSPost2010Prop36
280
     0
102
RTVSPost2010PropOp36
 70
     1
102
RTVSPost2010Prop37
 90
       50
102
RTVSPost2010PropOp37
 70
     1
102
RTVSPost2010Prop38
140
0.0
102
RTVSPost2010PropOp38
 70
     1
102
RTVSPost2010Prop39
140
1.0
102
RTVSPost2010PropOp39
 70
     1
102
RTVSPost2010Prop40
 90
        0
102
RTVSPost2010PropOp40
 70
     1
102
RTVSPost2010Prop41ColorIndex
 90
       18
102
RTVSPost2010Prop41ColorRGB
 90
        0
102
RTVSPost2010PropOp41
 70
     1
102
RTVSPost2010Prop42
 90
       50
102
RTVSPost2010PropOp42
 70
     1
102
RTVSPost2010Prop43
 90
        3
102
RTVSPost2010PropOp43
 70
     1
102
RTVSPost2010Prop44ColorIndex
 90
        5
102
RTVSPost2010Prop44ColorRGB
 90
      255
102
RTVSPost2010PropOp44
 70
     1
102
RTVSPost2010Prop45
280
     0
102
RTVSPost2010PropOp45
 70
     1
102
RTVSPost2010Prop46
 90
       50
102
RTVSPost2010PropOp46
 70
     1
102
RTVSPost2010Prop47
 90
       50
102
RTVSPost2010PropOp47
 70
     1
102
RTVSPost2010Prop48
 90
       50
102
RTVSPost2010PropOp48
 70
     1
102
RTVSPost2010Prop49
280
     0
102
RTVSPost2010PropOp49
 70
     1
102
RTVSPost2010Prop50
 90
       50
102
RTVSPost2010PropOp50
 70
     1
102
RTVSPost2010Prop51ColorIndex
 90
      256
102
RTVSPost2010Prop51ColorRGB
 90
-16777216
102
RTVSPost2010PropOp51
 70
     0
102
RTVSPost2010Prop52
140
1.0
102
RTVSPost2010PropOp52
 70
     0
102
RTVSPost2010Prop53
 90
        2
102
RTVSPost2010PropOp53
 70
     1
102
RTVSPost2010Prop54
  1
strokes_ogs.tif
102
RTVSPost2010PropOp54
 70
     1
102
RTVSPost2010Prop55
280
     0
102
RTVSPost2010PropOp55
 70
     1
102
RTVSPost2010Prop56
140
1.0
102
RTVSPost2010PropOp56
 70
     1
102
RTVSPost2010Prop57
140
1.0
102
RTVSPost2010PropOp57
 70
     1
  0
XRECORD
  5
181
102
{ACAD_REACTORS
330
180
102
}
330
180
100
AcDbXrecord
280
     1
102
RTVSPost2010Prop28
280
     0
102
RTVSPost2010PropOp28
 70
     1
102
RTVSPost2010Prop29
280
     1
102
RTVSPost2010PropOp29
 70
     1
102
RTVSPost2010Prop30
280
     1
102
RTVSPost2010PropOp30
 70
     1
102
RTVSPost2010Prop31
280
     0
102
RTVSPost2010PropOp31
 70
     1
102
RTVSPost2010Prop32
280
     0
102
RTVSPost2010PropOp32
 70
     1
102
RTVSPost2010Prop33
280
     0
102
RTVSPost2010PropOp33
 70
     1
102
RTVSPost2010Prop34
280
     0
102
RTVSPost2010PropOp34
 70
     1
102
RTVSPost2010Prop35
280
     0
102
RTVSPost2010PropOp35
 70
     1
102
RTVSPost2010Prop36
280
     0
102
RTVSPost2010PropOp36
 70
     1
102
RTVSPost2010Prop37
 90
       50
102
RTVSPost2010PropOp37
 70
     1
102
RTVSPost2010Prop38
140
0.0
102
RTVSPost2010PropOp38
 70
     1
102
RTVSPost2010Prop39
140
1.0
102
RTVSPost2010PropOp39
 70
     1
102
RTVSPost2010Prop40
 90
        0
102
RTVSPost2010PropOp40
 70
     1
102
RTVSPost2010Prop41ColorIndex
 90
       18
102
RTVSPost2010Prop41ColorRGB
 90
        0
102
RTVSPost2010PropOp41
 70
     1
102
RTVSPost2010Prop42
 90
       50
102
RTVSPost2010PropOp42
 70
     1
102
RTVSPost2010Prop43
 90
        3
102
RTVSPost2010PropOp43
 70
     1
102
RTVSPost2010Prop44ColorIndex
 90
        5
102
RTVSPost2010Prop44ColorRGB
 90
      255
102
RTVSPost2010PropOp44
 70
     1
102
RTVSPost2010Prop45
280
     0
102
RTVSPost2010PropOp45
 70
     1
102
RTVSPost2010Prop46
 90
       50
102
RTVSPost2010PropOp46
 70
     1
102
RTVSPost2010Prop47
 90
       50
102
RTVSPost2010PropOp47
 70
     1
102
RTVSPost2010Prop48
 90
       50
102
RTVSPost2010PropOp48
 70
     1
102
RTVSPost2010Prop49
280
     0
102
RTVSPost2010PropOp49
 70
     1
102
RTVSPost2010Prop50
 90
       50
102
RTVSPost2010PropOp50
 70
     1
102
RTVSPost2010Prop51ColorIndex
 90
      256
102
RTVSPost2010Prop51ColorRGB
 90
-16777216
102
RTVSPost2010PropOp51
 70
     0
102
RTVSPost2010Prop52
140
1.0
102
RTVSPost2010PropOp52
 70
     0
102
RTVSPost2010Prop53
 90
        2
102
RTVSPost2010PropOp53
 70
     1
102
RTVSPost2010Prop54
  1
strokes_ogs.tif
102
RTVSPost2010PropOp54
 70
     1
102
RTVSPost2010Prop55
280
     0
102
RTVSPost2010PropOp55
 70
     1
102
RTVSPost2010Prop56
140
1.0
102
RTVSPost2010PropOp56
 70
     1
102
RTVSPost2010Prop57
140
1.0
102
RTVSPost2010PropOp57
 70
     1
  0
XRECORD
  5
1A1
102
{ACAD_REACTORS
330
1A0
102
}
330
1A0
100
AcDbXrecord
280
     1
102
RTVSPost2010Prop28
280
     0
102
RTVSPost2010PropOp28
 70
     1
102
RTVSPost2010Prop29
280
     1
102
RTVSPost2010PropOp29
 70
     1
102
RTVSPost2010Prop30
280
     1
102
RTVSPost2010PropOp30
 70
     1
102
RTVSPost2010Prop31
280
     0
102
RTVSPost2010PropOp31
 70
     1
102
RTVSPost2010Prop32
280
     0
102
RTVSPost2010PropOp32
 70
     1
102
RTVSPost2010Prop33
280
     0
102
RTVSPost2010PropOp33
 70
     1
102
RTVSPost2010Prop34
280
     0
102
RTVSPost2010PropOp34
 70
     1
102
RTVSPost2010Prop35
280
     0
102
RTVSPost2010PropOp35
 70
     1
102
RTVSPost2010Prop36
280
     0
102
RTVSPost2010PropOp36
 70
     1
102
RTVSPost2010Prop37
 90
       50
102
RTVSPost2010PropOp37
 70
     1
102
RTVSPost2010Prop38
140
0.0
102
RTVSPost2010PropOp38
 70
     1
102
RTVSPost2010Prop39
140
1.0
102
RTVSPost2010PropOp39
 70
     1
102
RTVSPost2010Prop40
 90
        0
102
RTVSPost2010PropOp40
 70
     1
102
RTVSPost2010Prop41ColorIndex
 90
       18
102
RTVSPost2010Prop41ColorRGB
 90
        0
102
RTVSPost2010PropOp41
 70
     1
102
RTVSPost2010Prop42
 90
       50
102
RTVSPost2010PropOp42
 70
     1
102
RTVSPost2010Prop43
 90
        3
102
RTVSPost2010PropOp43
 70
     1
102
RTVSPost2010Prop44ColorIndex
 90
        5
102
RTVSPost2010Prop44ColorRGB
 90
      255
102
RTVSPost2010PropOp44
 70
     1
102
RTVSPost2010Prop45
280
     0
102
RTVSPost2010PropOp45
 70
     1
102
RTVSPost2010Prop46
 90
       50
102
RTVSPost2010PropOp46
 70
     1
102
RTVSPost2010Prop47
 90
       50
102
RTVSPost2010PropOp47
 70
     1
102
RTVSPost2010Prop48
 90
       50
102
RTVSPost2010PropOp48
 70
     1
102
RTVSPost2010Prop49
280
     0
102
RTVSPost2010PropOp49
 70
     1
102
RTVSPost2010Prop50
 90
       50
102
RTVSPost2010PropOp50
 70
     1
102
RTVSPost2010Prop51ColorIndex
 90
      256
102
RTVSPost2010Prop51ColorRGB
 90
-16777216
102
RTVSPost2010PropOp51
 70
     0
102
RTVSPost2010Prop52
140
1.0
102
RTVSPost2010PropOp52
 70
     0
102
RTVSPost2010Prop53
 90
        2
102
RTVSPost2010PropOp53
 70
     1
102
RTVSPost2010Prop54
  1
strokes_ogs.tif
102
RTVSPost2010PropOp54
 70
     1
102
RTVSPost2010Prop55
280
     0
102
RTVSPost2010PropOp55
 70
     1
102
RTVSPost2010Prop56
140
1.0
102
RTVSPost2010PropOp56
 70
     1
102
RTVSPost2010Prop57
140
1.0
102
RTVSPost2010PropOp57
 70
     1
  0
ENDSEC
  0
EOF
