  0
SECTION
  2
HEADER
  9
$ACADVER
  1
AC1024
  9
$ACADMAINTVER
 70
     6
  9
$DWGCODEPAGE
  3
ANSI_1252
  9
$LASTSAVEDBY
  1
c.meyer
  9
$INSBASE
 10
0.0
 20
0.0
 30
0.0
  9
$EXTMIN
 10
-3989.584620032634
 20
-2840.903821377853
 30
0.0
  9
$EXTMAX
 10
3442.973302480121
 20
88.506178622147
 30
0.0
  9
$LIMMIN
 10
0.0
 20
0.0
  9
$LIMMAX
 10
420.0
 20
297.0
  9
$ORTHOMODE
 70
     0
  9
$REGENMODE
 70
     1
  9
$FILLMODE
 70
     1
  9
$QTEXTMODE
 70
     0
  9
$MIRRTEXT
 70
     1
  9
$LTSCALE
 40
5.0
  9
$ATTMODE
 70
     1
  9
$TEXTSIZE
 40
2.5
  9
$TRACEWID
 40
1.0
  9
$TEXTSTYLE
  7
Standard
  9
$CLAYER
  8
0
  9
$CELTYPE
  6
ByLayer
  9
$CECOLOR
 62
   256
  9
$CELTSCALE
 40
1.0
  9
$DISPSILH
 70
     0
  9
$DIMSCALE
 40
1.0
  9
$DIMASZ
 40
2.5
  9
$DIMEXO
 40
0.625
  9
$DIMDLI
 40
3.75
  9
$DIMRND
 40
0.0
  9
$DIMDLE
 40
0.0
  9
$DIMEXE
 40
1.25
  9
$DIMTP
 40
0.0
  9
$DIMTM
 40
0.0
  9
$DIMTXT
 40
2.5
  9
$DIMCEN
 40
2.5
  9
$DIMTSZ
 40
0.0
  9
$DIMTOL
 70
     0
  9
$DIMLIM
 70
     0
  9
$DIMTIH
 70
     0
  9
$DIMTOH
 70
     0
  9
$DIMSE1
 70
     0
  9
$DIMSE2
 70
     0
  9
$DIMTAD
 70
     1
  9
$DIMZIN
 70
     8
  9
$DIMBLK
  1

  9
$DIMASO
 70
     1
  9
$DIMSHO
 70
     1
  9
$DIMPOST
  1

  9
$DIMAPOST
  1

  9
$DIMALT
 70
     0
  9
$DIMALTD
 70
     3
  9
$DIMALTF
 40
0.03937007874
  9
$DIMLFAC
 40
1.0
  9
$DIMTOFL
 70
     1
  9
$DIMTVP
 40
0.0
  9
$DIMTIX
 70
     0
  9
$DIMSOXD
 70
     0
  9
$DIMSAH
 70
     0
  9
$DIMBLK1
  1

  9
$DIMBLK2
  1

  9
$DIMSTYLE
  2
ISO-25
  9
$DIMCLRD
 70
     0
  9
$DIMCLRE
 70
     0
  9
$DIMCLRT
 70
     0
  9
$DIMTFAC
 40
1.0
  9
$DIMGAP
 40
0.625
  9
$DIMJUST
 70
     0
  9
$DIMSD1
 70
     0
  9
$DIMSD2
 70
     0
  9
$DIMTOLJ
 70
     0
  9
$DIMTZIN
 70
     8
  9
$DIMALTZ
 70
     0
  9
$DIMALTTZ
 70
     0
  9
$DIMUPT
 70
     0
  9
$DIMDEC
 70
     2
  9
$DIMTDEC
 70
     2
  9
$DIMALTU
 70
     2
  9
$DIMALTTD
 70
     3
  9
$DIMTXSTY
  7
Standard
  9
$DIMAUNIT
 70
     0
  9
$DIMADEC
 70
     0
  9
$DIMALTRND
 40
0.0
  9
$DIMAZIN
 70
     0
  9
$DIMDSEP
 70
    44
  9
$DIMATFIT
 70
     3
  9
$DIMFRAC
 70
     0
  9
$DIMLDRBLK
  1

  9
$DIMLUNIT
 70
     2
  9
$DIMLWD
 70
    -2
  9
$DIMLWE
 70
    -2
  9
$DIMTMOVE
 70
     0
  9
$DIMFXL
 40
1.0
  9
$DIMFXLON
 70
     0
  9
$DIMJOGANG
 40
0.785398163397
  9
$DIMTFILL
 70
     0
  9
$DIMTFILLCLR
 70
     0
  9
$DIMARCSYM
 70
     0
  9
$DIMLTYPE
  6

  9
$DIMLTEX1
  6

  9
$DIMLTEX2
  6

  9
$DIMTXTDIRECTION
 70
     0
  9
$LUNITS
 70
     2
  9
$LUPREC
 70
     4
  9
$SKETCHINC
 40
1.0
  9
$FILLETRAD
 40
10.0
  9
$AUNITS
 70
     0
  9
$AUPREC
 70
     0
  9
$MENU
  1
.
  9
$ELEVATION
 40
0.0
  9
$PELEVATION
 40
0.0
  9
$THICKNESS
 40
0.0
  9
$LIMCHECK
 70
     0
  9
$CHAMFERA
 40
0.0
  9
$CHAMFERB
 40
0.0
  9
$CHAMFERC
 40
0.0
  9
$CHAMFERD
 40
0.0
  9
$SKPOLY
 70
     0
  9
$TDCREATE
 40
2459276.435549097
  9
$TDUCREATE
 40
2459276.393882431
  9
$TDUPDATE
 40
2459276.435549641
  9
$TDUUPDATE
 40
2459276.393882975
  9
$TDINDWG
 40
0.0000000116
  9
$TDUSRTIMER
 40
0.0000000116
  9
$USRTIMER
 70
     1
  9
$ANGBASE
 50
0.0
  9
$ANGDIR
 70
     0
  9
$PDMODE
 70
     2
  9
$PDSIZE
 40
1.0
  9
$PLINEWID
 40
0.0
  9
$SPLFRAME
 70
     0
  9
$SPLINETYPE
 70
     6
  9
$SPLINESEGS
 70
     8
  9
$HANDSEED
  5
303
  9
$SURFTAB1
 70
     6
  9
$SURFTAB2
 70
     6
  9
$SURFTYPE
 70
     6
  9
$SURFU
 70
     6
  9
$SURFV
 70
     6
  9
$UCSBASE
  2

  9
$UCSNAME
  2

  9
$UCSORG
 10
0.0
 20
0.0
 30
0.0
  9
$UCSXDIR
 10
1.0
 20
0.0
 30
0.0
  9
$UCSYDIR
 10
0.0
 20
1.0
 30
0.0
  9
$UCSORTHOREF
  2

  9
$UCSORTHOVIEW
 70
     0
  9
$UCSORGTOP
 10
0.0
 20
0.0
 30
0.0
  9
$UCSORGBOTTOM
 10
0.0
 20
0.0
 30
0.0
  9
$UCSORGLEFT
 10
0.0
 20
0.0
 30
0.0
  9
$UCSORGRIGHT
 10
0.0
 20
0.0
 30
0.0
  9
$UCSORGFRONT
 10
0.0
 20
0.0
 30
0.0
  9
$UCSORGBACK
 10
0.0
 20
0.0
 30
0.0
  9
$PUCSBASE
  2

  9
$PUCSNAME
  2

  9
$PUCSORG
 10
0.0
 20
0.0
 30
0.0
  9
$PUCSXDIR
 10
1.0
 20
0.0
 30
0.0
  9
$PUCSYDIR
 10
0.0
 20
1.0
 30
0.0
  9
$PUCSORTHOREF
  2

  9
$PUCSORTHOVIEW
 70
     0
  9
$PUCSORGTOP
 10
0.0
 20
0.0
 30
0.0
  9
$PUCSORGBOTTOM
 10
0.0
 20
0.0
 30
0.0
  9
$PUCSORGLEFT
 10
0.0
 20
0.0
 30
0.0
  9
$PUCSORGRIGHT
 10
0.0
 20
0.0
 30
0.0
  9
$PUCSORGFRONT
 10
0.0
 20
0.0
 30
0.0
  9
$PUCSORGBACK
 10
0.0
 20
0.0
 30
0.0
  9
$USERI1
 70
     0
  9
$USERI2
 70
     0
  9
$USERI3
 70
     0
  9
$USERI4
 70
     0
  9
$USERI5
 70
     0
  9
$USERR1
 40
0.0
  9
$USERR2
 40
0.0
  9
$USERR3
 40
0.0
  9
$USERR4
 40
0.0
  9
$USERR5
 40
0.0
  9
$WORLDVIEW
 70
     1
  9
$SHADEDGE
 70
     3
  9
$SHADEDIF
 70
    70
  9
$TILEMODE
 70
     1
  9
$MAXACTVP
 70
    64
  9
$PINSBASE
 10
0.0
 20
0.0
 30
0.0
  9
$PLIMCHECK
 70
     0
  9
$PEXTMIN
 10
1.000000000000E+20
 20
1.000000000000E+20
 30
1.000000000000E+20
  9
$PEXTMAX
 10
-1.000000000000E+20
 20
-1.000000000000E+20
 30
-1.000000000000E+20
  9
$PLIMMIN
 10
0.0
 20
0.0
  9
$PLIMMAX
 10
420.0
 20
297.0
  9
$UNITMODE
 70
     0
  9
$VISRETAIN
 70
     1
  9
$PLINEGEN
 70
     0
  9
$PSLTSCALE
 70
     1
  9
$TREEDEPTH
 70
  3020
  9
$CMLSTYLE
  2
Standard
  9
$CMLJUST
 70
     0
  9
$CMLSCALE
 40
20.0
  9
$PROXYGRAPHICS
 70
     1
  9
$MEASUREMENT
 70
     1
  9
$CELWEIGHT
370
    -1
  9
$ENDCAPS
280
     0
  9
$JOINSTYLE
280
     0
  9
$LWDISPLAY
290
     0
  9
$INSUNITS
 70
     4
  9
$HYPERLINKBASE
  1

  9
$STYLESHEET
  1

  9
$XEDIT
290
     1
  9
$CEPSNTYPE
380
     0
  9
$PSTYLEMODE
290
     1
  9
$FINGERPRINTGUID
  2
{c8b19c13-5529-43fa-86fe-399a57bb18b2}
  9
$VERSIONGUID
  2
{FAEB1C32-E019-11D5-929B-00C0DF256EC4}
  9
$EXTNAMES
290
     1
  9
$PSVPSCALE
 40
0.0
  9
$OLESTARTUP
290
     0
  9
$SORTENTS
280
   127
  9
$INDEXCTL
280
     0
  9
$HIDETEXT
280
     1
  9
$XCLIPFRAME
280
     2
  9
$HALOGAP
280
     0
  9
$OBSCOLOR
 70
   257
  9
$OBSLTYPE
280
     0
  9
$INTERSECTIONDISPLAY
280
     0
  9
$INTERSECTIONCOLOR
 70
   257
  9
$DIMASSOC
280
     2
  9
$PROJECTNAME
  1

  9
$CAMERADISPLAY
290
     0
  9
$LENSLENGTH
 40
50.0
  9
$CAMERAHEIGHT
 40
0.0
  9
$STEPSPERSEC
 40
2.0
  9
$STEPSIZE
 40
6.0
  9
$3DDWFPREC
 40
2.0
  9
$PSOLWIDTH
 40
5.0
  9
$PSOLHEIGHT
 40
80.0
  9
$LOFTANG1
 40
1.570796326795
  9
$LOFTANG2
 40
1.570796326795
  9
$LOFTMAG1
 40
0.0
  9
$LOFTMAG2
 40
0.0
  9
$LOFTPARAM
 70
     7
  9
$LOFTNORMALS
280
     1
  9
$LATITUDE
 40
37.795
  9
$LONGITUDE
 40
-122.394
  9
$NORTHDIRECTION
 40
0.0
  9
$TIMEZONE
 70
 -8000
  9
$LIGHTGLYPHDISPLAY
280
     1
  9
$TILEMODELIGHTSYNCH
280
     1
  9
$CMATERIAL
347
44
  9
$SOLIDHIST
280
     0
  9
$SHOWHIST
280
     1
  9
$DWFFRAME
280
     2
  9
$DGNFRAME
280
     2
  9
$REALWORLDSCALE
290
     1
  9
$INTERFERECOLOR
 62
   256
  9
$CSHADOW
280
     0
  9
$SHADOWPLANELOCATION
 40
0.0
  0
ENDSEC
  0
SECTION
  2
CLASSES
  0
CLASS
  1
ACDBDICTIONARYWDFLT
  2
AcDbDictionaryWithDefault
  3
ObjectDBX Classes
 90
        0
 91
        3
280
     0
281
     0
  0
CLASS
  1
VISUALSTYLE
  2
AcDbVisualStyle
  3
ObjectDBX Classes
 90
     4095
 91
        3
280
     0
281
     0
  0
CLASS
  1
MATERIAL
  2
AcDbMaterial
  3
ObjectDBX Classes
 90
     1153
 91
        3
280
     0
281
     0
  0
CLASS
  1
SCALE
  2
AcDbScale
  3
ObjectDBX Classes
 90
     1153
 91
        3
280
     0
281
     0
  0
CLASS
  1
TABLESTYLE
  2
AcDbTableStyle
  3
ObjectDBX Classes
 90
     4095
 91
        3
280
     0
281
     0
  0
CLASS
  1
MLEADERSTYLE
  2
AcDbMLeaderStyle
  3
ACDB_MLEADERSTYLE_CLASS
 90
     4095
 91
        3
280
     0
281
     0
  0
CLASS
  1
SUN
  2
AcDbSun
  3
SCENEOE
 90
     1153
 91
        3
280
     0
281
     0
  0
CLASS
  1
IMAGEDEF
  2
AcDbRasterImageDef
  3
ISM
 90
        0
 91
        3
280
     0
281
     0
  0
CLASS
  1
IMAGE
  2
AcDbRasterImage
  3
ISM
 90
      127
 91
        4
280
     0
281
     1
  0
CLASS
  1
IMAGEDEF_REACTOR
  2
AcDbRasterImageDefReactor
  3
ISM
 90
        1
 91
        3
280
     0
281
     0
  0
CLASS
  1
DICTIONARYVAR
  2
AcDbDictionaryVar
  3
ObjectDBX Classes
 90
        0
 91
        3
280
     0
281
     0
  0
CLASS
  1
CELLSTYLEMAP
  2
AcDbCellStyleMap
  3
ObjectDBX Classes
 90
     1152
 91
        3
280
     0
281
     0
  0
CLASS
  1
WIPEOUTVARIABLES
  2
AcDbWipeoutVariables
  3
WipeOut|AutoCAD Express Tool|expresstools@autodesk.com
 90
        0
 91
        3
280
     0
281
     0
  0
ENDSEC
  0
SECTION
  2
TABLES
  0
TABLE
  2
VPORT
  5
8
330
0
100
AcDbSymbolTable
 70
     1
  0
VPORT
  5
29
330
8
100
AcDbSymbolTableRecord
100
AcDbViewportTableRecord
  2
*Active
 70
     0
 10
0.0
 20
0.0
 11
1.0
 21
1.0
 12
-273.305658776257
 22
-1376.198821377853
 13
0.0
 23
0.0
 14
10.0
 24
10.0
 15
10.0
 25
10.0
 16
0.0
 26
0.0
 36
1.0
 17
0.0
 27
0.0
 37
0.0
 40
2929.41
 41
2.537220096372
 42
50.0
 43
0.0
 44
0.0
 50
0.0
 51
0.0
 71
     0
 72
   100
 73
     1
 74
     3
 75
     0
 76
     0
 77
     0
 78
     0
281
     0
 65
     1
110
0.0
120
0.0
130
0.0
111
1.0
121
0.0
131
0.0
112
0.0
122
1.0
132
0.0
 79
     0
146
0.0
348
2F
 60
     3
 61
     5
292
     1
282
     1
141
0.0
142
0.0
 63
   250
361
6D
  0
ENDTAB
  0
TABLE
  2
LTYPE
  5
5
330
0
100
AcDbSymbolTable
 70
     3
  0
LTYPE
  5
14
330
5
100
AcDbSymbolTableRecord
100
AcDbLinetypeTableRecord
  2
ByBlock
 70
     0
  3

 72
    65
 73
     0
 40
0.0
  0
LTYPE
  5
15
330
5
100
AcDbSymbolTableRecord
100
AcDbLinetypeTableRecord
  2
ByLayer
 70
     0
  3

 72
    65
 73
     0
 40
0.0
  0
LTYPE
  5
16
330
5
100
AcDbSymbolTableRecord
100
AcDbLinetypeTableRecord
  2
Continuous
 70
     0
  3
Solid line
 72
    65
 73
     0
 40
0.0
  0
LTYPE
  5
6E
330
5
100
AcDbSymbolTableRecord
100
AcDbLinetypeTableRecord
  2
AUSGEZOGEN
 70
     0
  3

 72
    65
 73
     0
 40
0.0
  0
LTYPE
  5
70
330
5
100
AcDbSymbolTableRecord
100
AcDbLinetypeTableRecord
  2
DASHDOT
 70
     0
  3

 72
    65
 73
     4
 40
1.0
 49
0.5
 74
     0
 49
-0.25
 74
     0
 49
0.0
 74
     0
 49
-0.25
 74
     0
  0
ENDTAB
  0
TABLE
  2
LAYER
  5
2
330
0
100
AcDbSymbolTable
 70
     9
  0
LAYER
  5
10
330
2
100
AcDbSymbolTableRecord
100
AcDbLayerTableRecord
  2
0
 70
     0
 62
     7
  6
Continuous
370
    -3
390
F
347
46
  0
LAYER
  5
72
330
2
100
AcDbSymbolTableRecord
100
AcDbLayerTableRecord
  2
Layer0
 70
     0
 62
    18
420
        0
  6
Continuous
370
    -3
390
F
347
46
  0
LAYER
  5
73
330
2
100
AcDbSymbolTableRecord
100
AcDbLayerTableRecord
  2
Layer1
 70
     0
 62
    18
420
        0
  6
Continuous
370
    -3
390
F
347
46
  0
LAYER
  5
74
330
2
100
AcDbSymbolTableRecord
100
AcDbLayerTableRecord
  2
Layer2
 70
     0
 62
    18
420
        0
  6
Continuous
370
    -3
390
F
347
46
  0
LAYER
  5
75
330
2
100
AcDbSymbolTableRecord
100
AcDbLayerTableRecord
  2
Layer3
 70
     0
 62
    18
420
        0
  6
Continuous
370
    -3
390
F
347
46
  0
LAYER
  5
76
330
2
100
AcDbSymbolTableRecord
100
AcDbLayerTableRecord
  2
Layer4
 70
     0
 62
    18
420
        0
  6
Continuous
370
    -3
390
F
347
46
  0
LAYER
  5
77
330
2
100
AcDbSymbolTableRecord
100
AcDbLayerTableRecord
  2
Layer5
 70
     0
 62
    18
420
        0
  6
Continuous
370
    -3
390
F
347
46
  0
LAYER
  5
78
330
2
100
AcDbSymbolTableRecord
100
AcDbLayerTableRecord
  2
Layer6
 70
     0
 62
    18
420
        0
  6
Continuous
370
    -3
390
F
347
46
  0
LAYER
  5
79
330
2
100
AcDbSymbolTableRecord
100
AcDbLayerTableRecord
  2
Layer100
 70
     0
 62
    18
420
        0
  6
Continuous
370
    -3
390
F
347
46
  0
ENDTAB
  0
TABLE
  2
STYLE
  5
3
330
0
100
AcDbSymbolTable
 70
     3
  0
STYLE
  5
11
330
3
100
AcDbSymbolTableRecord
100
AcDbTextStyleTableRecord
  2
Standard
 70
     0
 40
0.0
 41
1.0
 50
0.0
 71
     0
 42
2.5
  3
txt
  4

  0
STYLE
  5
6F
330
3
100
AcDbSymbolTableRecord
100
AcDbTextStyleTableRecord
  2
Arial
 70
     0
 40
0.0
 41
1.0
 50
0.0
 71
     0
 42
2.5
  3
arial.ttf
  4

1001
ACAD
1000
Arial
1071
        0
  0
STYLE
  5
71
330
3
100
AcDbSymbolTableRecord
100
AcDbTextStyleTableRecord
  2
Toleranzfont
 70
     0
 40
0.0
 41
1.0
 50
0.0
 71
     0
 42
2.5
  3
IGES1003.SHX
  4

  0
ENDTAB
  0
TABLE
  2
VIEW
  5
6
330
0
100
AcDbSymbolTable
 70
     0
  0
ENDTAB
  0
TABLE
  2
UCS
  5
7
330
0
100
AcDbSymbolTable
 70
     0
  0
ENDTAB
  0
TABLE
  2
APPID
  5
9
330
0
100
AcDbSymbolTable
 70
     1
  0
APPID
  5
12
330
9
100
AcDbSymbolTableRecord
100
AcDbRegAppTableRecord
  2
ACAD
 70
     0
  0
ENDTAB
  0
TABLE
  2
DIMSTYLE
  5
A
330
0
100
AcDbSymbolTable
 70
     1
100
AcDbDimStyleTable
  0
DIMSTYLE
105
27
102
{ACAD_REACTORS
330
96
330
A0
330
AA
330
B1
330
207
330
211
330
21A
330
224
330
22E
330
23A
330
244
330
24E
102
}
330
A
100
AcDbSymbolTableRecord
100
AcDbDimStyleTableRecord
  2
ISO-25
 70
     0
 41
2.5
 42
0.625
 43
3.75
 44
1.25
 73
     0
 74
     0
 77
     1
 78
     8
140
2.5
141
2.5
143
0.03937007874
147
0.625
171
     3
172
     1
178
     0
271
     2
272
     2
274
     3
278
    44
283
     0
284
     8
340
11
  0
ENDTAB
  0
TABLE
  2
BLOCK_RECORD
  5
1
330
0
100
AcDbSymbolTable
 70
    25
  0
BLOCK_RECORD
  5
1F
330
1
100
AcDbSymbolTableRecord
100
AcDbBlockTableRecord
  2
*Model_Space
340
22
 70
     0
280
     1
281
     0
  0
BLOCK_RECORD
  5
1B
330
1
100
AcDbSymbolTableRecord
100
AcDbBlockTableRecord
  2
*Paper_Space
340
1E
 70
     0
280
     1
281
     0
  0
BLOCK_RECORD
  5
23
330
1
100
AcDbSymbolTableRecord
100
AcDbBlockTableRecord
  2
*Paper_Space0
340
26
 70
     0
280
     1
281
     0
  0
BLOCK_RECORD
  5
8D
330
1
100
AcDbSymbolTableRecord
100
AcDbBlockTableRecord
  2
*D1
340
0
 70
     0
280
     1
281
     0
  0
BLOCK_RECORD
  5
97
330
1
100
AcDbSymbolTableRecord
100
AcDbBlockTableRecord
  2
*D2
340
0
 70
     0
280
     1
281
     0
  0
BLOCK_RECORD
  5
A1
330
1
100
AcDbSymbolTableRecord
100
AcDbBlockTableRecord
  2
*D3
340
0
 70
     0
280
     1
281
     0
  0
BLOCK_RECORD
  5
AB
330
1
100
AcDbSymbolTableRecord
100
AcDbBlockTableRecord
  2
*D4
340
0
 70
     0
280
     1
281
     0
  0
BLOCK_RECORD
  5
B2
330
1
100
AcDbSymbolTableRecord
100
AcDbBlockTableRecord
  2
AnonymMegaMac_002_nNn04
340
0
102
{BLKREFS
331
BA
102
}
 70
     0
280
     1
281
     0
  0
BLOCK_RECORD
  5
BE
330
1
100
AcDbSymbolTableRecord
100
AcDbBlockTableRecord
  2
AnonymMegaMac_nNn05
340
0
102
{BLKREFS
331
D1
102
}
 70
     0
280
     1
281
     0
  0
BLOCK_RECORD
  5
12C
330
1
100
AcDbSymbolTableRecord
100
AcDbBlockTableRecord
  2
AnonymMegaMac_nNn06
340
0
102
{BLKREFS
331
162
102
}
 70
     0
280
     1
281
     0
  0
BLOCK_RECORD
  5
1A0
330
1
100
AcDbSymbolTableRecord
100
AcDbBlockTableRecord
  2
AnonymMegaMac_nNn07
340
0
102
{BLKREFS
331
1B4
102
}
 70
     0
280
     1
281
     0
  0
BLOCK_RECORD
  5
1B6
330
1
100
AcDbSymbolTableRecord
100
AcDbBlockTableRecord
  2
AnonymMegaMac_nNn08
340
0
102
{BLKREFS
331
1F2
102
}
 70
     0
280
     1
281
     0
  0
BLOCK_RECORD
  5
1FF
330
1
100
AcDbSymbolTableRecord
100
AcDbBlockTableRecord
  2
*D10
340
0
 70
     0
280
     1
281
     0
  0
BLOCK_RECORD
  5
208
330
1
100
AcDbSymbolTableRecord
100
AcDbBlockTableRecord
  2
*D11
340
0
 70
     0
280
     1
281
     0
  0
BLOCK_RECORD
  5
212
330
1
100
AcDbSymbolTableRecord
100
AcDbBlockTableRecord
  2
*D12
340
0
 70
     0
280
     1
281
     0
  0
BLOCK_RECORD
  5
21B
330
1
100
AcDbSymbolTableRecord
100
AcDbBlockTableRecord
  2
*D13
340
0
 70
     0
280
     1
281
     0
  0
BLOCK_RECORD
  5
225
330
1
100
AcDbSymbolTableRecord
100
AcDbBlockTableRecord
  2
*D14
340
0
 70
     0
280
     1
281
     0
  0
BLOCK_RECORD
  5
22F
330
1
100
AcDbSymbolTableRecord
100
AcDbBlockTableRecord
  2
*D15
340
0
 70
     0
280
     1
281
     0
  0
BLOCK_RECORD
  5
23B
330
1
100
AcDbSymbolTableRecord
100
AcDbBlockTableRecord
  2
*D16
340
0
 70
     0
280
     1
281
     0
  0
BLOCK_RECORD
  5
245
330
1
100
AcDbSymbolTableRecord
100
AcDbBlockTableRecord
  2
*D17
340
0
 70
     0
280
     1
281
     0
  0
BLOCK_RECORD
  5
24F
330
1
100
AcDbSymbolTableRecord
100
AcDbBlockTableRecord
  2
A4-NABER_nNn017
340
0
102
{BLKREFS
331
2C5
102
}
 70
     0
280
     1
281
     0
  0
BLOCK_RECORD
  5
252
330
1
100
AcDbSymbolTableRecord
100
AcDbBlockTableRecord
  2
A4-NABER_nNn018
340
0
102
{BLKREFS
331
2C3
102
}
 70
     0
280
     1
281
     0
  0
BLOCK_RECORD
  5
255
330
1
100
AcDbSymbolTableRecord
100
AcDbBlockTableRecord
  2
A4-Textliste_nNn019
340
0
102
{BLKREFS
331
265
102
}
 70
     0
280
     1
281
     0
  0
BLOCK_RECORD
  5
258
330
1
100
AcDbSymbolTableRecord
100
AcDbBlockTableRecord
  2
Zeichnungskoordinaten_nNn020
340
0
102
{BLKREFS
331
25D
102
}
 70
     0
280
     1
281
     0
  0
BLOCK_RECORD
  5
25E
330
1
100
AcDbSymbolTableRecord
100
AcDbBlockTableRecord
  2
Zeichnungsrahmen_nNn021
340
0
102
{BLKREFS
331
264
102
}
 70
     0
280
     1
281
     0
  0
BLOCK_RECORD
  5
271
330
1
100
AcDbSymbolTableRecord
100
AcDbBlockTableRecord
  2
Schriftfeld_nNn022
340
0
102
{BLKREFS
331
2AA
102
}
 70
     0
280
     1
281
     0
  0
BLOCK_RECORD
  5
2AB
330
1
100
AcDbSymbolTableRecord
100
AcDbBlockTableRecord
  2
Beschriftung_nNn023
340
0
102
{BLKREFS
331
2B6
102
}
 70
     0
280
     1
281
     0
  0
ENDTAB
  0
ENDSEC
  0
SECTION
  2
BLOCKS
  0
BLOCK
  5
20
330
1F
100
AcDbEntity
  8
0
100
AcDbBlockBegin
  2
*Model_Space
 70
     0
 10
0.0
 20
0.0
 30
0.0
  3
*Model_Space
  1

  0
ENDBLK
  5
21
330
1F
100
AcDbEntity
  8
0
100
AcDbBlockEnd
  0
BLOCK
  5
1C
330
1B
100
AcDbEntity
 67
     1
  8
0
100
AcDbBlockBegin
  2
*Paper_Space
 70
     0
 10
0.0
 20
0.0
 30
0.0
  3
*Paper_Space
  1

  0
ENDBLK
  5
1D
330
1B
100
AcDbEntity
 67
     1
  8
0
100
AcDbBlockEnd
  0
BLOCK
  5
24
330
23
100
AcDbEntity
  8
0
100
AcDbBlockBegin
  2
*Paper_Space0
 70
     0
 10
0.0
 20
0.0
 30
0.0
  3
*Paper_Space0
  1

  0
ENDBLK
  5
25
330
23
100
AcDbEntity
  8
0
100
AcDbBlockEnd
  0
BLOCK
  5
8E
330
8D
100
AcDbEntity
  8
0
100
AcDbBlockBegin
  2
*D1
 70
     1
 10
0.0
 20
0.0
 30
0.0
  3
*D1
  1

  0
HATCH
  5
90
330
8D
100
AcDbEntity
  8
Layer2
  6
AUSGEZOGEN
 62
    18
420
        0
370
    25
100
AcDbHatch
 10
0.0
 20
0.0
 30
0.0
210
0.0
220
0.0
230
1.0
  2
SOLID
 70
     1
 71
     0
 91
        1
 92
        2
 72
     0
 73
     1
 93
        3
 10
155.0
 20
-357.4955160607001
 10
142.5
 20
-354.9955160607001
 10
142.5
 20
-359.9955160607001
 97
        0
 75
     0
 76
     1
 98
        0
  0
HATCH
  5
91
330
8D
100
AcDbEntity
  8
Layer2
  6
AUSGEZOGEN
 62
    18
420
        0
370
    25
100
AcDbHatch
 10
0.0
 20
0.0
 30
0.0
210
0.0
220
0.0
230
1.0
  2
SOLID
 70
     1
 71
     0
 91
        1
 92
        2
 72
     0
 73
     1
 93
        3
 10
-675.0
 20
-357.4955160607001
 10
-662.5
 20
-359.9955160607001
 10
-662.5
 20
-354.9955160607001
 97
        0
 75
     0
 76
     1
 98
        0
  0
LINE
  5
92
330
8D
100
AcDbEntity
  8
Layer2
  6
AUSGEZOGEN
 62
    18
420
        0
370
    25
100
AcDbLine
 10
-662.5
 20
-357.4955160607
 30
0.0
 11
142.5
 21
-357.4955160607
 31
0.0
  0
LINE
  5
93
330
8D
100
AcDbEntity
  8
Layer2
  6
AUSGEZOGEN
 62
    18
420
        0
370
    18
100
AcDbLine
 10
-675.0
 20
-381.355201461407
 30
0.0
 11
-675.0
 21
-352.4955160607
 31
0.0
  0
LINE
  5
94
330
8D
100
AcDbEntity
  8
Layer2
  6
AUSGEZOGEN
 62
    18
420
        0
370
    18
100
AcDbLine
 10
155.0
 20
-383.161653947951
 30
0.0
 11
155.0
 21
-352.4955160607
 31
0.0
  0
TEXT
  5
95
330
8D
100
AcDbEntity
  8
Layer2
  6
AUSGEZOGEN
 62
    18
420
        0
370
    18
100
AcDbText
 10
-299.625568181818
 20
-327.4955160607
 30
0.0
 40
37.5
  1
830
 41
0.907802249297
  7
Arial
 72
     5
 11
-220.374431818182
 21
-327.4955160607
 31
0.0
100
AcDbText
  0
ENDBLK
  5
8F
330
8D
100
AcDbEntity
  8
0
100
AcDbBlockEnd
  0
BLOCK
  5
98
330
97
100
AcDbEntity
  8
0
100
AcDbBlockBegin
  2
*D2
 70
     1
 10
0.0
 20
0.0
 30
0.0
  3
*D2
  1

  0
HATCH
  5
9A
330
97
100
AcDbEntity
  8
Layer2
  6
AUSGEZOGEN
 62
    18
420
        0
370
    25
100
AcDbHatch
 10
0.0
 20
0.0
 30
0.0
210
0.0
220
0.0
230
1.0
  2
SOLID
 70
     1
 71
     0
 91
        1
 92
        2
 72
     0
 73
     1
 93
        3
 10
-831.4694305762221
 20
-945.0
 10
-828.9694305762221
 20
-932.5
 10
-833.9694305762221
 20
-932.5
 97
        0
 75
     0
 76
     1
 98
        0
  0
HATCH
  5
9B
330
97
100
AcDbEntity
  8
Layer2
  6
AUSGEZOGEN
 62
    18
420
        0
370
    25
100
AcDbHatch
 10
0.0
 20
0.0
 30
0.0
210
0.0
220
0.0
230
1.0
  2
SOLID
 70
     1
 71
     0
 91
        1
 92
        2
 72
     0
 73
     1
 93
        3
 10
-831.4694305762221
 20
-465.0
 10
-833.9694305762221
 20
-477.5
 10
-828.9694305762221
 20
-477.5
 97
        0
 75
     0
 76
     1
 98
        0
  0
LINE
  5
9C
330
97
100
AcDbEntity
  8
Layer2
  6
AUSGEZOGEN
 62
    18
420
        0
370
    25
100
AcDbLine
 10
-831.469430576222
 20
-477.5
 30
0.0
 11
-831.469430576222
 21
-932.5
 31
0.0
  0
LINE
  5
9D
330
97
100
AcDbEntity
  8
Layer2
  6
AUSGEZOGEN
 62
    18
420
        0
370
    18
100
AcDbLine
 10
-804.366313759576
 20
-465.0
 30
0.0
 11
-836.469430576222
 21
-465.0
 31
0.0
  0
LINE
  5
9E
330
97
100
AcDbEntity
  8
Layer2
  6
AUSGEZOGEN
 62
    18
420
        0
370
    18
100
AcDbLine
 10
-804.366313759576
 20
-945.0
 30
0.0
 11
-836.469430576222
 21
-945.0
 31
0.0
  0
TEXT
  5
9F
330
97
100
AcDbEntity
  8
Layer2
  6
AUSGEZOGEN
 62
    18
420
        0
370
    18
100
AcDbText
 10
-861.469430576223
 20
-744.625568181818
 30
0.0
 40
37.5
  1
480
 50
90.0
 41
0.907802249297
  7
Arial
 72
     5
 11
-861.469430576223
 21
-665.374431818182
 31
0.0
100
AcDbText
  0
ENDBLK
  5
99
330
97
100
AcDbEntity
  8
0
100
AcDbBlockEnd
  0
BLOCK
  5
A2
330
A1
100
AcDbEntity
  8
0
100
AcDbBlockBegin
  2
*D3
 70
     1
 10
0.0
 20
0.0
 30
0.0
  3
*D3
  1

  0
HATCH
  5
A4
330
A1
100
AcDbEntity
  8
Layer2
  6
AUSGEZOGEN
 62
    18
420
        0
370
    25
100
AcDbHatch
 10
0.0
 20
0.0
 30
0.0
210
0.0
220
0.0
230
1.0
  2
SOLID
 70
     1
 71
     0
 91
        1
 92
        2
 72
     0
 73
     1
 93
        3
 10
-191.842777781173
 20
-1065.0
 10
-204.342777781173
 20
-1062.5
 10
-204.342777781173
 20
-1067.5
 97
        0
 75
     0
 76
     1
 98
        0
  0
HATCH
  5
A5
330
A1
100
AcDbEntity
  8
Layer2
  6
AUSGEZOGEN
 62
    18
420
        0
370
    25
100
AcDbHatch
 10
0.0
 20
0.0
 30
0.0
210
0.0
220
0.0
230
1.0
  2
SOLID
 70
     1
 71
     0
 91
        1
 92
        2
 72
     0
 73
     1
 93
        3
 10
-691.842777781173
 20
-1065.0
 10
-679.342777781173
 20
-1067.5
 10
-679.342777781173
 20
-1062.5
 97
        0
 75
     0
 76
     1
 98
        0
  0
LINE
  5
A6
330
A1
100
AcDbEntity
  8
Layer2
  6
AUSGEZOGEN
 62
    18
420
        0
370
    25
100
AcDbLine
 10
-679.342777781173
 20
-1065.0
 30
0.0
 11
-204.342777781173
 21
-1065.0
 31
0.0
  0
LINE
  5
A7
330
A1
100
AcDbEntity
  8
Layer2
  6
AUSGEZOGEN
 62
    18
420
        0
370
    18
100
AcDbLine
 10
-691.842777781173
 20
-1040.0
 30
0.0
 11
-691.842777781173
 21
-1070.0
 31
0.0
  0
LINE
  5
A8
330
A1
100
AcDbEntity
  8
Layer2
  6
AUSGEZOGEN
 62
    18
420
        0
370
    18
100
AcDbLine
 10
-191.842777781173
 20
-1040.0
 30
0.0
 11
-191.842777781173
 21
-1070.0
 31
0.0
  0
TEXT
  5
A9
330
A1
100
AcDbEntity
  8
Layer2
  6
AUSGEZOGEN
 62
    18
420
        0
370
    18
100
AcDbText
 10
-494.468345962991
 20
-1124.710003389102
 30
0.0
 40
37.5
  1
500
 41
0.907802249297
  7
Arial
 72
     5
 11
-415.217209599354
 21
-1124.710003389102
 31
0.0
100
AcDbText
  0
ENDBLK
  5
A3
330
A1
100
AcDbEntity
  8
0
100
AcDbBlockEnd
  0
BLOCK
  5
AC
330
AB
100
AcDbEntity
  8
0
100
AcDbBlockBegin
  2
*D4
 70
     1
 10
0.0
 20
0.0
 30
0.0
  3
*D4
  1

  0
HATCH
  5
AE
330
AB
100
AcDbEntity
  8
Layer2
  6
AUSGEZOGEN
 62
    18
420
        0
370
    25
100
AcDbHatch
 10
0.0
 20
0.0
 30
0.0
210
0.0
220
0.0
230
1.0
  2
SOLID
 70
     1
 71
     0
 91
        1
 92
        2
 72
     0
 73
     1
 93
        3
 10
-691.842777781173
 20
-1134.663732524897
 10
-679.342777781173
 20
-1137.163732524897
 10
-679.342777781173
 20
-1132.163732524897
 97
        0
 75
     0
 76
     1
 98
        0
  0
HATCH
  5
AF
330
AB
100
AcDbEntity
  8
Layer2
  6
AUSGEZOGEN
 62
    18
420
        0
370
    25
100
AcDbHatch
 10
0.0
 20
0.0
 30
0.0
210
0.0
220
0.0
230
1.0
  2
SOLID
 70
     1
 71
     0
 91
        1
 92
        2
 72
     0
 73
     1
 93
        3
 10
-675.0
 20
-1134.663732524897
 10
-687.5
 20
-1132.163732524897
 10
-687.5
 20
-1137.163732524897
 97
        0
 75
     0
 76
     1
 98
        0
  0
TEXT
  5
B0
330
AB
100
AcDbEntity
  8
Layer2
  6
AUSGEZOGEN
 62
    18
420
        0
370
    18
100
AcDbText
 10
-709.838434345132
 20
-1121.913732524897
 30
0.0
 40
37.5
  1
17
 41
0.907802249297
  7
Arial
 72
     5
 11
-657.004343436041
 21
-1121.913732524897
 31
0.0
100
AcDbText
  0
ENDBLK
  5
AD
330
AB
100
AcDbEntity
  8
0
100
AcDbBlockEnd
  0
BLOCK
  5
B3
330
B2
100
AcDbEntity
  8
0
100
AcDbBlockBegin
  2
AnonymMegaMac_002_nNn04
 70
     0
 10
0.0
 20
0.0
 30
0.0
  3
AnonymMegaMac_002_nNn04
  1

  0
LINE
  5
B5
330
B2
100
AcDbEntity
  8
Layer2
  6
AUSGEZOGEN
 62
    18
420
        0
370
    25
100
AcDbLine
 10
137.821127589782
 20
-927.433175945543
 30
0.0
 11
121.571707818312
 21
-910.66613936145
 31
0.0
  0
LINE
  5
B6
330
B2
100
AcDbEntity
  8
Layer2
  6
AUSGEZOGEN
 62
    18
420
        0
370
    25
100
AcDbLine
 10
121.571707818312
 20
-910.66613936145
 30
0.0
 11
11.268406959413
 21
-910.66613936145
 31
0.0
  0
HATCH
  5
B7
330
B2
100
AcDbEntity
  8
Layer2
  6
AUSGEZOGEN
 62
    18
420
        0
370
    25
100
AcDbHatch
 10
0.0
 20
0.0
 30
0.0
210
0.0
220
0.0
230
1.0
  2
SOLID
 70
     1
 71
     0
 91
        1
 92
        2
 72
     0
 73
     1
 93
        3
 10
139.317178072456
 20
-925.983310182422
 10
136.3250771071089
 20
-928.883041708664
 10
146.5203221685078
 20
-936.4094788415841
 97
        0
 75
     0
 76
     1
 98
        0
  0
TEXT
  5
B8
330
B2
100
AcDbEntity
  8
Layer2
  6
AUSGEZOGEN
 62
    18
420
        0
370
    25
100
AcDbText
 10
-6.079942611137
 20
-903.16613936145
 30
0.0
 40
37.5
  1
4xR5
 41
1.099872464537
  7
Arial
 72
     5
 11
128.296975743648
 21
-903.16613936145
 31
0.0
100
AcDbText
  0
ARC
  5
B9
330
B2
100
AcDbEntity
  8
Layer2
  6
AUSGEZOGEN
 62
    18
420
        0
370
    25
100
AcDbCircle
 10
149.999999999998
 20
-940.0
 30
0.0
 40
4.999999999999545
100
AcDbArc
 50
0.0
 51
191.397596224281
  0
ENDBLK
  5
B4
330
B2
100
AcDbEntity
  8
0
100
AcDbBlockEnd
  0
BLOCK
  5
BF
330
BE
100
AcDbEntity
  8
0
100
AcDbBlockBegin
  2
AnonymMegaMac_nNn05
 70
     0
 10
0.0
 20
0.0
 30
0.0
  3
AnonymMegaMac_nNn05
  1

  0
LINE
  5
C1
330
BE
100
AcDbEntity
  8
Layer4
  6
AUSGEZOGEN
 62
    18
420
        0
370
    25
100
AcDbLine
 10
-464.788254434364
 20
-1575.064160014886
 30
0.0
 11
-463.842777770062
 21
-1574.118683350584
 31
0.0
  0
LINE
  5
C2
330
BE
100
AcDbEntity
  8
Layer4
  6
AUSGEZOGEN
 62
    18
420
        0
370
    25
100
AcDbLine
 10
-487.238894737037
 20
-1575.064160014886
 30
0.0
 11
-475.217161941542
 21
-1563.042427219392
 31
0.0
  0
LINE
  5
C3
330
BE
100
AcDbEntity
  8
Layer4
  6
AUSGEZOGEN
 62
    18
420
        0
370
    25
100
AcDbLine
 10
-509.68953503971
 20
-1575.064160014886
 30
0.0
 11
-493.999994528038
 21
-1559.374619503214
 31
0.0
  0
LINE
  5
C4
330
BE
100
AcDbEntity
  8
Layer4
  6
AUSGEZOGEN
 62
    18
420
        0
370
    25
100
AcDbLine
 10
-532.140175342383
 20
-1575.064160014886
 30
0.0
 11
-515.332638342177
 21
-1558.256623014682
 31
0.0
  0
LINE
  5
C5
330
BE
100
AcDbEntity
  8
Layer4
  6
AUSGEZOGEN
 62
    18
420
        0
370
    25
100
AcDbLine
 10
-552.706310455788
 20
-1573.179654825619
 30
0.0
 11
-536.665282156317
 21
-1557.138626526148
 31
0.0
  0
LINE
  5
C6
330
BE
100
AcDbEntity
  8
Layer4
  6
AUSGEZOGEN
 62
    18
420
        0
370
    25
100
AcDbLine
 10
-567.332236793073
 20
-1565.354940860231
 30
0.0
 11
-554.45910689753
 21
-1552.481810964688
 31
0.0
  0
LINE
  5
C7
330
BE
100
AcDbEntity
  8
Layer4
  6
AUSGEZOGEN
 62
    18
420
        0
370
    25
100
AcDbLine
 10
-577.586391205534
 20
-1553.158454970019
 30
0.0
 11
-564.017866014471
 21
-1539.589929778956
 31
0.0
  0
LINE
  5
C8
330
BE
100
AcDbEntity
  8
Layer4
  6
AUSGEZOGEN
 62
    18
420
        0
370
    25
100
AcDbLine
 10
-582.923063612747
 20
-1536.044487074559
 30
0.0
 11
-566.635007313992
 21
-1519.756430775804
 31
0.0
  0
LINE
  5
C9
330
BE
100
AcDbEntity
  8
Layer4
  6
AUSGEZOGEN
 62
    18
420
        0
370
    25
100
AcDbLine
 10
-585.058298738029
 20
-1515.729081897168
 30
0.0
 11
-568.770242439275
 21
-1499.441025598414
 31
0.0
  0
LINE
  5
CA
330
BE
100
AcDbEntity
  8
Layer4
  6
AUSGEZOGEN
 62
    18
420
        0
370
    25
100
AcDbLine
 10
-587.193533863311
 20
-1495.413676719778
 30
0.0
 11
-570.905477564557
 21
-1479.125620421023
 31
0.0
  0
LINE
  5
CB
330
BE
100
AcDbEntity
  8
Layer4
  6
AUSGEZOGEN
 62
    18
420
        0
370
    25
100
AcDbLine
 10
-589.328768988593
 20
-1475.098271542387
 30
0.0
 11
-573.040712689838
 21
-1458.810215243632
 31
0.0
  0
LINE
  5
CC
330
BE
100
AcDbEntity
  8
Layer4
  6
AUSGEZOGEN
 62
    18
420
        0
370
    25
100
AcDbLine
 10
-591.464004113875
 20
-1454.782866364996
 30
0.0
 11
-575.17594781512
 21
-1438.494810066241
 31
0.0
  0
LINE
  5
CD
330
BE
100
AcDbEntity
  8
Layer4
  6
AUSGEZOGEN
 62
    18
420
        0
370
    25
100
AcDbLine
 10
-593.599239239157
 20
-1434.467461187605
 30
0.0
 11
-577.311182940403
 21
-1418.17940488885
 31
0.0
  0
LINE
  5
CE
330
BE
100
AcDbEntity
  8
Layer4
  6
AUSGEZOGEN
 62
    18
420
        0
370
    25
100
AcDbLine
 10
-595.734474364439
 20
-1414.152056010214
 30
0.0
 11
-579.446418065685
 21
-1397.86399971146
 31
0.0
  0
LINE
  5
CF
330
BE
100
AcDbEntity
  8
Layer4
  6
AUSGEZOGEN
 62
    18
420
        0
370
    25
100
AcDbLine
 10
-598.74401247082
 20
-1394.710953813922
 30
0.0
 11
-581.868830420129
 21
-1377.835771763231
 31
0.0
  0
LINE
  5
D0
330
BE
100
AcDbEntity
  8
Layer4
  6
AUSGEZOGEN
 62
    18
420
        0
370
    25
100
AcDbLine
 10
-609.547858974456
 20
-1383.064160014886
 30
0.0
 11
-601.547858974456
 21
-1375.064160014886
 31
0.0
  0
ENDBLK
  5
C0
330
BE
100
AcDbEntity
  8
0
100
AcDbBlockEnd
  0
BLOCK
  5
12D
330
12C
100
AcDbEntity
  8
0
100
AcDbBlockBegin
  2
AnonymMegaMac_nNn06
 70
     0
 10
0.0
 20
0.0
 30
0.0
  3
AnonymMegaMac_nNn06
  1

  0
LINE
  5
12F
330
12C
100
AcDbEntity
  8
Layer4
  6
AUSGEZOGEN
 62
    18
420
        0
370
    25
100
AcDbLine
 10
-780.650750755705
 20
-1413.064160014886
 30
0.0
 11
-782.393180717313
 21
-1411.321730053278
 31
0.0
  0
LINE
  5
130
330
12C
100
AcDbEntity
  8
Layer4
  6
AUSGEZOGEN
 62
    18
420
        0
370
    25
100
AcDbLine
 10
-738.224343884512
 20
-1413.064160014886
 30
0.0
 11
-742.687778669064
 21
-1408.600725230334
 31
0.0
  0
LINE
  5
131
330
12C
100
AcDbEntity
  8
Layer4
  6
AUSGEZOGEN
 62
    18
420
        0
370
    25
100
AcDbLine
 10
-749.758846480929
 20
-1401.529657418469
 30
0.0
 11
-768.224343884512
 21
-1383.064160014886
 31
0.0
  0
LINE
  5
132
330
12C
100
AcDbEntity
  8
Layer4
  6
AUSGEZOGEN
 62
    18
420
        0
370
    25
100
AcDbLine
 10
-695.797937013319
 20
-1413.064160014886
 30
0.0
 11
-721.474575233467
 21
-1387.387521794738
 31
0.0
  0
LINE
  5
133
330
12C
100
AcDbEntity
  8
Layer4
  6
AUSGEZOGEN
 62
    18
420
        0
370
    25
100
AcDbLine
 10
-653.371530142126
 20
-1413.064160014886
 30
0.0
 11
-657.834964926678
 21
-1408.600725230334
 31
0.0
  0
LINE
  5
134
330
12C
100
AcDbEntity
  8
Layer4
  6
AUSGEZOGEN
 62
    18
420
        0
370
    25
100
AcDbLine
 10
-664.906032738543
 20
-1401.529657418469
 30
0.0
 11
-683.371530142126
 21
-1383.064160014886
 31
0.0
  0
LINE
  5
135
330
12C
100
AcDbEntity
  8
Layer4
  6
AUSGEZOGEN
 62
    18
420
        0
370
    25
100
AcDbLine
 10
-610.945123270934
 20
-1413.064160014886
 30
0.0
 11
-636.621761491082
 21
-1387.387521794738
 31
0.0
  0
LINE
  5
136
330
12C
100
AcDbEntity
  8
Layer4
  6
AUSGEZOGEN
 62
    18
420
        0
370
    25
100
AcDbLine
 10
237.583014152924
 20
-1413.064160014886
 30
0.0
 11
223.157222218827
 21
-1398.638368080789
 31
0.0
  0
LINE
  5
137
330
12C
100
AcDbEntity
  8
Layer4
  6
AUSGEZOGEN
 62
    18
420
        0
370
    25
100
AcDbLine
 10
280.009421024117
 20
-1413.064160014886
 30
0.0
 11
275.545986239566
 21
-1408.600725230334
 31
0.0
  0
LINE
  5
138
330
12C
100
AcDbEntity
  8
Layer4
  6
AUSGEZOGEN
 62
    18
420
        0
370
    25
100
AcDbLine
 10
268.474918427701
 20
-1401.529657418469
 30
0.0
 11
250.009421024117
 21
-1383.064160014886
 31
0.0
  0
LINE
  5
139
330
12C
100
AcDbEntity
  8
Layer4
  6
AUSGEZOGEN
 62
    18
420
        0
370
    25
100
AcDbLine
 10
322.43582789531
 20
-1413.064160014886
 30
0.0
 11
296.759189675162
 21
-1387.387521794738
 31
0.0
  0
LINE
  5
13A
330
12C
100
AcDbEntity
  8
Layer4
  6
AUSGEZOGEN
 62
    18
420
        0
370
    25
100
AcDbLine
 10
364.862234766503
 20
-1413.064160014886
 30
0.0
 11
360.398799981951
 21
-1408.600725230334
 31
0.0
  0
LINE
  5
13B
330
12C
100
AcDbEntity
  8
Layer4
  6
AUSGEZOGEN
 62
    18
420
        0
370
    25
100
AcDbLine
 10
353.327732170085
 20
-1401.529657418469
 30
0.0
 11
334.862234766502
 21
-1383.064160014886
 31
0.0
  0
LINE
  5
13C
330
12C
100
AcDbEntity
  8
Layer4
  6
AUSGEZOGEN
 62
    18
420
        0
370
    25
100
AcDbLine
 10
397.92951083012
 20
-1403.705029207311
 30
0.0
 11
381.612003417546
 21
-1387.387521794738
 31
0.0
  0
LINE
  5
13D
330
12C
100
AcDbEntity
  8
Layer4
  6
AUSGEZOGEN
 62
    18
420
        0
370
    25
100
AcDbLine
 10
-766.508615131974
 20
-1413.064160014886
 30
0.0
 11
-778.043117728392
 21
-1401.529657418469
 31
0.0
  0
LINE
  5
13E
330
12C
100
AcDbEntity
  8
Layer4
  6
AUSGEZOGEN
 62
    18
420
        0
370
    25
100
AcDbLine
 10
-783.346418587291
 20
-1396.22635655957
 30
0.0
 11
-783.743991975181
 21
-1395.828783171679
 31
0.0
  0
LINE
  5
13F
330
12C
100
AcDbEntity
  8
Layer4
  6
AUSGEZOGEN
 62
    18
420
        0
370
    25
100
AcDbLine
 10
-724.082208260781
 20
-1413.064160014886
 30
0.0
 11
-730.313409998299
 21
-1406.832958277368
 31
0.0
  0
LINE
  5
140
330
12C
100
AcDbEntity
  8
Layer4
  6
AUSGEZOGEN
 62
    18
420
        0
370
    25
100
AcDbLine
 10
-735.616710857198
 20
-1401.529657418469
 30
0.0
 11
-754.082208260781
 21
-1383.064160014886
 31
0.0
  0
LINE
  5
141
330
12C
100
AcDbEntity
  8
Layer4
  6
AUSGEZOGEN
 62
    18
420
        0
370
    25
100
AcDbLine
 10
-681.655801389589
 20
-1413.064160014885
 30
0.0
 11
-693.190303986006
 21
-1401.529657418468
 31
0.0
  0
LINE
  5
142
330
12C
100
AcDbEntity
  8
Layer4
  6
AUSGEZOGEN
 62
    18
420
        0
370
    25
100
AcDbLine
 10
-698.493604844905
 20
-1396.226356559569
 30
0.0
 11
-709.100206562703
 21
-1385.619754841771
 31
0.0
  0
LINE
  5
143
330
12C
100
AcDbEntity
  8
Layer4
  6
AUSGEZOGEN
 62
    18
420
        0
370
    25
100
AcDbLine
 10
-639.229394518395
 20
-1413.064160014885
 30
0.0
 11
-645.460596255913
 21
-1406.832958277368
 31
0.0
  0
LINE
  5
144
330
12C
100
AcDbEntity
  8
Layer4
  6
AUSGEZOGEN
 62
    18
420
        0
370
    25
100
AcDbLine
 10
-650.763897114812
 20
-1401.529657418468
 30
0.0
 11
-669.229394518395
 21
-1383.064160014886
 31
0.0
  0
LINE
  5
145
330
12C
100
AcDbEntity
  8
Layer4
  6
AUSGEZOGEN
 62
    18
420
        0
370
    25
100
AcDbLine
 10
-606.842777781173
 20
-1403.024369880915
 30
0.0
 11
-608.33749024362
 21
-1401.529657418469
 31
0.0
  0
LINE
  5
146
330
12C
100
AcDbEntity
  8
Layer4
  6
AUSGEZOGEN
 62
    18
420
        0
370
    25
100
AcDbLine
 10
-613.640791102519
 20
-1396.22635655957
 30
0.0
 11
-624.247392820317
 21
-1385.619754841771
 31
0.0
  0
LINE
  5
147
330
12C
100
AcDbEntity
  8
Layer4
  6
AUSGEZOGEN
 62
    18
420
        0
370
    25
100
AcDbLine
 10
251.725149776655
 20
-1413.064160014886
 30
0.0
 11
240.190647180238
 21
-1401.529657418469
 31
0.0
  0
LINE
  5
148
330
12C
100
AcDbEntity
  8
Layer4
  6
AUSGEZOGEN
 62
    18
420
        0
370
    25
100
AcDbLine
 10
234.887346321339
 20
-1396.22635655957
 30
0.0
 11
224.28074460354
 21
-1385.619754841771
 31
0.0
  0
LINE
  5
149
330
12C
100
AcDbEntity
  8
Layer4
  6
AUSGEZOGEN
 62
    18
420
        0
370
    25
100
AcDbLine
 10
294.151556647847
 20
-1413.064160014886
 30
0.0
 11
287.920354910329
 21
-1406.832958277368
 31
0.0
  0
LINE
  5
14A
330
12C
100
AcDbEntity
  8
Layer4
  6
AUSGEZOGEN
 62
    18
420
        0
370
    25
100
AcDbLine
 10
282.61705405143
 20
-1401.529657418469
 30
0.0
 11
264.151556647847
 21
-1383.064160014886
 31
0.0
  0
LINE
  5
14B
330
12C
100
AcDbEntity
  8
Layer4
  6
AUSGEZOGEN
 62
    18
420
        0
370
    25
100
AcDbLine
 10
336.57796351904
 20
-1413.064160014887
 30
0.0
 11
325.043460922623
 21
-1401.529657418469
 31
0.0
  0
LINE
  5
14C
330
12C
100
AcDbEntity
  8
Layer4
  6
AUSGEZOGEN
 62
    18
420
        0
370
    25
100
AcDbLine
 10
319.740160063724
 20
-1396.22635655957
 30
0.0
 11
309.133558345926
 21
-1385.619754841772
 31
0.0
  0
LINE
  5
14D
330
12C
100
AcDbEntity
  8
Layer4
  6
AUSGEZOGEN
 62
    18
420
        0
370
    25
100
AcDbLine
 10
379.004370390234
 20
-1413.064160014886
 30
0.0
 11
372.773168652716
 21
-1406.832958277368
 31
0.0
  0
LINE
  5
14E
330
12C
100
AcDbEntity
  8
Layer4
  6
AUSGEZOGEN
 62
    18
420
        0
370
    25
100
AcDbLine
 10
367.469867793818
 20
-1401.529657418469
 30
0.0
 11
349.004370390233
 21
-1383.064160014885
 31
0.0
  0
LINE
  5
14F
330
12C
100
AcDbEntity
  8
Layer4
  6
AUSGEZOGEN
 62
    18
420
        0
370
    25
100
AcDbLine
 10
400.96231394697
 20
-1392.595696700429
 30
0.0
 11
393.986372088311
 21
-1385.619754841771
 31
0.0
  0
LINE
  5
150
330
12C
100
AcDbEntity
  8
Layer4
  6
AUSGEZOGEN
 62
    18
420
        0
370
    25
100
AcDbLine
 10
-752.366479508243
 20
-1413.064160014886
 30
0.0
 11
-774.507583822459
 21
-1390.923055700671
 31
0.0
  0
LINE
  5
151
330
12C
100
AcDbEntity
  8
Layer4
  6
AUSGEZOGEN
 62
    18
420
        0
370
    25
100
AcDbLine
 10
-781.578651634324
 20
-1383.851987888805
 30
0.0
 11
-782.366479508243
 21
-1383.064160014886
 31
0.0
  0
LINE
  5
152
330
12C
100
AcDbEntity
  8
Layer4
  6
AUSGEZOGEN
 62
    18
420
        0
370
    25
100
AcDbLine
 10
-709.940072637051
 20
-1413.064160014886
 30
0.0
 11
-710.867973515669
 21
-1412.136259136267
 31
0.0
  0
LINE
  5
153
330
12C
100
AcDbEntity
  8
Layer4
  6
AUSGEZOGEN
 62
    18
420
        0
370
    25
100
AcDbLine
 10
-717.939041327534
 20
-1405.065191324402
 30
0.0
 11
-739.940072637051
 21
-1383.064160014886
 31
0.0
  0
LINE
  5
154
330
12C
100
AcDbEntity
  8
Layer4
  6
AUSGEZOGEN
 62
    18
420
        0
370
    25
100
AcDbLine
 10
-667.513665765858
 20
-1413.064160014886
 30
0.0
 11
-689.654770080073
 21
-1390.923055700671
 31
0.0
  0
LINE
  5
155
330
12C
100
AcDbEntity
  8
Layer4
  6
AUSGEZOGEN
 62
    18
420
        0
370
    25
100
AcDbLine
 10
-696.725837891938
 20
-1383.851987888805
 30
0.0
 11
-697.513665765858
 21
-1383.064160014886
 31
0.0
  0
LINE
  5
156
330
12C
100
AcDbEntity
  8
Layer4
  6
AUSGEZOGEN
 62
    18
420
        0
370
    25
100
AcDbLine
 10
-625.087258894665
 20
-1413.064160014886
 30
0.0
 11
-626.015159773284
 21
-1412.136259136267
 31
0.0
  0
LINE
  5
157
330
12C
100
AcDbEntity
  8
Layer4
  6
AUSGEZOGEN
 62
    18
420
        0
370
    25
100
AcDbLine
 10
-633.086227585149
 20
-1405.065191324402
 30
0.0
 11
-655.087258894665
 21
-1383.064160014886
 31
0.0
  0
LINE
  5
158
330
12C
100
AcDbEntity
  8
Layer4
  6
AUSGEZOGEN
 62
    18
420
        0
370
    25
100
AcDbLine
 10
-611.873024149553
 20
-1383.851987888806
 30
0.0
 11
-612.660852023472
 21
-1383.064160014886
 31
0.0
  0
LINE
  5
159
330
12C
100
AcDbEntity
  8
Layer4
  6
AUSGEZOGEN
 62
    18
420
        0
370
    25
100
AcDbLine
 10
223.440878529193
 20
-1413.064160014886
 30
0.0
 11
223.157222218827
 21
-1412.78050370452
 31
0.0
  0
LINE
  5
15A
330
12C
100
AcDbEntity
  8
Layer4
  6
AUSGEZOGEN
 62
    18
420
        0
370
    25
100
AcDbLine
 10
265.867285400386
 20
-1413.064160014886
 30
0.0
 11
243.72618108617
 21
-1390.92305570067
 31
0.0
  0
LINE
  5
15B
330
12C
100
AcDbEntity
  8
Layer4
  6
AUSGEZOGEN
 62
    18
420
        0
370
    25
100
AcDbLine
 10
236.655113274304
 20
-1383.851987888804
 30
0.0
 11
235.867285400386
 21
-1383.064160014886
 31
0.0
  0
LINE
  5
15C
330
12C
100
AcDbEntity
  8
Layer4
  6
AUSGEZOGEN
 62
    18
420
        0
370
    25
100
AcDbLine
 10
308.293692271579
 20
-1413.064160014886
 30
0.0
 11
307.36579139296
 21
-1412.136259136267
 31
0.0
  0
LINE
  5
15D
330
12C
100
AcDbEntity
  8
Layer4
  6
AUSGEZOGEN
 62
    18
420
        0
370
    25
100
AcDbLine
 10
300.294723581094
 20
-1405.065191324401
 30
0.0
 11
278.293692271579
 21
-1383.064160014886
 31
0.0
  0
LINE
  5
15E
330
12C
100
AcDbEntity
  8
Layer4
  6
AUSGEZOGEN
 62
    18
420
        0
370
    25
100
AcDbLine
 10
350.720099142772
 20
-1413.064160014886
 30
0.0
 11
328.578994828556
 21
-1390.92305570067
 31
0.0
  0
LINE
  5
15F
330
12C
100
AcDbEntity
  8
Layer4
  6
AUSGEZOGEN
 62
    18
420
        0
370
    25
100
AcDbLine
 10
321.50792701669
 20
-1383.851987888805
 30
0.0
 11
320.720099142772
 21
-1383.064160014886
 31
0.0
  0
LINE
  5
160
330
12C
100
AcDbEntity
  8
Layer4
  6
AUSGEZOGEN
 62
    18
420
        0
370
    25
100
AcDbLine
 10
393.146506013964
 20
-1413.064160014886
 30
0.0
 11
392.218605135346
 21
-1412.136259136267
 31
0.0
  0
LINE
  5
161
330
12C
100
AcDbEntity
  8
Layer4
  6
AUSGEZOGEN
 62
    18
420
        0
370
    25
100
AcDbLine
 10
385.14753732348
 20
-1405.065191324402
 30
0.0
 11
363.146506013964
 21
-1383.064160014885
 31
0.0
  0
ENDBLK
  5
12E
330
12C
100
AcDbEntity
  8
0
100
AcDbBlockEnd
  0
BLOCK
  5
1A1
330
1A0
100
AcDbEntity
  8
0
100
AcDbBlockBegin
  2
AnonymMegaMac_nNn07
 70
     0
 10
0.0
 20
0.0
 30
0.0
  3
AnonymMegaMac_nNn07
  1

  0
LINE
  5
1A3
330
1A0
100
AcDbEntity
  8
Layer4
  6
AUSGEZOGEN
 62
    18
420
        0
370
    25
100
AcDbLine
 10
211.12583222444
 20
-1393.064160014885
 30
0.0
 11
229.12583222444
 21
-1375.064160014886
 31
0.0
  0
LINE
  5
1A4
330
1A0
100
AcDbEntity
  8
Layer4
  6
AUSGEZOGEN
 62
    18
420
        0
370
    25
100
AcDbLine
 10
188.383826743368
 20
-1393.355525193286
 30
0.0
 11
206.675191921768
 21
-1375.064160014886
 31
0.0
  0
LINE
  5
1A5
330
1A0
100
AcDbEntity
  8
Layer4
  6
AUSGEZOGEN
 62
    18
420
        0
370
    25
100
AcDbLine
 10
165.252576961139
 20
-1394.036134672841
 30
0.0
 11
183.806287972594
 21
-1375.482423661387
 31
0.0
  0
LINE
  5
1A6
330
1A0
100
AcDbEntity
  8
Layer4
  6
AUSGEZOGEN
 62
    18
420
        0
370
    25
100
AcDbLine
 10
142.121327178911
 20
-1394.716744152396
 30
0.0
 11
160.675038190367
 21
-1376.163033140942
 31
0.0
  0
LINE
  5
1A7
330
1A0
100
AcDbEntity
  8
Layer4
  6
AUSGEZOGEN
 62
    18
420
        0
370
    25
100
AcDbLine
 10
118.990077396685
 20
-1395.397353631951
 30
0.0
 11
137.543788408138
 21
-1376.843642620497
 31
0.0
  0
LINE
  5
1A8
330
1A0
100
AcDbEntity
  8
Layer4
  6
AUSGEZOGEN
 62
    18
420
        0
370
    25
100
AcDbLine
 10
95.858827614456
 20
-1396.077963111506
 30
0.0
 11
114.41253862591
 21
-1377.524252100052
 31
0.0
  0
LINE
  5
1A9
330
1A0
100
AcDbEntity
  8
Layer4
  6
AUSGEZOGEN
 62
    18
420
        0
370
    25
100
AcDbLine
 10
72.727577832227
 20
-1396.758572591061
 30
0.0
 11
91.281288843682
 21
-1378.204861579607
 31
0.0
  0
LINE
  5
1AA
330
1A0
100
AcDbEntity
  8
Layer4
  6
AUSGEZOGEN
 62
    18
420
        0
370
    25
100
AcDbLine
 10
49.59632805
 20
-1397.439182070616
 30
0.0
 11
68.150039061455
 21
-1378.885471059162
 31
0.0
  0
LINE
  5
1AB
330
1A0
100
AcDbEntity
  8
Layer4
  6
AUSGEZOGEN
 62
    18
420
        0
370
    25
100
AcDbLine
 10
26.465078267772
 20
-1398.119791550171
 30
0.0
 11
45.018789279226
 21
-1379.566080538717
 31
0.0
  0
LINE
  5
1AC
330
1A0
100
AcDbEntity
  8
Layer4
  6
AUSGEZOGEN
 62
    18
420
        0
370
    25
100
AcDbLine
 10
3.333828485544
 20
-1398.800401029727
 30
0.0
 11
21.887539496997
 21
-1380.246690018272
 31
0.0
  0
LINE
  5
1AD
330
1A0
100
AcDbEntity
  8
Layer4
  6
AUSGEZOGEN
 62
    18
420
        0
370
    25
100
AcDbLine
 10
-19.797421296685
 20
-1399.481010509282
 30
0.0
 11
-1.24371028523
 21
-1380.927299497828
 31
0.0
  0
LINE
  5
1AE
330
1A0
100
AcDbEntity
  8
Layer4
  6
AUSGEZOGEN
 62
    18
420
        0
370
    25
100
AcDbLine
 10
-42.928671078912
 20
-1400.161619988837
 30
0.0
 11
-24.374960067457
 21
-1381.607908977383
 31
0.0
  0
LINE
  5
1AF
330
1A0
100
AcDbEntity
  8
Layer4
  6
AUSGEZOGEN
 62
    18
420
        0
370
    25
100
AcDbLine
 10
-66.05992086114
 20
-1400.842229468392
 30
0.0
 11
-47.506209849686
 21
-1382.288518456938
 31
0.0
  0
LINE
  5
1B0
330
1A0
100
AcDbEntity
  8
Layer4
  6
AUSGEZOGEN
 62
    18
420
        0
370
    25
100
AcDbLine
 10
-89.191170643368
 20
-1401.522838947947
 30
0.0
 11
-70.637459631915
 21
-1382.969127936493
 31
0.0
  0
LINE
  5
1B1
330
1A0
100
AcDbEntity
  8
Layer4
  6
AUSGEZOGEN
 62
    18
420
        0
370
    25
100
AcDbLine
 10
-112.322420425596
 20
-1402.203448427502
 30
0.0
 11
-93.768709414143
 21
-1383.649737416048
 31
0.0
  0
LINE
  5
1B2
330
1A0
100
AcDbEntity
  8
Layer4
  6
AUSGEZOGEN
 62
    18
420
        0
370
    25
100
AcDbLine
 10
-135.453670207824
 20
-1402.884057907057
 30
0.0
 11
-116.899959196369
 21
-1384.330346895603
 31
0.0
  0
LINE
  5
1B3
330
1A0
100
AcDbEntity
  8
Layer4
  6
AUSGEZOGEN
 62
    18
420
        0
370
    25
100
AcDbLine
 10
-172.084412618326
 20
-1417.064160014885
 30
0.0
 11
-140.031208978598
 21
-1385.010956375158
 31
0.0
  0
ENDBLK
  5
1A2
330
1A0
100
AcDbEntity
  8
0
100
AcDbBlockEnd
  0
BLOCK
  5
1B7
330
1B6
100
AcDbEntity
  8
0
100
AcDbBlockBegin
  2
AnonymMegaMac_nNn08
 70
     0
 10
0.0
 20
0.0
 30
0.0
  3
AnonymMegaMac_nNn08
  1

  0
LINE
  5
1B9
330
1B6
100
AcDbEntity
  8
Layer4
  6
AUSGEZOGEN
 62
    18
420
        0
370
    25
100
AcDbLine
 10
-128.0713803115
 20
-1702.871099138712
 30
0.0
 11
-123.842777781172
 21
-1698.642496608384
 31
0.0
  0
LINE
  5
1BA
330
1B6
100
AcDbEntity
  8
Layer4
  6
AUSGEZOGEN
 62
    18
420
        0
370
    25
100
AcDbLine
 10
-129.654483651575
 20
-1682.901587788221
 30
0.0
 11
-123.842777781172
 21
-1677.089881917819
 31
0.0
  0
LINE
  5
1BB
330
1B6
100
AcDbEntity
  8
Layer4
  6
AUSGEZOGEN
 62
    18
420
        0
370
    25
100
AcDbLine
 10
-129.654483651574
 20
-1661.348973097654
 30
0.0
 11
-123.842777781172
 21
-1655.537267227252
 31
0.0
  0
LINE
  5
1BC
330
1B6
100
AcDbEntity
  8
Layer4
  6
AUSGEZOGEN
 62
    18
420
        0
370
    25
100
AcDbLine
 10
-129.654483651575
 20
-1639.79635840709
 30
0.0
 11
-123.842777781172
 21
-1633.984652536687
 31
0.0
  0
LINE
  5
1BD
330
1B6
100
AcDbEntity
  8
Layer4
  6
AUSGEZOGEN
 62
    18
420
        0
370
    25
100
AcDbLine
 10
-129.654483651574
 20
-1618.243743716522
 30
0.0
 11
-123.842777781172
 21
-1612.43203784612
 31
0.0
  0
LINE
  5
1BE
330
1B6
100
AcDbEntity
  8
Layer4
  6
AUSGEZOGEN
 62
    18
420
        0
370
    25
100
AcDbLine
 10
-129.654483651574
 20
-1596.691129025956
 30
0.0
 11
-123.842777781172
 21
-1590.879423155554
 31
0.0
  0
LINE
  5
1BF
330
1B6
100
AcDbEntity
  8
Layer4
  6
AUSGEZOGEN
 62
    18
420
        0
370
    25
100
AcDbLine
 10
-129.654483651575
 20
-1575.138514335391
 30
0.0
 11
-123.842777781172
 21
-1569.326808464988
 31
0.0
  0
LINE
  5
1C0
330
1B6
100
AcDbEntity
  8
Layer4
  6
AUSGEZOGEN
 62
    18
420
        0
370
    25
100
AcDbLine
 10
-129.654483651575
 20
-1553.585899644825
 30
0.0
 11
-123.842777781172
 21
-1547.774193774423
 31
0.0
  0
LINE
  5
1C1
330
1B6
100
AcDbEntity
  8
Layer4
  6
AUSGEZOGEN
 62
    18
420
        0
370
    25
100
AcDbLine
 10
-129.654483651575
 20
-1532.033284954259
 30
0.0
 11
-123.842777781172
 21
-1526.221579083857
 31
0.0
  0
LINE
  5
1C2
330
1B6
100
AcDbEntity
  8
Layer4
  6
AUSGEZOGEN
 62
    18
420
        0
370
    25
100
AcDbLine
 10
-129.654483651575
 20
-1510.480670263693
 30
0.0
 11
-123.842777781172
 21
-1504.668964393291
 31
0.0
  0
LINE
  5
1C3
330
1B6
100
AcDbEntity
  8
Layer4
  6
AUSGEZOGEN
 62
    18
420
        0
370
    25
100
AcDbLine
 10
-129.654483651574
 20
-1488.928055573126
 30
0.0
 11
-123.842777781172
 21
-1483.116349702724
 31
0.0
  0
LINE
  5
1C4
330
1B6
100
AcDbEntity
  8
Layer4
  6
AUSGEZOGEN
 62
    18
420
        0
370
    25
100
AcDbLine
 10
-129.654483651574
 20
-1467.37544088256
 30
0.0
 11
-123.842777781173
 21
-1461.563735012159
 31
0.0
  0
LINE
  5
1C5
330
1B6
100
AcDbEntity
  8
Layer4
  6
AUSGEZOGEN
 62
    18
420
        0
370
    25
100
AcDbLine
 10
-129.654483651575
 20
-1445.822826191995
 30
0.0
 11
-123.842777781172
 21
-1440.011120321592
 31
0.0
  0
LINE
  5
1C6
330
1B6
100
AcDbEntity
  8
Layer4
  6
AUSGEZOGEN
 62
    18
420
        0
370
    25
100
AcDbLine
 10
-129.654483651574
 20
-1424.270211501429
 30
0.0
 11
-123.842777781172
 21
-1418.458505631027
 31
0.0
  0
LINE
  5
1C7
330
1B6
100
AcDbEntity
  8
Layer4
  6
AUSGEZOGEN
 62
    18
420
        0
370
    25
100
AcDbLine
 10
-623.842777781172
 20
-1702.932358725368
 30
0.0
 11
-614.588314189309
 21
-1693.677895133503
 31
0.0
  0
LINE
  5
1C8
330
1B6
100
AcDbEntity
  8
Layer4
  6
AUSGEZOGEN
 62
    18
420
        0
370
    25
100
AcDbLine
 10
-623.842777781173
 20
-1681.379744034802
 30
0.0
 11
-614.588314189309
 21
-1672.125280442938
 31
0.0
  0
LINE
  5
1C9
330
1B6
100
AcDbEntity
  8
Layer4
  6
AUSGEZOGEN
 62
    18
420
        0
370
    25
100
AcDbLine
 10
-623.842777781172
 20
-1659.827129344235
 30
0.0
 11
-614.588314189309
 21
-1650.572665752372
 31
0.0
  0
LINE
  5
1CA
330
1B6
100
AcDbEntity
  8
Layer4
  6
AUSGEZOGEN
 62
    18
420
        0
370
    25
100
AcDbLine
 10
-623.842777781173
 20
-1638.274514653669
 30
0.0
 11
-614.588314189309
 21
-1629.020051061805
 31
0.0
  0
LINE
  5
1CB
330
1B6
100
AcDbEntity
  8
Layer4
  6
AUSGEZOGEN
 62
    18
420
        0
370
    25
100
AcDbLine
 10
-623.842777781173
 20
-1616.721899963103
 30
0.0
 11
-614.588314189309
 21
-1607.467436371239
 31
0.0
  0
LINE
  5
1CC
330
1B6
100
AcDbEntity
  8
Layer4
  6
AUSGEZOGEN
 62
    18
420
        0
370
    25
100
AcDbLine
 10
-623.842777781173
 20
-1595.169285272537
 30
0.0
 11
-614.588314189309
 21
-1585.914821680673
 31
0.0
  0
LINE
  5
1CD
330
1B6
100
AcDbEntity
  8
Layer4
  6
AUSGEZOGEN
 62
    18
420
        0
370
    25
100
AcDbLine
 10
-623.842777781173
 20
-1573.616670581972
 30
0.0
 11
-614.588314189309
 21
-1564.362206990107
 31
0.0
  0
LINE
  5
1CE
330
1B6
100
AcDbEntity
  8
Layer4
  6
AUSGEZOGEN
 62
    18
420
        0
370
    25
100
AcDbLine
 10
-623.842777781173
 20
-1552.064055891405
 30
0.0
 11
-614.588314189309
 21
-1542.809592299541
 31
0.0
  0
LINE
  5
1CF
330
1B6
100
AcDbEntity
  8
Layer4
  6
AUSGEZOGEN
 62
    18
420
        0
370
    25
100
AcDbLine
 10
-623.842777781172
 20
-1530.511441200839
 30
0.0
 11
-614.588314189309
 21
-1521.256977608976
 31
0.0
  0
LINE
  5
1D0
330
1B6
100
AcDbEntity
  8
Layer4
  6
AUSGEZOGEN
 62
    18
420
        0
370
    25
100
AcDbLine
 10
-623.842777781173
 20
-1508.958826510274
 30
0.0
 11
-614.588314189309
 21
-1499.70436291841
 31
0.0
  0
LINE
  5
1D1
330
1B6
100
AcDbEntity
  8
Layer4
  6
AUSGEZOGEN
 62
    18
420
        0
370
    25
100
AcDbLine
 10
-623.842777781173
 20
-1487.406211819707
 30
0.0
 11
-614.588314189309
 21
-1478.151748227843
 31
0.0
  0
LINE
  5
1D2
330
1B6
100
AcDbEntity
  8
Layer4
  6
AUSGEZOGEN
 62
    18
420
        0
370
    25
100
AcDbLine
 10
-623.842777781172
 20
-1465.853597129142
 30
0.0
 11
-614.588314189309
 21
-1456.599133537278
 31
0.0
  0
LINE
  5
1D3
330
1B6
100
AcDbEntity
  8
Layer4
  6
AUSGEZOGEN
 62
    18
420
        0
370
    25
100
AcDbLine
 10
-623.842777781173
 20
-1444.300982438575
 30
0.0
 11
-614.588314189309
 21
-1435.046518846711
 31
0.0
  0
LINE
  5
1D4
330
1B6
100
AcDbEntity
  8
Layer4
  6
AUSGEZOGEN
 62
    18
420
        0
370
    25
100
AcDbLine
 10
-623.842777781173
 20
-1422.74836774801
 30
0.0
 11
-614.588314189309
 21
-1413.493904156146
 31
0.0
  0
LINE
  5
1D5
330
1B6
100
AcDbEntity
  8
Layer4
  6
AUSGEZOGEN
 62
    18
420
        0
370
    25
100
AcDbLine
 10
-616.714248444196
 20
-1713.104590259748
 30
0.0
 11
-623.842777781173
 21
-1705.97606092277
 31
0.0
  0
LINE
  5
1D6
330
1B6
100
AcDbEntity
  8
Layer4
  6
AUSGEZOGEN
 62
    18
420
        0
370
    25
100
AcDbLine
 10
-607.842777781173
 20
-1700.423446232204
 30
0.0
 11
-623.842777781174
 21
-1684.423446232204
 31
0.0
  0
LINE
  5
1D7
330
1B6
100
AcDbEntity
  8
Layer4
  6
AUSGEZOGEN
 62
    18
420
        0
370
    25
100
AcDbLine
 10
-607.842777781173
 20
-1678.870831541638
 30
0.0
 11
-623.842777781173
 21
-1662.870831541638
 31
0.0
  0
LINE
  5
1D8
330
1B6
100
AcDbEntity
  8
Layer4
  6
AUSGEZOGEN
 62
    18
420
        0
370
    25
100
AcDbLine
 10
-607.842777781174
 20
-1657.318216851073
 30
0.0
 11
-623.842777781174
 21
-1641.318216851072
 31
0.0
  0
LINE
  5
1D9
330
1B6
100
AcDbEntity
  8
Layer4
  6
AUSGEZOGEN
 62
    18
420
        0
370
    25
100
AcDbLine
 10
-607.842777781173
 20
-1635.765602160506
 30
0.0
 11
-623.842777781174
 21
-1619.765602160506
 31
0.0
  0
LINE
  5
1DA
330
1B6
100
AcDbEntity
  8
Layer4
  6
AUSGEZOGEN
 62
    18
420
        0
370
    25
100
AcDbLine
 10
-607.842777781173
 20
-1614.21298746994
 30
0.0
 11
-623.842777781173
 21
-1598.21298746994
 31
0.0
  0
LINE
  5
1DB
330
1B6
100
AcDbEntity
  8
Layer4
  6
AUSGEZOGEN
 62
    18
420
        0
370
    25
100
AcDbLine
 10
-607.842777781174
 20
-1592.660372779374
 30
0.0
 11
-623.842777781174
 21
-1576.660372779374
 31
0.0
  0
LINE
  5
1DC
330
1B6
100
AcDbEntity
  8
Layer4
  6
AUSGEZOGEN
 62
    18
420
        0
370
    25
100
AcDbLine
 10
-607.842777781173
 20
-1571.107758088808
 30
0.0
 11
-623.842777781173
 21
-1555.107758088808
 31
0.0
  0
LINE
  5
1DD
330
1B6
100
AcDbEntity
  8
Layer4
  6
AUSGEZOGEN
 62
    18
420
        0
370
    25
100
AcDbLine
 10
-607.842777781173
 20
-1549.555143398242
 30
0.0
 11
-623.842777781173
 21
-1533.555143398242
 31
0.0
  0
LINE
  5
1DE
330
1B6
100
AcDbEntity
  8
Layer4
  6
AUSGEZOGEN
 62
    18
420
        0
370
    25
100
AcDbLine
 10
-607.842777781173
 20
-1528.002528707676
 30
0.0
 11
-623.842777781173
 21
-1512.002528707676
 31
0.0
  0
LINE
  5
1DF
330
1B6
100
AcDbEntity
  8
Layer4
  6
AUSGEZOGEN
 62
    18
420
        0
370
    25
100
AcDbLine
 10
-607.842777781173
 20
-1506.44991401711
 30
0.0
 11
-623.842777781173
 21
-1490.44991401711
 31
0.0
  0
LINE
  5
1E0
330
1B6
100
AcDbEntity
  8
Layer4
  6
AUSGEZOGEN
 62
    18
420
        0
370
    25
100
AcDbLine
 10
-607.842777781174
 20
-1484.897299326544
 30
0.0
 11
-623.842777781174
 21
-1468.897299326544
 31
0.0
  0
LINE
  5
1E1
330
1B6
100
AcDbEntity
  8
Layer4
  6
AUSGEZOGEN
 62
    18
420
        0
370
    25
100
AcDbLine
 10
-607.842777781173
 20
-1463.344684635978
 30
0.0
 11
-623.842777781173
 21
-1447.344684635978
 31
0.0
  0
LINE
  5
1E2
330
1B6
100
AcDbEntity
  8
Layer4
  6
AUSGEZOGEN
 62
    18
420
        0
370
    25
100
AcDbLine
 10
-607.842777781173
 20
-1441.792069945412
 30
0.0
 11
-623.842777781173
 21
-1425.792069945412
 31
0.0
  0
LINE
  5
1E3
330
1B6
100
AcDbEntity
  8
Layer4
  6
AUSGEZOGEN
 62
    18
420
        0
370
    25
100
AcDbLine
 10
-607.842777781174
 20
-1420.239455254846
 30
0.0
 11
-615.018073021134
 21
-1413.064160014885
 31
0.0
  0
LINE
  5
1E4
330
1B6
100
AcDbEntity
  8
Layer4
  6
AUSGEZOGEN
 62
    18
420
        0
370
    25
100
AcDbLine
 10
-133.078932656205
 20
-1701.02976816472
 30
0.0
 11
-139.842777781173
 21
-1694.265923039752
 31
0.0
  0
LINE
  5
1E5
330
1B6
100
AcDbEntity
  8
Layer4
  6
AUSGEZOGEN
 62
    18
420
        0
370
    25
100
AcDbLine
 10
-123.842777781173
 20
-1688.713308349187
 30
0.0
 11
-139.842777781173
 21
-1672.713308349187
 31
0.0
  0
LINE
  5
1E6
330
1B6
100
AcDbEntity
  8
Layer4
  6
AUSGEZOGEN
 62
    18
420
        0
370
    25
100
AcDbLine
 10
-123.842777781173
 20
-1667.160693658621
 30
0.0
 11
-139.842777781173
 21
-1651.160693658621
 31
0.0
  0
LINE
  5
1E7
330
1B6
100
AcDbEntity
  8
Layer4
  6
AUSGEZOGEN
 62
    18
420
        0
370
    25
100
AcDbLine
 10
-123.842777781173
 20
-1645.608078968055
 30
0.0
 11
-139.842777781173
 21
-1629.608078968055
 31
0.0
  0
LINE
  5
1E8
330
1B6
100
AcDbEntity
  8
Layer4
  6
AUSGEZOGEN
 62
    18
420
        0
370
    25
100
AcDbLine
 10
-123.842777781173
 20
-1624.055464277488
 30
0.0
 11
-139.842777781173
 21
-1608.055464277488
 31
0.0
  0
LINE
  5
1E9
330
1B6
100
AcDbEntity
  8
Layer4
  6
AUSGEZOGEN
 62
    18
420
        0
370
    25
100
AcDbLine
 10
-123.842777781173
 20
-1602.502849586923
 30
0.0
 11
-139.842777781173
 21
-1586.502849586923
 31
0.0
  0
LINE
  5
1EA
330
1B6
100
AcDbEntity
  8
Layer4
  6
AUSGEZOGEN
 62
    18
420
        0
370
    25
100
AcDbLine
 10
-123.842777781173
 20
-1580.950234896357
 30
0.0
 11
-139.842777781173
 21
-1564.950234896357
 31
0.0
  0
LINE
  5
1EB
330
1B6
100
AcDbEntity
  8
Layer4
  6
AUSGEZOGEN
 62
    18
420
        0
370
    25
100
AcDbLine
 10
-123.842777781173
 20
-1559.397620205791
 30
0.0
 11
-139.842777781173
 21
-1543.397620205791
 31
0.0
  0
LINE
  5
1EC
330
1B6
100
AcDbEntity
  8
Layer4
  6
AUSGEZOGEN
 62
    18
420
        0
370
    25
100
AcDbLine
 10
-123.842777781173
 20
-1537.845005515226
 30
0.0
 11
-139.842777781173
 21
-1521.845005515225
 31
0.0
  0
LINE
  5
1ED
330
1B6
100
AcDbEntity
  8
Layer4
  6
AUSGEZOGEN
 62
    18
420
        0
370
    25
100
AcDbLine
 10
-123.842777781173
 20
-1516.292390824659
 30
0.0
 11
-139.842777781173
 21
-1500.292390824659
 31
0.0
  0
LINE
  5
1EE
330
1B6
100
AcDbEntity
  8
Layer4
  6
AUSGEZOGEN
 62
    18
420
        0
370
    25
100
AcDbLine
 10
-123.842777781173
 20
-1494.739776134093
 30
0.0
 11
-139.842777781173
 21
-1478.739776134093
 31
0.0
  0
LINE
  5
1EF
330
1B6
100
AcDbEntity
  8
Layer4
  6
AUSGEZOGEN
 62
    18
420
        0
370
    25
100
AcDbLine
 10
-123.842777781173
 20
-1473.187161443527
 30
0.0
 11
-139.842777781173
 21
-1457.187161443527
 31
0.0
  0
LINE
  5
1F0
330
1B6
100
AcDbEntity
  8
Layer4
  6
AUSGEZOGEN
 62
    18
420
        0
370
    25
100
AcDbLine
 10
-123.842777781173
 20
-1451.634546752961
 30
0.0
 11
-139.842777781173
 21
-1435.634546752961
 31
0.0
  0
LINE
  5
1F1
330
1B6
100
AcDbEntity
  8
Layer4
  6
AUSGEZOGEN
 62
    18
420
        0
370
    25
100
AcDbLine
 10
-123.842777781173
 20
-1430.081932062395
 30
0.0
 11
-139.842777781173
 21
-1414.081932062395
 31
0.0
  0
ENDBLK
  5
1B8
330
1B6
100
AcDbEntity
  8
0
100
AcDbBlockEnd
  0
BLOCK
  5
200
330
1FF
100
AcDbEntity
  8
0
100
AcDbBlockBegin
  2
*D10
 70
     1
 10
0.0
 20
0.0
 30
0.0
  3
*D10
  1

  0
HATCH
  5
202
330
1FF
100
AcDbEntity
  8
Layer2
  6
AUSGEZOGEN
 62
    18
420
        0
370
    25
100
AcDbHatch
 10
0.0
 20
0.0
 30
0.0
210
0.0
220
0.0
230
1.0
  2
SOLID
 70
     1
 71
     0
 91
        1
 92
        2
 72
     0
 73
     1
 93
        3
 10
-843.265891665134
 20
-1413.064160014886
 10
-840.765891665134
 20
-1400.564160014886
 10
-845.765891665134
 20
-1400.564160014886
 97
        0
 75
     0
 76
     1
 98
        0
  0
HATCH
  5
203
330
1FF
100
AcDbEntity
  8
Layer2
  6
AUSGEZOGEN
 62
    18
420
        0
370
    25
100
AcDbHatch
 10
0.0
 20
0.0
 30
0.0
210
0.0
220
0.0
230
1.0
  2
SOLID
 70
     1
 71
     0
 91
        1
 92
        2
 72
     0
 73
     1
 93
        3
 10
-843.265891665134
 20
-1383.064160014886
 10
-845.765891665134
 20
-1395.564160014886
 10
-840.765891665134
 20
-1395.564160014886
 97
        0
 75
     0
 76
     1
 98
        0
  0
LINE
  5
204
330
1FF
100
AcDbEntity
  8
Layer2
  6
AUSGEZOGEN
 62
    18
420
        0
370
    18
100
AcDbLine
 10
-783.265891665143
 20
-1383.064160014886
 30
0.0
 11
-828.265891665134
 21
-1383.064160014886
 31
0.0
  0
LINE
  5
205
330
1FF
100
AcDbEntity
  8
Layer2
  6
AUSGEZOGEN
 62
    18
420
        0
370
    18
100
AcDbLine
 10
-783.265891665143
 20
-1413.064160014886
 30
0.0
 11
-828.265891665134
 21
-1413.064160014886
 31
0.0
  0
TEXT
  5
206
330
1FF
100
AcDbEntity
  8
Layer2
  6
AUSGEZOGEN
 62
    18
420
        0
370
    18
100
AcDbText
 10
-847.015891665134
 20
-1424.481205469432
 30
0.0
 40
37.5
  1
30
 50
90.0
 41
0.907802249297
  7
Arial
 72
     5
 11
-847.015891665134
 21
-1371.647114560341
 31
0.0
100
AcDbText
  0
ENDBLK
  5
201
330
1FF
100
AcDbEntity
  8
0
100
AcDbBlockEnd
  0
BLOCK
  5
209
330
208
100
AcDbEntity
  8
0
100
AcDbBlockBegin
  2
*D11
 70
     1
 10
0.0
 20
0.0
 30
0.0
  3
*D11
  1

  0
HATCH
  5
20B
330
208
100
AcDbEntity
  8
Layer2
  6
AUSGEZOGEN
 62
    18
420
        0
370
    25
100
AcDbHatch
 10
0.0
 20
0.0
 30
0.0
210
0.0
220
0.0
230
1.0
  2
SOLID
 70
     1
 71
     0
 91
        1
 92
        2
 72
     0
 73
     1
 93
        3
 10
-123.842777781173
 20
-1866.655350174295
 10
-136.342777781173
 20
-1864.155350174295
 10
-136.342777781173
 20
-1869.155350174295
 97
        0
 75
     0
 76
     1
 98
        0
  0
HATCH
  5
20C
330
208
100
AcDbEntity
  8
Layer2
  6
AUSGEZOGEN
 62
    18
420
        0
370
    25
100
AcDbHatch
 10
0.0
 20
0.0
 30
0.0
210
0.0
220
0.0
230
1.0
  2
SOLID
 70
     1
 71
     0
 91
        1
 92
        2
 72
     0
 73
     1
 93
        3
 10
-623.8427777811726
 20
-1866.655350174295
 10
-611.3427777811726
 20
-1869.155350174295
 10
-611.3427777811726
 20
-1864.155350174295
 97
        0
 75
     0
 76
     1
 98
        0
  0
LINE
  5
20D
330
208
100
AcDbEntity
  8
Layer2
  6
AUSGEZOGEN
 62
    18
420
        0
370
    25
100
AcDbLine
 10
-611.342777781173
 20
-1866.655350174295
 30
0.0
 11
-136.342777781173
 21
-1866.655350174295
 31
0.0
  0
LINE
  5
20E
330
208
100
AcDbEntity
  8
Layer2
  6
AUSGEZOGEN
 62
    18
420
        0
370
    18
100
AcDbLine
 10
-623.842777781173
 20
-1715.035008905772
 30
0.0
 11
-623.842777781173
 21
-1871.655350174295
 31
0.0
  0
LINE
  5
20F
330
208
100
AcDbEntity
  8
Layer2
  6
AUSGEZOGEN
 62
    18
420
        0
370
    18
100
AcDbLine
 10
-123.842777781173
 20
-1704.42600186959
 30
0.0
 11
-123.842777781173
 21
-1871.655350174295
 31
0.0
  0
TEXT
  5
210
330
208
100
AcDbEntity
  8
Layer2
  6
AUSGEZOGEN
 62
    18
420
        0
370
    18
100
AcDbText
 10
-413.468345962991
 20
-1862.905350174295
 30
0.0
 40
37.5
  1
500
 41
0.907802249297
  7
Arial
 72
     5
 11
-334.217209599355
 21
-1862.905350174295
 31
0.0
100
AcDbText
  0
ENDBLK
  5
20A
330
208
100
AcDbEntity
  8
0
100
AcDbBlockEnd
  0
BLOCK
  5
213
330
212
100
AcDbEntity
  8
0
100
AcDbBlockBegin
  2
*D12
 70
     1
 10
0.0
 20
0.0
 30
0.0
  3
*D12
  1

  0
HATCH
  5
215
330
212
100
AcDbEntity
  8
Layer2
  6
AUSGEZOGEN
 62
    18
420
        0
370
    25
100
AcDbHatch
 10
0.0
 20
0.0
 30
0.0
210
0.0
220
0.0
230
1.0
  2
SOLID
 70
     1
 71
     0
 91
        1
 92
        2
 72
     0
 73
     1
 93
        3
 10
482.5457151324408
 20
-1403.178595481715
 10
485.0457151324408
 20
-1390.678595481715
 10
480.0457151324408
 20
-1390.678595481715
 97
        0
 75
     0
 76
     1
 98
        0
  0
HATCH
  5
216
330
212
100
AcDbEntity
  8
Layer2
  6
AUSGEZOGEN
 62
    18
420
        0
370
    25
100
AcDbHatch
 10
0.0
 20
0.0
 30
0.0
210
0.0
220
0.0
230
1.0
  2
SOLID
 70
     1
 71
     0
 91
        1
 92
        2
 72
     0
 73
     1
 93
        3
 10
482.5457151324408
 20
-1375.064160014886
 10
480.0457151324408
 20
-1387.564160014886
 10
485.0457151324408
 20
-1387.564160014886
 97
        0
 75
     0
 76
     1
 98
        0
  0
LINE
  5
217
330
212
100
AcDbEntity
  8
Layer2
  6
AUSGEZOGEN
 62
    18
420
        0
370
    18
100
AcDbLine
 10
233.157222218827
 20
-1375.064160014886
 30
0.0
 11
422.545715132441
 21
-1375.064160014886
 31
0.0
  0
LINE
  5
218
330
212
100
AcDbEntity
  8
Layer2
  6
AUSGEZOGEN
 62
    18
420
        0
370
    18
100
AcDbLine
 10
-145.463848458797
 20
-1403.178595481715
 30
0.0
 11
422.545715132441
 21
-1403.178595481715
 31
0.0
  0
TEXT
  5
219
330
212
100
AcDbEntity
  8
Layer2
  6
AUSGEZOGEN
 62
    18
420
        0
370
    18
100
AcDbText
 10
478.795715132441
 20
-1416.271377748301
 30
0.0
 40
37.5
  1
26
 50
90.0
 41
0.932989690722
  7
Arial
 72
     5
 11
478.795715132441
 21
-1361.971377748301
 31
0.0
100
AcDbText
  0
ENDBLK
  5
214
330
212
100
AcDbEntity
  8
0
100
AcDbBlockEnd
  0
BLOCK
  5
21C
330
21B
100
AcDbEntity
  8
0
100
AcDbBlockBegin
  2
*D13
 70
     1
 10
0.0
 20
0.0
 30
0.0
  3
*D13
  1

  0
HATCH
  5
21E
330
21B
100
AcDbEntity
  8
Layer2
  6
AUSGEZOGEN
 62
    18
420
        0
370
    25
100
AcDbHatch
 10
0.0
 20
0.0
 30
0.0
210
0.0
220
0.0
230
1.0
  2
SOLID
 70
     1
 71
     0
 91
        1
 92
        2
 72
     0
 73
     1
 93
        3
 10
-439.0503691797248
 20
-1375.064741031145
 10
-441.5503691797248
 20
-1387.564741031145
 10
-436.5503691797248
 20
-1387.564741031145
 97
        0
 75
     0
 76
     1
 98
        0
  0
HATCH
  5
21F
330
21B
100
AcDbEntity
  8
Layer2
  6
AUSGEZOGEN
 62
    18
420
        0
370
    25
100
AcDbHatch
 10
0.0
 20
0.0
 30
0.0
210
0.0
220
0.0
230
1.0
  2
SOLID
 70
     1
 71
     0
 91
        1
 92
        2
 72
     0
 73
     1
 93
        3
 10
-439.0503691797248
 20
-1560.064741031144
 10
-436.5503691797248
 20
-1547.564741031144
 10
-441.5503691797248
 20
-1547.564741031144
 97
        0
 75
     0
 76
     1
 98
        0
  0
LINE
  5
220
330
21B
100
AcDbEntity
  8
Layer2
  6
AUSGEZOGEN
 62
    18
420
        0
370
    25
100
AcDbLine
 10
-439.050369179725
 20
-1547.564741031144
 30
0.0
 11
-439.050369179725
 21
-1387.564741031145
 31
0.0
  0
LINE
  5
221
330
21B
100
AcDbEntity
  8
Layer2
  6
AUSGEZOGEN
 62
    18
420
        0
370
    18
100
AcDbLine
 10
-418.842777781506
 20
-1560.064741031144
 30
0.0
 11
-444.050369179725
 21
-1560.064741031144
 31
0.0
  0
LINE
  5
222
330
21B
100
AcDbEntity
  8
Layer2
  6
AUSGEZOGEN
 62
    18
420
        0
370
    18
100
AcDbLine
 10
-403.902643753119
 20
-1375.064741031145
 30
0.0
 11
-444.050369179725
 21
-1375.064741031145
 31
0.0
  0
TEXT
  5
223
330
21B
100
AcDbEntity
  8
Layer2
  6
AUSGEZOGEN
 62
    18
420
        0
370
    18
100
AcDbText
 10
-442.800369179726
 20
-1507.190309212963
 30
0.0
 40
37.5
  1
185
 50
90.0
 41
0.907802249297
  7
Arial
 72
     5
 11
-442.800369179726
 21
-1427.939172849327
 31
0.0
100
AcDbText
  0
ENDBLK
  5
21D
330
21B
100
AcDbEntity
  8
0
100
AcDbBlockEnd
  0
BLOCK
  5
226
330
225
100
AcDbEntity
  8
0
100
AcDbBlockBegin
  2
*D14
 70
     1
 10
0.0
 20
0.0
 30
0.0
  3
*D14
  1

  0
HATCH
  5
228
330
225
100
AcDbEntity
  8
Layer2
  6
AUSGEZOGEN
 62
    18
420
        0
370
    25
100
AcDbHatch
 10
0.0
 20
0.0
 30
0.0
210
0.0
220
0.0
230
1.0
  2
SOLID
 70
     1
 71
     0
 91
        1
 92
        2
 72
     0
 73
     1
 93
        3
 10
-149.8907988336541
 20
-1778.412012356184
 10
-162.3907988336541
 20
-1775.912012356184
 10
-162.3907988336541
 20
-1780.912012356184
 97
        0
 75
     0
 76
     1
 98
        0
  0
HATCH
  5
229
330
225
100
AcDbEntity
  8
Layer2
  6
AUSGEZOGEN
 62
    18
420
        0
370
    25
100
AcDbHatch
 10
0.0
 20
0.0
 30
0.0
210
0.0
220
0.0
230
1.0
  2
SOLID
 70
     1
 71
     0
 91
        1
 92
        2
 72
     0
 73
     1
 93
        3
 10
-597.4803122910389
 20
-1778.412012356184
 10
-584.9803122910389
 20
-1780.912012356184
 10
-584.9803122910389
 20
-1775.912012356184
 97
        0
 75
     0
 76
     1
 98
        0
  0
LINE
  5
22A
330
225
100
AcDbEntity
  8
Layer2
  6
AUSGEZOGEN
 62
    18
420
        0
370
    25
100
AcDbLine
 10
-584.980312291039
 20
-1778.412012356184
 30
0.0
 11
-162.390798833654
 21
-1778.412012356184
 31
0.0
  0
LINE
  5
22B
330
225
100
AcDbEntity
  8
Layer2
  6
AUSGEZOGEN
 62
    18
420
        0
370
    18
100
AcDbLine
 10
-597.480312291039
 20
-1397.541517698547
 30
0.0
 11
-597.480312291039
 21
-1783.412012356184
 31
0.0
  0
LINE
  5
22C
330
225
100
AcDbEntity
  8
Layer2
  6
AUSGEZOGEN
 62
    18
420
        0
370
    18
100
AcDbLine
 10
-149.890798833654
 20
-1404.227751852828
 30
0.0
 11
-149.890798833654
 21
-1783.412012356184
 31
0.0
  0
TEXT
  5
22D
330
225
100
AcDbEntity
  8
Layer2
  6
AUSGEZOGEN
 62
    18
420
        0
370
    18
100
AcDbText
 10
-413.311123744165
 20
-1774.662012356184
 30
0.0
 40
37.5
  1
448
 41
0.907802249297
  7
Arial
 72
     5
 11
-334.059987380528
 21
-1774.662012356184
 31
0.0
100
AcDbText
  0
ENDBLK
  5
227
330
225
100
AcDbEntity
  8
0
100
AcDbBlockEnd
  0
BLOCK
  5
230
330
22F
100
AcDbEntity
  8
0
100
AcDbBlockBegin
  2
*D15
 70
     1
 10
0.0
 20
0.0
 30
0.0
  3
*D15
  1

  0
HATCH
  5
232
330
22F
100
AcDbEntity
  8
Layer2
  6
AUSGEZOGEN
 62
    18
420
        0
370
    25
100
AcDbHatch
 10
0.0
 20
0.0
 30
0.0
210
0.0
220
0.0
230
1.0
  2
SOLID
 70
     1
 71
     0
 91
        1
 92
        2
 72
     0
 73
     1
 93
        3
 10
-699.52522833268
 20
-1375.064160014887
 10
-702.02522833268
 20
-1387.564160014887
 10
-697.02522833268
 20
-1387.564160014887
 97
        0
 75
     0
 76
     1
 98
        0
  0
HATCH
  5
233
330
22F
100
AcDbEntity
  8
Layer2
  6
AUSGEZOGEN
 62
    18
420
        0
370
    25
100
AcDbHatch
 10
0.0
 20
0.0
 30
0.0
210
0.0
220
0.0
230
1.0
  2
SOLID
 70
     1
 71
     0
 91
        1
 92
        2
 72
     0
 73
     1
 93
        3
 10
-699.52522833268
 20
-1383.064160014887
 10
-697.02522833268
 20
-1370.564160014887
 10
-702.02522833268
 20
-1370.564160014887
 97
        0
 75
     0
 76
     1
 98
        0
  0
LINE
  5
234
330
22F
100
AcDbEntity
  8
Layer2
  6
AUSGEZOGEN
 62
    18
420
        0
370
    25
100
AcDbLine
 10
-699.52522833268
 20
-1370.564160014887
 30
0.0
 11
-699.52522833268
 21
-1387.564160014887
 31
0.0
  0
LINE
  5
235
330
22F
100
AcDbEntity
  8
Layer2
  6
AUSGEZOGEN
 62
    18
420
        0
370
    18
100
AcDbLine
 10
-621.842777781173
 20
-1383.064160014887
 30
0.0
 11
-704.52522833268
 21
-1383.064160014887
 31
0.0
  0
LINE
  5
236
330
22F
100
AcDbEntity
  8
Layer2
  6
AUSGEZOGEN
 62
    18
420
        0
370
    18
100
AcDbLine
 10
-616.842777781173
 20
-1375.064160014887
 30
0.0
 11
-704.52522833268
 21
-1375.064160014887
 31
0.0
  0
TEXT
  5
237
330
22F
100
AcDbEntity
  8
Layer2
  6
AUSGEZOGEN
 62
    18
420
        0
370
    18
100
AcDbText
 10
-703.27522833268
 20
-1369.418219517475
 30
0.0
 40
37.5
  1
8
 50
90.0
 41
0.951030927835
  7
Arial
 72
     5
 11
-703.27522833268
 21
-1341.743219517475
 31
0.0
100
AcDbText
  0
TEXT
  5
238
330
22F
100
AcDbEntity
  8
Layer2
  6
AUSGEZOGEN
 62
    18
420
        0
370
    18
100
AcDbText
 10
-729.90022833268
 20
-1341.743219517475
 30
0.0
 40
26.25
  1
+4
 50
90.0
 41
0.949806949807
  7
Arial
 72
     5
 11
-729.90022833268
 21
-1302.075719517475
 31
0.0
100
AcDbText
  0
TEXT
  5
239
330
22F
100
AcDbEntity
  8
Layer2
  6
AUSGEZOGEN
 62
    18
420
        0
370
    18
100
AcDbText
 10
-687.90022833268
 20
-1341.743219517475
 30
0.0
 40
26.25
  1
-2
 50
90.0
 41
0.948658915621
  7
Arial
 72
     5
 11
-687.90022833268
 21
-1310.839469517475
 31
0.0
100
AcDbText
  0
ENDBLK
  5
231
330
22F
100
AcDbEntity
  8
0
100
AcDbBlockEnd
  0
BLOCK
  5
23C
330
23B
100
AcDbEntity
  8
0
100
AcDbBlockBegin
  2
*D16
 70
     1
 10
0.0
 20
0.0
 30
0.0
  3
*D16
  1

  0
HATCH
  5
23E
330
23B
100
AcDbEntity
  8
Layer2
  6
AUSGEZOGEN
 62
    18
420
        0
370
    25
100
AcDbHatch
 10
0.0
 20
0.0
 30
0.0
210
0.0
220
0.0
230
1.0
  2
SOLID
 70
     1
 71
     0
 91
        1
 92
        2
 72
     0
 73
     1
 93
        3
 10
-927.179053280413
 20
-1375.064160014887
 10
-929.679053280413
 20
-1387.564160014887
 10
-924.679053280413
 20
-1387.564160014887
 97
        0
 75
     0
 76
     1
 98
        0
  0
HATCH
  5
23F
330
23B
100
AcDbEntity
  8
Layer2
  6
AUSGEZOGEN
 62
    18
420
        0
370
    25
100
AcDbHatch
 10
0.0
 20
0.0
 30
0.0
210
0.0
220
0.0
230
1.0
  2
SOLID
 70
     1
 71
     0
 91
        1
 92
        2
 72
     0
 73
     1
 93
        3
 10
-927.179053280413
 20
-1575.064160014887
 10
-924.679053280413
 20
-1562.564160014887
 10
-929.679053280413
 20
-1562.564160014887
 97
        0
 75
     0
 76
     1
 98
        0
  0
LINE
  5
240
330
23B
100
AcDbEntity
  8
Layer2
  6
AUSGEZOGEN
 62
    18
420
        0
370
    25
100
AcDbLine
 10
-927.179053280413
 20
-1562.564160014887
 30
0.0
 11
-927.179053280413
 21
-1387.564160014887
 31
0.0
  0
LINE
  5
241
330
23B
100
AcDbEntity
  8
Layer2
  6
AUSGEZOGEN
 62
    18
420
        0
370
    18
100
AcDbLine
 10
-540.104556823231
 20
-1575.064160014887
 30
0.0
 11
-932.179053280413
 21
-1575.064160014887
 31
0.0
  0
LINE
  5
242
330
23B
100
AcDbEntity
  8
Layer2
  6
AUSGEZOGEN
 62
    18
420
        0
370
    18
100
AcDbLine
 10
-616.842777781173
 20
-1375.064160014887
 30
0.0
 11
-932.179053280413
 21
-1375.064160014887
 31
0.0
  0
TEXT
  5
243
330
23B
100
AcDbEntity
  8
Layer2
  6
AUSGEZOGEN
 62
    18
420
        0
370
    18
100
AcDbText
 10
-930.929053280413
 20
-1516.689160014887
 30
0.0
 40
37.5
  1
200
 50
90.0
 41
0.953608247423
  7
Arial
 72
     5
 11
-930.929053280413
 21
-1433.439160014887
 31
0.0
100
AcDbText
  0
ENDBLK
  5
23D
330
23B
100
AcDbEntity
  8
0
100
AcDbBlockEnd
  0
BLOCK
  5
246
330
245
100
AcDbEntity
  8
0
100
AcDbBlockBegin
  2
*D17
 70
     1
 10
0.0
 20
0.0
 30
0.0
  3
*D17
  1

  0
HATCH
  5
248
330
245
100
AcDbEntity
  8
Layer2
  6
AUSGEZOGEN
 62
    18
420
        0
370
    25
100
AcDbHatch
 10
0.0
 20
0.0
 30
0.0
210
0.0
220
0.0
230
1.0
  2
SOLID
 70
     1
 71
     0
 91
        1
 92
        2
 72
     0
 73
     1
 93
        3
 10
-927.179053280413
 20
-1575.064160014887
 10
-929.679053280413
 20
-1587.564160014887
 10
-924.679053280413
 20
-1587.564160014887
 97
        0
 75
     0
 76
     1
 98
        0
  0
HATCH
  5
249
330
245
100
AcDbEntity
  8
Layer2
  6
AUSGEZOGEN
 62
    18
420
        0
370
    25
100
AcDbHatch
 10
0.0
 20
0.0
 30
0.0
210
0.0
220
0.0
230
1.0
  2
SOLID
 70
     1
 71
     0
 91
        1
 92
        2
 72
     0
 73
     1
 93
        3
 10
-927.179053280413
 20
-1688.064160014887
 10
-924.679053280413
 20
-1675.564160014887
 10
-929.679053280413
 20
-1675.564160014887
 97
        0
 75
     0
 76
     1
 98
        0
  0
LINE
  5
24A
330
245
100
AcDbEntity
  8
Layer2
  6
AUSGEZOGEN
 62
    18
420
        0
370
    25
100
AcDbLine
 10
-927.179053280413
 20
-1675.564160014887
 30
0.0
 11
-927.179053280413
 21
-1587.564160014887
 31
0.0
  0
LINE
  5
24B
330
245
100
AcDbEntity
  8
Layer2
  6
AUSGEZOGEN
 62
    18
420
        0
370
    18
100
AcDbLine
 10
-426.842777781173
 20
-1688.064160014887
 30
0.0
 11
-932.179053280413
 21
-1688.064160014887
 31
0.0
  0
LINE
  5
24C
330
245
100
AcDbEntity
  8
Layer2
  6
AUSGEZOGEN
 62
    18
420
        0
370
    18
100
AcDbLine
 10
-616.842777781173
 20
-1575.064160014887
 30
0.0
 11
-932.179053280413
 21
-1575.064160014887
 31
0.0
  0
TEXT
  5
24D
330
245
100
AcDbEntity
  8
Layer2
  6
AUSGEZOGEN
 62
    18
420
        0
370
    18
100
AcDbText
 10
-930.929053280413
 20
-1671.107910014887
 30
0.0
 40
37.5
  1
120
 50
90.0
 41
0.905927835052
  7
Arial
 72
     5
 11
-930.929053280413
 21
-1592.020410014887
 31
0.0
100
AcDbText
  0
ENDBLK
  5
247
330
245
100
AcDbEntity
  8
0
100
AcDbBlockEnd
  0
BLOCK
  5
250
330
24F
100
AcDbEntity
  8
0
100
AcDbBlockBegin
  2
A4-NABER_nNn017
 70
     0
 10
0.0
 20
0.0
 30
0.0
  3
A4-NABER_nNn017
  1

  0
INSERT
  5
2C3
330
24F
100
AcDbEntity
  8
0
100
AcDbBlockReference
  2
A4-NABER_nNn018
 10
0.0
 20
0.0
 30
0.0
  0
TEXT
  5
2C4
330
24F
100
AcDbEntity
  8
Layer100
  6
AUSGEZOGEN
 62
    18
420
        0
370
    18
100
AcDbText
 10
-164.213821864688
 20
-2306.099671958011
 30
0.0
 40
31.75
  1
Einbaumaße
 41
0.90372298842
  7
Arial
 72
     5
 11
62.835508369139
 21
-2306.099671958011
 31
0.0
100
AcDbText
  0
ENDBLK
  5
251
330
24F
100
AcDbEntity
  8
0
100
AcDbBlockEnd
  0
BLOCK
  5
253
330
252
100
AcDbEntity
  8
0
100
AcDbBlockBegin
  2
A4-NABER_nNn018
 70
     0
 10
0.0
 20
0.0
 30
0.0
  3
A4-NABER_nNn018
  1

  0
INSERT
  5
265
330
252
100
AcDbEntity
  8
0
100
AcDbBlockReference
  2
A4-Textliste_nNn019
 10
0.0
 20
0.0
 30
0.0
  0
LINE
  5
266
330
252
100
AcDbEntity
  8
Layer1
  6
AUSGEZOGEN
 62
    18
420
        0
370
    18
100
AcDbLine
 10
-1173.305658776257
 20
-2707.748821377853
 30
0.0
 11
-1173.305658776257
 21
-44.648821377853
 31
0.0
  0
LINE
  5
267
330
252
100
AcDbEntity
  8
Layer1
  6
AUSGEZOGEN
 62
    18
420
        0
370
    18
100
AcDbLine
 10
-1173.305658776257
 20
-2707.748821377853
 30
0.0
 11
626.694341223743
 21
-2707.748821377853
 31
0.0
  0
LINE
  5
268
330
252
100
AcDbEntity
  8
Layer1
  6
AUSGEZOGEN
 62
    18
420
        0
370
    18
100
AcDbLine
 10
626.694341223743
 20
-2707.748821377853
 30
0.0
 11
626.694341223743
 21
-44.648821377853
 31
0.0
  0
LINE
  5
269
330
252
100
AcDbEntity
  8
Layer1
  6
AUSGEZOGEN
 62
    18
420
        0
370
    18
100
AcDbLine
 10
-1173.305658776257
 20
-44.648821377853
 30
0.0
 11
626.694341223743
 21
-44.648821377853
 31
0.0
  0
LINE
  5
26A
330
252
100
AcDbEntity
  8
Layer100
  6
AUSGEZOGEN
 62
    18
420
        0
370
    50
100
AcDbLine
 10
-1128.305658776257
 20
-2662.748821377852
 30
0.0
 11
-1128.305658776257
 21
-2165.49398616638
 31
0.0
  0
TEXT
  5
26B
330
252
100
AcDbEntity
  8
Layer100
  6
AUSGEZOGEN
 62
    18
420
        0
370
    50
100
AcDbText
 10
-508.901326445159
 20
-2201.491985950996
 30
0.0
 40
12.7
  1
Weitergabe und Vervielfältigung,
 50
0.000002504478
 41
1.085122205146
  7
Arial
 72
     5
 11
-230.92372644516
 21
-2201.49197380021
 31
0.0
100
AcDbText
  0
TEXT
  5
26C
330
252
100
AcDbEntity
  8
Layer100
  6
AUSGEZOGEN
 62
    18
420
        0
370
    50
100
AcDbText
 10
-508.815600556944
 20
-2221.811985947249
 30
0.0
 40
12.7
  1
sowie Verwertung und Mitteilung
 50
0.000002504478
 41
1.084506693109
  7
Arial
 72
     5
 11
-231.009450556944
 21
-2221.811973803957
 31
0.0
100
AcDbText
  0
TEXT
  5
26D
330
252
100
AcDbEntity
  8
Layer100
  6
AUSGEZOGEN
 62
    18
420
        0
370
    50
100
AcDbText
 10
-521.464799668729
 20
-2242.131986500164
 30
0.0
 40
12.7
  1
dieser Zeichnung ist nicht gestattet,
 50
0.000002504478
 41
1.087014938969
  7
Arial
 72
     5
 11
-218.360249668729
 21
-2242.131973251043
 31
0.0
100
AcDbText
  0
TEXT
  5
26E
330
252
100
AcDbEntity
  8
Layer100
  6
AUSGEZOGEN
 62
    18
420
        0
370
    50
100
AcDbText
 10
-511.177798780513
 20
-2262.451986050505
 30
0.0
 40
12.7
  1
soweit nicht ausdrücklich erlaubt.
 50
0.000002504478
 41
1.086254882812
  7
Arial
 72
     5
 11
-228.647248780514
 21
-2262.451973700702
 31
0.0
100
AcDbText
  0
TEXT
  5
26F
330
252
100
AcDbEntity
  8
Layer100
  6
AUSGEZOGEN
 62
    18
420
        0
370
    50
100
AcDbText
 10
-474.658947892298
 20
-2282.771984454215
 30
0.0
 40
12.7
  1
Alle Rechte vorbehalten!
 50
0.000002504478
 41
1.084802051822
  7
Arial
 72
     5
 11
-265.166097892298
 21
-2282.771975296992
 31
0.0
100
AcDbText
  0
LINE
  5
270
330
252
100
AcDbEntity
  8
Layer100
  6
AUSGEZOGEN
 62
    18
420
        0
370
    50
100
AcDbLine
 10
581.694341223743
 20
-2165.498821377852
 30
0.0
 11
-1128.305658776257
 21
-2165.49398616638
 31
0.0
  0
INSERT
  5
2AA
330
252
100
AcDbEntity
  8
0
100
AcDbBlockReference
  2
Schriftfeld_nNn022
 10
0.0
 20
0.0
 30
0.0
  0
INSERT
  5
2B6
330
252
100
AcDbEntity
  8
0
100
AcDbBlockReference
  2
Beschriftung_nNn023
 10
0.0
 20
0.0
 30
0.0
  0
TEXT
  5
2B7
330
252
100
AcDbEntity
  8
Layer100
  6
AUSGEZOGEN
 62
    18
420
        0
370
    18
100
AcDbText
 10
-1050.175203946331
 20
-2346.991171953093
 30
0.0
 40
19.049998998642
  1
-
 41
0.967741971819
  7
Arial
 72
     5
 11
-1041.602704075077
 21
-2346.991171953093
 31
0.0
100
AcDbText
  0
TEXT
  5
2B8
330
252
100
AcDbEntity
  8
Layer100
  6
AUSGEZOGEN
 62
    18
420
        0
370
    18
100
AcDbText
 10
-979.063731732941
 20
-2346.667817480357
 30
0.0
 40
19.049998998642
  1
-
 41
0.967741971819
  7
Arial
 72
     5
 11
-970.491231861687
 21
-2346.667817480357
 31
0.0
100
AcDbText
  0
TEXT
  5
2B9
330
252
100
AcDbEntity
  8
Layer100
  6
AUSGEZOGEN
 62
    18
420
        0
370
    18
100
AcDbText
 10
-751.983805666377
 20
-2346.652046487785
 30
0.0
 40
19.049998998642
  1
-
 41
0.967741971819
  7
Arial
 72
     5
 11
-743.411305795123
 21
-2346.652046487785
 31
0.0
100
AcDbText
  0
TEXT
  5
2BA
330
252
100
AcDbEntity
  8
Layer100
  6
AUSGEZOGEN
 62
    18
420
        0
370
    18
100
AcDbText
 10
-627.165767026091
 20
-2346.652046487785
 30
0.0
 40
19.049998998642
  1
-
 41
0.967741971819
  7
Arial
 72
     5
 11
-618.593267154837
 21
-2346.652046487785
 31
0.0
100
AcDbText
  0
TEXT
  5
2BB
330
252
100
AcDbEntity
  8
Layer100
  6
AUSGEZOGEN
 62
    18
420
        0
370
    18
100
AcDbText
 10
-565.011911894777
 20
-2504.4307372611
 30
0.0
 40
11.620141834909
  1
Naber GmbH
 41
0.96475869975
  7
Arial
 72
     5
 11
-472.838087964434
 21
-2504.4307372611
 31
0.0
100
AcDbText
  0
TEXT
  5
2BC
330
252
100
AcDbEntity
  8
Layer100
  6
AUSGEZOGEN
 62
    18
420
        0
370
    18
100
AcDbText
 10
-565.011911894777
 20
-2519.53692109239
 30
0.0
 40
11.620141834909
  1
Enschedestr. 24
 41
0.976824042946
  7
Arial
 72
     5
 11
-450.52740090929
 21
-2519.53692109239
 31
0.0
100
AcDbText
  0
TEXT
  5
2BD
330
252
100
AcDbEntity
  8
Layer100
  6
AUSGEZOGEN
 62
    18
420
        0
370
    18
100
AcDbText
 10
-565.011911894777
 20
-2534.643104923679
 30
0.0
 40
11.620141834909
  1
48529 Nordhorn
 41
0.972993785506
  7
Arial
 72
     5
 11
-450.976309956045
 21
-2534.643104923679
 31
0.0
100
AcDbText
  0
TEXT
  5
2BE
330
252
100
AcDbEntity
  8
Layer100
  6
AUSGEZOGEN
 62
    18
420
        0
370
    18
100
AcDbText
 10
-565.011911894777
 20
-2564.855472586258
 30
0.0
 40
11.620141834909
  1
0049-(0)5921-704-0
 41
0.975798499711
  7
Arial
 72
     5
 11
-424.261935559481
 21
-2564.855472586258
 31
0.0
100
AcDbText
  0
IMAGE
  5
2C1
330
252
100
AcDbEntity
  8
Layer0
  6
AUSGEZOGEN
 62
    18
420
        0
370
    18
160
               140
310
8C0000000100000084000000060000000500000084A30D6513CF78C0D40A9BF96807A4C00000000000000000303DC5D1BF7766C0D40A9BF96807A4C00000000000000000303DC5D1BF7766C01F1B58B74364A3C0000000000000000084A30D6513CF78C01F1B58B74364A3C0000000000000000084A30D6513CF78C0D40A9B
310
F96807A4C00000000000000000
100
AcDbRasterImage
 90
        0
 10
-396.942235043789
 20
-2563.705029339859
 30
0.0
 11
0.05744513874312334
 21
0.0
 31
0.0
 12
0.0
 22
0.08650346888642409
 32
0.0
 13
3781.0
 23
943.0
340
2C0
 70
     7
280
     0
281
    50
282
    50
283
     0
360
2C2
 71
     1
 91
        2
 14
-0.5
 24
-0.5
 14
3780.5
 24
942.5
290
     0
  0
ENDBLK
  5
254
330
252
100
AcDbEntity
  8
0
100
AcDbBlockEnd
  0
BLOCK
  5
256
330
255
100
AcDbEntity
  8
0
100
AcDbBlockBegin
  2
A4-Textliste_nNn019
 70
     0
 10
0.0
 20
0.0
 30
0.0
  3
A4-Textliste_nNn019
  1

  0
INSERT
  5
25D
330
255
100
AcDbEntity
  8
0
100
AcDbBlockReference
  2
Zeichnungskoordinaten_nNn020
 10
0.0
 20
0.0
 30
0.0
  0
INSERT
  5
264
330
255
100
AcDbEntity
  8
0
100
AcDbBlockReference
  2
Zeichnungsrahmen_nNn021
 10
0.0
 20
0.0
 30
0.0
  0
ENDBLK
  5
257
330
255
100
AcDbEntity
  8
0
100
AcDbBlockEnd
  0
BLOCK
  5
259
330
258
100
AcDbEntity
  8
0
100
AcDbBlockBegin
  2
Zeichnungskoordinaten_nNn020
 70
     0
 10
0.0
 20
0.0
 30
0.0
  3
Zeichnungskoordinaten_nNn020
  1

  0
LINE
  5
25B
330
258
100
AcDbEntity
  8
Layer100
  6
AUSGEZOGEN
 62
    18
420
        0
370
    18
100
AcDbLine
 10
-1128.305658776257
 20
-2662.748821377852
 30
0.0
 11
-1128.305658776257
 21
-89.648821377853
 31
0.0
  0
LINE
  5
25C
330
258
100
AcDbEntity
  8
Layer100
  6
AUSGEZOGEN
 62
    18
420
        0
370
    18
100
AcDbLine
 10
-1128.305658776257
 20
-89.648821377853
 30
0.0
 11
-1083.305658776257
 21
-89.648821377853
 31
0.0
  0
ENDBLK
  5
25A
330
258
100
AcDbEntity
  8
0
100
AcDbBlockEnd
  0
BLOCK
  5
25F
330
25E
100
AcDbEntity
  8
0
100
AcDbBlockBegin
  2
Zeichnungsrahmen_nNn021
 70
     0
 10
0.0
 20
0.0
 30
0.0
  3
Zeichnungsrahmen_nNn021
  1

  0
LINE
  5
261
330
25E
100
AcDbEntity
  8
Layer100
  6
AUSGEZOGEN
 62
    18
420
        0
370
    50
100
AcDbLine
 10
581.694341223743
 20
-2662.748821377852
 30
0.0
 11
581.694341223743
 21
-89.648821377853
 31
0.0
  0
LINE
  5
262
330
25E
100
AcDbEntity
  8
Layer100
  6
AUSGEZOGEN
 62
    18
420
        0
370
    50
100
AcDbLine
 10
-1128.305658776257
 20
-2662.748821377852
 30
0.0
 11
581.694341223743
 21
-2662.748821377852
 31
0.0
  0
LINE
  5
263
330
25E
100
AcDbEntity
  8
Layer100
  6
AUSGEZOGEN
 62
    18
420
        0
370
    50
100
AcDbLine
 10
-1083.305658776257
 20
-89.648821377853
 30
0.0
 11
581.694341223743
 21
-89.648821377853
 31
0.0
  0
ENDBLK
  5
260
330
25E
100
AcDbEntity
  8
0
100
AcDbBlockEnd
  0
BLOCK
  5
272
330
271
100
AcDbEntity
  8
0
100
AcDbBlockBegin
  2
Schriftfeld_nNn022
 70
     0
 10
0.0
 20
0.0
 30
0.0
  3
Schriftfeld_nNn022
  1

  0
LINE
  5
274
330
271
100
AcDbEntity
  8
Layer100
  6
AUSGEZOGEN
 62
    18
420
        0
370
    50
100
AcDbLine
 10
-572.825658776257
 20
-2165.498935582115
 30
0.0
 11
-572.825658776257
 21
-2662.748935582115
 31
0.0
  0
LINE
  5
275
330
271
100
AcDbEntity
  8
Layer100
  6
AUSGEZOGEN
 62
    18
420
        0
370
    50
100
AcDbLine
 10
-175.025658776257
 20
-2165.498882725645
 30
0.0
 11
-175.025658776257
 21
-2662.748882725645
 31
0.0
  0
LINE
  5
276
330
271
100
AcDbEntity
  8
Layer100
  6
AUSGEZOGEN
 62
    18
420
        0
370
    18
100
AcDbLine
 10
-994.025658776256
 20
-2318.498948624271
 30
0.0
 11
-994.025658776256
 21
-2662.748948624271
 31
0.0
  0
LINE
  5
277
330
271
100
AcDbEntity
  8
Layer100
  6
AUSGEZOGEN
 62
    18
420
        0
370
    18
100
AcDbLine
 10
-643.025658776256
 20
-2318.499212993099
 30
0.0
 11
-643.025658776256
 21
-2662.749212993099
 31
0.0
  0
LINE
  5
278
330
271
100
AcDbEntity
  8
Layer100
  6
AUSGEZOGEN
 62
    18
420
        0
370
    18
100
AcDbLine
 10
-760.025658776256
 20
-2662.749212993099
 30
0.0
 11
-760.025658776256
 21
-2165.499212993099
 31
0.0
  0
TEXT
  5
279
330
271
100
AcDbEntity
  8
Layer100
  6
AUSGEZOGEN
 62
    18
420
        0
370
    18
100
AcDbText
 10
-167.105658776257
 20
-2246.390821416477
 30
0.0
 40
14.85
  1
Rohstoff/Raw material
 41
1.084377276038
  7
Arial
 72
     5
 11
53.988566223743
 21
-2246.390821416477
 31
0.0
100
AcDbText
  0
TEXT
  5
27A
330
271
100
AcDbEntity
  8
Layer100
  6
AUSGEZOGEN
 62
    18
420
        0
370
    18
100
AcDbText
 10
-167.105658776257
 20
-2342.015821416477
 30
0.0
 40
14.85
  1
Benennung/Designation
 41
1.081895683695
  7
Arial
 72
     5
 11
72.231791223743
 21
-2342.015821416477
 31
0.0
100
AcDbText
  0
TEXT
  5
27B
330
271
100
AcDbEntity
  8
Layer100
  6
AUSGEZOGEN
 62
    18
420
        0
370
    18
100
AcDbText
 10
-168.275658776257
 20
-2531.353321416476
 30
0.0
 40
14.85
  1
Sachnummer/Part-No.
 41
1.080626575441
  7
Arial
 72
     5
 11
54.541166223743
 21
-2531.353321416476
 31
0.0
100
AcDbText
  0
LINE
  5
27C
330
271
100
AcDbEntity
  8
Layer100
  6
AUSGEZOGEN
 62
    18
420
        0
370
    18
100
AcDbLine
 10
-479.225658776257
 20
-2318.498821377852
 30
0.0
 11
-479.225658776257
 21
-2433.248821377852
 31
0.0
  0
TEXT
  5
27D
330
271
100
AcDbEntity
  8
Layer100
  6
AUSGEZOGEN
 62
    18
420
        0
370
    18
100
AcDbText
 10
-566.078750394612
 20
-2413.730431872317
 30
0.0
 40
14.85
  1
Gepr.
 41
1.076768834145
  7
Arial
 72
     5
 11
-510.257600394612
 21
-2413.730431872317
 31
0.0
100
AcDbText
  0
TEXT
  5
27E
330
271
100
AcDbEntity
  8
Layer100
  6
AUSGEZOGEN
 62
    18
420
        0
370
    18
100
AcDbText
 10
-566.078750394612
 20
-2433.035431872317
 30
0.0
 40
14.85
  1
Check.
 41
1.077923572744
  7
Arial
 72
     5
 11
-496.543625394612
 21
-2433.035431872317
 31
0.0
100
AcDbText
  0
TEXT
  5
27F
330
271
100
AcDbEntity
  8
Layer100
  6
AUSGEZOGEN
 62
    18
420
        0
370
    18
100
AcDbText
 10
-472.478840547665
 20
-2337.2227626821
 30
0.0
 40
14.85
  1
Datum
 41
1.075650693262
  7
Arial
 72
     5
 11
-406.812140547665
 21
-2337.2227626821
 31
0.0
100
AcDbText
  0
TEXT
  5
280
330
271
100
AcDbEntity
  8
Layer100
  6
AUSGEZOGEN
 62
    18
420
        0
370
    18
100
AcDbText
 10
-472.478840547665
 20
-2356.527762682099
 30
0.0
 40
14.85
  1
Date
 41
1.076492537313
  7
Arial
 72
     5
 11
-425.352365547665
 21
-2356.527762682099
 31
0.0
100
AcDbText
  0
TEXT
  5
281
330
271
100
AcDbEntity
  8
Layer100
  6
AUSGEZOGEN
 62
    18
420
        0
370
    18
100
AcDbText
 10
-332.075658776257
 20
-2337.227821261981
 30
0.0
 40
14.85
  1
Name
 41
1.072387859253
  7
Arial
 72
     5
 11
-272.787033776257
 21
-2337.227821261981
 31
0.0
100
AcDbText
  0
TEXT
  5
282
330
271
100
AcDbEntity
  8
Layer100
  6
AUSGEZOGEN
 62
    18
420
        0
370
    18
100
AcDbText
 10
-332.075658776257
 20
-2356.532821261981
 30
0.0
 40
14.85
  1
Name
 41
1.072387859253
  7
Arial
 72
     5
 11
-272.787033776257
 21
-2356.532821261981
 31
0.0
100
AcDbText
  0
TEXT
  5
283
330
271
100
AcDbEntity
  8
Layer100
  6
AUSGEZOGEN
 62
    18
420
        0
370
    18
100
AcDbText
 10
-566.098367382676
 20
-2375.467286352599
 30
0.0
 40
14.85
  1
Bearb.
 41
1.078672178988
  7
Arial
 72
     5
 11
-500.231192382676
 21
-2375.467286352599
 31
0.0
100
AcDbText
  0
TEXT
  5
284
330
271
100
AcDbEntity
  8
Layer100
  6
AUSGEZOGEN
 62
    18
420
        0
370
    18
100
AcDbText
 10
-566.098367382676
 20
-2394.772286352599
 30
0.0
 40
14.85
  1
Drawn
 41
1.075502107612
  7
Arial
 72
     5
 11
-501.686492382676
 21
-2394.772286352599
 31
0.0
100
AcDbText
  0
TEXT
  5
285
330
271
100
AcDbEntity
  8
Layer100
  6
AUSGEZOGEN
 62
    18
420
        0
370
    18
100
AcDbText
 10
-1113.5379875
 20
-2642.7725
 30
0.0
 40
14.85
  1
Ausg.
 41
1.076912300364
  7
Arial
 72
     5
 11
-1056.4620125
 21
-2642.7725
 31
0.0
100
AcDbText
  0
TEXT
  5
286
330
271
100
AcDbEntity
  8
Layer100
  6
AUSGEZOGEN
 62
    18
420
        0
370
    18
100
AcDbText
 10
-1113.5379875
 20
-2662.0775
 30
0.0
 40
14.85
  1
Issue
 41
1.078087529976
  7
Arial
 72
     5
 11
-1060.1299625
 21
-2662.0775
 31
0.0
100
AcDbText
  0
TEXT
  5
287
330
271
100
AcDbEntity
  8
Layer100
  6
AUSGEZOGEN
 62
    18
420
        0
370
    18
100
AcDbText
 10
-986.105658776257
 20
-2643.227821261981
 30
0.0
 40
14.85
  1
Änderung
 41
1.077825512227
  7
Arial
 72
     5
 11
-889.239108776257
 21
-2643.227821261981
 31
0.0
100
AcDbText
  0
TEXT
  5
288
330
271
100
AcDbEntity
  8
Layer100
  6
AUSGEZOGEN
 62
    18
420
        0
370
    18
100
AcDbText
 10
-986.105658776257
 20
-2662.532821261981
 30
0.0
 40
14.85
  1
Modification
 41
1.083926413321
  7
Arial
 72
     5
 11
-866.236458776257
 21
-2662.532821261981
 31
0.0
100
AcDbText
  0
TEXT
  5
289
330
271
100
AcDbEntity
  8
Layer100
  6
AUSGEZOGEN
 62
    18
420
        0
370
    18
100
AcDbText
 10
-753.275658776257
 20
-2643.227821261981
 30
0.0
 40
14.85
  1
Datum
 41
1.075650693262
  7
Arial
 72
     5
 11
-687.608958776257
 21
-2643.227821261981
 31
0.0
100
AcDbText
  0
TEXT
  5
28A
330
271
100
AcDbEntity
  8
Layer100
  6
AUSGEZOGEN
 62
    18
420
        0
370
    18
100
AcDbText
 10
-753.275658776257
 20
-2662.532821261981
 30
0.0
 40
14.85
  1
Date
 41
1.076492537313
  7
Arial
 72
     5
 11
-706.149183776257
 21
-2662.532821261981
 31
0.0
100
AcDbText
  0
TEXT
  5
28B
330
271
100
AcDbEntity
  8
Layer100
  6
AUSGEZOGEN
 62
    18
420
        0
370
    18
100
AcDbText
 10
-636.275658776257
 20
-2643.227821261981
 30
0.0
 40
14.85
  1
Name
 41
1.072387859253
  7
Arial
 72
     5
 11
-576.987033776257
 21
-2643.227821261981
 31
0.0
100
AcDbText
  0
TEXT
  5
28C
330
271
100
AcDbEntity
  8
Layer100
  6
AUSGEZOGEN
 62
    18
420
        0
370
    18
100
AcDbText
 10
-636.275658776257
 20
-2662.532821261981
 30
0.0
 40
14.85
  1
Name
 41
1.072387859253
  7
Arial
 72
     5
 11
-576.987033776257
 21
-2662.532821261981
 31
0.0
100
AcDbText
  0
LINE
  5
28D
330
271
100
AcDbEntity
  8
Layer100
  6
AUSGEZOGEN
 62
    18
420
        0
370
    18
100
AcDbLine
 10
-338.825658776257
 20
-2318.498821377852
 30
0.0
 11
-338.825658776257
 21
-2433.248821377852
 31
0.0
  0
TEXT
  5
28E
330
271
100
AcDbEntity
  8
Layer100
  6
AUSGEZOGEN
 62
    18
420
        0
370
    18
100
AcDbText
 10
299.724341223743
 20
-2188.268821377853
 30
0.0
 40
14.85
  1
Menge
 41
1.074408249356
  7
Arial
 72
     5
 11
367.804166223743
 21
-2188.268821377853
 31
0.0
100
AcDbText
  0
TEXT
  5
28F
330
271
100
AcDbEntity
  8
Layer100
  6
AUSGEZOGEN
 62
    18
420
        0
370
    18
100
AcDbText
 10
299.724341223743
 20
-2207.573821377853
 30
0.0
 40
14.85
  1
Quantity
 41
1.081088880339
  7
Arial
 72
     5
 11
383.173916223743
 21
-2207.573821377853
 31
0.0
100
AcDbText
  0
TEXT
  5
290
330
271
100
AcDbEntity
  8
Layer100
  6
AUSGEZOGEN
 62
    18
420
        0
370
    18
100
AcDbText
 10
-165.935658776257
 20
-2188.052821261981
 30
0.0
 40
14.85
  1
Maßstab
 41
1.076703499079
  7
Arial
 72
     5
 11
-79.115133776257
 21
-2188.052821261981
 31
0.0
100
AcDbText
  0
TEXT
  5
291
330
271
100
AcDbEntity
  8
Layer100
  6
AUSGEZOGEN
 62
    18
420
        0
370
    18
100
AcDbText
 10
-165.935658776257
 20
-2207.357821261981
 30
0.0
 40
14.85
  1
Scale
 41
1.076768834145
  7
Arial
 72
     5
 11
-110.114508776257
 21
-2207.357821261981
 31
0.0
100
AcDbText
  0
TEXT
  5
292
330
271
100
AcDbEntity
  8
Layer100
  6
AUSGEZOGEN
 62
    18
420
        0
370
    18
100
AcDbText
 10
-747.425658776257
 20
-2186.693821377853
 30
0.0
 40
14.85
  1
 Maße in mm
 41
1.079690569745
  7
Arial
 72
     5
 11
-616.849608776257
 21
-2186.693821377853
 31
0.0
100
AcDbText
  0
TEXT
  5
293
330
271
100
AcDbEntity
  8
Layer100
  6
AUSGEZOGEN
 62
    18
420
        0
370
    18
100
AcDbText
 10
-747.425658776257
 20
-2205.998821377852
 30
0.0
 40
14.85
  1
Dimensions in
 41
1.081916714204
  7
Arial
 72
     5
 11
-606.603108776257
 21
-2205.998821377852
 31
0.0
100
AcDbText
  0
TEXT
  5
294
330
271
100
AcDbEntity
  8
Layer100
  6
AUSGEZOGEN
 62
    18
420
        0
370
    18
100
AcDbText
 10
-747.425658776257
 20
-2225.303821377852
 30
0.0
 40
14.85
  1
 millimeters
 41
1.084880260734
  7
Arial
 72
     5
 11
-633.734058776257
 21
-2225.303821377852
 31
0.0
100
AcDbText
  0
CIRCLE
  5
295
330
271
100
AcDbEntity
  8
Layer100
  6
AUSGEZOGEN
 62
    18
420
        0
370
    18
100
AcDbCircle
 10
-637.303414265205
 20
-2280.075608908507
 30
0.0
 40
25.2528123672159
  0
CIRCLE
  5
296
330
271
100
AcDbEntity
  8
Layer100
  6
AUSGEZOGEN
 62
    18
420
        0
370
    18
100
AcDbCircle
 10
-637.303414265205
 20
-2280.075608908507
 30
0.0
 40
16.94010152284265
  0
LINE
  5
297
330
271
100
AcDbEntity
  8
Layer100
  6
AUSGEZOGEN
 62
    18
420
        0
370
    18
100
AcDbLine
 10
-733.297322894646
 20
-2297.015710431349
 30
0.0
 11
-733.297322894646
 21
-2263.135507385664
 31
0.0
  0
LINE
  5
298
330
271
100
AcDbEntity
  8
Layer100
  6
AUSGEZOGEN
 62
    18
420
        0
370
    18
100
AcDbLine
 10
-679.653668072311
 20
-2305.328421275722
 30
0.0
 11
-679.653668072311
 21
-2254.822796541292
 31
0.0
  0
LINE
  5
299
330
271
100
AcDbEntity
  8
Layer100
  6
AUSGEZOGEN
 62
    18
420
        0
370
    18
100
AcDbLine
 10
-733.297322894646
 20
-2263.135507385664
 30
0.0
 11
-679.653668072311
 21
-2254.822796541292
 31
0.0
  0
LINE
  5
29A
330
271
100
AcDbEntity
  8
Layer100
  6
AUSGEZOGEN
 62
    18
420
        0
370
    18
100
AcDbLine
 10
-679.653668072311
 20
-2305.328421275722
 30
0.0
 11
-733.297322894646
 21
-2297.015710431349
 31
0.0
  0
LINE
  5
29B
330
271
100
AcDbEntity
  8
Layer100
  6
DASHDOT
 62
    18
420
        0
370
    18
100
AcDbLine
 10
-637.303414265205
 20
-2311.132461660512
 30
0.0
 11
-637.303414265205
 21
-2252.213630057604
 31
0.0
  0
LINE
  5
29C
330
271
100
AcDbEntity
  8
Layer100
  6
DASHDOT
 62
    18
420
        0
370
    18
100
AcDbLine
 10
-665.419092846855
 20
-2280.075608908507
 30
0.0
 11
-609.056324167675
 21
-2280.075608908507
 31
0.0
  0
LINE
  5
29D
330
271
100
AcDbEntity
  8
Layer100
  6
DASHDOT
 62
    18
420
        0
370
    18
100
AcDbLine
 10
-735.878584195156
 20
-2280.075608908507
 30
0.0
 11
-677.239599619102
 21
-2280.075608908507
 31
0.0
  0
LINE
  5
29E
330
271
100
AcDbEntity
  8
Layer100
  6
AUSGEZOGEN
 62
    18
420
        0
370
    50
100
AcDbLine
 10
-1128.305658776257
 20
-2624.498821377852
 30
0.0
 11
581.694341223743
 21
-2624.498821377852
 31
0.0
  0
LINE
  5
29F
330
271
100
AcDbEntity
  8
Layer100
  6
AUSGEZOGEN
 62
    18
420
        0
370
    18
100
AcDbLine
 10
-1128.305658776257
 20
-2586.248821377852
 30
0.0
 11
-572.825658776257
 21
-2586.248821377852
 31
0.0
  0
LINE
  5
2A0
330
271
100
AcDbEntity
  8
Layer100
  6
AUSGEZOGEN
 62
    18
420
        0
370
    18
100
AcDbLine
 10
-1128.305658776257
 20
-2547.998821377852
 30
0.0
 11
-572.825658776257
 21
-2547.998821377852
 31
0.0
  0
LINE
  5
2A1
330
271
100
AcDbEntity
  8
Layer100
  6
AUSGEZOGEN
 62
    18
420
        0
370
    50
100
AcDbLine
 10
-175.025658776257
 20
-2509.748821377852
 30
0.0
 11
581.694341223743
 21
-2509.748821377852
 31
0.0
  0
LINE
  5
2A2
330
271
100
AcDbEntity
  8
Layer100
  6
AUSGEZOGEN
 62
    18
420
        0
370
    18
100
AcDbLine
 10
-1128.305658776257
 20
-2509.748821377852
 30
0.0
 11
-572.825658776257
 21
-2509.748821377852
 31
0.0
  0
LINE
  5
2A3
330
271
100
AcDbEntity
  8
Layer100
  6
AUSGEZOGEN
 62
    18
420
        0
370
    18
100
AcDbLine
 10
-1128.305658776257
 20
-2471.498821377852
 30
0.0
 11
-572.825658776257
 21
-2471.498821377852
 31
0.0
  0
LINE
  5
2A4
330
271
100
AcDbEntity
  8
Layer100
  6
AUSGEZOGEN
 62
    18
420
        0
370
    18
100
AcDbLine
 10
-1128.305658776257
 20
-2433.248821377852
 30
0.0
 11
-175.025658776257
 21
-2433.248821377852
 31
0.0
  0
LINE
  5
2A5
330
271
100
AcDbEntity
  8
Layer100
  6
AUSGEZOGEN
 62
    18
420
        0
370
    18
100
AcDbLine
 10
-1128.305658776257
 20
-2394.998821377852
 30
0.0
 11
-175.025658776257
 21
-2394.998821377852
 31
0.0
  0
LINE
  5
2A6
330
271
100
AcDbEntity
  8
Layer100
  6
AUSGEZOGEN
 62
    18
420
        0
370
    18
100
AcDbLine
 10
-1128.305658776257
 20
-2356.748821377852
 30
0.0
 11
-175.025658776257
 21
-2356.748821377852
 31
0.0
  0
LINE
  5
2A7
330
271
100
AcDbEntity
  8
Layer100
  6
AUSGEZOGEN
 62
    18
420
        0
370
    50
100
AcDbLine
 10
-1128.305658776257
 20
-2318.498821377852
 30
0.0
 11
581.694341223743
 21
-2318.498821377852
 31
0.0
  0
LINE
  5
2A8
330
271
100
AcDbEntity
  8
Layer100
  6
AUSGEZOGEN
 62
    18
420
        0
370
    50
100
AcDbLine
 10
292.974341223743
 20
-2165.498882725645
 30
0.0
 11
292.974341223743
 21
-2222.872973229017
 31
0.0
  0
LINE
  5
2A9
330
271
100
AcDbEntity
  8
Layer100
  6
AUSGEZOGEN
 62
    18
420
        0
370
    50
100
AcDbLine
 10
581.694172677908
 20
-2222.873821377605
 30
0.0
 11
-175.025658776257
 21
-2222.871598423769
 31
0.0
  0
ENDBLK
  5
273
330
271
100
AcDbEntity
  8
0
100
AcDbBlockEnd
  0
BLOCK
  5
2AC
330
2AB
100
AcDbEntity
  8
0
100
AcDbBlockBegin
  2
Beschriftung_nNn023
 70
     0
 10
0.0
 20
0.0
 30
0.0
  3
Beschriftung_nNn023
  1

  0
TEXT
  5
2AE
330
2AB
100
AcDbEntity
  8
Layer100
  6
AUSGEZOGEN
 62
    18
420
        0
370
    18
100
AcDbText
 10
-1060.001787386355
 20
-2255.915820915797
 30
0.0
 40
19.049998998642
  1
Kundenzeichnung
 41
1.032581817144
  7
Arial
 72
     5
 11
-840.221250890908
 21
-2255.915820915797
 31
0.0
100
AcDbText
  0
TEXT
  5
2AF
330
2AB
100
AcDbEntity
  8
Layer100
  6
AUSGEZOGEN
 62
    18
420
        0
370
    18
100
AcDbText
 10
-55.955658776257
 20
-2203.748821377852
 30
0.0
 40
19.049998998642
  1
1:1
 41
1.022756754879
  7
Arial
 72
     5
 11
-18.157639373038
 21
-2203.748821377852
 31
0.0
100
AcDbText
  0
TEXT
  5
2B0
330
2AB
100
AcDbEntity
  8
Layer100
  6
AUSGEZOGEN
 62
    18
420
        0
370
    18
100
AcDbText
 10
426.084341223744
 20
-2201.836321377853
 30
0.0
 40
19.049998998642
  1
1
 41
0.974226840702
  7
Arial
 72
     5
 11
440.48614100745
 21
-2201.836321377853
 31
0.0
100
AcDbText
  0
TEXT
  5
2B1
330
2AB
100
AcDbEntity
  8
Layer100
  6
AUSGEZOGEN
 62
    18
420
        0
370
    18
100
AcDbText
 10
-165.305658776257
 20
-2412.698821377853
 30
0.0
 40
31.75
  1
Einbauspüle
 41
0.911214686759
  7
Arial
 72
     5
 11
56.913861509294
 21
-2412.698821377853
 31
0.0
100
AcDbText
  0
TEXT
  5
2B2
330
2AB
100
AcDbEntity
  8
Layer100
  6
AUSGEZOGEN
 62
    18
420
        0
370
    18
100
AcDbText
 10
-165.305658776257
 20
-2475.698821377853
 30
0.0
 40
31.75
  1
LineUP 1E
 41
0.906912471044
  7
Arial
 72
     5
 11
26.811051439901
 21
-2475.698821377853
 31
0.0
100
AcDbText
  0
TEXT
  5
2B3
330
2AB
100
AcDbEntity
  8
Layer100
  6
AUSGEZOGEN
 62
    18
420
        0
370
    18
100
AcDbText
 10
-165.305658776257
 20
-2601.698821377853
 30
0.0
 40
31.75
  1
1091051 - 1091055
 41
0.912730277945
  7
Arial
 72
     5
 11
185.487391684699
 21
-2601.698821377853
 31
0.0
100
AcDbText
  0
TEXT
  5
2B4
330
2AB
100
AcDbEntity
  8
Layer100
  6
AUSGEZOGEN
 62
    18
420
        0
370
    18
100
AcDbText
 10
-473.645658776257
 20
-2387.348821377852
 30
0.0
 40
19.049998998642
  1
02.03.21
 41
1.034889233423
  7
Arial
 72
     5
 11
-366.555740486476
 21
-2387.348821377852
 31
0.0
100
AcDbText
  0
TEXT
  5
2B5
330
2AB
100
AcDbEntity
  8
Layer100
  6
AUSGEZOGEN
 62
    18
420
        0
370
    18
100
AcDbText
 10
-330.905658776257
 20
-2387.348821377852
 30
0.0
 40
19.049998998642
  1
CM
 41
0.997270426658
  7
Arial
 72
     5
 11
-289.660999410245
 21
-2387.348821377852
 31
0.0
100
AcDbText
  0
ENDBLK
  5
2AD
330
2AB
100
AcDbEntity
  8
0
100
AcDbBlockEnd
  0
ENDSEC
  0
SECTION
  2
ENTITIES
  0
LWPOLYLINE
  5
7A
330
1F
100
AcDbEntity
  8
Layer5
  6
AUSGEZOGEN
 62
    18
420
        0
370
    70
100
AcDbPolyline
 90
        2
 70
     0
 43
0.0
 10
-793.505857935414
 20
-1005.0
 10
230.456597420613
 20
-1004.999999999999
  0
LINE
  5
7B
330
1F
100
AcDbEntity
  8
Layer6
  6
AUSGEZOGEN
 62
    18
420
        0
370
    25
100
AcDbLine
 10
-691.842777781173
 20
-405.0
 30
0.0
 11
-691.842777781173
 21
-1005.0
 31
0.0
  0
LINE
  5
7C
330
1F
100
AcDbEntity
  8
Layer6
  6
AUSGEZOGEN
 62
    18
420
        0
370
    25
100
AcDbLine
 10
-191.842777781173
 20
-405.0
 30
0.0
 11
-191.842777781173
 21
-465.0
 31
0.0
  0
LINE
  5
7D
330
1F
100
AcDbEntity
  8
Layer6
  6
AUSGEZOGEN
 62
    18
420
        0
370
    25
100
AcDbLine
 10
-191.842777781173
 20
-945.0
 30
0.0
 11
-191.842777781173
 21
-1005.0
 31
0.0
  0
LINE
  5
7E
330
1F
100
AcDbEntity
  8
Layer6
  6
AUSGEZOGEN
 62
    18
420
        0
370
    25
100
AcDbLine
 10
-671.842777781173
 20
-405.0
 30
0.0
 11
-671.842777781173
 21
-465.351971380336
 31
0.0
  0
LINE
  5
7F
330
1F
100
AcDbEntity
  8
Layer6
  6
AUSGEZOGEN
 62
    18
420
        0
370
    25
100
AcDbLine
 10
-671.842777781173
 20
-944.648028619663
 30
0.0
 11
-671.842777781173
 21
-1005.0
 31
0.0
  0
LINE
  5
80
330
1F
100
AcDbEntity
  8
Layer6
  6
AUSGEZOGEN
 62
    18
420
        0
370
    25
100
AcDbLine
 10
-211.842777781173
 20
-405.0
 30
0.0
 11
-211.842777781173
 21
-465.0
 31
0.0
  0
LINE
  5
81
330
1F
100
AcDbEntity
  8
Layer6
  6
AUSGEZOGEN
 62
    18
420
        0
370
    25
100
AcDbLine
 10
-211.842777781173
 20
-945.0
 30
0.0
 11
-211.842777781173
 21
-1005.0
 31
0.0
  0
LINE
  5
82
330
1F
100
AcDbEntity
  8
Layer5
  6
AUSGEZOGEN
 62
    18
420
        0
370
    70
100
AcDbLine
 10
155.0
 20
-940.0
 30
0.0
 11
155.0
 21
-470.0
 31
0.0
  0
ARC
  5
83
330
1F
100
AcDbEntity
  8
Layer5
  6
AUSGEZOGEN
 62
    18
420
        0
370
    70
100
AcDbCircle
 10
150.0
 20
-470.0
 30
0.0
 40
5.0
100
AcDbArc
 50
0.0
 51
90.0
  0
LINE
  5
84
330
1F
100
AcDbEntity
  8
Layer5
  6
AUSGEZOGEN
 62
    18
420
        0
370
    70
100
AcDbLine
 10
150.0
 20
-465.0
 30
0.0
 11
-670.0
 21
-465.0
 31
0.0
  0
ARC
  5
85
330
1F
100
AcDbEntity
  8
Layer5
  6
AUSGEZOGEN
 62
    18
420
        0
370
    70
100
AcDbCircle
 10
-670.0
 20
-470.0
 30
0.0
 40
5.0
100
AcDbArc
 50
90.0
 51
180.0
  0
LINE
  5
86
330
1F
100
AcDbEntity
  8
Layer5
  6
AUSGEZOGEN
 62
    18
420
        0
370
    70
100
AcDbLine
 10
-675.0
 20
-470.0
 30
0.0
 11
-675.0
 21
-940.0
 31
0.0
  0
ARC
  5
87
330
1F
100
AcDbEntity
  8
Layer5
  6
AUSGEZOGEN
 62
    18
420
        0
370
    70
100
AcDbCircle
 10
-670.0
 20
-940.0
 30
0.0
 40
5.0
100
AcDbArc
 50
180.0
 51
270.0
  0
LINE
  5
88
330
1F
100
AcDbEntity
  8
Layer5
  6
AUSGEZOGEN
 62
    18
420
        0
370
    70
100
AcDbLine
 10
-670.0
 20
-945.0
 30
0.0
 11
150.0
 21
-945.0
 31
0.0
  0
ARC
  5
89
330
1F
100
AcDbEntity
  8
Layer5
  6
AUSGEZOGEN
 62
    18
420
        0
370
    70
100
AcDbCircle
 10
150.0
 20
-940.0
 30
0.0
 40
5.0
100
AcDbArc
 50
270.0
 51
0.0
  0
LWPOLYLINE
  5
8A
330
1F
100
AcDbEntity
  8
Layer3
  6
AUSGEZOGEN
 62
    18
420
        0
370
    25
100
AcDbPolyline
 90
       25
 70
     0
 43
0.0
 10
-760.965644413556
 20
-405.0
 10
-776.185912380863
 20
-452.519808082727
 10
-784.768204181294
 20
-491.92637530857
 10
-788.040115034442
 20
-524.370671557823
 10
-787.329240159899
 20
-551.003666710782
 10
-783.963174777257
 20
-572.976330647742
 10
-779.269514106106
 20
-591.439633248998
 10
-774.57585336604
 20
-607.544544394845
 10
-771.20978777665
 20
-622.442033965578
 10
-770.173192718574
 20
-637.106826542059
 10
-771.165064216634
 20
-651.808665507425
 10
-773.558678456698
 20
-666.641048945378
 10
-776.727311624634
 20
-681.697474939622
 10
-780.044239906311
 20
-697.07144157386
 10
-782.882739487597
 20
-712.856446931794
 10
-784.616086554359
 20
-729.145989097128
 10
-784.617557292465
 20
-746.033566153566
 10
-782.546425817991
 20
-763.790638667761
 10
-779.205957967835
 20
-783.40051713817
 10
-775.685417509099
 20
-806.024474546203
 10
-773.074068208891
 20
-832.823783873266
 10
-772.461173834314
 20
-864.959718100769
 10
-774.935998152472
 20
-903.59355021012
 10
-781.587804930471
 20
-949.886553182728
 10
-793.505857935414
 20
-1005.0
  0
LWPOLYLINE
  5
8B
330
1F
100
AcDbEntity
  8
Layer3
  6
AUSGEZOGEN
 62
    18
420
        0
370
    25
100
AcDbPolyline
 90
       25
 70
     0
 43
0.0
 10
270.227968196035
 20
-405.0
 10
257.039992087236
 20
-460.670312887821
 10
249.294803418387
 20
-508.186810234092
 10
245.910200214249
 20
-548.575209774137
 10
245.803980499583
 20
-582.861229243279
 10
247.893942299149
 20
-612.070586376842
 10
251.097883637707
 20
-637.228998910148
 10
254.333602540019
 20
-659.362184578521
 10
256.518897030846
 20
-679.495861117284
 10
256.834612594784
 20
-698.499788280767
 10
255.513784555786
 20
-716.619893899327
 10
253.052495697639
 20
-733.946147822328
 10
249.946828804131
 20
-750.568519899133
 10
246.692866659052
 20
-766.576979979105
 10
243.786692046189
 20
-782.061497911608
 10
241.72438774933
 20
-797.112043546007
 10
241.002036552265
 20
-811.818586731664
 10
241.895926560651
 20
-826.421716017189
 10
243.80316716763
 20
-841.764494748178
 10
245.901073088214
 20
-858.840604969473
 10
247.366959037414
 20
-878.643728725915
 10
247.378139730242
 20
-902.167548062348
 10
245.111929881711
 20
-930.405745023611
 10
239.74564420683
 20
-964.352001654548
 10
230.456597420613
 20
-1005.0
  0
LWPOLYLINE
  5
8C
330
1F
100
AcDbEntity
  8
Layer5
  6
AUSGEZOGEN
 62
    18
420
        0
370
    70
100
AcDbPolyline
 90
        2
 70
     0
 43
0.0
 10
270.227968196035
 20
-405.0
 10
-760.965644413556
 20
-405.0
  0
DIMENSION
  5
96
330
1F
100
AcDbEntity
  8
Layer2
  6
AUSGEZOGEN
 62
    18
420
        0
370
    25
100
AcDbDimension
280
     0
  2
*D1
 10
155.0
 20
-357.4955160607
 30
0.0
 11
-260.0
 21
-308.7455160607
 31
0.0
 70
    32
 71
     5
 42
-1.0
 73
     0
 74
     0
 75
     0
  3
ISO-25
100
AcDbAlignedDimension
 13
-675.0
 23
-381.355201461407
 33
0.0
 14
155.0
 24
-383.161653947951
 34
0.0
100
AcDbRotatedDimension
1001
ACAD
1000
DSTYLE
1002
{
1070
     3
1000
<>
1070
   340
1005
6F
1070
    44
1040
5.0
1070
   280
1070
     0
1070
    77
1070
     1
1070
   179
1070
     1
1070
   271
1070
     1
1070
   173
1070
     1
1070
    41
1040
12.5
1070
   147
1040
5.357142857143
1070
   140
1040
37.5
1070
   178
1070
    18
1070
   177
1070
    18
1070
   176
1070
    18
1002
}
  0
DIMENSION
  5
A0
330
1F
100
AcDbEntity
  8
Layer2
  6
AUSGEZOGEN
 62
    18
420
        0
370
    25
100
AcDbDimension
280
     0
  2
*D2
 10
-831.469430576222
 20
-945.0
 30
0.0
 11
-880.219430576223
 21
-705.0
 31
0.0
 70
    32
 71
     5
 42
-1.0
 73
     0
 74
     0
 75
     0
 53
90.0
  3
ISO-25
100
AcDbAlignedDimension
 13
-804.366313759576
 23
-465.0
 33
0.0
 14
-804.366313759576
 24
-945.0
 34
0.0
 50
-90.0
100
AcDbRotatedDimension
1001
ACAD
1000
DSTYLE
1002
{
1070
     3
1000
<>
1070
   340
1005
6F
1070
    44
1040
5.0
1070
   280
1070
     0
1070
    77
1070
     1
1070
   179
1070
     1
1070
   271
1070
     1
1070
   173
1070
     1
1070
    41
1040
12.5
1070
   147
1040
5.357142857143
1070
   140
1040
37.5
1070
   178
1070
    18
1070
   177
1070
    18
1070
   176
1070
    18
1002
}
  0
DIMENSION
  5
AA
330
1F
100
AcDbEntity
  8
Layer2
  6
AUSGEZOGEN
 62
    18
420
        0
370
    25
100
AcDbDimension
280
     0
  2
*D3
 10
-191.842777781173
 20
-1065.0
 30
0.0
 11
-454.842777781173
 21
-1105.960003389102
 31
0.0
 70
   160
 71
     5
 42
-1.0
 73
     0
 74
     0
 75
     0
  3
ISO-25
100
AcDbAlignedDimension
 13
-691.842777781173
 23
-1040.0
 33
0.0
 14
-191.842777781173
 24
-1040.0
 34
0.0
100
AcDbRotatedDimension
1001
ACAD
1000
DSTYLE
1002
{
1070
     3
1000
<>
1070
   340
1005
6F
1070
    44
1040
5.0
1070
   280
1070
     3
1070
    77
1070
     1
1070
   179
1070
     1
1070
   271
1070
     1
1070
   173
1070
     1
1070
    41
1040
12.5
1070
   147
1040
5.357142857143
1070
   140
1040
37.5
1070
   178
1070
    18
1070
   177
1070
    18
1070
   176
1070
    18
1002
}
  0
DIMENSION
  5
B1
330
1F
100
AcDbEntity
  8
Layer2
  6
AUSGEZOGEN
 62
    18
420
        0
370
    25
100
AcDbDimension
280
     0
  2
*D4
 10
-691.842777781173
 20
-1134.663732524897
 30
0.0
 11
-683.421388890587
 21
-1103.163732524897
 31
0.0
 70
    32
 71
     5
 42
-1.0
 73
     0
 74
     0
 75
     0
  3
ISO-25
100
AcDbAlignedDimension
 13
-675.0
 23
-1110.955187627763
 33
0.0
 14
-691.842777781173
 24
-1110.955187627763
 34
0.0
 50
180.0
100
AcDbRotatedDimension
1001
ACAD
1000
DSTYLE
1002
{
1070
     3
1000
<>
1070
   340
1005
6F
1070
    44
1040
5.0
1070
   280
1070
     0
1070
    77
1070
     0
1070
   179
1070
     0
1070
   271
1070
     0
1070
   173
1070
     1
1070
    41
1040
12.5
1070
   147
1040
5.357142857143
1070
   140
1040
37.5
1070
   178
1070
    18
1070
   177
1070
    18
1070
   176
1070
    18
1002
}
  0
INSERT
  5
BA
330
1F
100
AcDbEntity
  8
0
100
AcDbBlockReference
  2
AnonymMegaMac_002_nNn04
 10
0.0
 20
0.0
 30
0.0
  0
LINE
  5
BB
330
1F
100
AcDbEntity
  8
Layer5
  6
AUSGEZOGEN
 62
    18
420
        0
370
    70
100
AcDbLine
 10
-671.842777781173
 20
-944.648028619664
 30
0.0
 11
-671.842777781173
 21
-465.0
 31
0.0
  0
LINE
  5
BC
330
1F
100
AcDbEntity
  8
Layer5
  6
AUSGEZOGEN
 62
    18
420
        0
370
    70
100
AcDbLine
 10
-211.842777781173
 20
-465.0
 30
0.0
 11
-211.842777781173
 21
-945.0
 31
0.0
  0
LINE
  5
BD
330
1F
100
AcDbEntity
  8
Layer5
  6
AUSGEZOGEN
 62
    18
420
        0
370
    70
100
AcDbLine
 10
-191.842777781173
 20
-945.0
 30
0.0
 11
-191.842777781173
 21
-465.0
 31
0.0
  0
INSERT
  5
D1
330
1F
100
AcDbEntity
  8
0
100
AcDbBlockReference
  2
AnonymMegaMac_nNn05
 10
0.0
 20
0.0
 30
0.0
  0
LINE
  5
D2
330
1F
100
AcDbEntity
  8
Layer5
  6
AUSGEZOGEN
 62
    18
420
        0
370
    70
100
AcDbLine
 10
-616.842777781173
 20
-1375.064160014886
 30
0.0
 11
233.157222218827
 21
-1375.064160014886
 31
0.0
  0
LINE
  5
D3
330
1F
100
AcDbEntity
  8
Layer5
  6
AUSGEZOGEN
 62
    18
420
        0
370
    70
100
AcDbLine
 10
-221.335834707153
 20
-1405.064160014885
 30
0.0
 11
-170.387498595185
 21
-1405.064160014886
 31
0.0
  0
LINE
  5
D4
330
1F
100
AcDbEntity
  8
Layer0
  6
AUSGEZOGEN
 62
    18
420
        0
370
    18
100
AcDbLine
 10
-373.842777792485
 20
-1575.064160014886
 30
0.0
 11
-463.84277777021
 21
-1575.064160014886
 31
0.0
  0
LINE
  5
D5
330
1F
100
AcDbEntity
  8
Layer0
  6
AUSGEZOGEN
 62
    18
420
        0
370
    18
100
AcDbLine
 10
-418.842777781173
 20
-1569.064160014886
 30
0.0
 11
-373.84277779231
 21
-1569.064160014886
 31
0.0
  0
LINE
  5
D6
330
1F
100
AcDbEntity
  8
Layer0
  6
AUSGEZOGEN
 62
    18
420
        0
370
    18
100
AcDbLine
 10
-418.842777041833
 20
-1560.064160014886
 30
0.0
 11
-356.842777789146
 21
-1560.064160014886
 31
0.0
  0
LINE
  5
D7
330
1F
100
AcDbEntity
  8
Layer0
  6
AUSGEZOGEN
 62
    18
420
        0
370
    18
100
AcDbLine
 10
-463.842777769859
 20
-1569.064160014886
 30
0.0
 11
-418.842777781173
 21
-1569.064160014886
 31
0.0
  0
LINE
  5
D8
330
1F
100
AcDbEntity
  8
Layer0
  6
AUSGEZOGEN
 62
    18
420
        0
370
    18
100
AcDbLine
 10
-480.842777773175
 20
-1560.064160014886
 30
0.0
 11
-418.842777041833
 21
-1560.064160014886
 31
0.0
  0
LINE
  5
D9
330
1F
100
AcDbEntity
  8
Layer0
  6
AUSGEZOGEN
 62
    18
420
        0
370
    18
100
AcDbLine
 10
-463.842777770062
 20
-1575.064160014886
 30
0.0
 11
-540.115993284697
 21
-1575.064160014886
 31
0.0
  0
LINE
  5
DA
330
1F
100
AcDbEntity
  8
Layer0
  6
AUSGEZOGEN
 62
    18
420
        0
370
    18
100
AcDbLine
 10
-463.842777770062
 20
-1569.064160014886
 30
0.0
 11
-463.842777770062
 21
-1575.064160014886
 31
0.0
  0
LINE
  5
DB
330
1F
100
AcDbEntity
  8
Layer4
  6
AUSGEZOGEN
 62
    18
420
        0
370
    25
100
AcDbLine
 10
-258.993851104728
 20
-1414.171035029027
 30
0.0
 11
-236.132932982172
 21
-1391.310116906471
 31
0.0
  0
LINE
  5
DC
330
1F
100
AcDbEntity
  8
Layer4
  6
AUSGEZOGEN
 62
    18
420
        0
370
    25
100
AcDbLine
 10
-261.855505951845
 20
-1439.483330178816
 30
0.0
 11
-241.344898234119
 21
-1418.972722461091
 31
0.0
  0
LINE
  5
DD
330
1F
100
AcDbEntity
  8
Layer4
  6
AUSGEZOGEN
 62
    18
420
        0
370
    25
100
AcDbLine
 10
-238.577648828055
 20
-1416.205473055027
 30
0.0
 11
-225.893018830314
 21
-1403.520843057285
 31
0.0
  0
LINE
  5
DE
330
1F
100
AcDbEntity
  8
Layer4
  6
AUSGEZOGEN
 62
    18
420
        0
370
    25
100
AcDbLine
 10
-373.842777792284
 20
-1573.921242321929
 30
0.0
 11
-363.521477892084
 21
-1563.599942421729
 31
0.0
  0
LINE
  5
DF
330
1F
100
AcDbEntity
  8
Layer4
  6
AUSGEZOGEN
 62
    18
420
        0
370
    25
100
AcDbLine
 10
-216.985695485241
 20
-1417.064160014886
 30
0.0
 11
-209.594482029341
 21
-1409.672946558985
 31
0.0
  0
LINE
  5
E0
330
1F
100
AcDbEntity
  8
Layer4
  6
AUSGEZOGEN
 62
    18
420
        0
370
    25
100
AcDbLine
 10
-264.71716079896
 20
-1464.795625328605
 30
0.0
 11
-245.225238351153
 21
-1445.303702880798
 31
0.0
  0
LINE
  5
E1
330
1F
100
AcDbEntity
  8
Layer4
  6
AUSGEZOGEN
 62
    18
420
        0
370
    25
100
AcDbLine
 10
-352.535055182569
 20
-1575.064160014886
 30
0.0
 11
-336.467218017699
 21
-1558.996322850017
 31
0.0
  0
LINE
  5
E2
330
1F
100
AcDbEntity
  8
Layer4
  6
AUSGEZOGEN
 62
    18
420
        0
370
    25
100
AcDbLine
 10
-267.578815646076
 20
-1490.107920478394
 30
0.0
 11
-247.862034135899
 21
-1470.391138968216
 31
0.0
  0
LINE
  5
E3
330
1F
100
AcDbEntity
  8
Layer4
  6
AUSGEZOGEN
 62
    18
420
        0
370
    25
100
AcDbLine
 10
-330.084414879896
 20
-1575.064160014886
 30
0.0
 11
-312.774916823325
 21
-1557.754661958315
 31
0.0
  0
LINE
  5
E4
330
1F
100
AcDbEntity
  8
Layer4
  6
AUSGEZOGEN
 62
    18
420
        0
370
    25
100
AcDbLine
 10
-270.440470493192
 20
-1515.420215628183
 30
0.0
 11
-250.498829920642
 21
-1495.478575055633
 31
0.0
  0
LINE
  5
E5
330
1F
100
AcDbEntity
  8
Layer4
  6
AUSGEZOGEN
 62
    18
420
        0
370
    25
100
AcDbLine
 10
-307.633774577223
 20
-1575.064160014887
 30
0.0
 11
-287.375995786623
 21
-1554.806381224286
 31
0.0
  0
LINE
  5
E6
330
1F
100
AcDbEntity
  8
Layer4
  6
AUSGEZOGEN
 62
    18
420
        0
370
    25
100
AcDbLine
 10
-274.589345697952
 20
-1542.019731135615
 30
0.0
 11
-253.135625705388
 21
-1520.566011143051
 31
0.0
  0
LINE
  5
E7
330
1F
100
AcDbEntity
  8
Layer4
  6
AUSGEZOGEN
 62
    18
420
        0
370
    25
100
AcDbLine
 10
-282.4296782363
 20
-1572.310703976636
 30
0.0
 11
-257.323005447547
 21
-1547.204031187883
 31
0.0
  0
LINE
  5
E8
330
1F
100
AcDbEntity
  8
Layer0
  6
AUSGEZOGEN
 62
    18
420
        0
370
    18
100
AcDbLine
 10
-373.842777792284
 20
-1575.064160014886
 30
0.0
 11
-373.842777792284
 21
-1569.064160014886
 31
0.0
  0
LINE
  5
E9
330
1F
100
AcDbEntity
  8
Layer0
  6
AUSGEZOGEN
 62
    18
420
        0
370
    18
100
AcDbLine
 10
-373.842777792319
 20
-1569.064160014887
 30
0.0
 11
-365.342777790469
 21
-1564.564160014845
 31
0.0
  0
LINE
  5
EA
330
1F
100
AcDbEntity
  8
Layer0
  6
AUSGEZOGEN
 62
    18
420
        0
370
    18
100
AcDbLine
 10
-365.342777790469
 20
-1564.564160014845
 30
0.0
 11
-356.842777789263
 21
-1560.064160014887
 31
0.0
  0
LINE
  5
EB
330
1F
100
AcDbEntity
  8
Layer0
  6
AUSGEZOGEN
 62
    18
420
        0
370
    18
100
AcDbLine
 10
-480.842777773083
 20
-1560.064160014887
 30
0.0
 11
-472.342777771591
 21
-1564.564160014996
 31
0.0
  0
LINE
  5
EC
330
1F
100
AcDbEntity
  8
Layer0
  6
AUSGEZOGEN
 62
    18
420
        0
370
    18
100
AcDbLine
 10
-472.342777771591
 20
-1564.564160014996
 30
0.0
 11
-463.842777770026
 21
-1569.064160014887
 31
0.0
  0
LINE
  5
ED
330
1F
100
AcDbEntity
  8
Layer1
  6
AUSGEZOGEN
 62
    18
420
        0
370
    25
100
AcDbLine
 10
-418.842771346998
 20
-1550.139835458584
 30
0.0
 11
-418.842791344058
 21
-1584.988484571188
 31
0.0
  0
LINE
  5
EE
330
1F
100
AcDbEntity
  8
Layer5
  6
AUSGEZOGEN
 62
    18
420
        0
370
    70
100
AcDbLine
 10
-480.842777773083
 20
-1560.064160014887
 30
0.0
 11
-472.342777771591
 21
-1564.564160014996
 31
0.0
  0
LINE
  5
EF
330
1F
100
AcDbEntity
  8
Layer5
  6
AUSGEZOGEN
 62
    18
420
        0
370
    70
100
AcDbLine
 10
-472.342777771591
 20
-1564.564160014996
 30
0.0
 11
-463.842777770026
 21
-1569.064160014887
 31
0.0
  0
LINE
  5
F0
330
1F
100
AcDbEntity
  8
Layer5
  6
AUSGEZOGEN
 62
    18
420
        0
370
    70
100
AcDbLine
 10
-475.842777781173
 20
-1578.064160014886
 30
0.0
 11
-361.842777781173
 21
-1578.064160014886
 31
0.0
  0
ARC
  5
F1
330
1F
100
AcDbEntity
  8
Layer5
  6
AUSGEZOGEN
 62
    18
420
        0
370
    70
100
AcDbCircle
 10
-475.842777781173
 20
-1580.064160014886
 30
0.0
 40
2.0
100
AcDbArc
 50
90.0
 51
180.0
  0
LINE
  5
F2
330
1F
100
AcDbEntity
  8
Layer5
  6
AUSGEZOGEN
 62
    18
420
        0
370
    70
100
AcDbLine
 10
-475.342777781173
 20
-1575.064160014886
 30
0.0
 11
-475.342777781173
 21
-1578.064160014886
 31
0.0
  0
LINE
  5
F3
330
1F
100
AcDbEntity
  8
Layer5
  6
AUSGEZOGEN
 62
    18
420
        0
370
    70
100
AcDbLine
 10
-362.342777781173
 20
-1575.064160014886
 30
0.0
 11
-362.342777781173
 21
-1578.064160014886
 31
0.0
  0
LINE
  5
F4
330
1F
100
AcDbEntity
  8
Layer5
  6
AUSGEZOGEN
 62
    18
420
        0
370
    70
100
AcDbLine
 10
-477.842777781173
 20
-1580.064160014886
 30
0.0
 11
-477.842777781173
 21
-1586.064160014886
 31
0.0
  0
ARC
  5
F5
330
1F
100
AcDbEntity
  8
Layer5
  6
AUSGEZOGEN
 62
    18
420
        0
370
    70
100
AcDbCircle
 10
-475.842777781173
 20
-1586.064160014886
 30
0.0
 40
2.0
100
AcDbArc
 50
180.0
 51
270.0
  0
LINE
  5
F6
330
1F
100
AcDbEntity
  8
Layer5
  6
AUSGEZOGEN
 62
    18
420
        0
370
    70
100
AcDbLine
 10
-359.842777781173
 20
-1580.064160014886
 30
0.0
 11
-359.842777781173
 21
-1586.064160014886
 31
0.0
  0
ARC
  5
F7
330
1F
100
AcDbEntity
  8
Layer5
  6
AUSGEZOGEN
 62
    18
420
        0
370
    70
100
AcDbCircle
 10
-361.842777781173
 20
-1580.064160014886
 30
0.0
 40
2.0
100
AcDbArc
 50
0.0
 51
90.0
  0
LINE
  5
F8
330
1F
100
AcDbEntity
  8
Layer5
  6
AUSGEZOGEN
 62
    18
420
        0
370
    70
100
AcDbLine
 10
-361.842777781173
 20
-1588.064160014886
 30
0.0
 11
-475.842777781173
 21
-1588.064160014886
 31
0.0
  0
ARC
  5
F9
330
1F
100
AcDbEntity
  8
Layer5
  6
AUSGEZOGEN
 62
    18
420
        0
370
    70
100
AcDbCircle
 10
-468.342777781173
 20
-1590.064160014886
 30
0.0
 40
2.0
100
AcDbArc
 50
0.0
 51
90.0
  0
ARC
  5
FA
330
1F
100
AcDbEntity
  8
Layer5
  6
AUSGEZOGEN
 62
    18
420
        0
370
    70
100
AcDbCircle
 10
-369.342777781173
 20
-1590.064160014886
 30
0.0
 40
2.0
100
AcDbArc
 50
90.0
 51
180.0
  0
ARC
  5
FB
330
1F
100
AcDbEntity
  8
Layer5
  6
AUSGEZOGEN
 62
    18
420
        0
370
    70
100
AcDbCircle
 10
-361.842777781173
 20
-1586.064160014886
 30
0.0
 40
2.0
100
AcDbArc
 50
270.0
 51
0.0
  0
LINE
  5
FC
330
1F
100
AcDbEntity
  8
Layer5
  6
AUSGEZOGEN
 62
    18
420
        0
370
    70
100
AcDbLine
 10
-395.342777781173
 20
-1623.064160014886
 30
0.0
 11
-442.342777781173
 21
-1623.064160014886
 31
0.0
  0
LINE
  5
FD
330
1F
100
AcDbEntity
  8
Layer5
  6
AUSGEZOGEN
 62
    18
420
        0
370
    70
100
AcDbLine
 10
-466.342777781173
 20
-1590.064160014886
 30
0.0
 11
-466.342777781173
 21
-1608.855668855534
 31
0.0
  0
ARC
  5
FE
330
1F
100
AcDbEntity
  8
Layer5
  6
AUSGEZOGEN
 62
    18
420
        0
370
    70
100
AcDbCircle
 10
-461.342777781173
 20
-1608.855668855534
 30
0.0
 40
5.0
100
AcDbArc
 50
180.0
 51
245.376435213832
  0
LINE
  5
FF
330
1F
100
AcDbEntity
  8
Layer5
  6
AUSGEZOGEN
 62
    18
420
        0
370
    70
100
AcDbLine
 10
-371.342777781173
 20
-1608.855668855534
 30
0.0
 11
-371.342777781173
 21
-1590.064160014886
 31
0.0
  0
ARC
  5
100
330
1F
100
AcDbEntity
  8
Layer5
  6
AUSGEZOGEN
 62
    18
420
        0
370
    70
100
AcDbCircle
 10
-376.342777781173
 20
-1608.855668855534
 30
0.0
 40
5.0
100
AcDbArc
 50
294.623564786167
 51
0.0
  0
LINE
  5
101
330
1F
100
AcDbEntity
  8
Layer5
  6
AUSGEZOGEN
 62
    18
420
        0
370
    70
100
AcDbLine
 10
-463.426051333639
 20
-1613.400992970006
 30
0.0
 11
-443.509468360187
 21
-1622.529426832838
 31
0.0
  0
ARC
  5
102
330
1F
100
AcDbEntity
  8
Layer5
  6
AUSGEZOGEN
 62
    18
420
        0
370
    70
100
AcDbCircle
 10
-444.342777781173
 20
-1624.347556478627
 30
0.0
 40
2.0
100
AcDbArc
 50
0.0
 51
65.376435213832
  0
LINE
  5
103
330
1F
100
AcDbEntity
  8
Layer5
  6
AUSGEZOGEN
 62
    18
420
        0
370
    70
100
AcDbLine
 10
-394.17608720216
 20
-1622.529426832838
 30
0.0
 11
-374.259504228707
 21
-1613.400992970006
 31
0.0
  0
ARC
  5
104
330
1F
100
AcDbEntity
  8
Layer5
  6
AUSGEZOGEN
 62
    18
420
        0
370
    70
100
AcDbCircle
 10
-393.342777781173
 20
-1624.347556478627
 30
0.0
 40
2.0
100
AcDbArc
 50
114.623564786168
 51
180.0
  0
LINE
  5
105
330
1F
100
AcDbEntity
  8
Layer5
  6
AUSGEZOGEN
 62
    18
420
        0
370
    70
100
AcDbLine
 10
-463.426051333639
 20
-1611.556005152893
 30
0.0
 11
-374.259504228707
 21
-1611.556005152893
 31
0.0
  0
LINE
  5
106
330
1F
100
AcDbEntity
  8
Layer5
  6
AUSGEZOGEN
 62
    18
420
        0
370
    70
100
AcDbLine
 10
-442.342777781173
 20
-1624.347556478627
 30
0.0
 11
-442.342777781173
 21
-1628.064160014886
 31
0.0
  0
LINE
  5
107
330
1F
100
AcDbEntity
  8
Layer5
  6
AUSGEZOGEN
 62
    18
420
        0
370
    70
100
AcDbLine
 10
-395.342777781173
 20
-1624.347556478627
 30
0.0
 11
-395.342777781173
 21
-1628.064160014886
 31
0.0
  0
LINE
  5
108
330
1F
100
AcDbEntity
  8
Layer5
  6
AUSGEZOGEN
 62
    18
420
        0
370
    70
100
AcDbLine
 10
-382.842777781173
 20
-1628.064160014886
 30
0.0
 11
-454.842777781173
 21
-1628.064160014886
 31
0.0
  0
LINE
  5
109
330
1F
100
AcDbEntity
  8
Layer5
  6
AUSGEZOGEN
 62
    18
420
        0
370
    70
100
AcDbLine
 10
-391.342777781173
 20
-1648.064160014886
 30
0.0
 11
-446.342777781173
 21
-1648.064160014886
 31
0.0
  0
LINE
  5
10A
330
1F
100
AcDbEntity
  8
Layer5
  6
AUSGEZOGEN
 62
    18
420
        0
370
    70
100
AcDbLine
 10
-392.842777781173
 20
-1644.064160014886
 30
0.0
 11
-395.592777781173
 21
-1644.064160014886
 31
0.0
  0
LINE
  5
10B
330
1F
100
AcDbEntity
  8
Layer5
  6
AUSGEZOGEN
 62
    18
420
        0
370
    70
100
AcDbLine
 10
-397.092777781173
 20
-1644.064160014886
 30
0.0
 11
-403.092777781173
 21
-1644.064160014886
 31
0.0
  0
LINE
  5
10C
330
1F
100
AcDbEntity
  8
Layer5
  6
AUSGEZOGEN
 62
    18
420
        0
370
    70
100
AcDbLine
 10
-404.592777781173
 20
-1644.064160014886
 30
0.0
 11
-412.592777781173
 21
-1644.064160014886
 31
0.0
  0
LINE
  5
10D
330
1F
100
AcDbEntity
  8
Layer5
  6
AUSGEZOGEN
 62
    18
420
        0
370
    70
100
AcDbLine
 10
-414.092777781173
 20
-1644.064160014886
 30
0.0
 11
-423.592777781173
 21
-1644.064160014886
 31
0.0
  0
LINE
  5
10E
330
1F
100
AcDbEntity
  8
Layer5
  6
AUSGEZOGEN
 62
    18
420
        0
370
    70
100
AcDbLine
 10
-425.092777781173
 20
-1644.064160014886
 30
0.0
 11
-433.092777781173
 21
-1644.064160014886
 31
0.0
  0
LINE
  5
10F
330
1F
100
AcDbEntity
  8
Layer5
  6
AUSGEZOGEN
 62
    18
420
        0
370
    70
100
AcDbLine
 10
-434.592777781173
 20
-1644.064160014886
 30
0.0
 11
-440.592777781173
 21
-1644.064160014886
 31
0.0
  0
LINE
  5
110
330
1F
100
AcDbEntity
  8
Layer5
  6
AUSGEZOGEN
 62
    18
420
        0
370
    70
100
AcDbLine
 10
-442.092777781173
 20
-1644.064160014886
 30
0.0
 11
-444.842777781173
 21
-1644.064160014886
 31
0.0
  0
LINE
  5
111
330
1F
100
AcDbEntity
  8
Layer5
  6
AUSGEZOGEN
 62
    18
420
        0
370
    70
100
AcDbLine
 10
-454.842777781173
 20
-1628.064160014886
 30
0.0
 11
-454.842777781173
 21
-1637.064160014886
 31
0.0
  0
LINE
  5
112
330
1F
100
AcDbEntity
  8
Layer5
  6
AUSGEZOGEN
 62
    18
420
        0
370
    70
100
AcDbLine
 10
-382.842777781173
 20
-1628.064160014886
 30
0.0
 11
-382.842777781173
 21
-1637.064160014886
 31
0.0
  0
LINE
  5
113
330
1F
100
AcDbEntity
  8
Layer5
  6
AUSGEZOGEN
 62
    18
420
        0
370
    70
100
AcDbLine
 10
-454.842777781173
 20
-1637.064160014886
 30
0.0
 11
-446.342777781173
 21
-1637.064160014886
 31
0.0
  0
LINE
  5
114
330
1F
100
AcDbEntity
  8
Layer5
  6
AUSGEZOGEN
 62
    18
420
        0
370
    70
100
AcDbLine
 10
-382.842777781173
 20
-1637.064160014886
 30
0.0
 11
-391.342777781173
 21
-1637.064160014886
 31
0.0
  0
LINE
  5
115
330
1F
100
AcDbEntity
  8
Layer5
  6
AUSGEZOGEN
 62
    18
420
        0
370
    70
100
AcDbLine
 10
-446.342777781173
 20
-1628.064160014886
 30
0.0
 11
-446.342777781173
 21
-1648.064160014886
 31
0.0
  0
LINE
  5
116
330
1F
100
AcDbEntity
  8
Layer5
  6
AUSGEZOGEN
 62
    18
420
        0
370
    70
100
AcDbLine
 10
-444.842777781173
 20
-1628.064160014886
 30
0.0
 11
-444.842777781173
 21
-1644.064160014886
 31
0.0
  0
LINE
  5
117
330
1F
100
AcDbEntity
  8
Layer5
  6
AUSGEZOGEN
 62
    18
420
        0
370
    70
100
AcDbLine
 10
-391.342777781173
 20
-1628.064160014886
 30
0.0
 11
-391.342777781173
 21
-1648.064160014886
 31
0.0
  0
LINE
  5
118
330
1F
100
AcDbEntity
  8
Layer5
  6
AUSGEZOGEN
 62
    18
420
        0
370
    70
100
AcDbLine
 10
-392.842777781173
 20
-1628.064160014886
 30
0.0
 11
-392.842777781173
 21
-1644.064160014886
 31
0.0
  0
LINE
  5
119
330
1F
100
AcDbEntity
  8
Layer5
  6
AUSGEZOGEN
 62
    18
420
        0
370
    70
100
AcDbLine
 10
-423.592777781173
 20
-1628.064160014886
 30
0.0
 11
-423.592777781173
 21
-1644.064160014886
 31
0.0
  0
LINE
  5
11A
330
1F
100
AcDbEntity
  8
Layer5
  6
AUSGEZOGEN
 62
    18
420
        0
370
    70
100
AcDbLine
 10
-425.092777781173
 20
-1628.064160014886
 30
0.0
 11
-425.092777781173
 21
-1644.064160014886
 31
0.0
  0
LINE
  5
11B
330
1F
100
AcDbEntity
  8
Layer5
  6
AUSGEZOGEN
 62
    18
420
        0
370
    70
100
AcDbLine
 10
-433.092777781173
 20
-1628.064160014886
 30
0.0
 11
-433.092777781173
 21
-1644.064160014886
 31
0.0
  0
LINE
  5
11C
330
1F
100
AcDbEntity
  8
Layer5
  6
AUSGEZOGEN
 62
    18
420
        0
370
    70
100
AcDbLine
 10
-434.592777781173
 20
-1628.064160014886
 30
0.0
 11
-434.592777781173
 21
-1644.064160014886
 31
0.0
  0
LINE
  5
11D
330
1F
100
AcDbEntity
  8
Layer5
  6
AUSGEZOGEN
 62
    18
420
        0
370
    70
100
AcDbLine
 10
-440.592777781173
 20
-1628.064160014886
 30
0.0
 11
-440.592777781173
 21
-1644.064160014886
 31
0.0
  0
LINE
  5
11E
330
1F
100
AcDbEntity
  8
Layer5
  6
AUSGEZOGEN
 62
    18
420
        0
370
    70
100
AcDbLine
 10
-442.092777781173
 20
-1628.064160014886
 30
0.0
 11
-442.092777781173
 21
-1644.064160014886
 31
0.0
  0
LINE
  5
11F
330
1F
100
AcDbEntity
  8
Layer5
  6
AUSGEZOGEN
 62
    18
420
        0
370
    70
100
AcDbLine
 10
-414.092777781173
 20
-1644.064160014886
 30
0.0
 11
-414.092777781173
 21
-1628.064160014886
 31
0.0
  0
LINE
  5
120
330
1F
100
AcDbEntity
  8
Layer5
  6
AUSGEZOGEN
 62
    18
420
        0
370
    70
100
AcDbLine
 10
-412.592777781173
 20
-1644.064160014886
 30
0.0
 11
-412.592777781173
 21
-1628.064160014886
 31
0.0
  0
LINE
  5
121
330
1F
100
AcDbEntity
  8
Layer5
  6
AUSGEZOGEN
 62
    18
420
        0
370
    70
100
AcDbLine
 10
-404.592777781173
 20
-1644.064160014886
 30
0.0
 11
-404.592777781173
 21
-1628.064160014886
 31
0.0
  0
LINE
  5
122
330
1F
100
AcDbEntity
  8
Layer5
  6
AUSGEZOGEN
 62
    18
420
        0
370
    70
100
AcDbLine
 10
-403.092777781173
 20
-1644.064160014886
 30
0.0
 11
-403.092777781173
 21
-1628.064160014886
 31
0.0
  0
LINE
  5
123
330
1F
100
AcDbEntity
  8
Layer5
  6
AUSGEZOGEN
 62
    18
420
        0
370
    70
100
AcDbLine
 10
-397.092777781173
 20
-1644.064160014886
 30
0.0
 11
-397.092777781173
 21
-1628.064160014886
 31
0.0
  0
LINE
  5
124
330
1F
100
AcDbEntity
  8
Layer5
  6
AUSGEZOGEN
 62
    18
420
        0
370
    70
100
AcDbLine
 10
-395.592777781173
 20
-1644.064160014886
 30
0.0
 11
-395.592777781173
 21
-1628.064160014886
 31
0.0
  0
LINE
  5
125
330
1F
100
AcDbEntity
  8
Layer5
  6
AUSGEZOGEN
 62
    18
420
        0
370
    70
100
AcDbLine
 10
-438.842777781173
 20
-1648.064160014886
 30
0.0
 11
-438.842777781173
 21
-1651.064160014887
 31
0.0
  0
LINE
  5
126
330
1F
100
AcDbEntity
  8
Layer5
  6
AUSGEZOGEN
 62
    18
420
        0
370
    70
100
AcDbLine
 10
-398.842777781173
 20
-1648.064160014886
 30
0.0
 11
-398.842777781173
 21
-1651.064160014887
 31
0.0
  0
ARC
  5
127
330
1F
100
AcDbEntity
  8
Layer5
  6
AUSGEZOGEN
 62
    18
420
        0
370
    70
100
AcDbCircle
 10
-418.842777781173
 20
-1668.064160014887
 30
0.0
 40
20.0
100
AcDbArc
 50
180.0
 51
0.0
  0
LINE
  5
128
330
1F
100
AcDbEntity
  8
Layer5
  6
AUSGEZOGEN
 62
    18
420
        0
370
    70
100
AcDbLine
 10
-398.842777781173
 20
-1651.064160014887
 30
0.0
 11
-398.842777781173
 21
-1668.064160014887
 31
0.0
  0
LINE
  5
129
330
1F
100
AcDbEntity
  8
Layer5
  6
AUSGEZOGEN
 62
    18
420
        0
370
    70
100
AcDbLine
 10
-438.842777781173
 20
-1651.064160014887
 30
0.0
 11
-438.842777781173
 21
-1668.064160014887
 31
0.0
  0
LINE
  5
12A
330
1F
100
AcDbEntity
  8
Layer0
  6
AUSGEZOGEN
 62
    18
420
        0
370
    18
100
AcDbLine
 10
-602.45292176788
 20
-1393.064160014886
 30
0.0
 11
-606.842777781173
 21
-1393.064160014886
 31
0.0
  0
ARC
  5
12B
330
1F
100
AcDbEntity
  8
Layer0
  6
AUSGEZOGEN
 62
    18
420
        0
370
    18
100
AcDbCircle
 10
-602.45292176788
 20
-1398.064160014886
 30
0.0
 40
5.000000000000001
100
AcDbArc
 50
6.000000000003
 51
90.0
  0
INSERT
  5
162
330
1F
100
AcDbEntity
  8
0
100
AcDbBlockReference
  2
AnonymMegaMac_nNn06
 10
0.0
 20
0.0
 30
0.0
  0
LINE
  5
163
330
1F
100
AcDbEntity
  8
Layer0
  6
AUSGEZOGEN
 62
    18
420
        0
370
    18
100
AcDbLine
 10
-621.842777781173
 20
-1383.064160014886
 30
0.0
 11
-606.842777781173
 21
-1383.064160014886
 31
0.0
  0
ARC
  5
164
330
1F
100
AcDbEntity
  8
Layer0
  6
AUSGEZOGEN
 62
    18
420
        0
370
    18
100
AcDbCircle
 10
-616.842777781173
 20
-1380.064160014886
 30
0.0
 40
4.999999999999999
100
AcDbArc
 50
90.0
 51
180.0
  0
LINE
  5
165
330
1F
100
AcDbEntity
  8
Layer0
  6
AUSGEZOGEN
 62
    18
420
        0
370
    18
100
AcDbLine
 10
-621.842777781173
 20
-1383.064160014886
 30
0.0
 11
-621.842777781173
 21
-1380.064160014886
 31
0.0
  0
LINE
  5
166
330
1F
100
AcDbEntity
  8
Layer0
  6
AUSGEZOGEN
 62
    18
420
        0
370
    18
100
AcDbLine
 10
-606.842777781173
 20
-1413.064160014886
 30
0.0
 11
-606.842777781173
 21
-1383.064160014886
 31
0.0
  0
ARC
  5
167
330
1F
100
AcDbEntity
  8
Layer0
  6
AUSGEZOGEN
 62
    18
420
        0
370
    18
100
AcDbCircle
 10
-586.344798002662
 20
-1380.064160014886
 30
0.0
 40
5.0
100
AcDbArc
 50
6.000000000003
 51
90.0
  0
LINE
  5
168
330
1F
100
AcDbEntity
  8
Layer5
  6
AUSGEZOGEN
 62
    18
420
        0
370
    70
100
AcDbLine
 10
-480.842777773176
 20
-1560.064160014886
 30
0.0
 11
-540.641823529205
 21
-1556.930224823569
 31
0.0
  0
LINE
  5
169
330
1F
100
AcDbEntity
  8
Layer5
  6
AUSGEZOGEN
 62
    18
420
        0
370
    70
100
AcDbLine
 10
-581.372188525821
 20
-1379.541517698548
 30
0.0
 11
-565.050603727289
 21
-1534.831023942275
 31
0.0
  0
LINE
  5
16A
330
1F
100
AcDbEntity
  8
Layer5
  6
AUSGEZOGEN
 62
    18
420
        0
370
    70
100
AcDbLine
 10
-597.480312291039
 20
-1397.541517698548
 30
0.0
 11
-582.765750052459
 21
-1537.541225620739
 31
0.0
  0
ARC
  5
16B
330
1F
100
AcDbEntity
  8
Layer5
  6
AUSGEZOGEN
 62
    18
420
        0
370
    70
100
AcDbCircle
 10
-540.219049355953
 20
-1531.933799839215
 30
0.0
 40
25.0
100
AcDbArc
 50
185.34509821752
 51
269.031026779058
  0
ARC
  5
16C
330
1F
100
AcDbEntity
  8
Layer5
  6
AUSGEZOGEN
 62
    18
420
        0
370
    70
100
AcDbCircle
 10
-540.115993284697
 20
-1532.064160014886
 30
0.0
 40
43.0
100
AcDbArc
 50
184.682149985276
 51
270.0
  0
LINE
  5
16D
330
1F
100
AcDbEntity
  8
Layer0
  6
AUSGEZOGEN
 62
    18
420
        0
370
    18
100
AcDbLine
 10
-373.842764923933
 20
-1575.064160014886
 30
0.0
 11
-297.569549409297
 21
-1575.064160014886
 31
0.0
  0
LINE
  5
16E
330
1F
100
AcDbEntity
  8
Layer5
  6
AUSGEZOGEN
 62
    18
420
        0
370
    70
100
AcDbLine
 10
-356.842764920819
 20
-1560.064160014886
 30
0.0
 11
-297.04371916479
 21
-1556.930224823569
 31
0.0
  0
LINE
  5
16F
330
1F
100
AcDbEntity
  8
Layer5
  6
AUSGEZOGEN
 62
    18
420
        0
370
    70
100
AcDbLine
 10
-257.442102251524
 20
-1400.445296926738
 30
0.0
 11
-272.574229289982
 21
-1534.29402652722
 31
0.0
  0
LINE
  5
170
330
1F
100
AcDbEntity
  8
Layer5
  6
AUSGEZOGEN
 62
    18
420
        0
370
    70
100
AcDbLine
 10
-243.025835254192
 20
-1424.377780234568
 30
0.0
 11
-254.713046184199
 21
-1535.574164476013
 31
0.0
  0
ARC
  5
171
330
1F
100
AcDbEntity
  8
Layer5
  6
AUSGEZOGEN
 62
    18
420
        0
370
    70
100
AcDbCircle
 10
-297.469560458173
 20
-1531.926166464065
 30
0.0
 40
25.00768432407581
100
AcDbArc
 50
270.975703621233
 51
354.566792883795
  0
ARC
  5
172
330
1F
100
AcDbEntity
  8
Layer5
  6
AUSGEZOGEN
 62
    18
420
        0
370
    70
100
AcDbCircle
 10
-297.569549409297
 20
-1532.064160014886
 30
0.0
 40
43.0
100
AcDbArc
 50
270.0
 51
355.317850014723
  0
LINE
  5
173
330
1F
100
AcDbEntity
  8
Layer5
  6
AUSGEZOGEN
 62
    18
420
        0
370
    70
100
AcDbLine
 10
-248.724754920083
 20
-1392.094336595303
 30
0.0
 11
-234.439400253641
 21
-1391.204643551149
 31
0.0
  0
LINE
  5
174
330
1F
100
AcDbEntity
  8
Layer5
  6
AUSGEZOGEN
 62
    18
420
        0
370
    70
100
AcDbLine
 10
-175.861666651169
 20
-1405.064160014886
 30
0.0
 11
-215.861666651169
 21
-1405.064160014886
 31
0.0
  0
LINE
  5
175
330
1F
100
AcDbEntity
  8
Layer1
  6
AUSGEZOGEN
 62
    18
420
        0
370
    25
100
AcDbLine
 10
-195.861666651169
 20
-1390.064160014886
 30
0.0
 11
-195.861666651169
 21
-1432.064160014885
 31
0.0
  0
LINE
  5
176
330
1F
100
AcDbEntity
  8
Layer5
  6
AUSGEZOGEN
 62
    18
420
        0
370
    70
100
AcDbLine
 10
-184.861666651169
 20
-1412.064160014887
 30
0.0
 11
-206.861666651169
 21
-1412.064160014887
 31
0.0
  0
LINE
  5
177
330
1F
100
AcDbEntity
  8
Layer5
  6
AUSGEZOGEN
 62
    18
420
        0
370
    70
100
AcDbLine
 10
-176.861666651169
 20
-1405.064160014886
 30
0.0
 11
-214.861666651169
 21
-1405.064160014886
 31
0.0
  0
LINE
  5
178
330
1F
100
AcDbEntity
  8
Layer5
  6
AUSGEZOGEN
 62
    18
420
        0
370
    70
100
AcDbLine
 10
-176.861666651169
 20
-1405.064160014886
 30
0.0
 11
-184.861666651169
 21
-1412.064160014886
 31
0.0
  0
LINE
  5
179
330
1F
100
AcDbEntity
  8
Layer5
  6
AUSGEZOGEN
 62
    18
420
        0
370
    70
100
AcDbLine
 10
-184.861666651169
 20
-1412.064160014886
 30
0.0
 11
-184.86166665117
 21
-1417.064160014886
 31
0.0
  0
LINE
  5
17A
330
1F
100
AcDbEntity
  8
Layer5
  6
AUSGEZOGEN
 62
    18
420
        0
370
    70
100
AcDbLine
 10
-206.86166665117
 20
-1417.064160014886
 30
0.0
 11
-206.861666651169
 21
-1412.064160014886
 31
0.0
  0
LINE
  5
17B
330
1F
100
AcDbEntity
  8
Layer5
  6
AUSGEZOGEN
 62
    18
420
        0
370
    70
100
AcDbLine
 10
-206.861666651169
 20
-1412.064160014886
 30
0.0
 11
-214.861666651169
 21
-1405.064160014886
 31
0.0
  0
LINE
  5
17C
330
1F
100
AcDbEntity
  8
Layer5
  6
AUSGEZOGEN
 62
    18
420
        0
370
    70
100
AcDbLine
 10
-228.8370471278
 20
-1395.741638242006
 30
0.0
 11
-228.834760454257
 21
-1397.691095586774
 31
0.0
  0
LINE
  5
17D
330
1F
100
AcDbEntity
  8
Layer5
  6
AUSGEZOGEN
 62
    18
420
        0
370
    70
100
AcDbLine
 10
-221.335834707153
 20
-1405.064160014886
 30
0.0
 11
-214.861666651169
 21
-1405.064160014886
 31
0.0
  0
ARC
  5
17E
330
1F
100
AcDbEntity
  8
Layer5
  6
AUSGEZOGEN
 62
    18
420
        0
370
    70
100
AcDbCircle
 10
-247.568017302778
 20
-1402.027209195147
 30
0.0
 40
10.0
100
AcDbArc
 50
96.642488108275
 51
170.898075873087
  0
LINE
  5
17F
330
1F
100
AcDbEntity
  8
Layer5
  6
AUSGEZOGEN
 62
    18
420
        0
370
    70
100
AcDbLine
 10
-142.842777781173
 20
-1385.093683439086
 30
0.0
 11
198.157222218827
 21
-1375.060164510653
 31
0.0
  0
LINE
  5
180
330
1F
100
AcDbEntity
  8
Layer5
  6
AUSGEZOGEN
 62
    18
420
        0
370
    70
100
AcDbLine
 10
-145.463848458798
 20
-1403.178595481715
 30
0.0
 11
198.286187674067
 21
-1393.064160014886
 31
0.0
  0
LINE
  5
181
330
1F
100
AcDbEntity
  8
Layer5
  6
AUSGEZOGEN
 62
    18
420
        0
370
    70
100
AcDbLine
 10
-158.101734451137
 20
-1386.989367539804
 30
0.0
 11
-142.842777781173
 21
-1385.093683439086
 31
0.0
  0
LINE
  5
182
330
1F
100
AcDbEntity
  8
Layer5
  6
AUSGEZOGEN
 62
    18
420
        0
370
    70
100
AcDbLine
 10
-162.865379624595
 20
-1391.942216596664
 30
0.0
 11
-162.888295698068
 21
-1397.454816940752
 31
0.0
  0
ARC
  5
183
330
1F
100
AcDbEntity
  8
Layer5
  6
AUSGEZOGEN
 62
    18
420
        0
370
    70
100
AcDbCircle
 10
-221.335834707153
 20
-1397.564160014886
 30
0.0
 40
7.5
100
AcDbArc
 50
179.164650850471
 51
270.0
  0
ARC
  5
184
330
1F
100
AcDbEntity
  8
Layer5
  6
AUSGEZOGEN
 62
    18
420
        0
370
    70
100
AcDbCircle
 10
-221.335834707153
 20
-1397.564160014886
 30
0.0
 40
19.5
100
AcDbArc
 50
242.937572925964
 51
270.0
  0
ARC
  5
185
330
1F
100
AcDbEntity
  8
Layer5
  6
AUSGEZOGEN
 62
    18
420
        0
370
    70
100
AcDbCircle
 10
-233.819005835879
 20
-1396.166005336629
 30
0.0
 40
5.0
100
AcDbArc
 50
4.86874600492
 51
97.127565590767
  0
ARC
  5
186
330
1F
100
AcDbEntity
  8
Layer5
  6
AUSGEZOGEN
 62
    18
420
        0
370
    70
100
AcDbCircle
 10
-170.387498595185
 20
-1397.564160014886
 30
0.0
 40
7.5
100
AcDbArc
 50
270.0
 51
0.835349149529
  0
ARC
  5
187
330
1F
100
AcDbEntity
  8
Layer5
  6
AUSGEZOGEN
 62
    18
420
        0
370
    70
100
AcDbCircle
 10
-170.387498595185
 20
-1397.564160014886
 30
0.0
 40
19.5
100
AcDbArc
 50
270.0
 51
330.624228046627
  0
ARC
  5
188
330
1F
100
AcDbEntity
  8
Layer5
  6
AUSGEZOGEN
 62
    18
420
        0
370
    70
100
AcDbCircle
 10
-157.865552431023
 20
-1391.98378623004
 30
0.0
 40
5.0
100
AcDbArc
 50
92.7074540742
 51
180.000000001206
  0
LINE
  5
189
330
1F
100
AcDbEntity
  8
Layer5
  6
AUSGEZOGEN
 62
    18
420
        0
370
    70
100
AcDbLine
 10
-233.819005835879
 20
-1391.166005336629
 30
0.0
 11
-158.101734451135
 21
-1386.989367539805
 31
0.0
  0
LINE
  5
18A
330
1F
100
AcDbEntity
  8
Layer0
  6
AUSGEZOGEN
 62
    18
420
        0
370
    18
100
AcDbLine
 10
238.157222218827
 20
-1383.064160014886
 30
0.0
 11
223.157222218827
 21
-1383.064160014886
 31
0.0
  0
ARC
  5
18B
330
1F
100
AcDbEntity
  8
Layer0
  6
AUSGEZOGEN
 62
    18
420
        0
370
    18
100
AcDbCircle
 10
233.157222218827
 20
-1380.064160014886
 30
0.0
 40
4.999999999999999
100
AcDbArc
 50
0.0
 51
90.0
  0
LINE
  5
18C
330
1F
100
AcDbEntity
  8
Layer0
  6
AUSGEZOGEN
 62
    18
420
        0
370
    18
100
AcDbLine
 10
238.157222218827
 20
-1383.064160014886
 30
0.0
 11
238.157222218827
 21
-1380.064160014886
 31
0.0
  0
LINE
  5
18D
330
1F
100
AcDbEntity
  8
Layer0
  6
AUSGEZOGEN
 62
    18
420
        0
370
    18
100
AcDbLine
 10
223.157222218827
 20
-1413.064160014886
 30
0.0
 11
223.157222218827
 21
-1383.064160014886
 31
0.0
  0
LINE
  5
18E
330
1F
100
AcDbEntity
  8
Layer5
  6
AUSGEZOGEN
 62
    18
420
        0
370
    70
100
AcDbLine
 10
223.157222218827
 20
-1393.064160014886
 30
0.0
 11
198.286187674067
 21
-1393.064160014886
 31
0.0
  0
LINE
  5
18F
330
1F
100
AcDbEntity
  8
Layer5
  6
AUSGEZOGEN
 62
    18
420
        0
370
    70
100
AcDbLine
 10
-221.335834707153
 20
-1417.064160014886
 30
0.0
 11
-170.387498595185
 21
-1417.064160014886
 31
0.0
  0
ARC
  5
190
330
1F
100
AcDbEntity
  8
Layer5
  6
AUSGEZOGEN
 62
    18
420
        0
370
    70
100
AcDbCircle
 10
-233.026896653447
 20
-1424.5234746357
 30
0.0
 40
10.0
100
AcDbArc
 50
73.624442870241
 51
179.165203036321
  0
ARC
  5
191
330
1F
100
AcDbEntity
  8
Layer5
  6
AUSGEZOGEN
 62
    18
420
        0
370
    70
100
AcDbCircle
 10
-145.431726971711
 20
-1413.178543892085
 30
0.0
 40
10.0
100
AcDbArc
 50
90.184042880674
 51
142.778746908533
  0
LINE
  5
192
330
1F
100
AcDbEntity
  8
Layer4
  6
AUSGEZOGEN
 62
    18
420
        0
370
    25
100
AcDbLine
 10
-480.842777773083
 20
-1560.064160014887
 30
0.0
 11
-472.342777771591
 21
-1564.564160014996
 31
0.0
  0
LINE
  5
193
330
1F
100
AcDbEntity
  8
Layer4
  6
AUSGEZOGEN
 62
    18
420
        0
370
    25
100
AcDbLine
 10
-472.342777771591
 20
-1564.564160014996
 30
0.0
 11
-463.842777770026
 21
-1569.064160014887
 31
0.0
  0
LINE
  5
194
330
1F
100
AcDbEntity
  8
Layer4
  6
AUSGEZOGEN
 62
    18
420
        0
370
    25
100
AcDbLine
 10
-480.842777773083
 20
-1560.064160014887
 30
0.0
 11
-472.342777771591
 21
-1564.564160014996
 31
0.0
  0
LINE
  5
195
330
1F
100
AcDbEntity
  8
Layer4
  6
AUSGEZOGEN
 62
    18
420
        0
370
    25
100
AcDbLine
 10
-472.342777771591
 20
-1564.564160014996
 30
0.0
 11
-463.842777770026
 21
-1569.064160014887
 31
0.0
  0
LINE
  5
196
330
1F
100
AcDbEntity
  8
Layer4
  6
AUSGEZOGEN
 62
    18
420
        0
370
    25
100
AcDbLine
 10
-480.842777773083
 20
-1560.064160014887
 30
0.0
 11
-472.342777771591
 21
-1564.564160014996
 31
0.0
  0
LINE
  5
197
330
1F
100
AcDbEntity
  8
Layer4
  6
AUSGEZOGEN
 62
    18
420
        0
370
    25
100
AcDbLine
 10
-472.342777771591
 20
-1564.564160014996
 30
0.0
 11
-463.842777770026
 21
-1569.064160014887
 31
0.0
  0
LINE
  5
198
330
1F
100
AcDbEntity
  8
Layer4
  6
AUSGEZOGEN
 62
    18
420
        0
370
    25
100
AcDbLine
 10
-480.842777773083
 20
-1560.064160014887
 30
0.0
 11
-472.342777771591
 21
-1564.564160014996
 31
0.0
  0
LINE
  5
199
330
1F
100
AcDbEntity
  8
Layer4
  6
AUSGEZOGEN
 62
    18
420
        0
370
    25
100
AcDbLine
 10
-472.342777771591
 20
-1564.564160014996
 30
0.0
 11
-463.842777770026
 21
-1569.064160014887
 31
0.0
  0
LINE
  5
19A
330
1F
100
AcDbEntity
  8
Layer4
  6
AUSGEZOGEN
 62
    18
420
        0
370
    25
100
AcDbLine
 10
-480.842777773083
 20
-1560.064160014887
 30
0.0
 11
-472.342777771591
 21
-1564.564160014996
 31
0.0
  0
LINE
  5
19B
330
1F
100
AcDbEntity
  8
Layer4
  6
AUSGEZOGEN
 62
    18
420
        0
370
    25
100
AcDbLine
 10
-472.342777771591
 20
-1564.564160014996
 30
0.0
 11
-463.842777770026
 21
-1569.064160014887
 31
0.0
  0
LINE
  5
19C
330
1F
100
AcDbEntity
  8
Layer5
  6
AUSGEZOGEN
 62
    18
420
        0
370
    70
100
AcDbLine
 10
-480.842777773083
 20
-1560.064160014887
 30
0.0
 11
-472.342777771591
 21
-1564.564160014996
 31
0.0
  0
LINE
  5
19D
330
1F
100
AcDbEntity
  8
Layer5
  6
AUSGEZOGEN
 62
    18
420
        0
370
    70
100
AcDbLine
 10
-472.342777771591
 20
-1564.564160014996
 30
0.0
 11
-463.842777770026
 21
-1569.064160014887
 31
0.0
  0
LINE
  5
19E
330
1F
100
AcDbEntity
  8
Layer5
  6
AUSGEZOGEN
 62
    18
420
        0
370
    70
100
AcDbLine
 10
-373.842777792319
 20
-1569.064160014887
 30
0.0
 11
-365.342777790469
 21
-1564.564160014845
 31
0.0
  0
LINE
  5
19F
330
1F
100
AcDbEntity
  8
Layer5
  6
AUSGEZOGEN
 62
    18
420
        0
370
    70
100
AcDbLine
 10
-365.342777790469
 20
-1564.564160014845
 30
0.0
 11
-356.842777789263
 21
-1560.064160014887
 31
0.0
  0
INSERT
  5
1B4
330
1F
100
AcDbEntity
  8
0
100
AcDbBlockReference
  2
AnonymMegaMac_nNn07
 10
0.0
 20
0.0
 30
0.0
  0
LINE
  5
1B5
330
1F
100
AcDbEntity
  8
Layer5
  6
AUSGEZOGEN
 62
    18
420
        0
370
    70
100
AcDbLine
 10
-621.842777781173
 20
-1383.064160014886
 30
0.0
 11
-783.273400630032
 21
-1383.064160014886
 31
0.0
  0
INSERT
  5
1F2
330
1F
100
AcDbEntity
  8
0
100
AcDbBlockReference
  2
AnonymMegaMac_nNn08
 10
0.0
 20
0.0
 30
0.0
  0
LINE
  5
1F3
330
1F
100
AcDbEntity
  8
Layer5
  6
AUSGEZOGEN
 62
    18
420
        0
370
    70
100
AcDbLine
 10
-595.848816841077
 20
-1413.064160014885
 30
0.0
 11
-783.273400630032
 21
-1413.064160014886
 31
0.0
  0
LINE
  5
1F4
330
1F
100
AcDbEntity
  8
Layer5
  6
AUSGEZOGEN
 62
    18
420
        0
370
    70
100
AcDbLine
 10
-480.842777773083
 20
-1560.064160014887
 30
0.0
 11
-472.342777771591
 21
-1564.564160014996
 31
0.0
  0
LINE
  5
1F5
330
1F
100
AcDbEntity
  8
Layer5
  6
AUSGEZOGEN
 62
    18
420
        0
370
    70
100
AcDbLine
 10
-472.342777771591
 20
-1564.564160014996
 30
0.0
 11
-463.842777770026
 21
-1569.064160014887
 31
0.0
  0
LWPOLYLINE
  5
1F6
330
1F
100
AcDbEntity
  8
Layer3
  6
AUSGEZOGEN
 62
    18
420
        0
370
    25
100
AcDbPolyline
 90
        9
 70
     0
 43
0.0
 10
-783.265891665143
 20
-1383.064160014886
 10
-785.006565737351
 20
-1386.0308271599
 10
-785.249355984523
 20
-1389.51881925384
 10
-784.494670683233
 20
-1393.379378515813
 10
-783.242918110059
 20
-1397.463747164924
 10
-781.994506541575
 20
-1401.623167420281
 10
-781.249844254359
 20
-1405.70888150099
 10
-781.509339524986
 20
-1409.572131626156
 10
-783.273400630032
 20
-1413.064160014886
  0
LINE
  5
1F7
330
1F
100
AcDbEntity
  8
Layer5
  6
AUSGEZOGEN
 62
    18
420
        0
370
    70
100
AcDbLine
 10
238.157222218827
 20
-1383.064160014886
 30
0.0
 11
399.587845067686
 21
-1383.064160014886
 31
0.0
  0
LINE
  5
1F8
330
1F
100
AcDbEntity
  8
Layer5
  6
AUSGEZOGEN
 62
    18
420
        0
370
    70
100
AcDbLine
 10
-158.555339028986
 20
-1413.064160014886
 30
0.0
 11
399.587845067686
 21
-1413.064160014886
 31
0.0
  0
LWPOLYLINE
  5
1F9
330
1F
100
AcDbEntity
  8
Layer3
  6
AUSGEZOGEN
 62
    18
420
        0
370
    25
100
AcDbPolyline
 90
        9
 70
     0
 43
0.0
 10
399.580336102797
 20
-1383.064160014886
 10
401.321010175006
 20
-1386.0308271599
 10
401.563800422176
 20
-1389.51881925384
 10
400.809115120887
 20
-1393.379378515813
 10
399.557362547712
 20
-1397.463747164924
 10
398.308950979229
 20
-1401.623167420281
 10
397.564288692013
 20
-1405.70888150099
 10
397.823783962639
 20
-1409.572131626156
 10
399.587845067686
 20
-1413.064160014886
  0
LINE
  5
1FA
330
1F
100
AcDbEntity
  8
Layer5
  6
AUSGEZOGEN
 62
    18
420
        0
370
    70
100
AcDbLine
 10
-623.842777781173
 20
-1413.064160014886
 30
0.0
 11
-623.842777781173
 21
-1715.035008905772
 31
0.0
  0
LINE
  5
1FB
330
1F
100
AcDbEntity
  8
Layer5
  6
AUSGEZOGEN
 62
    18
420
        0
370
    70
100
AcDbLine
 10
-607.842777781173
 20
-1413.064160014886
 30
0.0
 11
-607.842777781173
 21
-1710.702179948166
 31
0.0
  0
LINE
  5
1FC
330
1F
100
AcDbEntity
  8
Layer5
  6
AUSGEZOGEN
 62
    18
420
        0
370
    70
100
AcDbLine
 10
-139.842777781173
 20
-1413.064160014886
 30
0.0
 11
-139.842777781173
 21
-1698.542629404192
 31
0.0
  0
LINE
  5
1FD
330
1F
100
AcDbEntity
  8
Layer5
  6
AUSGEZOGEN
 62
    18
420
        0
370
    70
100
AcDbLine
 10
-123.842777781173
 20
-1705.93843815145
 30
0.0
 11
-123.842777781173
 21
-1413.064160014886
 31
0.0
  0
LWPOLYLINE
  5
1FE
330
1F
100
AcDbEntity
  8
Layer3
  6
AUSGEZOGEN
 62
    18
420
        0
370
    25
100
AcDbPolyline
 90
       33
 70
     0
 43
0.0
 10
-623.842777781173
 20
-1715.035008905772
 10
-598.522586254
 20
-1708.178255214456
 10
-574.810429561761
 20
-1704.142439569127
 10
-552.560658888549
 20
-1702.378166635169
 10
-531.627625418459
 20
-1702.336041077963
 10
-511.865680335584
 20
-1703.466667562894
 10
-493.129174824016
 20
-1705.220650755344
 10
-475.272460067851
 20
-1707.048595320695
 10
-458.149887251181
 20
-1708.401105924331
 10
-441.638261491765
 20
-1708.856988828017
 10
-425.704203642021
 20
-1708.507856679046
 10
-410.33678848803
 20
-1707.573523721097
 10
-395.525090815877
 20
-1706.273804197841
 10
-381.258185411643
 20
-1704.82851235296
 10
-367.525147061411
 20
-1703.457462430127
 10
-354.315050551265
 20
-1702.38046867302
 10
-341.616970667287
 20
-1701.817345325314
 10
-329.397768155357
 20
-1701.913300807933
 10
-317.535447600554
 20
-1702.515120250776
 10
-305.885799547754
 20
-1703.394982960995
 10
-294.304614541832
 20
-1704.325068245738
 10
-282.647683127664
 20
-1705.077555412152
 10
-270.770795850127
 20
-1705.424623767387
 10
-258.529743254096
 20
-1705.138452618593
 10
-245.780315884447
 20
-1703.991221272913
 10
-232.408899026914
 20
-1701.88782247811
 10
-218.424256930661
 20
-1699.264002744379
 10
-203.865748585707
 20
-1696.688222022524
 10
-188.772732982075
 20
-1694.728940263352
 10
-173.184569109784
 20
-1693.954617417666
 10
-157.140615958857
 20
-1694.933713436275
 10
-140.680232519313
 20
-1698.23468826998
 10
-123.842777781173
 20
-1704.42600186959
  0
DIMENSION
  5
207
330
1F
100
AcDbEntity
  8
Layer2
  6
AUSGEZOGEN
 62
    18
420
        0
370
    25
100
AcDbDimension
280
     0
  2
*D10
 10
-843.265891665134
 20
-1413.064160014886
 30
0.0
 11
-865.765891665134
 21
-1398.064160014886
 31
0.0
 70
    32
 71
     5
 42
-1.0
 73
     0
 74
     0
 75
     0
 53
90.0
  3
ISO-25
100
AcDbAlignedDimension
 13
-783.265891665143
 23
-1383.064160014886
 33
0.0
 14
-783.265891665143
 24
-1413.064160014886
 34
0.0
 50
-90.0
100
AcDbRotatedDimension
1001
ACAD
1000
DSTYLE
1002
{
1070
     3
1000
<>
1070
   340
1005
6F
1070
    44
1040
5.0
1070
   280
1070
     0
1070
    77
1070
     0
1070
   179
1070
     0
1070
   271
1070
     0
1070
   173
1070
     1
1070
    41
1040
12.5
1070
   147
1040
5.357142857143
1070
   140
1040
37.5
1070
   178
1070
    18
1070
   177
1070
    18
1070
   176
1070
    18
1002
}
  0
DIMENSION
  5
211
330
1F
100
AcDbEntity
  8
Layer2
  6
AUSGEZOGEN
 62
    18
420
        0
370
    25
100
AcDbDimension
280
     0
  2
*D11
 10
-123.842777781173
 20
-1866.655350174295
 30
0.0
 11
-373.842777781173
 21
-1844.155350174295
 31
0.0
 70
    32
 71
     5
 42
-1.0
 73
     0
 74
     0
 75
     0
  3
ISO-25
100
AcDbAlignedDimension
 13
-623.842777781173
 23
-1715.035008905772
 33
0.0
 14
-123.842777781173
 24
-1704.42600186959
 34
0.0
100
AcDbRotatedDimension
1001
ACAD
1000
DSTYLE
1002
{
1070
     3
1000
<>
1070
   340
1005
6F
1070
    44
1040
5.0
1070
   280
1070
     0
1070
    77
1070
     1
1070
   179
1070
     0
1070
   271
1070
     0
1070
   173
1070
     1
1070
    41
1040
12.5
1070
   147
1040
5.357142857143
1070
   140
1040
37.5
1070
   178
1070
    18
1070
   177
1070
    18
1070
   176
1070
    18
1002
}
  0
DIMENSION
  5
21A
330
1F
100
AcDbEntity
  8
Layer2
  6
AUSGEZOGEN
 62
    18
420
        0
370
    25
100
AcDbDimension
280
     0
  2
*D12
 10
482.545715132441
 20
-1403.178595481715
 30
0.0
 11
460.045715132441
 21
-1389.121377748301
 31
0.0
 70
    32
  1
26
 71
     5
 42
-1.0
 73
     0
 74
     0
 75
     0
 53
90.0
  3
ISO-25
100
AcDbAlignedDimension
 13
233.157222218827
 23
-1375.064160014886
 33
0.0
 14
-145.463848458797
 24
-1403.178595481715
 34
0.0
 50
-90.0
100
AcDbRotatedDimension
1001
ACAD
1000
DSTYLE
1002
{
1070
   340
1005
6F
1070
    44
1040
5.0
1070
   280
1070
     0
1070
    77
1070
     0
1070
   179
1070
     0
1070
   271
1070
     0
1070
   173
1070
     1
1070
    41
1040
12.5
1070
   147
1040
5.357142857143
1070
   140
1040
37.5
1070
   178
1070
    18
1070
   177
1070
    18
1070
   176
1070
    18
1002
}
  0
DIMENSION
  5
224
330
1F
100
AcDbEntity
  8
Layer2
  6
AUSGEZOGEN
 62
    18
420
        0
370
    25
100
AcDbDimension
280
     0
  2
*D13
 10
-439.050369179725
 20
-1375.064741031145
 30
0.0
 11
-461.550369179726
 21
-1467.564741031145
 31
0.0
 70
    32
 71
     5
 42
-1.0
 73
     0
 74
     0
 75
     0
 53
90.0
  3
ISO-25
100
AcDbAlignedDimension
 13
-418.842777781506
 23
-1560.064741031144
 33
0.0
 14
-403.902643753119
 24
-1375.064741031145
 34
0.0
 50
90.0
100
AcDbRotatedDimension
1001
ACAD
1000
DSTYLE
1002
{
1070
     3
1000
<>
1070
   340
1005
6F
1070
    44
1040
5.0
1070
   280
1070
     0
1070
    77
1070
     1
1070
   179
1070
     0
1070
   271
1070
     0
1070
   173
1070
     1
1070
    41
1040
12.5
1070
   147
1040
5.357142857143
1070
   140
1040
37.5
1070
   178
1070
    18
1070
   177
1070
    18
1070
   176
1070
    18
1002
}
  0
DIMENSION
  5
22E
330
1F
100
AcDbEntity
  8
Layer2
  6
AUSGEZOGEN
 62
    18
420
        0
370
    25
100
AcDbDimension
280
     0
  2
*D14
 10
-149.890798833654
 20
-1778.412012356184
 30
0.0
 11
-373.685555562347
 21
-1755.912012356184
 31
0.0
 70
    32
 71
     5
 42
-1.0
 73
     0
 74
     0
 75
     0
  3
ISO-25
100
AcDbAlignedDimension
 13
-597.480312291039
 23
-1397.541517698547
 33
0.0
 14
-149.890798833654
 24
-1404.227751852828
 34
0.0
100
AcDbRotatedDimension
1001
ACAD
1000
DSTYLE
1002
{
1070
     3
1000
<>
1070
   340
1005
6F
1070
    44
1040
5.0
1070
   280
1070
     0
1070
    77
1070
     1
1070
   179
1070
     0
1070
   271
1070
     0
1070
   173
1070
     1
1070
    41
1040
12.5
1070
   147
1040
5.357142857143
1070
   140
1040
37.5
1070
   178
1070
    18
1070
   177
1070
    18
1070
   176
1070
    18
1002
}
  0
DIMENSION
  5
23A
330
1F
100
AcDbEntity
  8
Layer2
  6
AUSGEZOGEN
 62
    18
420
        0
370
    25
100
AcDbDimension
280
     0
  2
*D15
 10
-699.52522833268
 20
-1375.064160014887
 30
0.0
 11
-722.02522833268
 21
-1335.746969517475
 31
0.0
 70
    32
  1
8\S+4^ -2
 71
     5
 42
-1.0
 73
     0
 74
     0
 75
     0
 53
90.0
  3
ISO-25
100
AcDbAlignedDimension
 13
-621.842777781173
 23
-1383.064160014887
 33
0.0
 14
-616.842777781173
 24
-1375.064160014887
 34
0.0
 50
90.0
100
AcDbRotatedDimension
1001
ACAD
1000
DSTYLE
1002
{
1070
   340
1005
6F
1070
    44
1040
5.0
1070
   280
1070
     0
1070
    77
1070
     1
1070
   179
1070
     0
1070
   271
1070
     0
1070
   173
1070
     1
1070
    41
1040
12.5
1070
   147
1040
5.357142857143
1070
   140
1040
37.5
1070
   178
1070
    18
1070
   177
1070
    18
1070
   176
1070
    18
1002
}
  0
DIMENSION
  5
244
330
1F
100
AcDbEntity
  8
Layer2
  6
AUSGEZOGEN
 62
    18
420
        0
370
    25
100
AcDbDimension
280
     0
  2
*D16
 10
-927.179053280413
 20
-1375.064160014887
 30
0.0
 11
-949.679053280413
 21
-1475.064160014887
 31
0.0
 70
    32
  1
200
 71
     5
 42
-1.0
 73
     0
 74
     0
 75
     0
 53
90.0
  3
ISO-25
100
AcDbAlignedDimension
 13
-540.104556823231
 23
-1575.064160014887
 33
0.0
 14
-616.842777781173
 24
-1375.064160014887
 34
0.0
 50
90.0
100
AcDbRotatedDimension
1001
ACAD
1000
DSTYLE
1002
{
1070
   340
1005
6F
1070
    44
1040
5.0
1070
   280
1070
     0
1070
    77
1070
     1
1070
   179
1070
     0
1070
   271
1070
     0
1070
   173
1070
     1
1070
    41
1040
12.5
1070
   147
1040
5.357142857143
1070
   140
1040
37.5
1070
   178
1070
    18
1070
   177
1070
    18
1070
   176
1070
    18
1002
}
  0
DIMENSION
  5
24E
330
1F
100
AcDbEntity
  8
Layer2
  6
AUSGEZOGEN
 62
    18
420
        0
370
    25
100
AcDbDimension
280
     0
  2
*D17
 10
-927.179053280413
 20
-1575.064160014887
 30
0.0
 11
-949.679053280413
 21
-1631.564160014887
 31
0.0
 70
    32
  1
120
 71
     5
 42
-1.0
 73
     0
 74
     0
 75
     0
 53
90.0
  3
ISO-25
100
AcDbAlignedDimension
 13
-426.842777781173
 23
-1688.064160014887
 33
0.0
 14
-616.842777781173
 24
-1575.064160014887
 34
0.0
 50
90.0
100
AcDbRotatedDimension
1001
ACAD
1000
DSTYLE
1002
{
1070
   340
1005
6F
1070
    44
1040
5.0
1070
   280
1070
     0
1070
    77
1070
     1
1070
   179
1070
     0
1070
   271
1070
     0
1070
   173
1070
     1
1070
    41
1040
12.5
1070
   147
1040
5.357142857143
1070
   140
1040
37.5
1070
   178
1070
    18
1070
   177
1070
    18
1070
   176
1070
    18
1002
}
  0
INSERT
  5
2C5
330
1F
100
AcDbEntity
  8
0
100
AcDbBlockReference
  2
A4-NABER_nNn017
 10
0.0
 20
0.0
 30
0.0
  0
ENDSEC
  0
SECTION
  2
OBJECTS
  0
DICTIONARY
  5
C
330
0
100
AcDbDictionary
281
     1
  3
ACAD_DETAILVIEWSTYLE
350
2FE
  3
ACAD_GROUP
350
D
  3
ACAD_IMAGE_DICT
350
2BF
  3
ACAD_LAYOUT
350
1A
  3
ACAD_MATERIAL
350
43
  3
ACAD_MLEADERSTYLE
350
6B
  3
ACAD_MLINESTYLE
350
17
  3
ACAD_PLOTSETTINGS
350
19
  3
ACAD_PLOTSTYLENAME
350
E
  3
ACAD_SCALELIST
350
47
  3
ACAD_SECTIONVIEWSTYLE
350
2FF
  3
ACAD_TABLESTYLE
350
69
  3
ACAD_VISUALSTYLE
350
2A
  3
ACAD_WIPEOUT_VARS
350
2FB
  3
ACDB_RECOMPOSE_DATA
350
2FA
  3
AcDbVariableDictionary
350
2C6
  0
SUN
  5
6D
330
29
100
AcDbSun
 90
        1
290
     0
 63
     7
421
 16777215
 40
1.0
291
     1
 91
  2455826
 92
 54000000
292
     0
 70
     2
 71
   256
280
     1
  0
IMAGEDEF_REACTOR
  5
2C2
330
2C1
100
AcDbRasterImageDefReactor
 90
        2
330
2C1
  0
DICTIONARY
  5
2FE
102
{ACAD_REACTORS
330
C
102
}
330
C
100
AcDbDictionary
281
     1
  0
DICTIONARY
  5
D
102
{ACAD_REACTORS
330
C
102
}
330
C
100
AcDbDictionary
281
     1
  0
DICTIONARY
  5
2BF
102
{ACAD_REACTORS
330
C
102
}
330
C
100
AcDbDictionary
281
     1
  3
NABER.JPG
350
2C0
  0
DICTIONARY
  5
1A
102
{ACAD_REACTORS
330
C
102
}
330
C
100
AcDbDictionary
281
     1
  3
Layout1
350
1E
  3
Layout2
350
26
  3
Model
350
22
  0
DICTIONARY
  5
43
102
{ACAD_REACTORS
330
C
102
}
330
C
100
AcDbDictionary
281
     1
  3
ByBlock
350
45
  3
ByLayer
350
44
  3
Global
350
46
  0
DICTIONARY
  5
6B
102
{ACAD_REACTORS
330
C
102
}
330
C
100
AcDbDictionary
281
     1
  3
Standard
350
6C
  0
DICTIONARY
  5
17
102
{ACAD_REACTORS
330
C
102
}
330
C
100
AcDbDictionary
281
     1
  3
Standard
350
18
  0
DICTIONARY
  5
19
102
{ACAD_REACTORS
330
C
102
}
330
C
100
AcDbDictionary
281
     1
  0
ACDBDICTIONARYWDFLT
  5
E
102
{ACAD_REACTORS
330
C
102
}
330
C
100
AcDbDictionary
281
     1
  3
Normal
350
F
100
AcDbDictionaryWithDefault
340
F
  0
DICTIONARY
  5
47
102
{ACAD_REACTORS
330
C
102
}
330
C
100
AcDbDictionary
281
     1
  3
A0
350
48
  3
A1
350
49
  3
A2
350
4A
  3
A3
350
4B
  3
A4
350
4C
  3
A5
350
4D
  3
A6
350
4E
  3
A7
350
4F
  3
A8
350
50
  3
A9
350
51
  3
B0
350
52
  3
B1
350
53
  3
B2
350
54
  3
B3
350
55
  3
B4
350
56
  3
B5
350
57
  3
B6
350
58
  3
B7
350
59
  3
B8
350
5A
  3
B9
350
5B
  3
C0
350
5C
  3
C1
350
5D
  3
C2
350
5E
  3
C3
350
5F
  3
C4
350
60
  3
C5
350
61
  3
C6
350
62
  3
C7
350
63
  3
C8
350
64
  3
C9
350
65
  3
D0
350
66
  3
D1
350
67
  3
D2
350
68
  0
DICTIONARY
  5
2FF
102
{ACAD_REACTORS
330
C
102
}
330
C
100
AcDbDictionary
281
     1
  0
DICTIONARY
  5
69
102
{ACAD_REACTORS
330
C
102
}
330
C
100
AcDbDictionary
281
     1
  3
Standard
350
6A
  0
DICTIONARY
  5
2A
102
{ACAD_REACTORS
330
C
102
}
330
C
100
AcDbDictionary
281
     1
  3
2dWireframe
350
2F
  3
Basic
350
32
  3
Brighten
350
36
  3
ColorChange
350
3A
  3
Conceptual
350
34
  3
Dim
350
35
  3
EdgeColorOff
350
3D
  3
Facepattern
350
39
  3
Flat
350
2B
  3
FlatWithEdges
350
2C
  3
Gouraud
350
2D
  3
GouraudWithEdges
350
2E
  3
Hidden
350
31
  3
JitterOff
350
3B
  3
Linepattern
350
38
  3
OverhangOff
350
3C
  3
Realistic
350
33
  3
Shaded
350
42
  3
Shaded with edges
350
41
  3
Shades of Gray
350
3E
  3
Sketchy
350
3F
  3
Thicken
350
37
  3
Wireframe
350
30
  3
X-Ray
350
40
  0
WIPEOUTVARIABLES
  5
2FB
102
{ACAD_REACTORS
330
C
102
}
330
C
100
AcDbWipeoutVariables
 70
     0
  0
XRECORD
  5
2FA
102
{ACAD_REACTORS
330
C
102
}
330
C
100
AcDbXrecord
280
     1
 90
        1
330
6A
  0
DICTIONARY
  5
2C6
102
{ACAD_REACTORS
330
C
102
}
330
C
100
AcDbDictionary
281
     1
  3
CANNOSCALE
350
2C7
  3
CENTEREXE
350
301
  3
CENTERLTYPEFILE
350
302
  3
CMLEADERSTYLE
350
2FD
  3
CTABLESTYLE
350
2FC
  3
WIPEOUTFRAME
350
300
  0
IMAGEDEF
  5
2C0
102
{ACAD_REACTORS
330
2BF
330
2C2
102
}
330
2BF
100
AcDbRasterImageDef
 90
        0
  1
NABER.JPG
 10
3781.0
 20
943.0
 11
0.0002644802962179318
 21
0.0002644802962179318
280
     1
281
     0
  0
LAYOUT
  5
1E
102
{ACAD_REACTORS
330
1A
102
}
330
1A
100
AcDbPlotSettings
  1

  2
none_device
  4

  6

 40
0.0
 41
0.0
 42
0.0
 43
0.0
 44
0.0
 45
0.0
 46
0.0
 47
0.0
 48
0.0
 49
0.0
140
0.0
141
0.0
142
1.0
143
1.0
 70
   688
 72
     1
 73
     0
 74
     5
  7

 75
    16
 76
     0
 77
     2
 78
   300
147
1.0
148
0.0
149
0.0
100
AcDbLayout
  1
Layout1
 70
     1
 71
     1
 10
0.0
 20
0.0
 11
420.0
 21
297.0
 12
0.0
 22
0.0
 32
0.0
 14
1.000000000000E+20
 24
1.000000000000E+20
 34
1.000000000000E+20
 15
-1.000000000000E+20
 25
-1.000000000000E+20
 35
-1.000000000000E+20
146
0.0
 13
0.0
 23
0.0
 33
0.0
 16
1.0
 26
0.0
 36
0.0
 17
0.0
 27
1.0
 37
0.0
 76
     0
330
1B
  0
LAYOUT
  5
26
102
{ACAD_REACTORS
330
1A
102
}
330
1A
100
AcDbPlotSettings
  1

  2
none_device
  4

  6

 40
0.0
 41
0.0
 42
0.0
 43
0.0
 44
0.0
 45
0.0
 46
0.0
 47
0.0
 48
0.0
 49
0.0
140
0.0
141
0.0
142
1.0
143
1.0
 70
   688
 72
     1
 73
     0
 74
     5
  7

 75
    16
 76
     0
 77
     2
 78
   300
147
1.0
148
0.0
149
0.0
100
AcDbLayout
  1
Layout2
 70
     1
 71
     2
 10
0.0
 20
0.0
 11
0.0
 21
0.0
 12
0.0
 22
0.0
 32
0.0
 14
0.0
 24
0.0
 34
0.0
 15
0.0
 25
0.0
 35
0.0
146
0.0
 13
0.0
 23
0.0
 33
0.0
 16
1.0
 26
0.0
 36
0.0
 17
0.0
 27
1.0
 37
0.0
 76
     0
330
23
  0
LAYOUT
  5
22
102
{ACAD_REACTORS
330
1A
102
}
330
1A
100
AcDbPlotSettings
  1

  2
none_device
  4
Letter_(8.50_x_11.00_Inches)
  6

 40
6.35
 41
6.35
 42
6.35000508
 43
6.35000508
 44
215.9
 45
279.4
 46
0.0
 47
0.0
 48
0.0
 49
0.0
140
0.0
141
0.0
142
1.0
143
1.0
 70
  1712
 72
     1
 73
     0
 74
     0
  7

 75
     0
 76
     0
 77
     2
 78
   300
147
1.0
148
0.0
149
0.0
100
AcDbLayout
  1
Model
 70
     1
 71
     0
 10
0.0
 20
0.0
 11
420.0
 21
297.0
 12
0.0
 22
0.0
 32
0.0
 14
-3989.584620032634
 24
-2840.903821377853
 34
0.0
 15
3442.973302480121
 25
88.506178622147
 35
0.0
146
0.0
 13
0.0
 23
0.0
 33
0.0
 16
1.0
 26
0.0
 36
0.0
 17
0.0
 27
1.0
 37
0.0
 76
     0
330
1F
331
29
  0
MATERIAL
  5
45
102
{ACAD_REACTORS
330
43
102
}
330
43
100
AcDbMaterial
  1
ByBlock
 72
     1
 94
      127
  0
MATERIAL
  5
44
102
{ACAD_REACTORS
330
43
102
}
330
43
100
AcDbMaterial
  1
ByLayer
 72
     1
 94
      127
  0
MATERIAL
  5
46
102
{ACAD_REACTORS
330
43
102
}
330
43
100
AcDbMaterial
  1
Global
 72
     1
 94
      127
  0
MLEADERSTYLE
  5
6C
102
{ACAD_REACTORS
330
6B
102
}
330
6B
100
AcDbMLeaderStyle
179
     2
170
     2
171
     1
172
     0
 90
        2
 40
0.0
 41
0.0
173
     1
 91
-1056964608
340
14
 92
       -2
290
     1
 42
2.0
291
     1
 43
8.0
  3
Standard
341
0
 44
4.0
300

342
11
174
     1
178
     6
175
     1
176
     0
 93
-1056964608
 45
4.0
292
     0
297
     0
 46
4.0
343
0
 94
-1056964608
 47
1.0
 49
1.0
140
1.0
293
     1
141
0.0
294
     1
177
     0
142
1.0
295
     0
296
     0
143
3.75
271
     0
272
     9
273
     9
  0
MLINESTYLE
  5
18
102
{ACAD_REACTORS
330
17
102
}
330
17
100
AcDbMlineStyle
  2
Standard
 70
     0
  3

 62
   256
 51
90.0
 52
90.0
 71
     2
 49
0.5
 62
   256
  6
BYLAYER
 49
-0.5
 62
   256
  6
BYLAYER
  0
ACDBPLACEHOLDER
  5
F
102
{ACAD_REACTORS
330
E
102
}
330
E
  0
SCALE
  5
48
102
{ACAD_REACTORS
330
47
102
}
330
47
100
AcDbScale
 70
     0
300
1:1
140
1.0
141
1.0
290
     1
  0
SCALE
  5
49
102
{ACAD_REACTORS
330
47
102
}
330
47
100
AcDbScale
 70
     0
300
1:2
140
1.0
141
2.0
290
     0
  0
SCALE
  5
4A
102
{ACAD_REACTORS
330
47
102
}
330
47
100
AcDbScale
 70
     0
300
1:4
140
1.0
141
4.0
290
     0
  0
SCALE
  5
4B
102
{ACAD_REACTORS
330
47
102
}
330
47
100
AcDbScale
 70
     0
300
1:5
140
1.0
141
5.0
290
     0
  0
SCALE
  5
4C
102
{ACAD_REACTORS
330
47
102
}
330
47
100
AcDbScale
 70
     0
300
1:8
140
1.0
141
8.0
290
     0
  0
SCALE
  5
4D
102
{ACAD_REACTORS
330
47
102
}
330
47
100
AcDbScale
 70
     0
300
1:10
140
1.0
141
10.0
290
     0
  0
SCALE
  5
4E
102
{ACAD_REACTORS
330
47
102
}
330
47
100
AcDbScale
 70
     0
300
1:16
140
1.0
141
16.0
290
     0
  0
SCALE
  5
4F
102
{ACAD_REACTORS
330
47
102
}
330
47
100
AcDbScale
 70
     0
300
1:20
140
1.0
141
20.0
290
     0
  0
SCALE
  5
50
102
{ACAD_REACTORS
330
47
102
}
330
47
100
AcDbScale
 70
     0
300
1:30
140
1.0
141
30.0
290
     0
  0
SCALE
  5
51
102
{ACAD_REACTORS
330
47
102
}
330
47
100
AcDbScale
 70
     0
300
1:40
140
1.0
141
40.0
290
     0
  0
SCALE
  5
52
102
{ACAD_REACTORS
330
47
102
}
330
47
100
AcDbScale
 70
     0
300
1:50
140
1.0
141
50.0
290
     0
  0
SCALE
  5
53
102
{ACAD_REACTORS
330
47
102
}
330
47
100
AcDbScale
 70
     0
300
1:100
140
1.0
141
100.0
290
     0
  0
SCALE
  5
54
102
{ACAD_REACTORS
330
47
102
}
330
47
100
AcDbScale
 70
     0
300
2:1
140
2.0
141
1.0
290
     0
  0
SCALE
  5
55
102
{ACAD_REACTORS
330
47
102
}
330
47
100
AcDbScale
 70
     0
300
4:1
140
4.0
141
1.0
290
     0
  0
SCALE
  5
56
102
{ACAD_REACTORS
330
47
102
}
330
47
100
AcDbScale
 70
     0
300
8:1
140
8.0
141
1.0
290
     0
  0
SCALE
  5
57
102
{ACAD_REACTORS
330
47
102
}
330
47
100
AcDbScale
 70
     0
300
10:1
140
10.0
141
1.0
290
     0
  0
SCALE
  5
58
102
{ACAD_REACTORS
330
47
102
}
330
47
100
AcDbScale
 70
     0
300
100:1
140
100.0
141
1.0
290
     0
  0
SCALE
  5
59
102
{ACAD_REACTORS
330
47
102
}
330
47
100
AcDbScale
 70
     0
300
1/128" = 1'-0"
140
0.0078125
141
12.0
290
     0
  0
SCALE
  5
5A
102
{ACAD_REACTORS
330
47
102
}
330
47
100
AcDbScale
 70
     0
300
1/64" = 1'-0"
140
0.015625
141
12.0
290
     0
  0
SCALE
  5
5B
102
{ACAD_REACTORS
330
47
102
}
330
47
100
AcDbScale
 70
     0
300
1/32" = 1'-0"
140
0.03125
141
12.0
290
     0
  0
SCALE
  5
5C
102
{ACAD_REACTORS
330
47
102
}
330
47
100
AcDbScale
 70
     0
300
1/16" = 1'-0"
140
0.0625
141
12.0
290
     0
  0
SCALE
  5
5D
102
{ACAD_REACTORS
330
47
102
}
330
47
100
AcDbScale
 70
     0
300
3/32" = 1'-0"
140
0.09375
141
12.0
290
     0
  0
SCALE
  5
5E
102
{ACAD_REACTORS
330
47
102
}
330
47
100
AcDbScale
 70
     0
300
1/8" = 1'-0"
140
0.125
141
12.0
290
     0
  0
SCALE
  5
5F
102
{ACAD_REACTORS
330
47
102
}
330
47
100
AcDbScale
 70
     0
300
3/16" = 1'-0"
140
0.1875
141
12.0
290
     0
  0
SCALE
  5
60
102
{ACAD_REACTORS
330
47
102
}
330
47
100
AcDbScale
 70
     0
300
1/4" = 1'-0"
140
0.25
141
12.0
290
     0
  0
SCALE
  5
61
102
{ACAD_REACTORS
330
47
102
}
330
47
100
AcDbScale
 70
     0
300
3/8" = 1'-0"
140
0.375
141
12.0
290
     0
  0
SCALE
  5
62
102
{ACAD_REACTORS
330
47
102
}
330
47
100
AcDbScale
 70
     0
300
1/2" = 1'-0"
140
0.5
141
12.0
290
     0
  0
SCALE
  5
63
102
{ACAD_REACTORS
330
47
102
}
330
47
100
AcDbScale
 70
     0
300
3/4" = 1'-0"
140
0.75
141
12.0
290
     0
  0
SCALE
  5
64
102
{ACAD_REACTORS
330
47
102
}
330
47
100
AcDbScale
 70
     0
300
1" = 1'-0"
140
1.0
141
12.0
290
     0
  0
SCALE
  5
65
102
{ACAD_REACTORS
330
47
102
}
330
47
100
AcDbScale
 70
     0
300
1-1/2" = 1'-0"
140
1.5
141
12.0
290
     0
  0
SCALE
  5
66
102
{ACAD_REACTORS
330
47
102
}
330
47
100
AcDbScale
 70
     0
300
3" = 1'-0"
140
3.0
141
12.0
290
     0
  0
SCALE
  5
67
102
{ACAD_REACTORS
330
47
102
}
330
47
100
AcDbScale
 70
     0
300
6" = 1'-0"
140
6.0
141
12.0
290
     0
  0
SCALE
  5
68
102
{ACAD_REACTORS
330
47
102
}
330
47
100
AcDbScale
 70
     0
300
1'-0" = 1'-0"
140
12.0
141
12.0
290
     0
  0
TABLESTYLE
  5
6A
102
{ACAD_REACTORS
330
69
102
}
102
{ACAD_XDICTIONARY
360
2F8
102
}
330
69
100
AcDbTableStyle
  3
Standard
 70
     0
 71
     0
 40
0.06
 41
0.06
280
     0
281
     0
  7
Standard
140
4.5
170
     2
 62
     0
 63
   257
283
     0
 90
        4
 91
        0
  1

274
    -2
284
     1
 64
     0
275
    -2
285
     1
 65
     0
276
    -2
286
     1
 66
     0
277
    -2
287
     1
 67
     0
278
    -2
288
     1
 68
     0
279
    -2
289
     1
 69
     0
  7
Standard
140
6.0
170
     5
 62
     0
 63
   257
283
     0
 90
        4
 91
        0
  1

274
    -2
284
     1
 64
     0
275
    -2
285
     1
 65
     0
276
    -2
286
     1
 66
     0
277
    -2
287
     1
 67
     0
278
    -2
288
     1
 68
     0
279
    -2
289
     1
 69
     0
  7
Standard
140
4.5
170
     5
 62
     0
 63
   257
283
     0
 90
        4
 91
        0
  1

274
    -2
284
     1
 64
     0
275
    -2
285
     1
 65
     0
276
    -2
286
     1
 66
     0
277
    -2
287
     1
 67
     0
278
    -2
288
     1
 68
     0
279
    -2
289
     1
 69
     0
  0
VISUALSTYLE
  5
2F
102
{ACAD_REACTORS
330
2A
102
}
102
{ACAD_XDICTIONARY
360
2D0
102
}
330
2A
100
AcDbVisualStyle
  2
2dWireframe
 70
     4
177
     2
291
     0
 71
     0
176
     1
 72
     2
176
     1
 73
     0
176
     1
 90
        0
176
     1
 40
0.6
176
     1
 41
30.0
176
     1
 62
     5
 63
     7
421
 16777215
176
     1
 74
     1
176
     1
 91
        4
176
     1
 64
     7
176
     1
 65
   257
176
     1
 75
     1
176
     1
175
     1
176
     1
 42
1.0
176
     1
 92
        0
176
     1
 66
   257
176
     1
 43
1.0
176
     1
 76
     1
176
     1
 77
     6
176
     1
 78
     2
176
     1
 67
     7
176
     1
 79
     5
176
     1
170
     0
176
     1
171
     0
176
     1
290
     0
176
     1
 93
        1
176
     1
 44
0.0
176
     1
173
     0
176
     1
  0
VISUALSTYLE
  5
32
102
{ACAD_REACTORS
330
2A
102
}
102
{ACAD_XDICTIONARY
360
2D6
102
}
330
2A
100
AcDbVisualStyle
  2
Basic
 70
     7
177
     2
291
     1
 71
     1
176
     1
 72
     0
176
     1
 73
     1
176
     1
 90
        0
176
     1
 40
0.6
176
     1
 41
30.0
176
     1
 62
     5
 63
     7
421
 16777215
176
     1
 74
     0
176
     1
 91
        4
176
     1
 64
     7
176
     1
 65
   257
176
     1
 75
     1
176
     1
175
     1
176
     1
 42
1.0
176
     1
 92
        8
176
     1
 66
     7
176
     1
 43
1.0
176
     1
 76
     1
176
     1
 77
     6
176
     1
 78
     2
176
     1
 67
     7
176
     1
 79
     5
176
     1
170
     0
176
     1
171
     0
176
     1
290
     0
176
     1
 93
        1
176
     1
 44
0.0
176
     1
173
     0
176
     1
  0
VISUALSTYLE
  5
36
102
{ACAD_REACTORS
330
2A
102
}
102
{ACAD_XDICTIONARY
360
2DE
102
}
330
2A
100
AcDbVisualStyle
  2
Brighten
 70
    12
177
     2
291
     1
 71
     2
176
     1
 72
     2
176
     1
 73
     0
176
     1
 90
        0
176
     1
 40
0.6
176
     1
 41
30.0
176
     1
 62
     5
 63
     7
421
 16777215
176
     1
 74
     1
176
     1
 91
        4
176
     1
 64
     7
176
     1
 65
   257
176
     1
 75
     1
176
     1
175
     1
176
     1
 42
1.0
176
     1
 92
        8
176
     1
 66
     7
176
     1
 43
1.0
176
     1
 76
     1
176
     1
 77
     6
176
     1
 78
     2
176
     1
 67
     7
176
     1
 79
     5
176
     1
170
     0
176
     1
171
     0
176
     1
290
     0
176
     1
 93
        1
176
     1
 44
50.0
176
     1
173
     0
176
     1
  0
VISUALSTYLE
  5
3A
102
{ACAD_REACTORS
330
2A
102
}
102
{ACAD_XDICTIONARY
360
2E6
102
}
330
2A
100
AcDbVisualStyle
  2
ColorChange
 70
    16
177
     2
291
     1
 71
     2
176
     1
 72
     2
176
     1
 73
     3
176
     1
 90
        0
176
     1
 40
0.6
176
     1
 41
30.0
176
     1
 62
     5
 63
     8
421
  8421504
176
     1
 74
     1
176
     1
 91
        4
176
     1
 64
     7
176
     1
 65
   257
176
     1
 75
     1
176
     1
175
     1
176
     1
 42
1.0
176
     1
 92
        8
176
     1
 66
     8
424
  8421504
176
     1
 43
1.0
176
     1
 76
     1
176
     1
 77
     6
176
     1
 78
     2
176
     1
 67
     7
176
     1
 79
     5
176
     1
170
     0
176
     1
171
     0
176
     1
290
     0
176
     1
 93
        1
176
     1
 44
0.0
176
     1
173
     0
176
     1
  0
VISUALSTYLE
  5
34
102
{ACAD_REACTORS
330
2A
102
}
102
{ACAD_XDICTIONARY
360
2DA
102
}
330
2A
100
AcDbVisualStyle
  2
Conceptual
 70
     9
177
     2
291
     0
 71
     3
176
     1
 72
     2
176
     1
 73
     0
176
     1
 90
        0
176
     1
 40
0.6
176
     1
 41
30.0
176
     1
 62
     5
 63
     7
421
 16777215
176
     1
 74
     2
176
     1
 91
        2
176
     1
 64
     7
176
     1
 65
   257
176
     1
 75
     1
176
     1
175
     1
176
     1
 42
179.0
176
     1
 92
        8
176
     1
 66
     7
176
     1
 43
1.0
176
     1
 76
     1
176
     1
 77
     6
176
     1
 78
     2
176
     1
 67
     7
176
     1
 79
     3
176
     1
170
     0
176
     1
171
     0
176
     1
290
     0
176
     1
 93
        1
176
     1
 44
0.0
176
     1
173
     0
176
     1
  0
VISUALSTYLE
  5
35
102
{ACAD_REACTORS
330
2A
102
}
102
{ACAD_XDICTIONARY
360
2DC
102
}
330
2A
100
AcDbVisualStyle
  2
Dim
 70
    11
177
     2
291
     1
 71
     2
176
     1
 72
     2
176
     1
 73
     0
176
     1
 90
        0
176
     1
 40
0.6
176
     1
 41
30.0
176
     1
 62
     5
 63
     7
421
 16777215
176
     1
 74
     1
176
     1
 91
        4
176
     1
 64
     7
176
     1
 65
   257
176
     1
 75
     1
176
     1
175
     1
176
     1
 42
1.0
176
     1
 92
        8
176
     1
 66
     7
176
     1
 43
1.0
176
     1
 76
     1
176
     1
 77
     6
176
     1
 78
     2
176
     1
 67
     7
176
     1
 79
     5
176
     1
170
     0
176
     1
171
     0
176
     1
290
     0
176
     1
 93
        1
176
     1
 44
-50.0
176
     1
173
     0
176
     1
  0
VISUALSTYLE
  5
3D
102
{ACAD_REACTORS
330
2A
102
}
102
{ACAD_XDICTIONARY
360
2EC
102
}
330
2A
100
AcDbVisualStyle
  2
EdgeColorOff
 70
    22
177
     2
291
     1
 71
     2
176
     0
 72
     2
176
     0
 73
     0
176
     0
 90
        0
176
     0
 40
0.6
176
     0
 41
30.0
176
     0
 62
     5
 63
     7
421
 16777215
176
     0
 74
     1
176
     0
 91
        4
176
     0
 64
     7
176
     0
 65
   257
176
     0
 75
     1
176
     0
175
     1
176
     0
 42
1.0
176
     0
 92
        8
176
     2
 66
     7
176
     0
 43
1.0
176
     0
 76
     1
176
     0
 77
     6
176
     0
 78
     2
176
     0
 67
     7
176
     0
 79
     5
176
     0
170
     0
176
     0
171
     0
176
     0
290
     0
176
     0
 93
        1
176
     0
 44
0.0
176
     0
173
     0
176
     0
  0
VISUALSTYLE
  5
39
102
{ACAD_REACTORS
330
2A
102
}
102
{ACAD_XDICTIONARY
360
2E4
102
}
330
2A
100
AcDbVisualStyle
  2
Facepattern
 70
    15
177
     2
291
     1
 71
     2
176
     1
 72
     2
176
     1
 73
     0
176
     1
 90
        0
176
     1
 40
0.6
176
     1
 41
30.0
176
     1
 62
     5
 63
     7
421
 16777215
176
     1
 74
     1
176
     1
 91
        4
176
     1
 64
     7
176
     1
 65
   257
176
     1
 75
     1
176
     1
175
     1
176
     1
 42
1.0
176
     1
 92
        8
176
     1
 66
     7
176
     1
 43
1.0
176
     1
 76
     1
176
     1
 77
     6
176
     1
 78
     2
176
     1
 67
     7
176
     1
 79
     5
176
     1
170
     0
176
     1
171
     0
176
     1
290
     0
176
     1
 93
        1
176
     1
 44
0.0
176
     1
173
     0
176
     1
  0
VISUALSTYLE
  5
2B
102
{ACAD_REACTORS
330
2A
102
}
102
{ACAD_XDICTIONARY
360
2C8
102
}
330
2A
100
AcDbVisualStyle
  2
Flat
 70
     0
177
     2
291
     1
 71
     2
176
     1
 72
     1
176
     1
 73
     1
176
     1
 90
        2
176
     1
 40
0.6
176
     1
 41
30.0
176
     1
 62
     5
 63
     7
421
 16777215
176
     1
 74
     0
176
     1
 91
        0
176
     1
 64
     7
176
     1
 65
   257
176
     1
 75
     1
176
     1
175
     1
176
     1
 42
1.0
176
     1
 92
        8
176
     1
 66
     7
176
     1
 43
1.0
176
     1
 76
     1
176
     1
 77
     6
176
     1
 78
     2
176
     1
 67
     7
176
     1
 79
     5
176
     1
170
     0
176
     1
171
     0
176
     1
290
     0
176
     1
 93
       13
176
     1
 44
0.0
176
     1
173
     0
176
     1
  0
VISUALSTYLE
  5
2C
102
{ACAD_REACTORS
330
2A
102
}
102
{ACAD_XDICTIONARY
360
2CA
102
}
330
2A
100
AcDbVisualStyle
  2
FlatWithEdges
 70
     1
177
     2
291
     1
 71
     2
176
     1
 72
     1
176
     1
 73
     1
176
     1
 90
        2
176
     1
 40
0.6
176
     1
 41
30.0
176
     1
 62
     5
 63
     7
421
 16777215
176
     1
 74
     1
176
     1
 91
        0
176
     1
 64
     7
176
     1
 65
   257
176
     1
 75
     1
176
     1
175
     1
176
     1
 42
1.0
176
     1
 92
        0
176
     1
 66
   257
176
     1
 43
1.0
176
     1
 76
     1
176
     1
 77
     6
176
     1
 78
     2
176
     1
 67
     7
176
     1
 79
     5
176
     1
170
     0
176
     1
171
     0
176
     1
290
     0
176
     1
 93
       13
176
     1
 44
0.0
176
     1
173
     0
176
     1
  0
VISUALSTYLE
  5
2D
102
{ACAD_REACTORS
330
2A
102
}
102
{ACAD_XDICTIONARY
360
2CC
102
}
330
2A
100
AcDbVisualStyle
  2
Gouraud
 70
     2
177
     2
291
     1
 71
     2
176
     1
 72
     2
176
     1
 73
     1
176
     1
 90
        2
176
     1
 40
0.6
176
     1
 41
30.0
176
     1
 62
     5
 63
     7
421
 16777215
176
     1
 74
     0
176
     1
 91
        0
176
     1
 64
     7
176
     1
 65
   257
176
     1
 75
     1
176
     1
175
     1
176
     1
 42
1.0
176
     1
 92
        0
176
     1
 66
     7
176
     1
 43
1.0
176
     1
 76
     1
176
     1
 77
     6
176
     1
 78
     2
176
     1
 67
     7
176
     1
 79
     5
176
     1
170
     0
176
     1
171
     0
176
     1
290
     0
176
     1
 93
       13
176
     1
 44
0.0
176
     1
173
     0
176
     1
  0
VISUALSTYLE
  5
2E
102
{ACAD_REACTORS
330
2A
102
}
102
{ACAD_XDICTIONARY
360
2CE
102
}
330
2A
100
AcDbVisualStyle
  2
GouraudWithEdges
 70
     3
177
     2
291
     1
 71
     2
176
     1
 72
     2
176
     1
 73
     1
176
     1
 90
        2
176
     1
 40
0.6
176
     1
 41
30.0
176
     1
 62
     5
 63
     7
421
 16777215
176
     1
 74
     1
176
     1
 91
        0
176
     1
 64
     7
176
     1
 65
   257
176
     1
 75
     1
176
     1
175
     1
176
     1
 42
1.0
176
     1
 92
        0
176
     1
 66
   257
176
     1
 43
1.0
176
     1
 76
     1
176
     1
 77
     6
176
     1
 78
     2
176
     1
 67
     7
176
     1
 79
     5
176
     1
170
     0
176
     1
171
     0
176
     1
290
     0
176
     1
 93
       13
176
     1
 44
0.0
176
     1
173
     0
176
     1
  0
VISUALSTYLE
  5
31
102
{ACAD_REACTORS
330
2A
102
}
102
{ACAD_XDICTIONARY
360
2D4
102
}
330
2A
100
AcDbVisualStyle
  2
Hidden
 70
     6
177
     2
291
     0
 71
     1
176
     1
 72
     2
176
     1
 73
     2
176
     1
 90
        0
176
     1
 40
0.6
176
     1
 41
30.0
176
     1
 62
     5
 63
     7
421
 16777215
176
     1
 74
     2
176
     1
 91
        2
176
     1
 64
     7
176
     1
 65
   257
176
     1
 75
     2
176
     1
175
     1
176
     1
 42
40.0
176
     1
 92
        0
176
     1
 66
   257
176
     1
 43
1.0
176
     1
 76
     1
176
     1
 77
     6
176
     1
 78
     2
176
     1
 67
     7
176
     1
 79
     3
176
     1
170
     0
176
     1
171
     0
176
     1
290
     0
176
     1
 93
        1
176
     1
 44
0.0
176
     1
173
     0
176
     1
  0
VISUALSTYLE
  5
3B
102
{ACAD_REACTORS
330
2A
102
}
102
{ACAD_XDICTIONARY
360
2E8
102
}
330
2A
100
AcDbVisualStyle
  2
JitterOff
 70
    20
177
     2
291
     1
 71
     2
176
     0
 72
     2
176
     0
 73
     0
176
     0
 90
        0
176
     0
 40
0.6
176
     0
 41
30.0
176
     0
 62
     5
 63
     7
421
 16777215
176
     0
 74
     1
176
     0
 91
        4
176
     0
 64
     7
176
     0
 65
   257
176
     0
 75
     1
176
     0
175
     1
176
     0
 42
1.0
176
     0
 92
       10
176
     2
 66
     7
176
     0
 43
1.0
176
     0
 76
     1
176
     0
 77
     6
176
     0
 78
     2
176
     0
 67
     7
176
     0
 79
     5
176
     0
170
     0
176
     0
171
     0
176
     0
290
     0
176
     0
 93
        1
176
     0
 44
0.0
176
     0
173
     0
176
     0
  0
VISUALSTYLE
  5
38
102
{ACAD_REACTORS
330
2A
102
}
102
{ACAD_XDICTIONARY
360
2E2
102
}
330
2A
100
AcDbVisualStyle
  2
Linepattern
 70
    14
177
     2
291
     1
 71
     2
176
     1
 72
     2
176
     1
 73
     0
176
     1
 90
        0
176
     1
 40
0.6
176
     1
 41
30.0
176
     1
 62
     5
 63
     7
421
 16777215
176
     1
 74
     1
176
     1
 91
        4
176
     1
 64
     7
176
     1
 65
   257
176
     1
 75
     7
176
     1
175
     7
176
     1
 42
1.0
176
     1
 92
        8
176
     1
 66
     7
176
     1
 43
1.0
176
     1
 76
     1
176
     1
 77
     6
176
     1
 78
     2
176
     1
 67
     7
176
     1
 79
     5
176
     1
170
     0
176
     1
171
     0
176
     1
290
     0
176
     1
 93
        1
176
     1
 44
0.0
176
     1
173
     0
176
     1
  0
VISUALSTYLE
  5
3C
102
{ACAD_REACTORS
330
2A
102
}
102
{ACAD_XDICTIONARY
360
2EA
102
}
330
2A
100
AcDbVisualStyle
  2
OverhangOff
 70
    21
177
     2
291
     1
 71
     2
176
     0
 72
     2
176
     0
 73
     0
176
     0
 90
        0
176
     0
 40
0.6
176
     0
 41
30.0
176
     0
 62
     5
 63
     7
421
 16777215
176
     0
 74
     1
176
     0
 91
        4
176
     0
 64
     7
176
     0
 65
   257
176
     0
 75
     1
176
     0
175
     1
176
     0
 42
1.0
176
     0
 92
        9
176
     2
 66
     7
176
     0
 43
1.0
176
     0
 76
     1
176
     0
 77
     6
176
     0
 78
     2
176
     0
 67
     7
176
     0
 79
     5
176
     0
170
     0
176
     0
171
     0
176
     0
290
     0
176
     0
 93
        1
176
     0
 44
0.0
176
     0
173
     0
176
     0
  0
VISUALSTYLE
  5
33
102
{ACAD_REACTORS
330
2A
102
}
102
{ACAD_XDICTIONARY
360
2D8
102
}
330
2A
100
AcDbVisualStyle
  2
Realistic
 70
     8
177
     2
291
     0
 71
     2
176
     1
 72
     3
176
     1
 73
     0
176
     1
 90
        2
176
     1
 40
0.6
176
     1
 41
30.0
176
     1
 62
     5
 63
     7
421
 16777215
176
     1
 74
     0
176
     1
 91
        0
176
     1
 64
     7
176
     1
 65
   257
176
     1
 75
     1
176
     1
175
     1
176
     1
 42
1.0
176
     1
 92
        8
176
     1
 66
   257
176
     1
 43
1.0
176
     1
 76
     1
176
     1
 77
     6
176
     1
 78
     2
176
     1
 67
     7
176
     1
 79
     3
176
     1
170
     0
176
     1
171
     0
176
     1
290
     0
176
     1
 93
       13
176
     1
 44
0.0
176
     1
173
     0
176
     1
  0
VISUALSTYLE
  5
42
102
{ACAD_REACTORS
330
2A
102
}
102
{ACAD_XDICTIONARY
360
2F6
102
}
330
2A
100
AcDbVisualStyle
  2
Shaded
 70
    27
177
     2
291
     0
 71
     2
176
     1
 72
     2
176
     1
 73
     1
176
     1
 90
        2
176
     1
 40
0.6
176
     1
 41
30.0
176
     1
 62
     5
 63
     7
421
 16777215
176
     1
 74
     0
176
     1
 91
        4
176
     1
 64
     7
176
     1
 65
   257
176
     1
 75
     1
176
     1
175
     1
176
     1
 42
1.0
176
     1
 92
        8
176
     1
 66
   257
176
     1
 43
1.0
176
     1
 76
     1
176
     1
 77
     6
176
     1
 78
     2
176
     1
 67
     8
425
  7895160
176
     1
 79
     3
176
     1
170
     0
176
     1
171
     0
176
     1
290
     0
176
     1
 93
        5
176
     1
 44
0.0
176
     1
173
     0
176
     1
  0
VISUALSTYLE
  5
41
102
{ACAD_REACTORS
330
2A
102
}
102
{ACAD_XDICTIONARY
360
2F4
102
}
330
2A
100
AcDbVisualStyle
  2
Shaded with edges
 70
    26
177
     2
291
     0
 71
     2
176
     1
 72
     2
176
     1
 73
     1
176
     1
 90
        2
176
     1
 40
0.6
176
     1
 41
30.0
176
     1
 62
     5
 63
     7
421
 16777215
176
     1
 74
     1
176
     1
 91
       10
176
     1
 64
     7
176
     1
 65
   257
176
     1
 75
     2
176
     1
175
     1
176
     1
 42
1.0
176
     1
 92
        8
176
     1
 66
   257
176
     1
 43
1.0
176
     1
 76
     1
176
     1
 77
     6
176
     1
 78
     2
176
     1
 67
     7
176
     1
 79
     3
176
     1
170
     0
176
     1
171
     0
176
     1
290
     0
176
     1
 93
        5
176
     1
 44
0.0
176
     1
173
     0
176
     1
  0
VISUALSTYLE
  5
3E
102
{ACAD_REACTORS
330
2A
102
}
102
{ACAD_XDICTIONARY
360
2EE
102
}
330
2A
100
AcDbVisualStyle
  2
Shades of Gray
 70
    23
177
     2
291
     0
 71
     2
176
     1
 72
     2
176
     1
 73
     3
176
     1
 90
        0
176
     1
 40
0.6
176
     1
 41
30.0
176
     1
 62
     5
 63
     7
421
 16777215
176
     1
 74
     2
176
     1
 91
        2
176
     1
 64
     7
176
     1
 65
     7
176
     1
 75
     1
176
     1
175
     1
176
     1
 42
40.0
176
     1
 92
        8
176
     1
 66
     7
176
     1
 43
1.0
176
     1
 76
     1
176
     1
 77
     6
176
     1
 78
     2
176
     1
 67
     7
176
     1
 79
     3
176
     1
170
     0
176
     1
171
     0
176
     1
290
     0
176
     1
 93
        1
176
     1
 44
0.0
176
     1
173
     0
176
     1
  0
VISUALSTYLE
  5
3F
102
{ACAD_REACTORS
330
2A
102
}
102
{ACAD_XDICTIONARY
360
2F0
102
}
330
2A
100
AcDbVisualStyle
  2
Sketchy
 70
    24
177
     2
291
     0
 71
     1
176
     1
 72
     2
176
     1
 73
     2
176
     1
 90
        0
176
     1
 40
0.6
176
     1
 41
30.0
176
     1
 62
     5
 63
     7
421
 16777215
176
     1
 74
     2
176
     1
 91
        2
176
     1
 64
     7
176
     1
 65
     7
176
     1
 75
     1
176
     1
175
     1
176
     1
 42
40.0
176
     1
 92
       11
176
     1
 66
     7
176
     1
 43
1.0
176
     1
 76
     1
176
     1
 77
     6
176
     1
 78
     2
176
     1
 67
     7
176
     1
 79
     6
176
     1
170
     0
176
     1
171
     0
176
     1
290
     0
176
     1
 93
        1
176
     1
 44
0.0
176
     1
173
     0
176
     1
  0
VISUALSTYLE
  5
37
102
{ACAD_REACTORS
330
2A
102
}
102
{ACAD_XDICTIONARY
360
2E0
102
}
330
2A
100
AcDbVisualStyle
  2
Thicken
 70
    13
177
     2
291
     1
 71
     2
176
     1
 72
     2
176
     1
 73
     0
176
     1
 90
        0
176
     1
 40
0.6
176
     1
 41
30.0
176
     1
 62
     5
 63
     7
421
 16777215
176
     1
 74
     1
176
     1
 91
        4
176
     1
 64
     7
176
     1
 65
   257
176
     1
 75
     1
176
     1
175
     1
176
     1
 42
1.0
176
     1
 92
       12
176
     1
 66
     7
176
     1
 43
1.0
176
     1
 76
     1
176
     1
 77
     6
176
     1
 78
     2
176
     1
 67
     7
176
     1
 79
     5
176
     1
170
     0
176
     1
171
     0
176
     1
290
     0
176
     1
 93
        1
176
     1
 44
0.0
176
     1
173
     0
176
     1
  0
VISUALSTYLE
  5
30
102
{ACAD_REACTORS
330
2A
102
}
102
{ACAD_XDICTIONARY
360
2D2
102
}
330
2A
100
AcDbVisualStyle
  2
Wireframe
 70
     5
177
     2
291
     0
 71
     0
176
     1
 72
     2
176
     1
 73
     0
176
     1
 90
        0
176
     1
 40
0.6
176
     1
 41
30.0
176
     1
 62
     5
 63
     7
421
 16777215
176
     1
 74
     1
176
     1
 91
        4
176
     1
 64
     7
176
     1
 65
   257
176
     1
 75
     1
176
     1
175
     1
176
     1
 42
1.0
176
     1
 92
        0
176
     1
 66
   257
176
     1
 43
1.0
176
     1
 76
     1
176
     1
 77
     6
176
     1
 78
     2
176
     1
 67
     7
176
     1
 79
     3
176
     1
170
     0
176
     1
171
     0
176
     1
290
     0
176
     1
 93
        1
176
     1
 44
0.0
176
     1
173
     0
176
     1
  0
VISUALSTYLE
  5
40
102
{ACAD_REACTORS
330
2A
102
}
102
{ACAD_XDICTIONARY
360
2F2
102
}
330
2A
100
AcDbVisualStyle
  2
X-Ray
 70
    25
177
     2
291
     0
 71
     2
176
     1
 72
     2
176
     1
 73
     1
176
     1
 90
        1
176
     1
 40
0.5
176
     1
 41
30.0
176
     1
 62
     5
 63
     7
421
 16777215
176
     1
 74
     1
176
     1
 91
        0
176
     1
 64
     7
176
     1
 65
   257
176
     1
 75
     1
176
     1
175
     1
176
     1
 42
1.0
176
     1
 92
        8
176
     1
 66
     7
176
     1
 43
1.0
176
     1
 76
     1
176
     1
 77
     6
176
     1
 78
     2
176
     1
 67
     7
176
     1
 79
     3
176
     1
170
     0
176
     1
171
     0
176
     1
290
     0
176
     1
 93
       13
176
     1
 44
0.0
176
     1
173
     0
176
     1
  0
DICTIONARYVAR
  5
2C7
102
{ACAD_REACTORS
330
2C6
102
}
330
2C6
100
DictionaryVariables
280
     0
  1
1:1
  0
DICTIONARYVAR
  5
301
102
{ACAD_REACTORS
330
2C6
102
}
330
2C6
100
DictionaryVariables
280
     0
  1
3.500000
  0
DICTIONARYVAR
  5
302
102
{ACAD_REACTORS
330
2C6
102
}
330
2C6
100
DictionaryVariables
280
     0
  1
acadiso.lin
  0
DICTIONARYVAR
  5
2FD
102
{ACAD_REACTORS
330
2C6
102
}
330
2C6
100
DictionaryVariables
280
     0
  1
Standard
  0
DICTIONARYVAR
  5
2FC
102
{ACAD_REACTORS
330
2C6
102
}
330
2C6
100
DictionaryVariables
280
     0
  1
Standard
  0
DICTIONARYVAR
  5
300
102
{ACAD_REACTORS
330
2C6
102
}
330
2C6
100
DictionaryVariables
280
     0
  1
0
  0
DICTIONARY
  5
2F8
330
6A
100
AcDbDictionary
280
     1
281
     1
  3
ACAD_ROUNDTRIP_2008_TABLESTYLE_CELLSTYLEMAP
360
2F9
  0
DICTIONARY
  5
2D0
330
2F
100
AcDbDictionary
280
     1
281
     1
  3
ACAD_XREC_ROUNDTRIP
360
2D1
  0
DICTIONARY
  5
2D6
330
32
100
AcDbDictionary
280
     1
281
     1
  3
ACAD_XREC_ROUNDTRIP
360
2D7
  0
DICTIONARY
  5
2DE
330
36
100
AcDbDictionary
280
     1
281
     1
  3
ACAD_XREC_ROUNDTRIP
360
2DF
  0
DICTIONARY
  5
2E6
330
3A
100
AcDbDictionary
280
     1
281
     1
  3
ACAD_XREC_ROUNDTRIP
360
2E7
  0
DICTIONARY
  5
2DA
330
34
100
AcDbDictionary
280
     1
281
     1
  3
ACAD_XREC_ROUNDTRIP
360
2DB
  0
DICTIONARY
  5
2DC
330
35
100
AcDbDictionary
280
     1
281
     1
  3
ACAD_XREC_ROUNDTRIP
360
2DD
  0
DICTIONARY
  5
2EC
330
3D
100
AcDbDictionary
280
     1
281
     1
  3
ACAD_XREC_ROUNDTRIP
360
2ED
  0
DICTIONARY
  5
2E4
330
39
100
AcDbDictionary
280
     1
281
     1
  3
ACAD_XREC_ROUNDTRIP
360
2E5
  0
DICTIONARY
  5
2C8
330
2B
100
AcDbDictionary
280
     1
281
     1
  3
ACAD_XREC_ROUNDTRIP
360
2C9
  0
DICTIONARY
  5
2CA
330
2C
100
AcDbDictionary
280
     1
281
     1
  3
ACAD_XREC_ROUNDTRIP
360
2CB
  0
DICTIONARY
  5
2CC
330
2D
100
AcDbDictionary
280
     1
281
     1
  3
ACAD_XREC_ROUNDTRIP
360
2CD
  0
DICTIONARY
  5
2CE
330
2E
100
AcDbDictionary
280
     1
281
     1
  3
ACAD_XREC_ROUNDTRIP
360
2CF
  0
DICTIONARY
  5
2D4
330
31
100
AcDbDictionary
280
     1
281
     1
  3
ACAD_XREC_ROUNDTRIP
360
2D5
  0
DICTIONARY
  5
2E8
330
3B
100
AcDbDictionary
280
     1
281
     1
  3
ACAD_XREC_ROUNDTRIP
360
2E9
  0
DICTIONARY
  5
2E2
330
38
100
AcDbDictionary
280
     1
281
     1
  3
ACAD_XREC_ROUNDTRIP
360
2E3
  0
DICTIONARY
  5
2EA
330
3C
100
AcDbDictionary
280
     1
281
     1
  3
ACAD_XREC_ROUNDTRIP
360
2EB
  0
DICTIONARY
  5
2D8
330
33
100
AcDbDictionary
280
     1
281
     1
  3
ACAD_XREC_ROUNDTRIP
360
2D9
  0
DICTIONARY
  5
2F6
330
42
100
AcDbDictionary
280
     1
281
     1
  3
ACAD_XREC_ROUNDTRIP
360
2F7
  0
DICTIONARY
  5
2F4
330
41
100
AcDbDictionary
280
     1
281
     1
  3
ACAD_XREC_ROUNDTRIP
360
2F5
  0
DICTIONARY
  5
2EE
330
3E
100
AcDbDictionary
280
     1
281
     1
  3
ACAD_XREC_ROUNDTRIP
360
2EF
  0
DICTIONARY
  5
2F0
330
3F
100
AcDbDictionary
280
     1
281
     1
  3
ACAD_XREC_ROUNDTRIP
360
2F1
  0
DICTIONARY
  5
2E0
330
37
100
AcDbDictionary
280
     1
281
     1
  3
ACAD_XREC_ROUNDTRIP
360
2E1
  0
DICTIONARY
  5
2D2
330
30
100
AcDbDictionary
280
     1
281
     1
  3
ACAD_XREC_ROUNDTRIP
360
2D3
  0
DICTIONARY
  5
2F2
330
40
100
AcDbDictionary
280
     1
281
     1
  3
ACAD_XREC_ROUNDTRIP
360
2F3
  0
CELLSTYLEMAP
  5
2F9
102
{ACAD_REACTORS
330
2F8
102
}
330
2F8
100
AcDbCellStyleMap
 90
        3
300
CELLSTYLE
  1
TABLEFORMAT_BEGIN
 90
        5
170
     1
 91
        0
 92
    32768
 62
   257
 93
        1
300
CONTENTFORMAT
  1
CONTENTFORMAT_BEGIN
 90
        0
 91
        0
 92
        4
 93
        0
300

 40
0.0
140
1.0
 94
        5
 62
     0
340
11
144
6.0
309
CONTENTFORMAT_END
171
     1
301
MARGIN
  1
CELLMARGIN_BEGIN
 40
1.5
 40
1.5
 40
1.5
 40
1.5
 40
1.5
 40
1.5
309
CELLMARGIN_END
 94
        6
 95
        1
302
GRIDFORMAT
  1
GRIDFORMAT_BEGIN
 90
        0
 91
        1
 62
     0
 92
       -2
340
14
 93
        0
 40
0.045
309
GRIDFORMAT_END
 95
        2
302
GRIDFORMAT
  1
GRIDFORMAT_BEGIN
 90
        0
 91
        1
 62
     0
 92
       -2
340
14
 93
        0
 40
0.045
309
GRIDFORMAT_END
 95
        4
302
GRIDFORMAT
  1
GRIDFORMAT_BEGIN
 90
        0
 91
        1
 62
     0
 92
       -2
340
14
 93
        0
 40
0.045
309
GRIDFORMAT_END
 95
        8
302
GRIDFORMAT
  1
GRIDFORMAT_BEGIN
 90
        0
 91
        1
 62
     0
 92
       -2
340
14
 93
        0
 40
0.045
309
GRIDFORMAT_END
 95
       16
302
GRIDFORMAT
  1
GRIDFORMAT_BEGIN
 90
        0
 91
        1
 62
     0
 92
       -2
340
14
 93
        0
 40
0.045
309
GRIDFORMAT_END
 95
       32
302
GRIDFORMAT
  1
GRIDFORMAT_BEGIN
 90
        0
 91
        1
 62
     0
 92
       -2
340
14
 93
        0
 40
0.045
309
GRIDFORMAT_END
309
TABLEFORMAT_END
  1
CELLSTYLE_BEGIN
 90
        1
 91
        1
300
_TITLE
309
CELLSTYLE_END
300
CELLSTYLE
  1
TABLEFORMAT_BEGIN
 90
        5
170
     1
 91
        0
 92
        0
 62
   257
 93
        1
300
CONTENTFORMAT
  1
CONTENTFORMAT_BEGIN
 90
        0
 91
        0
 92
        4
 93
        0
300

 40
0.0
140
1.0
 94
        5
 62
     0
340
11
144
4.5
309
CONTENTFORMAT_END
171
     1
301
MARGIN
  1
CELLMARGIN_BEGIN
 40
1.5
 40
1.5
 40
1.5
 40
1.5
 40
1.5
 40
1.5
309
CELLMARGIN_END
 94
        6
 95
        1
302
GRIDFORMAT
  1
GRIDFORMAT_BEGIN
 90
        0
 91
        1
 62
     0
 92
       -2
340
14
 93
        0
 40
0.045
309
GRIDFORMAT_END
 95
        2
302
GRIDFORMAT
  1
GRIDFORMAT_BEGIN
 90
        0
 91
        1
 62
     0
 92
       -2
340
14
 93
        0
 40
0.045
309
GRIDFORMAT_END
 95
        4
302
GRIDFORMAT
  1
GRIDFORMAT_BEGIN
 90
        0
 91
        1
 62
     0
 92
       -2
340
14
 93
        0
 40
0.045
309
GRIDFORMAT_END
 95
        8
302
GRIDFORMAT
  1
GRIDFORMAT_BEGIN
 90
        0
 91
        1
 62
     0
 92
       -2
340
14
 93
        0
 40
0.045
309
GRIDFORMAT_END
 95
       16
302
GRIDFORMAT
  1
GRIDFORMAT_BEGIN
 90
        0
 91
        1
 62
     0
 92
       -2
340
14
 93
        0
 40
0.045
309
GRIDFORMAT_END
 95
       32
302
GRIDFORMAT
  1
GRIDFORMAT_BEGIN
 90
        0
 91
        1
 62
     0
 92
       -2
340
14
 93
        0
 40
0.045
309
GRIDFORMAT_END
309
TABLEFORMAT_END
  1
CELLSTYLE_BEGIN
 90
        2
 91
        1
300
_HEADER
309
CELLSTYLE_END
300
CELLSTYLE
  1
TABLEFORMAT_BEGIN
 90
        5
170
     1
 91
        0
 92
        0
 62
   257
 93
        1
300
CONTENTFORMAT
  1
CONTENTFORMAT_BEGIN
 90
        0
 91
        0
 92
        4
 93
        0
300

 40
0.0
140
1.0
 94
        2
 62
     0
340
11
144
4.5
309
CONTENTFORMAT_END
171
     1
301
MARGIN
  1
CELLMARGIN_BEGIN
 40
1.5
 40
1.5
 40
1.5
 40
1.5
 40
1.5
 40
1.5
309
CELLMARGIN_END
 94
        6
 95
        1
302
GRIDFORMAT
  1
GRIDFORMAT_BEGIN
 90
        0
 91
        1
 62
     0
 92
       -2
340
14
 93
        0
 40
0.045
309
GRIDFORMAT_END
 95
        2
302
GRIDFORMAT
  1
GRIDFORMAT_BEGIN
 90
        0
 91
        1
 62
     0
 92
       -2
340
14
 93
        0
 40
0.045
309
GRIDFORMAT_END
 95
        4
302
GRIDFORMAT
  1
GRIDFORMAT_BEGIN
 90
        0
 91
        1
 62
     0
 92
       -2
340
14
 93
        0
 40
0.045
309
GRIDFORMAT_END
 95
        8
302
GRIDFORMAT
  1
GRIDFORMAT_BEGIN
 90
        0
 91
        1
 62
     0
 92
       -2
340
14
 93
        0
 40
0.045
309
GRIDFORMAT_END
 95
       16
302
GRIDFORMAT
  1
GRIDFORMAT_BEGIN
 90
        0
 91
        1
 62
     0
 92
       -2
340
14
 93
        0
 40
0.045
309
GRIDFORMAT_END
 95
       32
302
GRIDFORMAT
  1
GRIDFORMAT_BEGIN
 90
        0
 91
        1
 62
     0
 92
       -2
340
14
 93
        0
 40
0.045
309
GRIDFORMAT_END
309
TABLEFORMAT_END
  1
CELLSTYLE_BEGIN
 90
        3
 91
        2
300
_DATA
309
CELLSTYLE_END
  0
XRECORD
  5
2D1
102
{ACAD_REACTORS
330
2D0
102
}
330
2D0
100
AcDbXrecord
280
     1
102
RTVSPost2010Prop28
280
     1
102
RTVSPost2010PropOp28
 70
     1
102
RTVSPost2010Prop29
280
     1
102
RTVSPost2010PropOp29
 70
     1
102
RTVSPost2010Prop30
280
     0
102
RTVSPost2010PropOp30
 70
     1
102
RTVSPost2010Prop31
280
     0
102
RTVSPost2010PropOp31
 70
     1
102
RTVSPost2010Prop32
280
     0
102
RTVSPost2010PropOp32
 70
     1
102
RTVSPost2010Prop33
280
     0
102
RTVSPost2010PropOp33
 70
     1
102
RTVSPost2010Prop34
280
     0
102
RTVSPost2010PropOp34
 70
     1
102
RTVSPost2010Prop35
280
     0
102
RTVSPost2010PropOp35
 70
     1
102
RTVSPost2010Prop36
280
     0
102
RTVSPost2010PropOp36
 70
     1
102
RTVSPost2010Prop37
 90
       50
102
RTVSPost2010PropOp37
 70
     1
102
RTVSPost2010Prop38
140
0.0
102
RTVSPost2010PropOp38
 70
     1
102
RTVSPost2010Prop39
140
1.0
102
RTVSPost2010PropOp39
 70
     1
102
RTVSPost2010Prop40
 90
        0
102
RTVSPost2010PropOp40
 70
     1
102
RTVSPost2010Prop41ColorIndex
 90
       18
102
RTVSPost2010Prop41ColorRGB
 90
        0
102
RTVSPost2010PropOp41
 70
     1
102
RTVSPost2010Prop42
 90
       50
102
RTVSPost2010PropOp42
 70
     1
102
RTVSPost2010Prop43
 90
        3
102
RTVSPost2010PropOp43
 70
     1
102
RTVSPost2010Prop44ColorIndex
 90
        5
102
RTVSPost2010Prop44ColorRGB
 90
      255
102
RTVSPost2010PropOp44
 70
     1
102
RTVSPost2010Prop45
280
     0
102
RTVSPost2010PropOp45
 70
     1
102
RTVSPost2010Prop46
 90
       50
102
RTVSPost2010PropOp46
 70
     1
102
RTVSPost2010Prop47
 90
       50
102
RTVSPost2010PropOp47
 70
     1
102
RTVSPost2010Prop48
 90
       50
102
RTVSPost2010PropOp48
 70
     1
102
RTVSPost2010Prop49
280
     0
102
RTVSPost2010PropOp49
 70
     1
102
RTVSPost2010Prop50
 90
       50
102
RTVSPost2010PropOp50
 70
     1
102
RTVSPost2010Prop51ColorIndex
 90
      256
102
RTVSPost2010Prop51ColorRGB
 90
-16777216
102
RTVSPost2010PropOp51
 70
     0
102
RTVSPost2010Prop52
140
1.0
102
RTVSPost2010PropOp52
 70
     0
102
RTVSPost2010Prop53
 90
        2
102
RTVSPost2010PropOp53
 70
     1
102
RTVSPost2010Prop54
  1
strokes_ogs.tif
102
RTVSPost2010PropOp54
 70
     1
102
RTVSPost2010Prop55
280
     0
102
RTVSPost2010PropOp55
 70
     1
102
RTVSPost2010Prop56
140
1.0
102
RTVSPost2010PropOp56
 70
     1
102
RTVSPost2010Prop57
140
1.0
102
RTVSPost2010PropOp57
 70
     1
  0
XRECORD
  5
2D7
102
{ACAD_REACTORS
330
2D6
102
}
330
2D6
100
AcDbXrecord
280
     1
102
RTVSPost2010Prop28
280
     0
102
RTVSPost2010PropOp28
 70
     1
102
RTVSPost2010Prop29
280
     1
102
RTVSPost2010PropOp29
 70
     1
102
RTVSPost2010Prop30
280
     1
102
RTVSPost2010PropOp30
 70
     1
102
RTVSPost2010Prop31
280
     0
102
RTVSPost2010PropOp31
 70
     1
102
RTVSPost2010Prop32
280
     0
102
RTVSPost2010PropOp32
 70
     1
102
RTVSPost2010Prop33
280
     0
102
RTVSPost2010PropOp33
 70
     1
102
RTVSPost2010Prop34
280
     0
102
RTVSPost2010PropOp34
 70
     1
102
RTVSPost2010Prop35
280
     0
102
RTVSPost2010PropOp35
 70
     1
102
RTVSPost2010Prop36
280
     0
102
RTVSPost2010PropOp36
 70
     1
102
RTVSPost2010Prop37
 90
       50
102
RTVSPost2010PropOp37
 70
     1
102
RTVSPost2010Prop38
140
0.0
102
RTVSPost2010PropOp38
 70
     1
102
RTVSPost2010Prop39
140
1.0
102
RTVSPost2010PropOp39
 70
     1
102
RTVSPost2010Prop40
 90
        0
102
RTVSPost2010PropOp40
 70
     1
102
RTVSPost2010Prop41ColorIndex
 90
       18
102
RTVSPost2010Prop41ColorRGB
 90
        0
102
RTVSPost2010PropOp41
 70
     1
102
RTVSPost2010Prop42
 90
       50
102
RTVSPost2010PropOp42
 70
     1
102
RTVSPost2010Prop43
 90
        3
102
RTVSPost2010PropOp43
 70
     1
102
RTVSPost2010Prop44ColorIndex
 90
        5
102
RTVSPost2010Prop44ColorRGB
 90
      255
102
RTVSPost2010PropOp44
 70
     1
102
RTVSPost2010Prop45
280
     0
102
RTVSPost2010PropOp45
 70
     1
102
RTVSPost2010Prop46
 90
       50
102
RTVSPost2010PropOp46
 70
     1
102
RTVSPost2010Prop47
 90
       50
102
RTVSPost2010PropOp47
 70
     1
102
RTVSPost2010Prop48
 90
       50
102
RTVSPost2010PropOp48
 70
     1
102
RTVSPost2010Prop49
280
     0
102
RTVSPost2010PropOp49
 70
     1
102
RTVSPost2010Prop50
 90
       50
102
RTVSPost2010PropOp50
 70
     1
102
RTVSPost2010Prop51ColorIndex
 90
      256
102
RTVSPost2010Prop51ColorRGB
 90
-16777216
102
RTVSPost2010PropOp51
 70
     0
102
RTVSPost2010Prop52
140
1.0
102
RTVSPost2010PropOp52
 70
     0
102
RTVSPost2010Prop53
 90
        2
102
RTVSPost2010PropOp53
 70
     1
102
RTVSPost2010Prop54
  1
strokes_ogs.tif
102
RTVSPost2010PropOp54
 70
     1
102
RTVSPost2010Prop55
280
     0
102
RTVSPost2010PropOp55
 70
     1
102
RTVSPost2010Prop56
140
1.0
102
RTVSPost2010PropOp56
 70
     1
102
RTVSPost2010Prop57
140
1.0
102
RTVSPost2010PropOp57
 70
     1
  0
XRECORD
  5
2DF
102
{ACAD_REACTORS
330
2DE
102
}
330
2DE
100
AcDbXrecord
280
     1
102
RTVSPost2010Prop28
280
     0
102
RTVSPost2010PropOp28
 70
     1
102
RTVSPost2010Prop29
280
     1
102
RTVSPost2010PropOp29
 70
     1
102
RTVSPost2010Prop30
280
     1
102
RTVSPost2010PropOp30
 70
     1
102
RTVSPost2010Prop31
280
     0
102
RTVSPost2010PropOp31
 70
     1
102
RTVSPost2010Prop32
280
     0
102
RTVSPost2010PropOp32
 70
     1
102
RTVSPost2010Prop33
280
     0
102
RTVSPost2010PropOp33
 70
     1
102
RTVSPost2010Prop34
280
     0
102
RTVSPost2010PropOp34
 70
     1
102
RTVSPost2010Prop35
280
     0
102
RTVSPost2010PropOp35
 70
     1
102
RTVSPost2010Prop36
280
     0
102
RTVSPost2010PropOp36
 70
     1
102
RTVSPost2010Prop37
 90
       50
102
RTVSPost2010PropOp37
 70
     1
102
RTVSPost2010Prop38
140
0.0
102
RTVSPost2010PropOp38
 70
     1
102
RTVSPost2010Prop39
140
1.0
102
RTVSPost2010PropOp39
 70
     1
102
RTVSPost2010Prop40
 90
        0
102
RTVSPost2010PropOp40
 70
     1
102
RTVSPost2010Prop41ColorIndex
 90
       18
102
RTVSPost2010Prop41ColorRGB
 90
        0
102
RTVSPost2010PropOp41
 70
     1
102
RTVSPost2010Prop42
 90
       50
102
RTVSPost2010PropOp42
 70
     1
102
RTVSPost2010Prop43
 90
        3
102
RTVSPost2010PropOp43
 70
     1
102
RTVSPost2010Prop44ColorIndex
 90
        5
102
RTVSPost2010Prop44ColorRGB
 90
      255
102
RTVSPost2010PropOp44
 70
     1
102
RTVSPost2010Prop45
280
     0
102
RTVSPost2010PropOp45
 70
     1
102
RTVSPost2010Prop46
 90
       50
102
RTVSPost2010PropOp46
 70
     1
102
RTVSPost2010Prop47
 90
       50
102
RTVSPost2010PropOp47
 70
     1
102
RTVSPost2010Prop48
 90
       50
102
RTVSPost2010PropOp48
 70
     1
102
RTVSPost2010Prop49
280
     0
102
RTVSPost2010PropOp49
 70
     1
102
RTVSPost2010Prop50
 90
       50
102
RTVSPost2010PropOp50
 70
     1
102
RTVSPost2010Prop51ColorIndex
 90
      256
102
RTVSPost2010Prop51ColorRGB
 90
-16777216
102
RTVSPost2010PropOp51
 70
     0
102
RTVSPost2010Prop52
140
1.0
102
RTVSPost2010PropOp52
 70
     0
102
RTVSPost2010Prop53
 90
        2
102
RTVSPost2010PropOp53
 70
     1
102
RTVSPost2010Prop54
  1
strokes_ogs.tif
102
RTVSPost2010PropOp54
 70
     1
102
RTVSPost2010Prop55
280
     0
102
RTVSPost2010PropOp55
 70
     1
102
RTVSPost2010Prop56
140
1.0
102
RTVSPost2010PropOp56
 70
     1
102
RTVSPost2010Prop57
140
1.0
102
RTVSPost2010PropOp57
 70
     1
  0
XRECORD
  5
2E7
102
{ACAD_REACTORS
330
2E6
102
}
330
2E6
100
AcDbXrecord
280
     1
102
RTVSPost2010Prop28
280
     0
102
RTVSPost2010PropOp28
 70
     1
102
RTVSPost2010Prop29
280
     1
102
RTVSPost2010PropOp29
 70
     1
102
RTVSPost2010Prop30
280
     1
102
RTVSPost2010PropOp30
 70
     1
102
RTVSPost2010Prop31
280
     0
102
RTVSPost2010PropOp31
 70
     1
102
RTVSPost2010Prop32
280
     0
102
RTVSPost2010PropOp32
 70
     1
102
RTVSPost2010Prop33
280
     0
102
RTVSPost2010PropOp33
 70
     1
102
RTVSPost2010Prop34
280
     0
102
RTVSPost2010PropOp34
 70
     1
102
RTVSPost2010Prop35
280
     0
102
RTVSPost2010PropOp35
 70
     1
102
RTVSPost2010Prop36
280
     0
102
RTVSPost2010PropOp36
 70
     1
102
RTVSPost2010Prop37
 90
       50
102
RTVSPost2010PropOp37
 70
     1
102
RTVSPost2010Prop38
140
0.0
102
RTVSPost2010PropOp38
 70
     1
102
RTVSPost2010Prop39
140
1.0
102
RTVSPost2010PropOp39
 70
     1
102
RTVSPost2010Prop40
 90
        0
102
RTVSPost2010PropOp40
 70
     1
102
RTVSPost2010Prop41ColorIndex
 90
       18
102
RTVSPost2010Prop41ColorRGB
 90
        0
102
RTVSPost2010PropOp41
 70
     1
102
RTVSPost2010Prop42
 90
       50
102
RTVSPost2010PropOp42
 70
     1
102
RTVSPost2010Prop43
 90
        3
102
RTVSPost2010PropOp43
 70
     1
102
RTVSPost2010Prop44ColorIndex
 90
        5
102
RTVSPost2010Prop44ColorRGB
 90
      255
102
RTVSPost2010PropOp44
 70
     1
102
RTVSPost2010Prop45
280
     0
102
RTVSPost2010PropOp45
 70
     1
102
RTVSPost2010Prop46
 90
       50
102
RTVSPost2010PropOp46
 70
     1
102
RTVSPost2010Prop47
 90
       50
102
RTVSPost2010PropOp47
 70
     1
102
RTVSPost2010Prop48
 90
       50
102
RTVSPost2010PropOp48
 70
     1
102
RTVSPost2010Prop49
280
     0
102
RTVSPost2010PropOp49
 70
     1
102
RTVSPost2010Prop50
 90
       50
102
RTVSPost2010PropOp50
 70
     1
102
RTVSPost2010Prop51ColorIndex
 90
      256
102
RTVSPost2010Prop51ColorRGB
 90
-16777216
102
RTVSPost2010PropOp51
 70
     0
102
RTVSPost2010Prop52
140
1.0
102
RTVSPost2010PropOp52
 70
     0
102
RTVSPost2010Prop53
 90
        2
102
RTVSPost2010PropOp53
 70
     1
102
RTVSPost2010Prop54
  1
strokes_ogs.tif
102
RTVSPost2010PropOp54
 70
     1
102
RTVSPost2010Prop55
280
     0
102
RTVSPost2010PropOp55
 70
     1
102
RTVSPost2010Prop56
140
1.0
102
RTVSPost2010PropOp56
 70
     1
102
RTVSPost2010Prop57
140
1.0
102
RTVSPost2010PropOp57
 70
     1
  0
XRECORD
  5
2DB
102
{ACAD_REACTORS
330
2DA
102
}
330
2DA
100
AcDbXrecord
280
     1
102
RTVSPost2010Prop28
280
     0
102
RTVSPost2010PropOp28
 70
     1
102
RTVSPost2010Prop29
280
     1
102
RTVSPost2010PropOp29
 70
     1
102
RTVSPost2010Prop30
280
     1
102
RTVSPost2010PropOp30
 70
     1
102
RTVSPost2010Prop31
280
     0
102
RTVSPost2010PropOp31
 70
     1
102
RTVSPost2010Prop32
280
     0
102
RTVSPost2010PropOp32
 70
     1
102
RTVSPost2010Prop33
280
     0
102
RTVSPost2010PropOp33
 70
     1
102
RTVSPost2010Prop34
280
     0
102
RTVSPost2010PropOp34
 70
     1
102
RTVSPost2010Prop35
280
     0
102
RTVSPost2010PropOp35
 70
     1
102
RTVSPost2010Prop36
280
     0
102
RTVSPost2010PropOp36
 70
     1
102
RTVSPost2010Prop37
 90
       50
102
RTVSPost2010PropOp37
 70
     1
102
RTVSPost2010Prop38
140
0.0
102
RTVSPost2010PropOp38
 70
     1
102
RTVSPost2010Prop39
140
1.0
102
RTVSPost2010PropOp39
 70
     1
102
RTVSPost2010Prop40
 90
        0
102
RTVSPost2010PropOp40
 70
     1
102
RTVSPost2010Prop41ColorIndex
 90
       18
102
RTVSPost2010Prop41ColorRGB
 90
        0
102
RTVSPost2010PropOp41
 70
     1
102
RTVSPost2010Prop42
 90
       50
102
RTVSPost2010PropOp42
 70
     1
102
RTVSPost2010Prop43
 90
        3
102
RTVSPost2010PropOp43
 70
     1
102
RTVSPost2010Prop44ColorIndex
 90
        5
102
RTVSPost2010Prop44ColorRGB
 90
      255
102
RTVSPost2010PropOp44
 70
     1
102
RTVSPost2010Prop45
280
     0
102
RTVSPost2010PropOp45
 70
     1
102
RTVSPost2010Prop46
 90
       50
102
RTVSPost2010PropOp46
 70
     1
102
RTVSPost2010Prop47
 90
       50
102
RTVSPost2010PropOp47
 70
     1
102
RTVSPost2010Prop48
 90
       50
102
RTVSPost2010PropOp48
 70
     1
102
RTVSPost2010Prop49
280
     0
102
RTVSPost2010PropOp49
 70
     1
102
RTVSPost2010Prop50
 90
       50
102
RTVSPost2010PropOp50
 70
     1
102
RTVSPost2010Prop51ColorIndex
 90
      256
102
RTVSPost2010Prop51ColorRGB
 90
-16777216
102
RTVSPost2010PropOp51
 70
     0
102
RTVSPost2010Prop52
140
1.0
102
RTVSPost2010PropOp52
 70
     0
102
RTVSPost2010Prop53
 90
        2
102
RTVSPost2010PropOp53
 70
     1
102
RTVSPost2010Prop54
  1
strokes_ogs.tif
102
RTVSPost2010PropOp54
 70
     1
102
RTVSPost2010Prop55
280
     0
102
RTVSPost2010PropOp55
 70
     1
102
RTVSPost2010Prop56
140
1.0
102
RTVSPost2010PropOp56
 70
     1
102
RTVSPost2010Prop57
140
1.0
102
RTVSPost2010PropOp57
 70
     1
  0
XRECORD
  5
2DD
102
{ACAD_REACTORS
330
2DC
102
}
330
2DC
100
AcDbXrecord
280
     1
102
RTVSPost2010Prop28
280
     0
102
RTVSPost2010PropOp28
 70
     1
102
RTVSPost2010Prop29
280
     1
102
RTVSPost2010PropOp29
 70
     1
102
RTVSPost2010Prop30
280
     1
102
RTVSPost2010PropOp30
 70
     1
102
RTVSPost2010Prop31
280
     0
102
RTVSPost2010PropOp31
 70
     1
102
RTVSPost2010Prop32
280
     0
102
RTVSPost2010PropOp32
 70
     1
102
RTVSPost2010Prop33
280
     0
102
RTVSPost2010PropOp33
 70
     1
102
RTVSPost2010Prop34
280
     0
102
RTVSPost2010PropOp34
 70
     1
102
RTVSPost2010Prop35
280
     0
102
RTVSPost2010PropOp35
 70
     1
102
RTVSPost2010Prop36
280
     0
102
RTVSPost2010PropOp36
 70
     1
102
RTVSPost2010Prop37
 90
       50
102
RTVSPost2010PropOp37
 70
     1
102
RTVSPost2010Prop38
140
0.0
102
RTVSPost2010PropOp38
 70
     1
102
RTVSPost2010Prop39
140
1.0
102
RTVSPost2010PropOp39
 70
     1
102
RTVSPost2010Prop40
 90
        0
102
RTVSPost2010PropOp40
 70
     1
102
RTVSPost2010Prop41ColorIndex
 90
       18
102
RTVSPost2010Prop41ColorRGB
 90
        0
102
RTVSPost2010PropOp41
 70
     1
102
RTVSPost2010Prop42
 90
       50
102
RTVSPost2010PropOp42
 70
     1
102
RTVSPost2010Prop43
 90
        3
102
RTVSPost2010PropOp43
 70
     1
102
RTVSPost2010Prop44ColorIndex
 90
        5
102
RTVSPost2010Prop44ColorRGB
 90
      255
102
RTVSPost2010PropOp44
 70
     1
102
RTVSPost2010Prop45
280
     0
102
RTVSPost2010PropOp45
 70
     1
102
RTVSPost2010Prop46
 90
       50
102
RTVSPost2010PropOp46
 70
     1
102
RTVSPost2010Prop47
 90
       50
102
RTVSPost2010PropOp47
 70
     1
102
RTVSPost2010Prop48
 90
       50
102
RTVSPost2010PropOp48
 70
     1
102
RTVSPost2010Prop49
280
     0
102
RTVSPost2010PropOp49
 70
     1
102
RTVSPost2010Prop50
 90
       50
102
RTVSPost2010PropOp50
 70
     1
102
RTVSPost2010Prop51ColorIndex
 90
      256
102
RTVSPost2010Prop51ColorRGB
 90
-16777216
102
RTVSPost2010PropOp51
 70
     0
102
RTVSPost2010Prop52
140
1.0
102
RTVSPost2010PropOp52
 70
     0
102
RTVSPost2010Prop53
 90
        2
102
RTVSPost2010PropOp53
 70
     1
102
RTVSPost2010Prop54
  1
strokes_ogs.tif
102
RTVSPost2010PropOp54
 70
     1
102
RTVSPost2010Prop55
280
     0
102
RTVSPost2010PropOp55
 70
     1
102
RTVSPost2010Prop56
140
1.0
102
RTVSPost2010PropOp56
 70
     1
102
RTVSPost2010Prop57
140
1.0
102
RTVSPost2010PropOp57
 70
     1
  0
XRECORD
  5
2ED
102
{ACAD_REACTORS
330
2EC
102
}
330
2EC
100
AcDbXrecord
280
     1
102
RTVSPost2010Prop28
280
     0
102
RTVSPost2010PropOp28
 70
     0
102
RTVSPost2010Prop29
280
     1
102
RTVSPost2010PropOp29
 70
     0
102
RTVSPost2010Prop30
280
     1
102
RTVSPost2010PropOp30
 70
     0
102
RTVSPost2010Prop31
280
     0
102
RTVSPost2010PropOp31
 70
     0
102
RTVSPost2010Prop32
280
     0
102
RTVSPost2010PropOp32
 70
     0
102
RTVSPost2010Prop33
280
     0
102
RTVSPost2010PropOp33
 70
     0
102
RTVSPost2010Prop34
280
     0
102
RTVSPost2010PropOp34
 70
     0
102
RTVSPost2010Prop35
280
     0
102
RTVSPost2010PropOp35
 70
     0
102
RTVSPost2010Prop36
280
     0
102
RTVSPost2010PropOp36
 70
     0
102
RTVSPost2010Prop37
 90
       50
102
RTVSPost2010PropOp37
 70
     0
102
RTVSPost2010Prop38
140
0.0
102
RTVSPost2010PropOp38
 70
     0
102
RTVSPost2010Prop39
140
1.0
102
RTVSPost2010PropOp39
 70
     0
102
RTVSPost2010Prop40
 90
        0
102
RTVSPost2010PropOp40
 70
     0
102
RTVSPost2010Prop41ColorIndex
 90
       18
102
RTVSPost2010Prop41ColorRGB
 90
        0
102
RTVSPost2010PropOp41
 70
     0
102
RTVSPost2010Prop42
 90
       50
102
RTVSPost2010PropOp42
 70
     0
102
RTVSPost2010Prop43
 90
        3
102
RTVSPost2010PropOp43
 70
     0
102
RTVSPost2010Prop44ColorIndex
 90
        5
102
RTVSPost2010Prop44ColorRGB
 90
      255
102
RTVSPost2010PropOp44
 70
     0
102
RTVSPost2010Prop45
280
     0
102
RTVSPost2010PropOp45
 70
     0
102
RTVSPost2010Prop46
 90
       50
102
RTVSPost2010PropOp46
 70
     0
102
RTVSPost2010Prop47
 90
       50
102
RTVSPost2010PropOp47
 70
     0
102
RTVSPost2010Prop48
 90
       50
102
RTVSPost2010PropOp48
 70
     0
102
RTVSPost2010Prop49
280
     0
102
RTVSPost2010PropOp49
 70
     0
102
RTVSPost2010Prop50
 90
       50
102
RTVSPost2010PropOp50
 70
     0
102
RTVSPost2010Prop51ColorIndex
 90
      256
102
RTVSPost2010Prop51ColorRGB
 90
-16777216
102
RTVSPost2010PropOp51
 70
     0
102
RTVSPost2010Prop52
140
1.0
102
RTVSPost2010PropOp52
 70
     0
102
RTVSPost2010Prop53
 90
        2
102
RTVSPost2010PropOp53
 70
     0
102
RTVSPost2010Prop54
  1
strokes_ogs.tif
102
RTVSPost2010PropOp54
 70
     0
102
RTVSPost2010Prop55
280
     0
102
RTVSPost2010PropOp55
 70
     0
102
RTVSPost2010Prop56
140
1.0
102
RTVSPost2010PropOp56
 70
     0
102
RTVSPost2010Prop57
140
1.0
102
RTVSPost2010PropOp57
 70
     0
  0
XRECORD
  5
2E5
102
{ACAD_REACTORS
330
2E4
102
}
330
2E4
100
AcDbXrecord
280
     1
102
RTVSPost2010Prop28
280
     0
102
RTVSPost2010PropOp28
 70
     1
102
RTVSPost2010Prop29
280
     1
102
RTVSPost2010PropOp29
 70
     1
102
RTVSPost2010Prop30
280
     1
102
RTVSPost2010PropOp30
 70
     1
102
RTVSPost2010Prop31
280
     0
102
RTVSPost2010PropOp31
 70
     1
102
RTVSPost2010Prop32
280
     0
102
RTVSPost2010PropOp32
 70
     1
102
RTVSPost2010Prop33
280
     0
102
RTVSPost2010PropOp33
 70
     1
102
RTVSPost2010Prop34
280
     0
102
RTVSPost2010PropOp34
 70
     1
102
RTVSPost2010Prop35
280
     0
102
RTVSPost2010PropOp35
 70
     1
102
RTVSPost2010Prop36
280
     0
102
RTVSPost2010PropOp36
 70
     1
102
RTVSPost2010Prop37
 90
       50
102
RTVSPost2010PropOp37
 70
     1
102
RTVSPost2010Prop38
140
0.0
102
RTVSPost2010PropOp38
 70
     1
102
RTVSPost2010Prop39
140
1.0
102
RTVSPost2010PropOp39
 70
     1
102
RTVSPost2010Prop40
 90
        0
102
RTVSPost2010PropOp40
 70
     1
102
RTVSPost2010Prop41ColorIndex
 90
       18
102
RTVSPost2010Prop41ColorRGB
 90
        0
102
RTVSPost2010PropOp41
 70
     1
102
RTVSPost2010Prop42
 90
       50
102
RTVSPost2010PropOp42
 70
     1
102
RTVSPost2010Prop43
 90
        3
102
RTVSPost2010PropOp43
 70
     1
102
RTVSPost2010Prop44ColorIndex
 90
        5
102
RTVSPost2010Prop44ColorRGB
 90
      255
102
RTVSPost2010PropOp44
 70
     1
102
RTVSPost2010Prop45
280
     0
102
RTVSPost2010PropOp45
 70
     1
102
RTVSPost2010Prop46
 90
       50
102
RTVSPost2010PropOp46
 70
     1
102
RTVSPost2010Prop47
 90
       50
102
RTVSPost2010PropOp47
 70
     1
102
RTVSPost2010Prop48
 90
       50
102
RTVSPost2010PropOp48
 70
     1
102
RTVSPost2010Prop49
280
     0
102
RTVSPost2010PropOp49
 70
     1
102
RTVSPost2010Prop50
 90
       50
102
RTVSPost2010PropOp50
 70
     1
102
RTVSPost2010Prop51ColorIndex
 90
      256
102
RTVSPost2010Prop51ColorRGB
 90
-16777216
102
RTVSPost2010PropOp51
 70
     0
102
RTVSPost2010Prop52
140
1.0
102
RTVSPost2010PropOp52
 70
     0
102
RTVSPost2010Prop53
 90
        2
102
RTVSPost2010PropOp53
 70
     1
102
RTVSPost2010Prop54
  1
strokes_ogs.tif
102
RTVSPost2010PropOp54
 70
     1
102
RTVSPost2010Prop55
280
     0
102
RTVSPost2010PropOp55
 70
     1
102
RTVSPost2010Prop56
140
1.0
102
RTVSPost2010PropOp56
 70
     1
102
RTVSPost2010Prop57
140
1.0
102
RTVSPost2010PropOp57
 70
     1
  0
XRECORD
  5
2C9
102
{ACAD_REACTORS
330
2C8
102
}
330
2C8
100
AcDbXrecord
280
     1
102
RTVSPost2010Prop28
280
     0
102
RTVSPost2010PropOp28
 70
     1
102
RTVSPost2010Prop29
280
     1
102
RTVSPost2010PropOp29
 70
     1
102
RTVSPost2010Prop30
280
     1
102
RTVSPost2010PropOp30
 70
     1
102
RTVSPost2010Prop31
280
     0
102
RTVSPost2010PropOp31
 70
     1
102
RTVSPost2010Prop32
280
     0
102
RTVSPost2010PropOp32
 70
     1
102
RTVSPost2010Prop33
280
     0
102
RTVSPost2010PropOp33
 70
     1
102
RTVSPost2010Prop34
280
     0
102
RTVSPost2010PropOp34
 70
     1
102
RTVSPost2010Prop35
280
     0
102
RTVSPost2010PropOp35
 70
     1
102
RTVSPost2010Prop36
280
     0
102
RTVSPost2010PropOp36
 70
     1
102
RTVSPost2010Prop37
 90
       50
102
RTVSPost2010PropOp37
 70
     1
102
RTVSPost2010Prop38
140
0.0
102
RTVSPost2010PropOp38
 70
     1
102
RTVSPost2010Prop39
140
1.0
102
RTVSPost2010PropOp39
 70
     1
102
RTVSPost2010Prop40
 90
        0
102
RTVSPost2010PropOp40
 70
     1
102
RTVSPost2010Prop41ColorIndex
 90
       18
102
RTVSPost2010Prop41ColorRGB
 90
        0
102
RTVSPost2010PropOp41
 70
     1
102
RTVSPost2010Prop42
 90
       50
102
RTVSPost2010PropOp42
 70
     1
102
RTVSPost2010Prop43
 90
        3
102
RTVSPost2010PropOp43
 70
     1
102
RTVSPost2010Prop44ColorIndex
 90
        5
102
RTVSPost2010Prop44ColorRGB
 90
      255
102
RTVSPost2010PropOp44
 70
     1
102
RTVSPost2010Prop45
280
     0
102
RTVSPost2010PropOp45
 70
     1
102
RTVSPost2010Prop46
 90
       50
102
RTVSPost2010PropOp46
 70
     1
102
RTVSPost2010Prop47
 90
       50
102
RTVSPost2010PropOp47
 70
     1
102
RTVSPost2010Prop48
 90
       50
102
RTVSPost2010PropOp48
 70
     1
102
RTVSPost2010Prop49
280
     0
102
RTVSPost2010PropOp49
 70
     1
102
RTVSPost2010Prop50
 90
       50
102
RTVSPost2010PropOp50
 70
     1
102
RTVSPost2010Prop51ColorIndex
 90
      256
102
RTVSPost2010Prop51ColorRGB
 90
-16777216
102
RTVSPost2010PropOp51
 70
     0
102
RTVSPost2010Prop52
140
1.0
102
RTVSPost2010PropOp52
 70
     0
102
RTVSPost2010Prop53
 90
        2
102
RTVSPost2010PropOp53
 70
     1
102
RTVSPost2010Prop54
  1
strokes_ogs.tif
102
RTVSPost2010PropOp54
 70
     1
102
RTVSPost2010Prop55
280
     0
102
RTVSPost2010PropOp55
 70
     1
102
RTVSPost2010Prop56
140
1.0
102
RTVSPost2010PropOp56
 70
     1
102
RTVSPost2010Prop57
140
1.0
102
RTVSPost2010PropOp57
 70
     1
  0
XRECORD
  5
2CB
102
{ACAD_REACTORS
330
2CA
102
}
330
2CA
100
AcDbXrecord
280
     1
102
RTVSPost2010Prop28
280
     0
102
RTVSPost2010PropOp28
 70
     1
102
RTVSPost2010Prop29
280
     1
102
RTVSPost2010PropOp29
 70
     1
102
RTVSPost2010Prop30
280
     1
102
RTVSPost2010PropOp30
 70
     1
102
RTVSPost2010Prop31
280
     0
102
RTVSPost2010PropOp31
 70
     1
102
RTVSPost2010Prop32
280
     0
102
RTVSPost2010PropOp32
 70
     1
102
RTVSPost2010Prop33
280
     0
102
RTVSPost2010PropOp33
 70
     1
102
RTVSPost2010Prop34
280
     0
102
RTVSPost2010PropOp34
 70
     1
102
RTVSPost2010Prop35
280
     0
102
RTVSPost2010PropOp35
 70
     1
102
RTVSPost2010Prop36
280
     0
102
RTVSPost2010PropOp36
 70
     1
102
RTVSPost2010Prop37
 90
       50
102
RTVSPost2010PropOp37
 70
     1
102
RTVSPost2010Prop38
140
0.0
102
RTVSPost2010PropOp38
 70
     1
102
RTVSPost2010Prop39
140
1.0
102
RTVSPost2010PropOp39
 70
     1
102
RTVSPost2010Prop40
 90
        0
102
RTVSPost2010PropOp40
 70
     1
102
RTVSPost2010Prop41ColorIndex
 90
       18
102
RTVSPost2010Prop41ColorRGB
 90
        0
102
RTVSPost2010PropOp41
 70
     1
102
RTVSPost2010Prop42
 90
       50
102
RTVSPost2010PropOp42
 70
     1
102
RTVSPost2010Prop43
 90
        3
102
RTVSPost2010PropOp43
 70
     1
102
RTVSPost2010Prop44ColorIndex
 90
        5
102
RTVSPost2010Prop44ColorRGB
 90
      255
102
RTVSPost2010PropOp44
 70
     1
102
RTVSPost2010Prop45
280
     0
102
RTVSPost2010PropOp45
 70
     1
102
RTVSPost2010Prop46
 90
       50
102
RTVSPost2010PropOp46
 70
     1
102
RTVSPost2010Prop47
 90
       50
102
RTVSPost2010PropOp47
 70
     1
102
RTVSPost2010Prop48
 90
       50
102
RTVSPost2010PropOp48
 70
     1
102
RTVSPost2010Prop49
280
     0
102
RTVSPost2010PropOp49
 70
     1
102
RTVSPost2010Prop50
 90
       50
102
RTVSPost2010PropOp50
 70
     1
102
RTVSPost2010Prop51ColorIndex
 90
      256
102
RTVSPost2010Prop51ColorRGB
 90
-16777216
102
RTVSPost2010PropOp51
 70
     0
102
RTVSPost2010Prop52
140
1.0
102
RTVSPost2010PropOp52
 70
     0
102
RTVSPost2010Prop53
 90
        2
102
RTVSPost2010PropOp53
 70
     1
102
RTVSPost2010Prop54
  1
strokes_ogs.tif
102
RTVSPost2010PropOp54
 70
     1
102
RTVSPost2010Prop55
280
     0
102
RTVSPost2010PropOp55
 70
     1
102
RTVSPost2010Prop56
140
1.0
102
RTVSPost2010PropOp56
 70
     1
102
RTVSPost2010Prop57
140
1.0
102
RTVSPost2010PropOp57
 70
     1
  0
XRECORD
  5
2CD
102
{ACAD_REACTORS
330
2CC
102
}
330
2CC
100
AcDbXrecord
280
     1
102
RTVSPost2010Prop28
280
     0
102
RTVSPost2010PropOp28
 70
     1
102
RTVSPost2010Prop29
280
     1
102
RTVSPost2010PropOp29
 70
     1
102
RTVSPost2010Prop30
280
     1
102
RTVSPost2010PropOp30
 70
     1
102
RTVSPost2010Prop31
280
     0
102
RTVSPost2010PropOp31
 70
     1
102
RTVSPost2010Prop32
280
     0
102
RTVSPost2010PropOp32
 70
     1
102
RTVSPost2010Prop33
280
     0
102
RTVSPost2010PropOp33
 70
     1
102
RTVSPost2010Prop34
280
     0
102
RTVSPost2010PropOp34
 70
     1
102
RTVSPost2010Prop35
280
     0
102
RTVSPost2010PropOp35
 70
     1
102
RTVSPost2010Prop36
280
     0
102
RTVSPost2010PropOp36
 70
     1
102
RTVSPost2010Prop37
 90
       50
102
RTVSPost2010PropOp37
 70
     1
102
RTVSPost2010Prop38
140
0.0
102
RTVSPost2010PropOp38
 70
     1
102
RTVSPost2010Prop39
140
1.0
102
RTVSPost2010PropOp39
 70
     1
102
RTVSPost2010Prop40
 90
        0
102
RTVSPost2010PropOp40
 70
     1
102
RTVSPost2010Prop41ColorIndex
 90
       18
102
RTVSPost2010Prop41ColorRGB
 90
        0
102
RTVSPost2010PropOp41
 70
     1
102
RTVSPost2010Prop42
 90
       50
102
RTVSPost2010PropOp42
 70
     1
102
RTVSPost2010Prop43
 90
        3
102
RTVSPost2010PropOp43
 70
     1
102
RTVSPost2010Prop44ColorIndex
 90
        5
102
RTVSPost2010Prop44ColorRGB
 90
      255
102
RTVSPost2010PropOp44
 70
     1
102
RTVSPost2010Prop45
280
     0
102
RTVSPost2010PropOp45
 70
     1
102
RTVSPost2010Prop46
 90
       50
102
RTVSPost2010PropOp46
 70
     1
102
RTVSPost2010Prop47
 90
       50
102
RTVSPost2010PropOp47
 70
     1
102
RTVSPost2010Prop48
 90
       50
102
RTVSPost2010PropOp48
 70
     1
102
RTVSPost2010Prop49
280
     0
102
RTVSPost2010PropOp49
 70
     1
102
RTVSPost2010Prop50
 90
       50
102
RTVSPost2010PropOp50
 70
     1
102
RTVSPost2010Prop51ColorIndex
 90
      256
102
RTVSPost2010Prop51ColorRGB
 90
-16777216
102
RTVSPost2010PropOp51
 70
     0
102
RTVSPost2010Prop52
140
1.0
102
RTVSPost2010PropOp52
 70
     0
102
RTVSPost2010Prop53
 90
        2
102
RTVSPost2010PropOp53
 70
     1
102
RTVSPost2010Prop54
  1
strokes_ogs.tif
102
RTVSPost2010PropOp54
 70
     1
102
RTVSPost2010Prop55
280
     0
102
RTVSPost2010PropOp55
 70
     1
102
RTVSPost2010Prop56
140
1.0
102
RTVSPost2010PropOp56
 70
     1
102
RTVSPost2010Prop57
140
1.0
102
RTVSPost2010PropOp57
 70
     1
  0
XRECORD
  5
2CF
102
{ACAD_REACTORS
330
2CE
102
}
330
2CE
100
AcDbXrecord
280
     1
102
RTVSPost2010Prop28
280
     0
102
RTVSPost2010PropOp28
 70
     1
102
RTVSPost2010Prop29
280
     1
102
RTVSPost2010PropOp29
 70
     1
102
RTVSPost2010Prop30
280
     1
102
RTVSPost2010PropOp30
 70
     1
102
RTVSPost2010Prop31
280
     0
102
RTVSPost2010PropOp31
 70
     1
102
RTVSPost2010Prop32
280
     0
102
RTVSPost2010PropOp32
 70
     1
102
RTVSPost2010Prop33
280
     0
102
RTVSPost2010PropOp33
 70
     1
102
RTVSPost2010Prop34
280
     0
102
RTVSPost2010PropOp34
 70
     1
102
RTVSPost2010Prop35
280
     0
102
RTVSPost2010PropOp35
 70
     1
102
RTVSPost2010Prop36
280
     0
102
RTVSPost2010PropOp36
 70
     1
102
RTVSPost2010Prop37
 90
       50
102
RTVSPost2010PropOp37
 70
     1
102
RTVSPost2010Prop38
140
0.0
102
RTVSPost2010PropOp38
 70
     1
102
RTVSPost2010Prop39
140
1.0
102
RTVSPost2010PropOp39
 70
     1
102
RTVSPost2010Prop40
 90
        0
102
RTVSPost2010PropOp40
 70
     1
102
RTVSPost2010Prop41ColorIndex
 90
       18
102
RTVSPost2010Prop41ColorRGB
 90
        0
102
RTVSPost2010PropOp41
 70
     1
102
RTVSPost2010Prop42
 90
       50
102
RTVSPost2010PropOp42
 70
     1
102
RTVSPost2010Prop43
 90
        3
102
RTVSPost2010PropOp43
 70
     1
102
RTVSPost2010Prop44ColorIndex
 90
        5
102
RTVSPost2010Prop44ColorRGB
 90
      255
102
RTVSPost2010PropOp44
 70
     1
102
RTVSPost2010Prop45
280
     0
102
RTVSPost2010PropOp45
 70
     1
102
RTVSPost2010Prop46
 90
       50
102
RTVSPost2010PropOp46
 70
     1
102
RTVSPost2010Prop47
 90
       50
102
RTVSPost2010PropOp47
 70
     1
102
RTVSPost2010Prop48
 90
       50
102
RTVSPost2010PropOp48
 70
     1
102
RTVSPost2010Prop49
280
     0
102
RTVSPost2010PropOp49
 70
     1
102
RTVSPost2010Prop50
 90
       50
102
RTVSPost2010PropOp50
 70
     1
102
RTVSPost2010Prop51ColorIndex
 90
      256
102
RTVSPost2010Prop51ColorRGB
 90
-16777216
102
RTVSPost2010PropOp51
 70
     0
102
RTVSPost2010Prop52
140
1.0
102
RTVSPost2010PropOp52
 70
     0
102
RTVSPost2010Prop53
 90
        2
102
RTVSPost2010PropOp53
 70
     1
102
RTVSPost2010Prop54
  1
strokes_ogs.tif
102
RTVSPost2010PropOp54
 70
     1
102
RTVSPost2010Prop55
280
     0
102
RTVSPost2010PropOp55
 70
     1
102
RTVSPost2010Prop56
140
1.0
102
RTVSPost2010PropOp56
 70
     1
102
RTVSPost2010Prop57
140
1.0
102
RTVSPost2010PropOp57
 70
     1
  0
XRECORD
  5
2D5
102
{ACAD_REACTORS
330
2D4
102
}
330
2D4
100
AcDbXrecord
280
     1
102
RTVSPost2010Prop28
280
     0
102
RTVSPost2010PropOp28
 70
     1
102
RTVSPost2010Prop29
280
     1
102
RTVSPost2010PropOp29
 70
     1
102
RTVSPost2010Prop30
280
     1
102
RTVSPost2010PropOp30
 70
     1
102
RTVSPost2010Prop31
280
     0
102
RTVSPost2010PropOp31
 70
     1
102
RTVSPost2010Prop32
280
     0
102
RTVSPost2010PropOp32
 70
     1
102
RTVSPost2010Prop33
280
     0
102
RTVSPost2010PropOp33
 70
     1
102
RTVSPost2010Prop34
280
     0
102
RTVSPost2010PropOp34
 70
     1
102
RTVSPost2010Prop35
280
     0
102
RTVSPost2010PropOp35
 70
     1
102
RTVSPost2010Prop36
280
     0
102
RTVSPost2010PropOp36
 70
     1
102
RTVSPost2010Prop37
 90
       50
102
RTVSPost2010PropOp37
 70
     1
102
RTVSPost2010Prop38
140
0.0
102
RTVSPost2010PropOp38
 70
     1
102
RTVSPost2010Prop39
140
1.0
102
RTVSPost2010PropOp39
 70
     1
102
RTVSPost2010Prop40
 90
        0
102
RTVSPost2010PropOp40
 70
     1
102
RTVSPost2010Prop41ColorIndex
 90
       18
102
RTVSPost2010Prop41ColorRGB
 90
        0
102
RTVSPost2010PropOp41
 70
     1
102
RTVSPost2010Prop42
 90
       50
102
RTVSPost2010PropOp42
 70
     1
102
RTVSPost2010Prop43
 90
        3
102
RTVSPost2010PropOp43
 70
     1
102
RTVSPost2010Prop44ColorIndex
 90
        5
102
RTVSPost2010Prop44ColorRGB
 90
      255
102
RTVSPost2010PropOp44
 70
     1
102
RTVSPost2010Prop45
280
     0
102
RTVSPost2010PropOp45
 70
     1
102
RTVSPost2010Prop46
 90
       50
102
RTVSPost2010PropOp46
 70
     1
102
RTVSPost2010Prop47
 90
       50
102
RTVSPost2010PropOp47
 70
     1
102
RTVSPost2010Prop48
 90
       50
102
RTVSPost2010PropOp48
 70
     1
102
RTVSPost2010Prop49
280
     0
102
RTVSPost2010PropOp49
 70
     1
102
RTVSPost2010Prop50
 90
       50
102
RTVSPost2010PropOp50
 70
     1
102
RTVSPost2010Prop51ColorIndex
 90
      256
102
RTVSPost2010Prop51ColorRGB
 90
-16777216
102
RTVSPost2010PropOp51
 70
     0
102
RTVSPost2010Prop52
140
1.0
102
RTVSPost2010PropOp52
 70
     0
102
RTVSPost2010Prop53
 90
        2
102
RTVSPost2010PropOp53
 70
     1
102
RTVSPost2010Prop54
  1
strokes_ogs.tif
102
RTVSPost2010PropOp54
 70
     1
102
RTVSPost2010Prop55
280
     0
102
RTVSPost2010PropOp55
 70
     1
102
RTVSPost2010Prop56
140
1.0
102
RTVSPost2010PropOp56
 70
     1
102
RTVSPost2010Prop57
140
1.0
102
RTVSPost2010PropOp57
 70
     1
  0
XRECORD
  5
2E9
102
{ACAD_REACTORS
330
2E8
102
}
330
2E8
100
AcDbXrecord
280
     1
102
RTVSPost2010Prop28
280
     0
102
RTVSPost2010PropOp28
 70
     0
102
RTVSPost2010Prop29
280
     1
102
RTVSPost2010PropOp29
 70
     0
102
RTVSPost2010Prop30
280
     1
102
RTVSPost2010PropOp30
 70
     0
102
RTVSPost2010Prop31
280
     0
102
RTVSPost2010PropOp31
 70
     0
102
RTVSPost2010Prop32
280
     0
102
RTVSPost2010PropOp32
 70
     0
102
RTVSPost2010Prop33
280
     0
102
RTVSPost2010PropOp33
 70
     0
102
RTVSPost2010Prop34
280
     0
102
RTVSPost2010PropOp34
 70
     0
102
RTVSPost2010Prop35
280
     0
102
RTVSPost2010PropOp35
 70
     0
102
RTVSPost2010Prop36
280
     0
102
RTVSPost2010PropOp36
 70
     0
102
RTVSPost2010Prop37
 90
       50
102
RTVSPost2010PropOp37
 70
     0
102
RTVSPost2010Prop38
140
0.0
102
RTVSPost2010PropOp38
 70
     0
102
RTVSPost2010Prop39
140
1.0
102
RTVSPost2010PropOp39
 70
     0
102
RTVSPost2010Prop40
 90
        0
102
RTVSPost2010PropOp40
 70
     0
102
RTVSPost2010Prop41ColorIndex
 90
       18
102
RTVSPost2010Prop41ColorRGB
 90
        0
102
RTVSPost2010PropOp41
 70
     0
102
RTVSPost2010Prop42
 90
       50
102
RTVSPost2010PropOp42
 70
     0
102
RTVSPost2010Prop43
 90
        3
102
RTVSPost2010PropOp43
 70
     0
102
RTVSPost2010Prop44ColorIndex
 90
        5
102
RTVSPost2010Prop44ColorRGB
 90
      255
102
RTVSPost2010PropOp44
 70
     0
102
RTVSPost2010Prop45
280
     0
102
RTVSPost2010PropOp45
 70
     0
102
RTVSPost2010Prop46
 90
       50
102
RTVSPost2010PropOp46
 70
     0
102
RTVSPost2010Prop47
 90
       50
102
RTVSPost2010PropOp47
 70
     0
102
RTVSPost2010Prop48
 90
       50
102
RTVSPost2010PropOp48
 70
     0
102
RTVSPost2010Prop49
280
     0
102
RTVSPost2010PropOp49
 70
     0
102
RTVSPost2010Prop50
 90
       50
102
RTVSPost2010PropOp50
 70
     0
102
RTVSPost2010Prop51ColorIndex
 90
      256
102
RTVSPost2010Prop51ColorRGB
 90
-16777216
102
RTVSPost2010PropOp51
 70
     0
102
RTVSPost2010Prop52
140
1.0
102
RTVSPost2010PropOp52
 70
     0
102
RTVSPost2010Prop53
 90
        2
102
RTVSPost2010PropOp53
 70
     0
102
RTVSPost2010Prop54
  1
strokes_ogs.tif
102
RTVSPost2010PropOp54
 70
     0
102
RTVSPost2010Prop55
280
     0
102
RTVSPost2010PropOp55
 70
     0
102
RTVSPost2010Prop56
140
1.0
102
RTVSPost2010PropOp56
 70
     0
102
RTVSPost2010Prop57
140
1.0
102
RTVSPost2010PropOp57
 70
     0
  0
XRECORD
  5
2E3
102
{ACAD_REACTORS
330
2E2
102
}
330
2E2
100
AcDbXrecord
280
     1
102
RTVSPost2010Prop28
280
     0
102
RTVSPost2010PropOp28
 70
     1
102
RTVSPost2010Prop29
280
     1
102
RTVSPost2010PropOp29
 70
     1
102
RTVSPost2010Prop30
280
     1
102
RTVSPost2010PropOp30
 70
     1
102
RTVSPost2010Prop31
280
     0
102
RTVSPost2010PropOp31
 70
     1
102
RTVSPost2010Prop32
280
     0
102
RTVSPost2010PropOp32
 70
     1
102
RTVSPost2010Prop33
280
     0
102
RTVSPost2010PropOp33
 70
     1
102
RTVSPost2010Prop34
280
     0
102
RTVSPost2010PropOp34
 70
     1
102
RTVSPost2010Prop35
280
     0
102
RTVSPost2010PropOp35
 70
     1
102
RTVSPost2010Prop36
280
     0
102
RTVSPost2010PropOp36
 70
     1
102
RTVSPost2010Prop37
 90
       50
102
RTVSPost2010PropOp37
 70
     1
102
RTVSPost2010Prop38
140
0.0
102
RTVSPost2010PropOp38
 70
     1
102
RTVSPost2010Prop39
140
1.0
102
RTVSPost2010PropOp39
 70
     1
102
RTVSPost2010Prop40
 90
        0
102
RTVSPost2010PropOp40
 70
     1
102
RTVSPost2010Prop41ColorIndex
 90
       18
102
RTVSPost2010Prop41ColorRGB
 90
        0
102
RTVSPost2010PropOp41
 70
     1
102
RTVSPost2010Prop42
 90
       50
102
RTVSPost2010PropOp42
 70
     1
102
RTVSPost2010Prop43
 90
        3
102
RTVSPost2010PropOp43
 70
     1
102
RTVSPost2010Prop44ColorIndex
 90
        5
102
RTVSPost2010Prop44ColorRGB
 90
      255
102
RTVSPost2010PropOp44
 70
     1
102
RTVSPost2010Prop45
280
     0
102
RTVSPost2010PropOp45
 70
     1
102
RTVSPost2010Prop46
 90
       50
102
RTVSPost2010PropOp46
 70
     1
102
RTVSPost2010Prop47
 90
       50
102
RTVSPost2010PropOp47
 70
     1
102
RTVSPost2010Prop48
 90
       50
102
RTVSPost2010PropOp48
 70
     1
102
RTVSPost2010Prop49
280
     0
102
RTVSPost2010PropOp49
 70
     1
102
RTVSPost2010Prop50
 90
       50
102
RTVSPost2010PropOp50
 70
     1
102
RTVSPost2010Prop51ColorIndex
 90
      256
102
RTVSPost2010Prop51ColorRGB
 90
-16777216
102
RTVSPost2010PropOp51
 70
     0
102
RTVSPost2010Prop52
140
1.0
102
RTVSPost2010PropOp52
 70
     0
102
RTVSPost2010Prop53
 90
        2
102
RTVSPost2010PropOp53
 70
     1
102
RTVSPost2010Prop54
  1
strokes_ogs.tif
102
RTVSPost2010PropOp54
 70
     1
102
RTVSPost2010Prop55
280
     0
102
RTVSPost2010PropOp55
 70
     1
102
RTVSPost2010Prop56
140
1.0
102
RTVSPost2010PropOp56
 70
     1
102
RTVSPost2010Prop57
140
1.0
102
RTVSPost2010PropOp57
 70
     1
  0
XRECORD
  5
2EB
102
{ACAD_REACTORS
330
2EA
102
}
330
2EA
100
AcDbXrecord
280
     1
102
RTVSPost2010Prop28
280
     0
102
RTVSPost2010PropOp28
 70
     0
102
RTVSPost2010Prop29
280
     1
102
RTVSPost2010PropOp29
 70
     0
102
RTVSPost2010Prop30
280
     1
102
RTVSPost2010PropOp30
 70
     0
102
RTVSPost2010Prop31
280
     0
102
RTVSPost2010PropOp31
 70
     0
102
RTVSPost2010Prop32
280
     0
102
RTVSPost2010PropOp32
 70
     0
102
RTVSPost2010Prop33
280
     0
102
RTVSPost2010PropOp33
 70
     0
102
RTVSPost2010Prop34
280
     0
102
RTVSPost2010PropOp34
 70
     0
102
RTVSPost2010Prop35
280
     0
102
RTVSPost2010PropOp35
 70
     0
102
RTVSPost2010Prop36
280
     0
102
RTVSPost2010PropOp36
 70
     0
102
RTVSPost2010Prop37
 90
       50
102
RTVSPost2010PropOp37
 70
     0
102
RTVSPost2010Prop38
140
0.0
102
RTVSPost2010PropOp38
 70
     0
102
RTVSPost2010Prop39
140
1.0
102
RTVSPost2010PropOp39
 70
     0
102
RTVSPost2010Prop40
 90
        0
102
RTVSPost2010PropOp40
 70
     0
102
RTVSPost2010Prop41ColorIndex
 90
       18
102
RTVSPost2010Prop41ColorRGB
 90
        0
102
RTVSPost2010PropOp41
 70
     0
102
RTVSPost2010Prop42
 90
       50
102
RTVSPost2010PropOp42
 70
     0
102
RTVSPost2010Prop43
 90
        3
102
RTVSPost2010PropOp43
 70
     0
102
RTVSPost2010Prop44ColorIndex
 90
        5
102
RTVSPost2010Prop44ColorRGB
 90
      255
102
RTVSPost2010PropOp44
 70
     0
102
RTVSPost2010Prop45
280
     0
102
RTVSPost2010PropOp45
 70
     0
102
RTVSPost2010Prop46
 90
       50
102
RTVSPost2010PropOp46
 70
     0
102
RTVSPost2010Prop47
 90
       50
102
RTVSPost2010PropOp47
 70
     0
102
RTVSPost2010Prop48
 90
       50
102
RTVSPost2010PropOp48
 70
     0
102
RTVSPost2010Prop49
280
     0
102
RTVSPost2010PropOp49
 70
     0
102
RTVSPost2010Prop50
 90
       50
102
RTVSPost2010PropOp50
 70
     0
102
RTVSPost2010Prop51ColorIndex
 90
      256
102
RTVSPost2010Prop51ColorRGB
 90
-16777216
102
RTVSPost2010PropOp51
 70
     0
102
RTVSPost2010Prop52
140
1.0
102
RTVSPost2010PropOp52
 70
     0
102
RTVSPost2010Prop53
 90
        2
102
RTVSPost2010PropOp53
 70
     0
102
RTVSPost2010Prop54
  1
strokes_ogs.tif
102
RTVSPost2010PropOp54
 70
     0
102
RTVSPost2010Prop55
280
     0
102
RTVSPost2010PropOp55
 70
     0
102
RTVSPost2010Prop56
140
1.0
102
RTVSPost2010PropOp56
 70
     0
102
RTVSPost2010Prop57
140
1.0
102
RTVSPost2010PropOp57
 70
     0
  0
XRECORD
  5
2D9
102
{ACAD_REACTORS
330
2D8
102
}
330
2D8
100
AcDbXrecord
280
     1
102
RTVSPost2010Prop28
280
     0
102
RTVSPost2010PropOp28
 70
     1
102
RTVSPost2010Prop29
280
     1
102
RTVSPost2010PropOp29
 70
     1
102
RTVSPost2010Prop30
280
     1
102
RTVSPost2010PropOp30
 70
     1
102
RTVSPost2010Prop31
280
     0
102
RTVSPost2010PropOp31
 70
     1
102
RTVSPost2010Prop32
280
     0
102
RTVSPost2010PropOp32
 70
     1
102
RTVSPost2010Prop33
280
     0
102
RTVSPost2010PropOp33
 70
     1
102
RTVSPost2010Prop34
280
     0
102
RTVSPost2010PropOp34
 70
     1
102
RTVSPost2010Prop35
280
     0
102
RTVSPost2010PropOp35
 70
     1
102
RTVSPost2010Prop36
280
     0
102
RTVSPost2010PropOp36
 70
     1
102
RTVSPost2010Prop37
 90
       50
102
RTVSPost2010PropOp37
 70
     1
102
RTVSPost2010Prop38
140
0.0
102
RTVSPost2010PropOp38
 70
     1
102
RTVSPost2010Prop39
140
1.0
102
RTVSPost2010PropOp39
 70
     1
102
RTVSPost2010Prop40
 90
        0
102
RTVSPost2010PropOp40
 70
     1
102
RTVSPost2010Prop41ColorIndex
 90
       18
102
RTVSPost2010Prop41ColorRGB
 90
        0
102
RTVSPost2010PropOp41
 70
     1
102
RTVSPost2010Prop42
 90
       50
102
RTVSPost2010PropOp42
 70
     1
102
RTVSPost2010Prop43
 90
        3
102
RTVSPost2010PropOp43
 70
     1
102
RTVSPost2010Prop44ColorIndex
 90
        5
102
RTVSPost2010Prop44ColorRGB
 90
      255
102
RTVSPost2010PropOp44
 70
     1
102
RTVSPost2010Prop45
280
     0
102
RTVSPost2010PropOp45
 70
     1
102
RTVSPost2010Prop46
 90
       50
102
RTVSPost2010PropOp46
 70
     1
102
RTVSPost2010Prop47
 90
       50
102
RTVSPost2010PropOp47
 70
     1
102
RTVSPost2010Prop48
 90
       50
102
RTVSPost2010PropOp48
 70
     1
102
RTVSPost2010Prop49
280
     0
102
RTVSPost2010PropOp49
 70
     1
102
RTVSPost2010Prop50
 90
       50
102
RTVSPost2010PropOp50
 70
     1
102
RTVSPost2010Prop51ColorIndex
 90
      256
102
RTVSPost2010Prop51ColorRGB
 90
-16777216
102
RTVSPost2010PropOp51
 70
     0
102
RTVSPost2010Prop52
140
1.0
102
RTVSPost2010PropOp52
 70
     0
102
RTVSPost2010Prop53
 90
        2
102
RTVSPost2010PropOp53
 70
     1
102
RTVSPost2010Prop54
  1
strokes_ogs.tif
102
RTVSPost2010PropOp54
 70
     1
102
RTVSPost2010Prop55
280
     0
102
RTVSPost2010PropOp55
 70
     1
102
RTVSPost2010Prop56
140
1.0
102
RTVSPost2010PropOp56
 70
     1
102
RTVSPost2010Prop57
140
1.0
102
RTVSPost2010PropOp57
 70
     1
  0
XRECORD
  5
2F7
102
{ACAD_REACTORS
330
2F6
102
}
330
2F6
100
AcDbXrecord
280
     1
102
RTVSPost2010Prop28
280
     0
102
RTVSPost2010PropOp28
 70
     1
102
RTVSPost2010Prop29
280
     1
102
RTVSPost2010PropOp29
 70
     1
102
RTVSPost2010Prop30
280
     1
102
RTVSPost2010PropOp30
 70
     1
102
RTVSPost2010Prop31
280
     0
102
RTVSPost2010PropOp31
 70
     1
102
RTVSPost2010Prop32
280
     0
102
RTVSPost2010PropOp32
 70
     1
102
RTVSPost2010Prop33
280
     0
102
RTVSPost2010PropOp33
 70
     1
102
RTVSPost2010Prop34
280
     0
102
RTVSPost2010PropOp34
 70
     1
102
RTVSPost2010Prop35
280
     0
102
RTVSPost2010PropOp35
 70
     1
102
RTVSPost2010Prop36
280
     0
102
RTVSPost2010PropOp36
 70
     1
102
RTVSPost2010Prop37
 90
       50
102
RTVSPost2010PropOp37
 70
     1
102
RTVSPost2010Prop38
140
0.0
102
RTVSPost2010PropOp38
 70
     1
102
RTVSPost2010Prop39
140
1.0
102
RTVSPost2010PropOp39
 70
     1
102
RTVSPost2010Prop40
 90
        0
102
RTVSPost2010PropOp40
 70
     1
102
RTVSPost2010Prop41ColorIndex
 90
       18
102
RTVSPost2010Prop41ColorRGB
 90
        0
102
RTVSPost2010PropOp41
 70
     1
102
RTVSPost2010Prop42
 90
       50
102
RTVSPost2010PropOp42
 70
     1
102
RTVSPost2010Prop43
 90
        3
102
RTVSPost2010PropOp43
 70
     1
102
RTVSPost2010Prop44ColorIndex
 90
        5
102
RTVSPost2010Prop44ColorRGB
 90
      255
102
RTVSPost2010PropOp44
 70
     1
102
RTVSPost2010Prop45
280
     0
102
RTVSPost2010PropOp45
 70
     1
102
RTVSPost2010Prop46
 90
       50
102
RTVSPost2010PropOp46
 70
     1
102
RTVSPost2010Prop47
 90
       50
102
RTVSPost2010PropOp47
 70
     1
102
RTVSPost2010Prop48
 90
       50
102
RTVSPost2010PropOp48
 70
     1
102
RTVSPost2010Prop49
280
     0
102
RTVSPost2010PropOp49
 70
     1
102
RTVSPost2010Prop50
 90
       50
102
RTVSPost2010PropOp50
 70
     1
102
RTVSPost2010Prop51ColorIndex
 90
      256
102
RTVSPost2010Prop51ColorRGB
 90
-16777216
102
RTVSPost2010PropOp51
 70
     0
102
RTVSPost2010Prop52
140
1.0
102
RTVSPost2010PropOp52
 70
     0
102
RTVSPost2010Prop53
 90
        2
102
RTVSPost2010PropOp53
 70
     1
102
RTVSPost2010Prop54
  1
strokes_ogs.tif
102
RTVSPost2010PropOp54
 70
     1
102
RTVSPost2010Prop55
280
     0
102
RTVSPost2010PropOp55
 70
     1
102
RTVSPost2010Prop56
140
1.0
102
RTVSPost2010PropOp56
 70
     1
102
RTVSPost2010Prop57
140
1.0
102
RTVSPost2010PropOp57
 70
     1
  0
XRECORD
  5
2F5
102
{ACAD_REACTORS
330
2F4
102
}
330
2F4
100
AcDbXrecord
280
     1
102
RTVSPost2010Prop28
280
     0
102
RTVSPost2010PropOp28
 70
     1
102
RTVSPost2010Prop29
280
     1
102
RTVSPost2010PropOp29
 70
     1
102
RTVSPost2010Prop30
280
     1
102
RTVSPost2010PropOp30
 70
     1
102
RTVSPost2010Prop31
280
     0
102
RTVSPost2010PropOp31
 70
     1
102
RTVSPost2010Prop32
280
     0
102
RTVSPost2010PropOp32
 70
     1
102
RTVSPost2010Prop33
280
     0
102
RTVSPost2010PropOp33
 70
     1
102
RTVSPost2010Prop34
280
     0
102
RTVSPost2010PropOp34
 70
     1
102
RTVSPost2010Prop35
280
     0
102
RTVSPost2010PropOp35
 70
     1
102
RTVSPost2010Prop36
280
     0
102
RTVSPost2010PropOp36
 70
     1
102
RTVSPost2010Prop37
 90
       50
102
RTVSPost2010PropOp37
 70
     1
102
RTVSPost2010Prop38
140
0.0
102
RTVSPost2010PropOp38
 70
     1
102
RTVSPost2010Prop39
140
1.0
102
RTVSPost2010PropOp39
 70
     1
102
RTVSPost2010Prop40
 90
        0
102
RTVSPost2010PropOp40
 70
     1
102
RTVSPost2010Prop41ColorIndex
 90
       18
102
RTVSPost2010Prop41ColorRGB
 90
        0
102
RTVSPost2010PropOp41
 70
     1
102
RTVSPost2010Prop42
 90
       50
102
RTVSPost2010PropOp42
 70
     1
102
RTVSPost2010Prop43
 90
        3
102
RTVSPost2010PropOp43
 70
     1
102
RTVSPost2010Prop44ColorIndex
 90
        5
102
RTVSPost2010Prop44ColorRGB
 90
      255
102
RTVSPost2010PropOp44
 70
     1
102
RTVSPost2010Prop45
280
     0
102
RTVSPost2010PropOp45
 70
     1
102
RTVSPost2010Prop46
 90
       50
102
RTVSPost2010PropOp46
 70
     1
102
RTVSPost2010Prop47
 90
       50
102
RTVSPost2010PropOp47
 70
     1
102
RTVSPost2010Prop48
 90
       50
102
RTVSPost2010PropOp48
 70
     1
102
RTVSPost2010Prop49
280
     0
102
RTVSPost2010PropOp49
 70
     1
102
RTVSPost2010Prop50
 90
       50
102
RTVSPost2010PropOp50
 70
     1
102
RTVSPost2010Prop51ColorIndex
 90
      256
102
RTVSPost2010Prop51ColorRGB
 90
-16777216
102
RTVSPost2010PropOp51
 70
     0
102
RTVSPost2010Prop52
140
1.0
102
RTVSPost2010PropOp52
 70
     0
102
RTVSPost2010Prop53
 90
        2
102
RTVSPost2010PropOp53
 70
     1
102
RTVSPost2010Prop54
  1
strokes_ogs.tif
102
RTVSPost2010PropOp54
 70
     1
102
RTVSPost2010Prop55
280
     0
102
RTVSPost2010PropOp55
 70
     1
102
RTVSPost2010Prop56
140
1.0
102
RTVSPost2010PropOp56
 70
     1
102
RTVSPost2010Prop57
140
1.0
102
RTVSPost2010PropOp57
 70
     1
  0
XRECORD
  5
2EF
102
{ACAD_REACTORS
330
2EE
102
}
330
2EE
100
AcDbXrecord
280
     1
102
RTVSPost2010Prop28
280
     0
102
RTVSPost2010PropOp28
 70
     1
102
RTVSPost2010Prop29
280
     1
102
RTVSPost2010PropOp29
 70
     1
102
RTVSPost2010Prop30
280
     1
102
RTVSPost2010PropOp30
 70
     1
102
RTVSPost2010Prop31
280
     0
102
RTVSPost2010PropOp31
 70
     1
102
RTVSPost2010Prop32
280
     0
102
RTVSPost2010PropOp32
 70
     1
102
RTVSPost2010Prop33
280
     0
102
RTVSPost2010PropOp33
 70
     1
102
RTVSPost2010Prop34
280
     0
102
RTVSPost2010PropOp34
 70
     1
102
RTVSPost2010Prop35
280
     0
102
RTVSPost2010PropOp35
 70
     1
102
RTVSPost2010Prop36
280
     0
102
RTVSPost2010PropOp36
 70
     1
102
RTVSPost2010Prop37
 90
       50
102
RTVSPost2010PropOp37
 70
     1
102
RTVSPost2010Prop38
140
0.0
102
RTVSPost2010PropOp38
 70
     1
102
RTVSPost2010Prop39
140
1.0
102
RTVSPost2010PropOp39
 70
     1
102
RTVSPost2010Prop40
 90
        0
102
RTVSPost2010PropOp40
 70
     1
102
RTVSPost2010Prop41ColorIndex
 90
       18
102
RTVSPost2010Prop41ColorRGB
 90
        0
102
RTVSPost2010PropOp41
 70
     1
102
RTVSPost2010Prop42
 90
       50
102
RTVSPost2010PropOp42
 70
     1
102
RTVSPost2010Prop43
 90
        3
102
RTVSPost2010PropOp43
 70
     1
102
RTVSPost2010Prop44ColorIndex
 90
        5
102
RTVSPost2010Prop44ColorRGB
 90
      255
102
RTVSPost2010PropOp44
 70
     1
102
RTVSPost2010Prop45
280
     0
102
RTVSPost2010PropOp45
 70
     1
102
RTVSPost2010Prop46
 90
       50
102
RTVSPost2010PropOp46
 70
     1
102
RTVSPost2010Prop47
 90
       50
102
RTVSPost2010PropOp47
 70
     1
102
RTVSPost2010Prop48
 90
       50
102
RTVSPost2010PropOp48
 70
     1
102
RTVSPost2010Prop49
280
     0
102
RTVSPost2010PropOp49
 70
     1
102
RTVSPost2010Prop50
 90
       50
102
RTVSPost2010PropOp50
 70
     1
102
RTVSPost2010Prop51ColorIndex
 90
      256
102
RTVSPost2010Prop51ColorRGB
 90
-16777216
102
RTVSPost2010PropOp51
 70
     0
102
RTVSPost2010Prop52
140
1.0
102
RTVSPost2010PropOp52
 70
     0
102
RTVSPost2010Prop53
 90
        2
102
RTVSPost2010PropOp53
 70
     1
102
RTVSPost2010Prop54
  1
strokes_ogs.tif
102
RTVSPost2010PropOp54
 70
     1
102
RTVSPost2010Prop55
280
     0
102
RTVSPost2010PropOp55
 70
     1
102
RTVSPost2010Prop56
140
1.0
102
RTVSPost2010PropOp56
 70
     1
102
RTVSPost2010Prop57
140
1.0
102
RTVSPost2010PropOp57
 70
     1
  0
XRECORD
  5
2F1
102
{ACAD_REACTORS
330
2F0
102
}
330
2F0
100
AcDbXrecord
280
     1
102
RTVSPost2010Prop28
280
     0
102
RTVSPost2010PropOp28
 70
     1
102
RTVSPost2010Prop29
280
     1
102
RTVSPost2010PropOp29
 70
     1
102
RTVSPost2010Prop30
280
     1
102
RTVSPost2010PropOp30
 70
     1
102
RTVSPost2010Prop31
280
     0
102
RTVSPost2010PropOp31
 70
     1
102
RTVSPost2010Prop32
280
     0
102
RTVSPost2010PropOp32
 70
     1
102
RTVSPost2010Prop33
280
     0
102
RTVSPost2010PropOp33
 70
     1
102
RTVSPost2010Prop34
280
     0
102
RTVSPost2010PropOp34
 70
     1
102
RTVSPost2010Prop35
280
     0
102
RTVSPost2010PropOp35
 70
     1
102
RTVSPost2010Prop36
280
     0
102
RTVSPost2010PropOp36
 70
     1
102
RTVSPost2010Prop37
 90
       50
102
RTVSPost2010PropOp37
 70
     1
102
RTVSPost2010Prop38
140
0.0
102
RTVSPost2010PropOp38
 70
     1
102
RTVSPost2010Prop39
140
1.0
102
RTVSPost2010PropOp39
 70
     1
102
RTVSPost2010Prop40
 90
        0
102
RTVSPost2010PropOp40
 70
     1
102
RTVSPost2010Prop41ColorIndex
 90
       18
102
RTVSPost2010Prop41ColorRGB
 90
        0
102
RTVSPost2010PropOp41
 70
     1
102
RTVSPost2010Prop42
 90
       50
102
RTVSPost2010PropOp42
 70
     1
102
RTVSPost2010Prop43
 90
        3
102
RTVSPost2010PropOp43
 70
     1
102
RTVSPost2010Prop44ColorIndex
 90
        5
102
RTVSPost2010Prop44ColorRGB
 90
      255
102
RTVSPost2010PropOp44
 70
     1
102
RTVSPost2010Prop45
280
     0
102
RTVSPost2010PropOp45
 70
     1
102
RTVSPost2010Prop46
 90
       50
102
RTVSPost2010PropOp46
 70
     1
102
RTVSPost2010Prop47
 90
       50
102
RTVSPost2010PropOp47
 70
     1
102
RTVSPost2010Prop48
 90
       50
102
RTVSPost2010PropOp48
 70
     1
102
RTVSPost2010Prop49
280
     0
102
RTVSPost2010PropOp49
 70
     1
102
RTVSPost2010Prop50
 90
       50
102
RTVSPost2010PropOp50
 70
     1
102
RTVSPost2010Prop51ColorIndex
 90
      256
102
RTVSPost2010Prop51ColorRGB
 90
-16777216
102
RTVSPost2010PropOp51
 70
     0
102
RTVSPost2010Prop52
140
1.0
102
RTVSPost2010PropOp52
 70
     0
102
RTVSPost2010Prop53
 90
        2
102
RTVSPost2010PropOp53
 70
     1
102
RTVSPost2010Prop54
  1
strokes_ogs.tif
102
RTVSPost2010PropOp54
 70
     1
102
RTVSPost2010Prop55
280
     0
102
RTVSPost2010PropOp55
 70
     1
102
RTVSPost2010Prop56
140
1.0
102
RTVSPost2010PropOp56
 70
     1
102
RTVSPost2010Prop57
140
1.0
102
RTVSPost2010PropOp57
 70
     1
  0
XRECORD
  5
2E1
102
{ACAD_REACTORS
330
2E0
102
}
330
2E0
100
AcDbXrecord
280
     1
102
RTVSPost2010Prop28
280
     0
102
RTVSPost2010PropOp28
 70
     1
102
RTVSPost2010Prop29
280
     1
102
RTVSPost2010PropOp29
 70
     1
102
RTVSPost2010Prop30
280
     1
102
RTVSPost2010PropOp30
 70
     1
102
RTVSPost2010Prop31
280
     0
102
RTVSPost2010PropOp31
 70
     1
102
RTVSPost2010Prop32
280
     0
102
RTVSPost2010PropOp32
 70
     1
102
RTVSPost2010Prop33
280
     0
102
RTVSPost2010PropOp33
 70
     1
102
RTVSPost2010Prop34
280
     0
102
RTVSPost2010PropOp34
 70
     1
102
RTVSPost2010Prop35
280
     0
102
RTVSPost2010PropOp35
 70
     1
102
RTVSPost2010Prop36
280
     0
102
RTVSPost2010PropOp36
 70
     1
102
RTVSPost2010Prop37
 90
       50
102
RTVSPost2010PropOp37
 70
     1
102
RTVSPost2010Prop38
140
0.0
102
RTVSPost2010PropOp38
 70
     1
102
RTVSPost2010Prop39
140
1.0
102
RTVSPost2010PropOp39
 70
     1
102
RTVSPost2010Prop40
 90
        0
102
RTVSPost2010PropOp40
 70
     1
102
RTVSPost2010Prop41ColorIndex
 90
       18
102
RTVSPost2010Prop41ColorRGB
 90
        0
102
RTVSPost2010PropOp41
 70
     1
102
RTVSPost2010Prop42
 90
       50
102
RTVSPost2010PropOp42
 70
     1
102
RTVSPost2010Prop43
 90
        3
102
RTVSPost2010PropOp43
 70
     1
102
RTVSPost2010Prop44ColorIndex
 90
        5
102
RTVSPost2010Prop44ColorRGB
 90
      255
102
RTVSPost2010PropOp44
 70
     1
102
RTVSPost2010Prop45
280
     0
102
RTVSPost2010PropOp45
 70
     1
102
RTVSPost2010Prop46
 90
       50
102
RTVSPost2010PropOp46
 70
     1
102
RTVSPost2010Prop47
 90
       50
102
RTVSPost2010PropOp47
 70
     1
102
RTVSPost2010Prop48
 90
       50
102
RTVSPost2010PropOp48
 70
     1
102
RTVSPost2010Prop49
280
     0
102
RTVSPost2010PropOp49
 70
     1
102
RTVSPost2010Prop50
 90
       50
102
RTVSPost2010PropOp50
 70
     1
102
RTVSPost2010Prop51ColorIndex
 90
      256
102
RTVSPost2010Prop51ColorRGB
 90
-16777216
102
RTVSPost2010PropOp51
 70
     0
102
RTVSPost2010Prop52
140
1.0
102
RTVSPost2010PropOp52
 70
     0
102
RTVSPost2010Prop53
 90
        2
102
RTVSPost2010PropOp53
 70
     1
102
RTVSPost2010Prop54
  1
strokes_ogs.tif
102
RTVSPost2010PropOp54
 70
     1
102
RTVSPost2010Prop55
280
     0
102
RTVSPost2010PropOp55
 70
     1
102
RTVSPost2010Prop56
140
1.0
102
RTVSPost2010PropOp56
 70
     1
102
RTVSPost2010Prop57
140
1.0
102
RTVSPost2010PropOp57
 70
     1
  0
XRECORD
  5
2D3
102
{ACAD_REACTORS
330
2D2
102
}
330
2D2
100
AcDbXrecord
280
     1
102
RTVSPost2010Prop28
280
     0
102
RTVSPost2010PropOp28
 70
     1
102
RTVSPost2010Prop29
280
     1
102
RTVSPost2010PropOp29
 70
     1
102
RTVSPost2010Prop30
280
     1
102
RTVSPost2010PropOp30
 70
     1
102
RTVSPost2010Prop31
280
     0
102
RTVSPost2010PropOp31
 70
     1
102
RTVSPost2010Prop32
280
     0
102
RTVSPost2010PropOp32
 70
     1
102
RTVSPost2010Prop33
280
     0
102
RTVSPost2010PropOp33
 70
     1
102
RTVSPost2010Prop34
280
     0
102
RTVSPost2010PropOp34
 70
     1
102
RTVSPost2010Prop35
280
     0
102
RTVSPost2010PropOp35
 70
     1
102
RTVSPost2010Prop36
280
     0
102
RTVSPost2010PropOp36
 70
     1
102
RTVSPost2010Prop37
 90
       50
102
RTVSPost2010PropOp37
 70
     1
102
RTVSPost2010Prop38
140
0.0
102
RTVSPost2010PropOp38
 70
     1
102
RTVSPost2010Prop39
140
1.0
102
RTVSPost2010PropOp39
 70
     1
102
RTVSPost2010Prop40
 90
        0
102
RTVSPost2010PropOp40
 70
     1
102
RTVSPost2010Prop41ColorIndex
 90
       18
102
RTVSPost2010Prop41ColorRGB
 90
        0
102
RTVSPost2010PropOp41
 70
     1
102
RTVSPost2010Prop42
 90
       50
102
RTVSPost2010PropOp42
 70
     1
102
RTVSPost2010Prop43
 90
        3
102
RTVSPost2010PropOp43
 70
     1
102
RTVSPost2010Prop44ColorIndex
 90
        5
102
RTVSPost2010Prop44ColorRGB
 90
      255
102
RTVSPost2010PropOp44
 70
     1
102
RTVSPost2010Prop45
280
     0
102
RTVSPost2010PropOp45
 70
     1
102
RTVSPost2010Prop46
 90
       50
102
RTVSPost2010PropOp46
 70
     1
102
RTVSPost2010Prop47
 90
       50
102
RTVSPost2010PropOp47
 70
     1
102
RTVSPost2010Prop48
 90
       50
102
RTVSPost2010PropOp48
 70
     1
102
RTVSPost2010Prop49
280
     0
102
RTVSPost2010PropOp49
 70
     1
102
RTVSPost2010Prop50
 90
       50
102
RTVSPost2010PropOp50
 70
     1
102
RTVSPost2010Prop51ColorIndex
 90
      256
102
RTVSPost2010Prop51ColorRGB
 90
-16777216
102
RTVSPost2010PropOp51
 70
     0
102
RTVSPost2010Prop52
140
1.0
102
RTVSPost2010PropOp52
 70
     0
102
RTVSPost2010Prop53
 90
        2
102
RTVSPost2010PropOp53
 70
     1
102
RTVSPost2010Prop54
  1
strokes_ogs.tif
102
RTVSPost2010PropOp54
 70
     1
102
RTVSPost2010Prop55
280
     0
102
RTVSPost2010PropOp55
 70
     1
102
RTVSPost2010Prop56
140
1.0
102
RTVSPost2010PropOp56
 70
     1
102
RTVSPost2010Prop57
140
1.0
102
RTVSPost2010PropOp57
 70
     1
  0
XRECORD
  5
2F3
102
{ACAD_REACTORS
330
2F2
102
}
330
2F2
100
AcDbXrecord
280
     1
102
RTVSPost2010Prop28
280
     0
102
RTVSPost2010PropOp28
 70
     1
102
RTVSPost2010Prop29
280
     1
102
RTVSPost2010PropOp29
 70
     1
102
RTVSPost2010Prop30
280
     1
102
RTVSPost2010PropOp30
 70
     1
102
RTVSPost2010Prop31
280
     0
102
RTVSPost2010PropOp31
 70
     1
102
RTVSPost2010Prop32
280
     0
102
RTVSPost2010PropOp32
 70
     1
102
RTVSPost2010Prop33
280
     0
102
RTVSPost2010PropOp33
 70
     1
102
RTVSPost2010Prop34
280
     0
102
RTVSPost2010PropOp34
 70
     1
102
RTVSPost2010Prop35
280
     0
102
RTVSPost2010PropOp35
 70
     1
102
RTVSPost2010Prop36
280
     0
102
RTVSPost2010PropOp36
 70
     1
102
RTVSPost2010Prop37
 90
       50
102
RTVSPost2010PropOp37
 70
     1
102
RTVSPost2010Prop38
140
0.0
102
RTVSPost2010PropOp38
 70
     1
102
RTVSPost2010Prop39
140
1.0
102
RTVSPost2010PropOp39
 70
     1
102
RTVSPost2010Prop40
 90
        0
102
RTVSPost2010PropOp40
 70
     1
102
RTVSPost2010Prop41ColorIndex
 90
       18
102
RTVSPost2010Prop41ColorRGB
 90
        0
102
RTVSPost2010PropOp41
 70
     1
102
RTVSPost2010Prop42
 90
       50
102
RTVSPost2010PropOp42
 70
     1
102
RTVSPost2010Prop43
 90
        3
102
RTVSPost2010PropOp43
 70
     1
102
RTVSPost2010Prop44ColorIndex
 90
        5
102
RTVSPost2010Prop44ColorRGB
 90
      255
102
RTVSPost2010PropOp44
 70
     1
102
RTVSPost2010Prop45
280
     0
102
RTVSPost2010PropOp45
 70
     1
102
RTVSPost2010Prop46
 90
       50
102
RTVSPost2010PropOp46
 70
     1
102
RTVSPost2010Prop47
 90
       50
102
RTVSPost2010PropOp47
 70
     1
102
RTVSPost2010Prop48
 90
       50
102
RTVSPost2010PropOp48
 70
     1
102
RTVSPost2010Prop49
280
     0
102
RTVSPost2010PropOp49
 70
     1
102
RTVSPost2010Prop50
 90
       50
102
RTVSPost2010PropOp50
 70
     1
102
RTVSPost2010Prop51ColorIndex
 90
      256
102
RTVSPost2010Prop51ColorRGB
 90
-16777216
102
RTVSPost2010PropOp51
 70
     0
102
RTVSPost2010Prop52
140
1.0
102
RTVSPost2010PropOp52
 70
     0
102
RTVSPost2010Prop53
 90
        2
102
RTVSPost2010PropOp53
 70
     1
102
RTVSPost2010Prop54
  1
strokes_ogs.tif
102
RTVSPost2010PropOp54
 70
     1
102
RTVSPost2010Prop55
280
     0
102
RTVSPost2010PropOp55
 70
     1
102
RTVSPost2010Prop56
140
1.0
102
RTVSPost2010PropOp56
 70
     1
102
RTVSPost2010Prop57
140
1.0
102
RTVSPost2010PropOp57
 70
     1
  0
ENDSEC
  0
EOF
