  0
SECTION
  2
HEADER
  9
$ACADVER
  1
AC1024
  9
$ACADMAINTVER
 70
     6
  9
$DWGCODEPAGE
  3
ANSI_1252
  9
$LASTSAVEDBY
  1
c.meyer
  9
$INSBASE
 10
0.0
 20
0.0
 30
0.0
  9
$EXTMIN
 10
-1263.296510144732
 20
-1457.566759113731
 30
0.0
  9
$EXTMAX
 10
6179.10585994751
 20
1471.843240886269
 30
0.0
  9
$LIMMIN
 10
0.0
 20
0.0
  9
$LIMMAX
 10
420.0
 20
297.0
  9
$ORTHOMODE
 70
     0
  9
$REGENMODE
 70
     1
  9
$FILLMODE
 70
     1
  9
$QTEXTMODE
 70
     0
  9
$MIRRTEXT
 70
     1
  9
$LTSCALE
 40
5.0
  9
$ATTMODE
 70
     1
  9
$TEXTSIZE
 40
2.5
  9
$TRACEWID
 40
1.0
  9
$TEXTSTYLE
  7
Standard
  9
$CLAYER
  8
0
  9
$CELTYPE
  6
ByLayer
  9
$CECOLOR
 62
   256
  9
$CELTSCALE
 40
1.0
  9
$DISPSILH
 70
     0
  9
$DIMSCALE
 40
1.0
  9
$DIMASZ
 40
2.5
  9
$DIMEXO
 40
0.625
  9
$DIMDLI
 40
3.75
  9
$DIMRND
 40
0.0
  9
$DIMDLE
 40
0.0
  9
$DIMEXE
 40
1.25
  9
$DIMTP
 40
0.0
  9
$DIMTM
 40
0.0
  9
$DIMTXT
 40
2.5
  9
$DIMCEN
 40
2.5
  9
$DIMTSZ
 40
0.0
  9
$DIMTOL
 70
     0
  9
$DIMLIM
 70
     0
  9
$DIMTIH
 70
     0
  9
$DIMTOH
 70
     0
  9
$DIMSE1
 70
     0
  9
$DIMSE2
 70
     0
  9
$DIMTAD
 70
     1
  9
$DIMZIN
 70
     8
  9
$DIMBLK
  1

  9
$DIMASO
 70
     1
  9
$DIMSHO
 70
     1
  9
$DIMPOST
  1

  9
$DIMAPOST
  1

  9
$DIMALT
 70
     0
  9
$DIMALTD
 70
     3
  9
$DIMALTF
 40
0.03937007874
  9
$DIMLFAC
 40
1.0
  9
$DIMTOFL
 70
     1
  9
$DIMTVP
 40
0.0
  9
$DIMTIX
 70
     0
  9
$DIMSOXD
 70
     0
  9
$DIMSAH
 70
     0
  9
$DIMBLK1
  1

  9
$DIMBLK2
  1

  9
$DIMSTYLE
  2
ISO-25
  9
$DIMCLRD
 70
     0
  9
$DIMCLRE
 70
     0
  9
$DIMCLRT
 70
     0
  9
$DIMTFAC
 40
1.0
  9
$DIMGAP
 40
0.625
  9
$DIMJUST
 70
     0
  9
$DIMSD1
 70
     0
  9
$DIMSD2
 70
     0
  9
$DIMTOLJ
 70
     0
  9
$DIMTZIN
 70
     8
  9
$DIMALTZ
 70
     0
  9
$DIMALTTZ
 70
     0
  9
$DIMUPT
 70
     0
  9
$DIMDEC
 70
     2
  9
$DIMTDEC
 70
     2
  9
$DIMALTU
 70
     2
  9
$DIMALTTD
 70
     3
  9
$DIMTXSTY
  7
Standard
  9
$DIMAUNIT
 70
     0
  9
$DIMADEC
 70
     0
  9
$DIMALTRND
 40
0.0
  9
$DIMAZIN
 70
     0
  9
$DIMDSEP
 70
    44
  9
$DIMATFIT
 70
     3
  9
$DIMFRAC
 70
     0
  9
$DIMLDRBLK
  1

  9
$DIMLUNIT
 70
     2
  9
$DIMLWD
 70
    -2
  9
$DIMLWE
 70
    -2
  9
$DIMTMOVE
 70
     0
  9
$DIMFXL
 40
1.0
  9
$DIMFXLON
 70
     0
  9
$DIMJOGANG
 40
0.785398163397
  9
$DIMTFILL
 70
     0
  9
$DIMTFILLCLR
 70
     0
  9
$DIMARCSYM
 70
     0
  9
$DIMLTYPE
  6

  9
$DIMLTEX1
  6

  9
$DIMLTEX2
  6

  9
$DIMTXTDIRECTION
 70
     0
  9
$LUNITS
 70
     2
  9
$LUPREC
 70
     4
  9
$SKETCHINC
 40
1.0
  9
$FILLETRAD
 40
0.0
  9
$AUNITS
 70
     0
  9
$AUPREC
 70
     0
  9
$MENU
  1
.
  9
$ELEVATION
 40
0.0
  9
$PELEVATION
 40
0.0
  9
$THICKNESS
 40
0.0
  9
$LIMCHECK
 70
     0
  9
$CHAMFERA
 40
0.0
  9
$CHAMFERB
 40
0.0
  9
$CHAMFERC
 40
0.0
  9
$CHAMFERD
 40
0.0
  9
$SKPOLY
 70
     0
  9
$TDCREATE
 40
2459907.504941713
  9
$TDUCREATE
 40
2459907.463275046
  9
$TDUPDATE
 40
2459907.504942442
  9
$TDUUPDATE
 40
2459907.463275775
  9
$TDINDWG
 40
0.0000000116
  9
$TDUSRTIMER
 40
0.0000000116
  9
$USRTIMER
 70
     1
  9
$ANGBASE
 50
0.0
  9
$ANGDIR
 70
     0
  9
$PDMODE
 70
     2
  9
$PDSIZE
 40
1.0
  9
$PLINEWID
 40
0.0
  9
$SPLFRAME
 70
     0
  9
$SPLINETYPE
 70
     6
  9
$SPLINESEGS
 70
     8
  9
$HANDSEED
  5
24C
  9
$SURFTAB1
 70
     6
  9
$SURFTAB2
 70
     6
  9
$SURFTYPE
 70
     6
  9
$SURFU
 70
     6
  9
$SURFV
 70
     6
  9
$UCSBASE
  2

  9
$UCSNAME
  2

  9
$UCSORG
 10
0.0
 20
0.0
 30
0.0
  9
$UCSXDIR
 10
1.0
 20
0.0
 30
0.0
  9
$UCSYDIR
 10
0.0
 20
1.0
 30
0.0
  9
$UCSORTHOREF
  2

  9
$UCSORTHOVIEW
 70
     0
  9
$UCSORGTOP
 10
0.0
 20
0.0
 30
0.0
  9
$UCSORGBOTTOM
 10
0.0
 20
0.0
 30
0.0
  9
$UCSORGLEFT
 10
0.0
 20
0.0
 30
0.0
  9
$UCSORGRIGHT
 10
0.0
 20
0.0
 30
0.0
  9
$UCSORGFRONT
 10
0.0
 20
0.0
 30
0.0
  9
$UCSORGBACK
 10
0.0
 20
0.0
 30
0.0
  9
$PUCSBASE
  2

  9
$PUCSNAME
  2

  9
$PUCSORG
 10
0.0
 20
0.0
 30
0.0
  9
$PUCSXDIR
 10
1.0
 20
0.0
 30
0.0
  9
$PUCSYDIR
 10
0.0
 20
1.0
 30
0.0
  9
$PUCSORTHOREF
  2

  9
$PUCSORTHOVIEW
 70
     0
  9
$PUCSORGTOP
 10
0.0
 20
0.0
 30
0.0
  9
$PUCSORGBOTTOM
 10
0.0
 20
0.0
 30
0.0
  9
$PUCSORGLEFT
 10
0.0
 20
0.0
 30
0.0
  9
$PUCSORGRIGHT
 10
0.0
 20
0.0
 30
0.0
  9
$PUCSORGFRONT
 10
0.0
 20
0.0
 30
0.0
  9
$PUCSORGBACK
 10
0.0
 20
0.0
 30
0.0
  9
$USERI1
 70
     0
  9
$USERI2
 70
     0
  9
$USERI3
 70
     0
  9
$USERI4
 70
     0
  9
$USERI5
 70
     0
  9
$USERR1
 40
0.0
  9
$USERR2
 40
0.0
  9
$USERR3
 40
0.0
  9
$USERR4
 40
0.0
  9
$USERR5
 40
0.0
  9
$WORLDVIEW
 70
     1
  9
$SHADEDGE
 70
     3
  9
$SHADEDIF
 70
    70
  9
$TILEMODE
 70
     1
  9
$MAXACTVP
 70
    64
  9
$PINSBASE
 10
0.0
 20
0.0
 30
0.0
  9
$PLIMCHECK
 70
     0
  9
$PEXTMIN
 10
1.000000000000E+20
 20
1.000000000000E+20
 30
1.000000000000E+20
  9
$PEXTMAX
 10
-1.000000000000E+20
 20
-1.000000000000E+20
 30
-1.000000000000E+20
  9
$PLIMMIN
 10
0.0
 20
0.0
  9
$PLIMMAX
 10
420.0
 20
297.0
  9
$UNITMODE
 70
     0
  9
$VISRETAIN
 70
     1
  9
$PLINEGEN
 70
     0
  9
$PSLTSCALE
 70
     1
  9
$TREEDEPTH
 70
  3020
  9
$CMLSTYLE
  2
Standard
  9
$CMLJUST
 70
     0
  9
$CMLSCALE
 40
20.0
  9
$PROXYGRAPHICS
 70
     1
  9
$MEASUREMENT
 70
     1
  9
$CELWEIGHT
370
    -1
  9
$ENDCAPS
280
     0
  9
$JOINSTYLE
280
     0
  9
$LWDISPLAY
290
     0
  9
$INSUNITS
 70
     4
  9
$HYPERLINKBASE
  1

  9
$STYLESHEET
  1

  9
$XEDIT
290
     1
  9
$CEPSNTYPE
380
     0
  9
$PSTYLEMODE
290
     1
  9
$FINGERPRINTGUID
  2
{e1a5c849-42f8-40b1-bcc0-3591da1146ff}
  9
$VERSIONGUID
  2
{FAEB1C32-E019-11D5-929B-00C0DF256EC4}
  9
$EXTNAMES
290
     1
  9
$PSVPSCALE
 40
0.0
  9
$OLESTARTUP
290
     0
  9
$SORTENTS
280
   127
  9
$INDEXCTL
280
     0
  9
$HIDETEXT
280
     1
  9
$XCLIPFRAME
280
     2
  9
$HALOGAP
280
     0
  9
$OBSCOLOR
 70
   257
  9
$OBSLTYPE
280
     0
  9
$INTERSECTIONDISPLAY
280
     0
  9
$INTERSECTIONCOLOR
 70
   257
  9
$DIMASSOC
280
     2
  9
$PROJECTNAME
  1

  9
$CAMERADISPLAY
290
     0
  9
$LENSLENGTH
 40
50.0
  9
$CAMERAHEIGHT
 40
0.0
  9
$STEPSPERSEC
 40
2.0
  9
$STEPSIZE
 40
6.0
  9
$3DDWFPREC
 40
2.0
  9
$PSOLWIDTH
 40
5.0
  9
$PSOLHEIGHT
 40
80.0
  9
$LOFTANG1
 40
1.570796326795
  9
$LOFTANG2
 40
1.570796326795
  9
$LOFTMAG1
 40
0.0
  9
$LOFTMAG2
 40
0.0
  9
$LOFTPARAM
 70
     7
  9
$LOFTNORMALS
280
     1
  9
$LATITUDE
 40
37.795
  9
$LONGITUDE
 40
-122.394
  9
$NORTHDIRECTION
 40
0.0
  9
$TIMEZONE
 70
 -8000
  9
$LIGHTGLYPHDISPLAY
280
     1
  9
$TILEMODELIGHTSYNCH
280
     1
  9
$CMATERIAL
347
44
  9
$SOLIDHIST
280
     0
  9
$SHOWHIST
280
     1
  9
$DWFFRAME
280
     2
  9
$DGNFRAME
280
     2
  9
$REALWORLDSCALE
290
     1
  9
$INTERFERECOLOR
 62
   256
  9
$CSHADOW
280
     0
  9
$SHADOWPLANELOCATION
 40
0.0
  0
ENDSEC
  0
SECTION
  2
CLASSES
  0
CLASS
  1
ACDBDICTIONARYWDFLT
  2
AcDbDictionaryWithDefault
  3
ObjectDBX Classes
 90
        0
 91
        3
280
     0
281
     0
  0
CLASS
  1
VISUALSTYLE
  2
AcDbVisualStyle
  3
ObjectDBX Classes
 90
     4095
 91
        3
280
     0
281
     0
  0
CLASS
  1
MATERIAL
  2
AcDbMaterial
  3
ObjectDBX Classes
 90
     1153
 91
        3
280
     0
281
     0
  0
CLASS
  1
SCALE
  2
AcDbScale
  3
ObjectDBX Classes
 90
     1153
 91
        3
280
     0
281
     0
  0
CLASS
  1
TABLESTYLE
  2
AcDbTableStyle
  3
ObjectDBX Classes
 90
     4095
 91
        3
280
     0
281
     0
  0
CLASS
  1
MLEADERSTYLE
  2
AcDbMLeaderStyle
  3
ACDB_MLEADERSTYLE_CLASS
 90
     4095
 91
        3
280
     0
281
     0
  0
CLASS
  1
SUN
  2
AcDbSun
  3
SCENEOE
 90
     1153
 91
        3
280
     0
281
     0
  0
CLASS
  1
IMAGEDEF
  2
AcDbRasterImageDef
  3
ISM
 90
        0
 91
        3
280
     0
281
     0
  0
CLASS
  1
IMAGE
  2
AcDbRasterImage
  3
ISM
 90
      127
 91
        4
280
     0
281
     1
  0
CLASS
  1
IMAGEDEF_REACTOR
  2
AcDbRasterImageDefReactor
  3
ISM
 90
        1
 91
        3
280
     0
281
     0
  0
CLASS
  1
DICTIONARYVAR
  2
AcDbDictionaryVar
  3
ObjectDBX Classes
 90
        0
 91
        3
280
     0
281
     0
  0
CLASS
  1
CELLSTYLEMAP
  2
AcDbCellStyleMap
  3
ObjectDBX Classes
 90
     1152
 91
        3
280
     0
281
     0
  0
CLASS
  1
WIPEOUTVARIABLES
  2
AcDbWipeoutVariables
  3
WipeOut|AutoCAD Express Tool|expresstools@autodesk.com
 90
        0
 91
        3
280
     0
281
     0
  0
ENDSEC
  0
SECTION
  2
TABLES
  0
TABLE
  2
VPORT
  5
8
330
0
100
AcDbSymbolTable
 70
     1
  0
VPORT
  5
29
330
8
100
AcDbSymbolTableRecord
100
AcDbViewportTableRecord
  2
*Active
 70
     0
 10
0.0
 20
0.0
 11
1.0
 21
1.0
 12
2457.904674901389
 22
7.138240886269
 13
0.0
 23
0.0
 14
10.0
 24
10.0
 15
10.0
 25
10.0
 16
0.0
 26
0.0
 36
1.0
 17
0.0
 27
0.0
 37
0.0
 40
2929.41
 41
2.540580652791
 42
50.0
 43
0.0
 44
0.0
 50
0.0
 51
0.0
 71
     0
 72
   100
 73
     1
 74
     3
 75
     0
 76
     0
 77
     0
 78
     0
281
     0
 65
     1
110
0.0
120
0.0
130
0.0
111
1.0
121
0.0
131
0.0
112
0.0
122
1.0
132
0.0
 79
     0
146
0.0
348
2F
 60
     3
 61
     5
292
     1
282
     1
141
0.0
142
0.0
 63
   250
361
5D
  0
ENDTAB
  0
TABLE
  2
LTYPE
  5
5
330
0
100
AcDbSymbolTable
 70
     3
  0
LTYPE
  5
14
330
5
100
AcDbSymbolTableRecord
100
AcDbLinetypeTableRecord
  2
ByBlock
 70
     0
  3

 72
    65
 73
     0
 40
0.0
  0
LTYPE
  5
15
330
5
100
AcDbSymbolTableRecord
100
AcDbLinetypeTableRecord
  2
ByLayer
 70
     0
  3

 72
    65
 73
     0
 40
0.0
  0
LTYPE
  5
16
330
5
100
AcDbSymbolTableRecord
100
AcDbLinetypeTableRecord
  2
Continuous
 70
     0
  3
Solid line
 72
    65
 73
     0
 40
0.0
  0
LTYPE
  5
5E
330
5
100
AcDbSymbolTableRecord
100
AcDbLinetypeTableRecord
  2
AUSGEZOGEN
 70
     0
  3

 72
    65
 73
     0
 40
0.0
  0
LTYPE
  5
60
330
5
100
AcDbSymbolTableRecord
100
AcDbLinetypeTableRecord
  2
DASHDOT
 70
     0
  3

 72
    65
 73
     4
 40
1.0
 49
0.5
 74
     0
 49
-0.25
 74
     0
 49
0.0
 74
     0
 49
-0.25
 74
     0
  0
ENDTAB
  0
TABLE
  2
LAYER
  5
2
330
0
100
AcDbSymbolTable
 70
     3
  0
LAYER
  5
10
330
2
100
AcDbSymbolTableRecord
100
AcDbLayerTableRecord
  2
0
 70
     0
 62
     7
  6
Continuous
370
    -3
390
F
347
46
  0
LAYER
  5
62
330
2
100
AcDbSymbolTableRecord
100
AcDbLayerTableRecord
  2
SLD-0
 70
     0
 62
     7
  6
Continuous
370
    -3
390
F
347
46
  0
LAYER
  5
63
330
2
100
AcDbSymbolTableRecord
100
AcDbLayerTableRecord
  2
Layer100
 70
     0
 62
    18
420
        0
  6
Continuous
370
    -3
390
F
347
46
  0
ENDTAB
  0
TABLE
  2
STYLE
  5
3
330
0
100
AcDbSymbolTable
 70
     3
  0
STYLE
  5
11
330
3
100
AcDbSymbolTableRecord
100
AcDbTextStyleTableRecord
  2
Standard
 70
     0
 40
0.0
 41
1.0
 50
0.0
 71
     0
 42
2.5
  3
txt
  4

  0
STYLE
  5
5F
330
3
100
AcDbSymbolTableRecord
100
AcDbTextStyleTableRecord
  2
Arial
 70
     0
 40
0.0
 41
1.0
 50
0.0
 71
     0
 42
2.5
  3
arial.ttf
  4

1001
ACAD
1000
Arial
1071
        0
  0
STYLE
  5
61
330
3
100
AcDbSymbolTableRecord
100
AcDbTextStyleTableRecord
  2
Toleranzfont
 70
     0
 40
0.0
 41
1.0
 50
0.0
 71
     0
 42
2.5
  3
IGES1003.SHX
  4

  0
ENDTAB
  0
TABLE
  2
VIEW
  5
6
330
0
100
AcDbSymbolTable
 70
     0
  0
ENDTAB
  0
TABLE
  2
UCS
  5
7
330
0
100
AcDbSymbolTable
 70
     0
  0
ENDTAB
  0
TABLE
  2
APPID
  5
9
330
0
100
AcDbSymbolTable
 70
     1
  0
APPID
  5
12
330
9
100
AcDbSymbolTableRecord
100
AcDbRegAppTableRecord
  2
ACAD
 70
     0
  0
ENDTAB
  0
TABLE
  2
DIMSTYLE
  5
A
330
0
100
AcDbSymbolTable
 70
     1
100
AcDbDimStyleTable
  0
DIMSTYLE
105
27
102
{ACAD_REACTORS
330
8F
330
99
330
A3
330
AD
330
D4
330
DE
330
10A
330
114
330
135
330
13F
330
151
330
15B
330
165
330
16F
330
179
330
183
330
18D
102
}
330
A
100
AcDbSymbolTableRecord
100
AcDbDimStyleTableRecord
  2
ISO-25
 70
     0
 41
2.5
 42
0.625
 43
3.75
 44
1.25
 73
     0
 74
     0
 77
     1
 78
     8
140
2.5
141
2.5
143
0.03937007874
147
0.625
171
     3
172
     1
178
     0
271
     2
272
     2
274
     3
278
    44
283
     0
284
     8
340
11
  0
ENDTAB
  0
TABLE
  2
BLOCK_RECORD
  5
1
330
0
100
AcDbSymbolTable
 70
    36
  0
BLOCK_RECORD
  5
1F
330
1
100
AcDbSymbolTableRecord
100
AcDbBlockTableRecord
  2
*Model_Space
340
22
 70
     0
280
     1
281
     0
  0
BLOCK_RECORD
  5
1B
330
1
100
AcDbSymbolTableRecord
100
AcDbBlockTableRecord
  2
*Paper_Space
340
1E
 70
     0
280
     1
281
     0
  0
BLOCK_RECORD
  5
23
330
1
100
AcDbSymbolTableRecord
100
AcDbBlockTableRecord
  2
*Paper_Space0
340
26
 70
     0
280
     1
281
     0
  0
BLOCK_RECORD
  5
64
330
1
100
AcDbSymbolTableRecord
100
AcDbBlockTableRecord
  2
SW_NOTE_0_003_nNn00
340
0
102
{BLKREFS
331
68
102
}
 70
     0
280
     1
281
     0
  0
BLOCK_RECORD
  5
69
330
1
100
AcDbSymbolTableRecord
100
AcDbBlockTableRecord
  2
SW_NOTE_0_005_nNn01
340
0
102
{BLKREFS
331
6D
102
}
 70
     0
280
     1
281
     0
  0
BLOCK_RECORD
  5
6E
330
1
100
AcDbSymbolTableRecord
100
AcDbBlockTableRecord
  2
SW_NOTE_0_006_nNn02
340
0
102
{BLKREFS
331
71
102
}
 70
     0
280
     1
281
     0
  0
BLOCK_RECORD
  5
86
330
1
100
AcDbSymbolTableRecord
100
AcDbBlockTableRecord
  2
*D4
340
0
 70
     0
280
     1
281
     0
  0
BLOCK_RECORD
  5
90
330
1
100
AcDbSymbolTableRecord
100
AcDbBlockTableRecord
  2
*D5
340
0
 70
     0
280
     1
281
     0
  0
BLOCK_RECORD
  5
9A
330
1
100
AcDbSymbolTableRecord
100
AcDbBlockTableRecord
  2
*D6
340
0
 70
     0
280
     1
281
     0
  0
BLOCK_RECORD
  5
A4
330
1
100
AcDbSymbolTableRecord
100
AcDbBlockTableRecord
  2
*D7
340
0
 70
     0
280
     1
281
     0
  0
BLOCK_RECORD
  5
AE
330
1
100
AcDbSymbolTableRecord
100
AcDbBlockTableRecord
  2
_D_10_nNn07
340
0
102
{BLKREFS
331
B6
102
}
 70
     0
280
     1
281
     0
  0
BLOCK_RECORD
  5
B7
330
1
100
AcDbSymbolTableRecord
100
AcDbBlockTableRecord
  2
_D_11_nNn08
340
0
102
{BLKREFS
331
BE
102
}
 70
     0
280
     1
281
     0
  0
BLOCK_RECORD
  5
CB
330
1
100
AcDbSymbolTableRecord
100
AcDbBlockTableRecord
  2
*D10
340
0
 70
     0
280
     1
281
     0
  0
BLOCK_RECORD
  5
D5
330
1
100
AcDbSymbolTableRecord
100
AcDbBlockTableRecord
  2
*D11
340
0
 70
     0
280
     1
281
     0
  0
BLOCK_RECORD
  5
DF
330
1
100
AcDbSymbolTableRecord
100
AcDbBlockTableRecord
  2
_D_14_nNn011
340
0
102
{BLKREFS
331
E6
102
}
 70
     0
280
     1
281
     0
  0
BLOCK_RECORD
  5
F7
330
1
100
AcDbSymbolTableRecord
100
AcDbBlockTableRecord
  2
SW_HATCH_001_nNn012
340
0
102
{BLKREFS
331
FF
102
}
 70
     0
280
     1
281
     0
  0
BLOCK_RECORD
  5
100
330
1
100
AcDbSymbolTableRecord
100
AcDbBlockTableRecord
  2
*D14
340
0
 70
     0
280
     1
281
     0
  0
BLOCK_RECORD
  5
10B
330
1
100
AcDbSymbolTableRecord
100
AcDbBlockTableRecord
  2
*D15
340
0
 70
     0
280
     1
281
     0
  0
BLOCK_RECORD
  5
115
330
1
100
AcDbSymbolTableRecord
100
AcDbBlockTableRecord
  2
SW_NOTE_0_007_nNn015
340
0
102
{BLKREFS
331
119
102
}
 70
     0
280
     1
281
     0
  0
BLOCK_RECORD
  5
12C
330
1
100
AcDbSymbolTableRecord
100
AcDbBlockTableRecord
  2
*D17
340
0
 70
     0
280
     1
281
     0
  0
BLOCK_RECORD
  5
136
330
1
100
AcDbSymbolTableRecord
100
AcDbBlockTableRecord
  2
*D18
340
0
 70
     0
280
     1
281
     0
  0
BLOCK_RECORD
  5
140
330
1
100
AcDbSymbolTableRecord
100
AcDbBlockTableRecord
  2
_D_20_nNn018
340
0
102
{BLKREFS
331
147
102
}
 70
     0
280
     1
281
     0
  0
BLOCK_RECORD
  5
148
330
1
100
AcDbSymbolTableRecord
100
AcDbBlockTableRecord
  2
*D20
340
0
 70
     0
280
     1
281
     0
  0
BLOCK_RECORD
  5
152
330
1
100
AcDbSymbolTableRecord
100
AcDbBlockTableRecord
  2
*D21
340
0
 70
     0
280
     1
281
     0
  0
BLOCK_RECORD
  5
15C
330
1
100
AcDbSymbolTableRecord
100
AcDbBlockTableRecord
  2
*D22
340
0
 70
     0
280
     1
281
     0
  0
BLOCK_RECORD
  5
166
330
1
100
AcDbSymbolTableRecord
100
AcDbBlockTableRecord
  2
*D23
340
0
 70
     0
280
     1
281
     0
  0
BLOCK_RECORD
  5
170
330
1
100
AcDbSymbolTableRecord
100
AcDbBlockTableRecord
  2
*D24
340
0
 70
     0
280
     1
281
     0
  0
BLOCK_RECORD
  5
17A
330
1
100
AcDbSymbolTableRecord
100
AcDbBlockTableRecord
  2
*D25
340
0
 70
     0
280
     1
281
     0
  0
BLOCK_RECORD
  5
184
330
1
100
AcDbSymbolTableRecord
100
AcDbBlockTableRecord
  2
*D26
340
0
 70
     0
280
     1
281
     0
  0
BLOCK_RECORD
  5
18E
330
1
100
AcDbSymbolTableRecord
100
AcDbBlockTableRecord
  2
A3-NABER_nNn026
340
0
102
{BLKREFS
331
1FD
102
}
 70
     0
280
     1
281
     0
  0
BLOCK_RECORD
  5
191
330
1
100
AcDbSymbolTableRecord
100
AcDbBlockTableRecord
  2
A3-NABER_nNn027
340
0
102
{BLKREFS
331
1AC
102
}
 70
     0
280
     1
281
     0
  0
BLOCK_RECORD
  5
194
330
1
100
AcDbSymbolTableRecord
100
AcDbBlockTableRecord
  2
A3-NABER_nNn028
340
0
102
{BLKREFS
331
1AB
102
}
 70
     0
280
     1
281
     0
  0
BLOCK_RECORD
  5
197
330
1
100
AcDbSymbolTableRecord
100
AcDbBlockTableRecord
  2
A3-NABER_nNn029
340
0
102
{BLKREFS
331
1AA
102
}
 70
     0
280
     1
281
     0
  0
BLOCK_RECORD
  5
19A
330
1
100
AcDbSymbolTableRecord
100
AcDbBlockTableRecord
  2
A3-Textliste_nNn030
340
0
102
{BLKREFS
331
1A5
102
}
 70
     0
280
     1
281
     0
  0
BLOCK_RECORD
  5
19D
330
1
100
AcDbSymbolTableRecord
100
AcDbBlockTableRecord
  2
Zeichnungsrahmen_nNn031
340
0
102
{BLKREFS
331
1A4
102
}
 70
     0
280
     1
281
     0
  0
BLOCK_RECORD
  5
1B3
330
1
100
AcDbSymbolTableRecord
100
AcDbBlockTableRecord
  2
Schriftfeld_nNn032
340
0
102
{BLKREFS
331
1E3
102
}
 70
     0
280
     1
281
     0
  0
BLOCK_RECORD
  5
1E4
330
1
100
AcDbSymbolTableRecord
100
AcDbBlockTableRecord
  2
Beschriftung_nNn033
340
0
102
{BLKREFS
331
1EF
102
}
 70
     0
280
     1
281
     0
  0
BLOCK_RECORD
  5
208
330
1
100
AcDbSymbolTableRecord
100
AcDbBlockTableRecord
  2
SW_NOTE_0_5_nNn034
340
0
102
{BLKREFS
331
20E
102
}
 70
     0
280
     1
281
     0
  0
ENDTAB
  0
ENDSEC
  0
SECTION
  2
BLOCKS
  0
BLOCK
  5
20
330
1F
100
AcDbEntity
  8
0
100
AcDbBlockBegin
  2
*Model_Space
 70
     0
 10
0.0
 20
0.0
 30
0.0
  3
*Model_Space
  1

  0
ENDBLK
  5
21
330
1F
100
AcDbEntity
  8
0
100
AcDbBlockEnd
  0
BLOCK
  5
1C
330
1B
100
AcDbEntity
 67
     1
  8
0
100
AcDbBlockBegin
  2
*Paper_Space
 70
     0
 10
0.0
 20
0.0
 30
0.0
  3
*Paper_Space
  1

  0
ENDBLK
  5
1D
330
1B
100
AcDbEntity
 67
     1
  8
0
100
AcDbBlockEnd
  0
BLOCK
  5
24
330
23
100
AcDbEntity
  8
0
100
AcDbBlockBegin
  2
*Paper_Space0
 70
     0
 10
0.0
 20
0.0
 30
0.0
  3
*Paper_Space0
  1

  0
ENDBLK
  5
25
330
23
100
AcDbEntity
  8
0
100
AcDbBlockEnd
  0
BLOCK
  5
65
330
64
100
AcDbEntity
  8
0
100
AcDbBlockBegin
  2
SW_NOTE_0_003_nNn00
 70
     0
 10
0.0
 20
0.0
 30
0.0
  3
SW_NOTE_0_003_nNn00
  1

  0
TEXT
  5
67
330
64
100
AcDbEntity
  8
SLD-0
  6
AUSGEZOGEN
 62
     7
370
    18
100
AcDbText
 10
1164.977821836545
 20
-762.604201275
 30
0.0
 40
37.041666667
  1
Flächenbündiger Einbau
 41
1.070938298585
  7
Arial
 72
     5
 11
1765.135258785566
 21
-762.604201275
 31
0.0
100
AcDbText
  0
ENDBLK
  5
66
330
64
100
AcDbEntity
  8
0
100
AcDbBlockEnd
  0
BLOCK
  5
6A
330
69
100
AcDbEntity
  8
0
100
AcDbBlockBegin
  2
SW_NOTE_0_005_nNn01
 70
     0
 10
0.0
 20
0.0
 30
0.0
  3
SW_NOTE_0_005_nNn01
  1

  0
TEXT
  5
6C
330
69
100
AcDbEntity
  8
SLD-0
  6
AUSGEZOGEN
 62
     7
370
    18
100
AcDbText
 10
1699.303086599545
 20
810.384617727
 30
0.0
 40
37.041666667
  1
Einbauspüle
 41
1.077180576291
  7
Arial
 72
     5
 11
2005.779317509305
 21
810.384617727
 31
0.0
100
AcDbText
  0
ENDBLK
  5
6B
330
69
100
AcDbEntity
  8
0
100
AcDbBlockEnd
  0
BLOCK
  5
6F
330
6E
100
AcDbEntity
  8
0
100
AcDbBlockBegin
  2
SW_NOTE_0_006_nNn02
 70
     0
 10
0.0
 20
0.0
 30
0.0
  3
SW_NOTE_0_006_nNn02
  1

  0
ENDBLK
  5
70
330
6E
100
AcDbEntity
  8
0
100
AcDbBlockEnd
  0
BLOCK
  5
87
330
86
100
AcDbEntity
  8
0
100
AcDbBlockBegin
  2
*D4
 70
     1
 10
0.0
 20
0.0
 30
0.0
  3
*D4
  1

  0
HATCH
  5
89
330
86
100
AcDbEntity
  8
SLD-0
  6
AUSGEZOGEN
 62
     7
370
    18
100
AcDbHatch
 10
0.0
 20
0.0
 30
0.0
210
0.0
220
0.0
230
1.0
  2
SOLID
 70
     1
 71
     0
 91
        1
 92
        2
 72
     0
 73
     1
 93
        3
 10
1613.615097394545
 20
-67.15032297500011
 10
1593.615097394545
 20
-63.15032297500011
 10
1593.615097394545
 20
-71.15032297500011
 97
        0
 75
     0
 76
     1
 98
        0
  0
HATCH
  5
8A
330
86
100
AcDbEntity
  8
SLD-0
  6
AUSGEZOGEN
 62
     7
370
    18
100
AcDbHatch
 10
0.0
 20
0.0
 30
0.0
210
0.0
220
0.0
230
1.0
  2
SOLID
 70
     1
 71
     0
 91
        1
 92
        2
 72
     0
 73
     1
 93
        3
 10
1133.615097394545
 20
-67.15032297500011
 10
1153.615097394545
 20
-71.15032297500011
 10
1153.615097394545
 20
-63.15032297500011
 97
        0
 75
     0
 76
     1
 98
        0
  0
LINE
  5
8B
330
86
100
AcDbEntity
  8
SLD-0
  6
AUSGEZOGEN
 62
     7
370
    18
100
AcDbLine
 10
1153.615097394545
 20
-67.150322975
 30
0.0
 11
1593.615097394545
 21
-67.150322975
 31
0.0
  0
LINE
  5
8C
330
86
100
AcDbEntity
  8
SLD-0
  6
AUSGEZOGEN
 62
     7
370
    18
100
AcDbLine
 10
1133.615097394545
 20
-201.141529566
 30
0.0
 11
1133.615097394545
 21
-49.007465832143
 31
0.0
  0
LINE
  5
8D
330
86
100
AcDbEntity
  8
SLD-0
  6
AUSGEZOGEN
 62
     7
370
    18
100
AcDbLine
 10
1613.615097394545
 20
-201.141529566
 30
0.0
 11
1613.615097394545
 21
-49.007465832143
 31
0.0
  0
TEXT
  5
8E
330
86
100
AcDbEntity
  8
SLD-0
  6
AUSGEZOGEN
 62
     7
370
    18
100
AcDbText
 10
1343.171583237083
 20
-63.066241809675
 30
0.0
 40
31.75
  1
480
 41
0.820056232427
  7
Arial
 72
     5
 11
1403.78521960072
 21
-63.066241809675
 31
0.0
100
AcDbText
  0
ENDBLK
  5
88
330
86
100
AcDbEntity
  8
0
100
AcDbBlockEnd
  0
BLOCK
  5
91
330
90
100
AcDbEntity
  8
0
100
AcDbBlockBegin
  2
*D5
 70
     1
 10
0.0
 20
0.0
 30
0.0
  3
*D5
  1

  0
HATCH
  5
93
330
90
100
AcDbEntity
  8
SLD-0
  6
AUSGEZOGEN
 62
     7
370
    18
100
AcDbHatch
 10
0.0
 20
0.0
 30
0.0
210
0.0
220
0.0
230
1.0
  2
SOLID
 70
     1
 71
     0
 91
        1
 92
        2
 72
     0
 73
     1
 93
        3
 10
1127.615097394545
 20
7.471781864999912
 10
1147.615097394545
 20
3.471781864999906
 10
1147.615097394545
 20
11.47178186499991
 97
        0
 75
     0
 76
     1
 98
        0
  0
HATCH
  5
94
330
90
100
AcDbEntity
  8
SLD-0
  6
AUSGEZOGEN
 62
     7
370
    18
100
AcDbHatch
 10
0.0
 20
0.0
 30
0.0
210
0.0
220
0.0
230
1.0
  2
SOLID
 70
     1
 71
     0
 91
        1
 92
        2
 72
     0
 73
     1
 93
        3
 10
1619.615097394545
 20
7.471781864999912
 10
1599.615097394545
 20
11.47178186499992
 10
1599.615097394545
 20
3.471781864999914
 97
        0
 75
     0
 76
     1
 98
        0
  0
LINE
  5
95
330
90
100
AcDbEntity
  8
SLD-0
  6
AUSGEZOGEN
 62
     7
370
    18
100
AcDbLine
 10
1599.615097394545
 20
7.471781865
 30
0.0
 11
1147.615097394545
 21
7.471781865
 31
0.0
  0
LINE
  5
96
330
90
100
AcDbEntity
  8
SLD-0
  6
AUSGEZOGEN
 62
     7
370
    18
100
AcDbLine
 10
1619.615097394545
 20
-196.141529566
 30
0.0
 11
1619.615097394545
 21
25.614639007857
 31
0.0
  0
LINE
  5
97
330
90
100
AcDbEntity
  8
SLD-0
  6
AUSGEZOGEN
 62
     7
370
    18
100
AcDbLine
 10
1127.615097394545
 20
-196.141529566
 30
0.0
 11
1127.615097394545
 21
25.614639007857
 31
0.0
  0
TEXT
  5
98
330
90
100
AcDbEntity
  8
SLD-0
  6
AUSGEZOGEN
 62
     7
370
    18
100
AcDbText
 10
1343.692943708544
 20
9.376579499456
 30
0.0
 40
31.75
  1
492
 41
0.820056232427
  7
Arial
 72
     5
 11
1404.30658007218
 21
9.376579499456
 31
0.0
100
AcDbText
  0
ENDBLK
  5
92
330
90
100
AcDbEntity
  8
0
100
AcDbBlockEnd
  0
BLOCK
  5
9B
330
9A
100
AcDbEntity
  8
0
100
AcDbBlockBegin
  2
*D6
 70
     1
 10
0.0
 20
0.0
 30
0.0
  3
*D6
  1

  0
HATCH
  5
9D
330
9A
100
AcDbEntity
  8
SLD-0
  6
AUSGEZOGEN
 62
     7
370
    18
100
AcDbHatch
 10
0.0
 20
0.0
 30
0.0
210
0.0
220
0.0
230
1.0
  2
SOLID
 70
     1
 71
     0
 91
        1
 92
        2
 72
     0
 73
     1
 93
        3
 10
1008.696887524545
 20
-621.141529566
 10
1012.696887524545
 20
-601.141529566
 10
1004.696887524545
 20
-601.141529566
 97
        0
 75
     0
 76
     1
 98
        0
  0
HATCH
  5
9E
330
9A
100
AcDbEntity
  8
SLD-0
  6
AUSGEZOGEN
 62
     7
370
    18
100
AcDbHatch
 10
0.0
 20
0.0
 30
0.0
210
0.0
220
0.0
230
1.0
  2
SOLID
 70
     1
 71
     0
 91
        1
 92
        2
 72
     0
 73
     1
 93
        3
 10
1008.696887524545
 20
-191.141529566
 10
1004.696887524545
 20
-211.141529566
 10
1012.696887524545
 20
-211.141529566
 97
        0
 75
     0
 76
     1
 98
        0
  0
LINE
  5
9F
330
9A
100
AcDbEntity
  8
SLD-0
  6
AUSGEZOGEN
 62
     7
370
    18
100
AcDbLine
 10
1008.696887524545
 20
-211.141529566
 30
0.0
 11
1008.696887524545
 21
-601.141529566
 31
0.0
  0
LINE
  5
A0
330
9A
100
AcDbEntity
  8
SLD-0
  6
AUSGEZOGEN
 62
     7
370
    18
100
AcDbLine
 10
1143.615097394545
 20
-191.141529566
 30
0.0
 11
990.554030381688
 21
-191.141529566
 31
0.0
  0
LINE
  5
A1
330
9A
100
AcDbEntity
  8
SLD-0
  6
AUSGEZOGEN
 62
     7
370
    18
100
AcDbLine
 10
1143.615097394545
 20
-621.141529566
 30
0.0
 11
990.554030381688
 21
-621.141529566
 31
0.0
  0
TEXT
  5
A2
330
9A
100
AcDbEntity
  8
SLD-0
  6
AUSGEZOGEN
 62
     7
370
    18
100
AcDbText
 10
1006.146463451816
 20
-436.789896089531
 30
0.0
 40
31.75
  1
430
 50
90.0
 41
0.820056232427
  7
Arial
 72
     5
 11
1006.146463451816
 21
-376.176259725895
 31
0.0
100
AcDbText
  0
ENDBLK
  5
9C
330
9A
100
AcDbEntity
  8
0
100
AcDbBlockEnd
  0
BLOCK
  5
A5
330
A4
100
AcDbEntity
  8
0
100
AcDbBlockBegin
  2
*D7
 70
     1
 10
0.0
 20
0.0
 30
0.0
  3
*D7
  1

  0
HATCH
  5
A7
330
A4
100
AcDbEntity
  8
SLD-0
  6
AUSGEZOGEN
 62
     7
370
    18
100
AcDbHatch
 10
0.0
 20
0.0
 30
0.0
210
0.0
220
0.0
230
1.0
  2
SOLID
 70
     1
 71
     0
 91
        1
 92
        2
 72
     0
 73
     1
 93
        3
 10
917.6150973945446
 20
-627.141529566
 10
921.6150973945446
 20
-607.141529566
 10
913.6150973945446
 20
-607.141529566
 97
        0
 75
     0
 76
     1
 98
        0
  0
HATCH
  5
A8
330
A4
100
AcDbEntity
  8
SLD-0
  6
AUSGEZOGEN
 62
     7
370
    18
100
AcDbHatch
 10
0.0
 20
0.0
 30
0.0
210
0.0
220
0.0
230
1.0
  2
SOLID
 70
     1
 71
     0
 91
        1
 92
        2
 72
     0
 73
     1
 93
        3
 10
917.6150973945446
 20
-185.1415295660001
 10
913.6150973945446
 20
-205.1415295660001
 10
921.6150973945446
 20
-205.1415295660001
 97
        0
 75
     0
 76
     1
 98
        0
  0
LINE
  5
A9
330
A4
100
AcDbEntity
  8
SLD-0
  6
AUSGEZOGEN
 62
     7
370
    18
100
AcDbLine
 10
917.615097394545
 20
-205.141529566
 30
0.0
 11
917.615097394545
 21
-607.141529566
 31
0.0
  0
LINE
  5
AA
330
A4
100
AcDbEntity
  8
SLD-0
  6
AUSGEZOGEN
 62
     7
370
    18
100
AcDbLine
 10
1138.615097394545
 20
-185.141529566
 30
0.0
 11
899.472240251687
 21
-185.141529566
 31
0.0
  0
LINE
  5
AB
330
A4
100
AcDbEntity
  8
SLD-0
  6
AUSGEZOGEN
 62
     7
370
    18
100
AcDbLine
 10
1138.615097394545
 20
-627.141529566
 30
0.0
 11
899.472240251687
 21
-627.141529566
 31
0.0
  0
TEXT
  5
AC
330
A4
100
AcDbEntity
  8
SLD-0
  6
AUSGEZOGEN
 62
     7
370
    18
100
AcDbText
 10
913.865660003381
 20
-436.268724713206
 30
0.0
 40
31.75
  1
442
 50
90.0
 41
0.820056232427
  7
Arial
 72
     5
 11
913.865660003381
 21
-375.65508834957
 31
0.0
100
AcDbText
  0
ENDBLK
  5
A6
330
A4
100
AcDbEntity
  8
0
100
AcDbBlockEnd
  0
BLOCK
  5
AF
330
AE
100
AcDbEntity
  8
0
100
AcDbBlockBegin
  2
_D_10_nNn07
 70
     0
 10
0.0
 20
0.0
 30
0.0
  3
_D_10_nNn07
  1

  0
HATCH
  5
B1
330
AE
100
AcDbEntity
  8
SLD-0
  6
AUSGEZOGEN
 62
     7
370
    18
100
AcDbHatch
 10
0.0
 20
0.0
 30
0.0
210
0.0
220
0.0
230
1.0
  2
SOLID
 70
     1
 71
     0
 91
        1
 92
        2
 72
     0
 73
     1
 93
        3
 10
1130.435102459545
 20
-188.7870966940002
 10
1117.233846412545
 20
-173.5563108050001
 10
1113.890922380545
 20
-177.2744903209999
 97
        0
 75
     0
 76
     1
 98
        0
  0
LINE
  5
B2
330
AE
100
AcDbEntity
  8
SLD-0
  6
AUSGEZOGEN
 62
     7
370
    18
100
AcDbLine
 10
1130.435102459545
 20
-188.787096694
 30
0.0
 11
1022.682280077545
 21
-91.909176196
 31
0.0
  0
LINE
  5
B3
330
AE
100
AcDbEntity
  8
SLD-0
  6
AUSGEZOGEN
 62
     7
370
    18
100
AcDbLine
 10
1138.615097394545
 20
-196.141529566
 30
0.0
 11
1130.435102459545
 21
-188.787096694
 31
0.0
  0
LINE
  5
B4
330
AE
100
AcDbEntity
  8
SLD-0
  6
AUSGEZOGEN
 62
     7
370
    18
100
AcDbLine
 10
1022.682280077545
 20
-91.909176196
 30
0.0
 11
934.193851731545
 21
-91.909176196
 31
0.0
  0
TEXT
  5
B5
330
AE
100
AcDbEntity
  8
SLD-0
  6
AUSGEZOGEN
 62
     7
370
    18
100
AcDbText
 10
934.193851731545
 20
-82.731280115
 30
0.0
 40
31.75
  1
R11
 41
0.5859375
  7
Arial
 72
     5
 11
981.818851731545
 21
-82.731280115
 31
0.0
100
AcDbText
  0
ENDBLK
  5
B0
330
AE
100
AcDbEntity
  8
0
100
AcDbBlockEnd
  0
BLOCK
  5
B8
330
B7
100
AcDbEntity
  8
0
100
AcDbBlockBegin
  2
_D_11_nNn08
 70
     0
 10
0.0
 20
0.0
 30
0.0
  3
_D_11_nNn08
  1

  0
HATCH
  5
BA
330
B7
100
AcDbEntity
  8
SLD-0
  6
AUSGEZOGEN
 62
     7
370
    18
100
AcDbHatch
 10
0.0
 20
0.0
 30
0.0
210
0.0
220
0.0
230
1.0
  2
SOLID
 70
     1
 71
     0
 91
        1
 92
        2
 72
     0
 73
     1
 93
        3
 10
1136.147152353545
 20
-194.4909809520001
 10
1149.420405281545
 20
-209.6590644400001
 10
1152.745679588545
 20
-205.9250919200001
 97
        0
 75
     0
 76
     1
 98
        0
  0
LINE
  5
BB
330
B7
100
AcDbEntity
  8
SLD-0
  6
AUSGEZOGEN
 62
     7
370
    18
100
AcDbLine
 10
1136.147152353545
 20
-194.490980952
 30
0.0
 11
1250.513560460545
 21
-296.339528686
 31
0.0
  0
LINE
  5
BC
330
B7
100
AcDbEntity
  8
SLD-0
  6
AUSGEZOGEN
 62
     7
370
    18
100
AcDbLine
 10
1250.513560460545
 20
-296.339528686
 30
0.0
 11
1339.001988807545
 21
-296.339528686
 31
0.0
  0
TEXT
  5
BD
330
B7
100
AcDbEntity
  8
SLD-0
  6
AUSGEZOGEN
 62
     7
370
    18
100
AcDbText
 10
1266.388560460545
 20
-287.161632604
 30
0.0
 40
31.75
  1
R10
 41
0.634765625
  7
Arial
 72
     5
 11
1317.982310460545
 21
-287.161632604
 31
0.0
100
AcDbText
  0
ENDBLK
  5
B9
330
B7
100
AcDbEntity
  8
0
100
AcDbBlockEnd
  0
BLOCK
  5
CC
330
CB
100
AcDbEntity
  8
0
100
AcDbBlockBegin
  2
*D10
 70
     1
 10
0.0
 20
0.0
 30
0.0
  3
*D10
  1

  0
HATCH
  5
CE
330
CB
100
AcDbEntity
  8
SLD-0
  6
AUSGEZOGEN
 62
     7
370
    18
100
AcDbHatch
 10
0.0
 20
0.0
 30
0.0
210
0.0
220
0.0
230
1.0
  2
SOLID
 70
     1
 71
     0
 91
        1
 92
        2
 72
     0
 73
     1
 93
        3
 10
1619.615097394545
 20
828.531822935
 10
1599.615097394545
 20
832.531822935
 10
1599.615097394545
 20
824.531822935
 97
        0
 75
     0
 76
     1
 98
        0
  0
HATCH
  5
CF
330
CB
100
AcDbEntity
  8
SLD-0
  6
AUSGEZOGEN
 62
     7
370
    18
100
AcDbHatch
 10
0.0
 20
0.0
 30
0.0
210
0.0
220
0.0
230
1.0
  2
SOLID
 70
     1
 71
     0
 91
        1
 92
        2
 72
     0
 73
     1
 93
        3
 10
1139.615097394545
 20
828.531822935
 10
1159.615097394545
 20
824.531822935
 10
1159.615097394545
 20
832.531822935
 97
        0
 75
     0
 76
     1
 98
        0
  0
LINE
  5
D0
330
CB
100
AcDbEntity
  8
SLD-0
  6
AUSGEZOGEN
 62
     7
370
    18
100
AcDbLine
 10
1159.615097394545
 20
828.531822935
 30
0.0
 11
1599.615097394545
 21
828.531822935
 31
0.0
  0
LINE
  5
D1
330
CB
100
AcDbEntity
  8
SLD-0
  6
AUSGEZOGEN
 62
     7
370
    18
100
AcDbLine
 10
1139.615097394545
 20
698.703646901
 30
0.0
 11
1139.615097394545
 21
846.674680077857
 31
0.0
  0
LINE
  5
D2
330
CB
100
AcDbEntity
  8
SLD-0
  6
AUSGEZOGEN
 62
     7
370
    18
100
AcDbLine
 10
1619.615097394545
 20
698.703646901
 30
0.0
 11
1619.615097394545
 21
846.674680077857
 31
0.0
  0
TEXT
  5
D3
330
CB
100
AcDbEntity
  8
SLD-0
  6
AUSGEZOGEN
 62
     7
370
    18
100
AcDbText
 10
1351.171050027501
 20
835.516787729079
 30
0.0
 40
31.75
  1
480
 41
0.820056232427
  7
Arial
 72
     5
 11
1411.784686391137
 21
835.516787729079
 31
0.0
100
AcDbText
  0
ENDBLK
  5
CD
330
CB
100
AcDbEntity
  8
0
100
AcDbBlockEnd
  0
BLOCK
  5
D6
330
D5
100
AcDbEntity
  8
0
100
AcDbBlockBegin
  2
*D11
 70
     1
 10
0.0
 20
0.0
 30
0.0
  3
*D11
  1

  0
HATCH
  5
D8
330
D5
100
AcDbEntity
  8
SLD-0
  6
AUSGEZOGEN
 62
     7
370
    18
100
AcDbHatch
 10
0.0
 20
0.0
 30
0.0
210
0.0
220
0.0
230
1.0
  2
SOLID
 70
     1
 71
     0
 91
        1
 92
        2
 72
     0
 73
     1
 93
        3
 10
1024.189212418545
 20
708.7036469010002
 10
1020.189212418545
 20
688.7036469010002
 10
1028.189212418545
 20
688.7036469010002
 97
        0
 75
     0
 76
     1
 98
        0
  0
HATCH
  5
D9
330
D5
100
AcDbEntity
  8
SLD-0
  6
AUSGEZOGEN
 62
     7
370
    18
100
AcDbHatch
 10
0.0
 20
0.0
 30
0.0
210
0.0
220
0.0
230
1.0
  2
SOLID
 70
     1
 71
     0
 91
        1
 92
        2
 72
     0
 73
     1
 93
        3
 10
1024.189212418545
 20
278.7036469010002
 10
1028.189212418545
 20
298.7036469010002
 10
1020.189212418545
 20
298.7036469010002
 97
        0
 75
     0
 76
     1
 98
        0
  0
LINE
  5
DA
330
D5
100
AcDbEntity
  8
SLD-0
  6
AUSGEZOGEN
 62
     7
370
    18
100
AcDbLine
 10
1024.189212418545
 20
298.703646901
 30
0.0
 11
1024.189212418545
 21
688.703646901
 31
0.0
  0
LINE
  5
DB
330
D5
100
AcDbEntity
  8
SLD-0
  6
AUSGEZOGEN
 62
     7
370
    18
100
AcDbLine
 10
1149.615097394545
 20
278.703646901
 30
0.0
 11
1006.046355275688
 21
278.703646901
 31
0.0
  0
LINE
  5
DC
330
D5
100
AcDbEntity
  8
SLD-0
  6
AUSGEZOGEN
 62
     7
370
    18
100
AcDbLine
 10
1149.615097394545
 20
708.703646901
 30
0.0
 11
1006.046355275688
 21
708.703646901
 31
0.0
  0
TEXT
  5
DD
330
D5
100
AcDbEntity
  8
SLD-0
  6
AUSGEZOGEN
 62
     7
370
    18
100
AcDbText
 10
1016.154111719808
 20
463.840753246237
 30
0.0
 40
31.75
  1
430
 50
90.0
 41
0.820056232427
  7
Arial
 72
     5
 11
1016.154111719808
 21
524.454389609874
 31
0.0
100
AcDbText
  0
ENDBLK
  5
D7
330
D5
100
AcDbEntity
  8
0
100
AcDbBlockEnd
  0
BLOCK
  5
E0
330
DF
100
AcDbEntity
  8
0
100
AcDbBlockBegin
  2
_D_14_nNn011
 70
     0
 10
0.0
 20
0.0
 30
0.0
  3
_D_14_nNn011
  1

  0
HATCH
  5
E2
330
DF
100
AcDbEntity
  8
SLD-0
  6
AUSGEZOGEN
 62
     7
370
    18
100
AcDbHatch
 10
0.0
 20
0.0
 30
0.0
210
0.0
220
0.0
230
1.0
  2
SOLID
 70
     1
 71
     0
 91
        1
 92
        2
 72
     0
 73
     1
 93
        3
 10
1142.035769852544
 20
705.2269738150003
 10
1155.563593207545
 20
690.2854881030003
 10
1158.825256664545
 20
694.0751518740001
 97
        0
 75
     0
 76
     1
 98
        0
  0
LINE
  5
E3
330
DF
100
AcDbEntity
  8
SLD-0
  6
AUSGEZOGEN
 62
     7
370
    18
100
AcDbLine
 10
1142.035769852544
 20
705.226973815
 30
0.0
 11
1233.593881359545
 21
626.425326884
 31
0.0
  0
LINE
  5
E4
330
DF
100
AcDbEntity
  8
SLD-0
  6
AUSGEZOGEN
 62
     7
370
    18
100
AcDbLine
 10
1233.593881359545
 20
626.425326884
 30
0.0
 11
1322.082309705545
 21
626.425326884
 31
0.0
  0
TEXT
  5
E5
330
DF
100
AcDbEntity
  8
SLD-0
  6
AUSGEZOGEN
 62
     7
370
    18
100
AcDbText
 10
1249.468881359545
 20
635.603222965
 30
0.0
 40
31.75
  1
R10
 41
0.634765625
  7
Arial
 72
     5
 11
1301.062631359545
 21
635.603222965
 31
0.0
100
AcDbText
  0
ENDBLK
  5
E1
330
DF
100
AcDbEntity
  8
0
100
AcDbBlockEnd
  0
BLOCK
  5
F8
330
F7
100
AcDbEntity
  8
0
100
AcDbBlockBegin
  2
SW_HATCH_001_nNn012
 70
     0
 10
0.0
 20
0.0
 30
0.0
  3
SW_HATCH_001_nNn012
  1

  0
LINE
  5
FA
330
F7
100
AcDbEntity
  8
0
  6
AUSGEZOGEN
 62
     7
370
    18
100
AcDbLine
 10
2088.482618131545
 20
-196.784525119
 30
0.0
 11
2139.336406984545
 21
-145.930740777
 31
0.0
  0
LINE
  5
FB
330
F7
100
AcDbEntity
  8
0
  6
AUSGEZOGEN
 62
     7
370
    18
100
AcDbLine
 10
2088.482618131545
 20
-241.6858075
 30
0.0
 11
2184.237703480545
 21
-145.930740777
 31
0.0
  0
LINE
  5
FC
330
F7
100
AcDbEntity
  8
0
  6
AUSGEZOGEN
 62
     7
370
    18
100
AcDbLine
 10
2088.482618131545
 20
-286.58708537
 30
0.0
 11
2229.138925471545
 21
-145.930740777
 31
0.0
  0
LINE
  5
FD
330
F7
100
AcDbEntity
  8
0
  6
AUSGEZOGEN
 62
     7
370
    18
100
AcDbLine
 10
2124.040216007545
 20
-295.930737425
 30
0.0
 11
2245.218097963545
 21
-174.75285314
 31
0.0
  0
LINE
  5
FE
330
F7
100
AcDbEntity
  8
0
  6
AUSGEZOGEN
 62
     7
370
    18
100
AcDbLine
 10
2168.941512503545
 20
-295.930737425
 30
0.0
 11
2236.688747801545
 21
-228.183499798
 31
0.0
  0
ENDBLK
  5
F9
330
F7
100
AcDbEntity
  8
0
100
AcDbBlockEnd
  0
BLOCK
  5
101
330
100
100
AcDbEntity
  8
0
100
AcDbBlockBegin
  2
*D14
 70
     1
 10
0.0
 20
0.0
 30
0.0
  3
*D14
  1

  0
HATCH
  5
103
330
100
100
AcDbEntity
  8
SLD-0
  6
AUSGEZOGEN
 62
     7
370
    18
100
AcDbHatch
 10
0.0
 20
0.0
 30
0.0
210
0.0
220
0.0
230
1.0
  2
SOLID
 70
     1
 71
     0
 91
        1
 92
        2
 72
     0
 73
     1
 93
        3
 10
2118.482600250545
 20
-68.7247728010002
 10
2098.482600250545
 20
-64.7247728010002
 10
2098.482600250545
 20
-72.7247728010002
 97
        0
 75
     0
 76
     1
 98
        0
  0
HATCH
  5
104
330
100
100
AcDbEntity
  8
SLD-0
  6
AUSGEZOGEN
 62
     7
370
    18
100
AcDbHatch
 10
0.0
 20
0.0
 30
0.0
210
0.0
220
0.0
230
1.0
  2
SOLID
 70
     1
 71
     0
 91
        1
 92
        2
 72
     0
 73
     1
 93
        3
 10
2088.482600250545
 20
-68.7247728010002
 10
2108.482600250545
 20
-72.7247728010002
 10
2108.482600250545
 20
-64.7247728010002
 97
        0
 75
     0
 76
     1
 98
        0
  0
LINE
  5
105
330
100
100
AcDbEntity
  8
SLD-0
  6
AUSGEZOGEN
 62
     7
370
    18
100
AcDbLine
 10
2108.482600250545
 20
-68.724772801
 30
0.0
 11
2098.482600250545
 21
-68.724772801
 31
0.0
  0
LINE
  5
106
330
100
100
AcDbEntity
  8
SLD-0
  6
AUSGEZOGEN
 62
     7
370
    18
100
AcDbLine
 10
2108.482600250545
 20
-68.724772801
 30
0.0
 11
2115.027766632459
 21
-68.724772801
 31
0.0
  0
LINE
  5
107
330
100
100
AcDbEntity
  8
SLD-0
  6
AUSGEZOGEN
 62
     7
370
    18
100
AcDbLine
 10
2088.482600250545
 20
-153.430739659
 30
0.0
 11
2088.482600250545
 21
-50.581915658143
 31
0.0
  0
LINE
  5
108
330
100
100
AcDbEntity
  8
SLD-0
  6
AUSGEZOGEN
 62
     7
370
    18
100
AcDbLine
 10
2118.482600250545
 20
-145.930739659
 30
0.0
 11
2118.482600250545
 21
-50.581915658143
 31
0.0
  0
TEXT
  5
109
330
100
100
AcDbEntity
  8
SLD-0
  6
AUSGEZOGEN
 62
     7
370
    18
100
AcDbText
 10
2094.823221177913
 20
-57.455767318289
 30
0.0
 40
31.75
  1
6
 41
0.820056232427
  7
Arial
 72
     5
 11
2115.027766632459
 21
-57.455767318289
 31
0.0
100
AcDbText
  0
ENDBLK
  5
102
330
100
100
AcDbEntity
  8
0
100
AcDbBlockEnd
  0
BLOCK
  5
10C
330
10B
100
AcDbEntity
  8
0
100
AcDbBlockBegin
  2
*D15
 70
     1
 10
0.0
 20
0.0
 30
0.0
  3
*D15
  1

  0
HATCH
  5
10E
330
10B
100
AcDbEntity
  8
SLD-0
  6
AUSGEZOGEN
 62
     7
370
    18
100
AcDbHatch
 10
0.0
 20
0.0
 30
0.0
210
0.0
220
0.0
230
1.0
  2
SOLID
 70
     1
 71
     0
 91
        1
 92
        2
 72
     0
 73
     1
 93
        3
 10
2287.471658104545
 20
-145.930739659
 10
2283.471658104545
 20
-165.930739659
 10
2291.471658104545
 20
-165.930739659
 97
        0
 75
     0
 76
     1
 98
        0
  0
HATCH
  5
10F
330
10B
100
AcDbEntity
  8
SLD-0
  6
AUSGEZOGEN
 62
     7
370
    18
100
AcDbHatch
 10
0.0
 20
0.0
 30
0.0
210
0.0
220
0.0
230
1.0
  2
SOLID
 70
     1
 71
     0
 91
        1
 92
        2
 72
     0
 73
     1
 93
        3
 10
2287.471658104545
 20
-153.430739659
 10
2291.471658104545
 20
-133.430739659
 10
2283.471658104545
 20
-133.430739659
 97
        0
 75
     0
 76
     1
 98
        0
  0
LINE
  5
110
330
10B
100
AcDbEntity
  8
SLD-0
  6
AUSGEZOGEN
 62
     7
370
    18
100
AcDbLine
 10
2287.471658104545
 20
-133.430739659
 30
0.0
 11
2287.471658104545
 21
-165.930739659
 31
0.0
  0
LINE
  5
111
330
10B
100
AcDbEntity
  8
SLD-0
  6
AUSGEZOGEN
 62
     7
370
    18
100
AcDbLine
 10
2118.482604422545
 20
-153.430739659
 30
0.0
 11
2305.614515247402
 21
-153.430739659
 31
0.0
  0
LINE
  5
112
330
10B
100
AcDbEntity
  8
SLD-0
  6
AUSGEZOGEN
 62
     7
370
    18
100
AcDbLine
 10
2242.801204123545
 20
-145.930739659
 30
0.0
 11
2305.614515247402
 21
-145.930739659
 31
0.0
  0
TEXT
  5
113
330
10B
100
AcDbEntity
  8
SLD-0
  6
AUSGEZOGEN
 62
     7
370
    18
100
AcDbText
 10
2293.821658104545
 20
-122.799915710182
 30
0.0
 40
31.75
  1
1.5
 50
90.0
 41
0.820056232427
  7
Arial
 72
     5
 11
2293.821658104545
 21
-72.288552073818
 31
0.0
100
AcDbText
  0
ENDBLK
  5
10D
330
10B
100
AcDbEntity
  8
0
100
AcDbBlockEnd
  0
BLOCK
  5
116
330
115
100
AcDbEntity
  8
0
100
AcDbBlockBegin
  2
SW_NOTE_0_007_nNn015
 70
     0
 10
0.0
 20
0.0
 30
0.0
  3
SW_NOTE_0_007_nNn015
  1

  0
TEXT
  5
118
330
115
100
AcDbEntity
  8
SLD-0
  6
AUSGEZOGEN
 62
     7
370
    18
100
AcDbText
 10
1953.228357425711
 20
-422.177256592
 30
0.0
 40
35.0
  1
Detail 1 : 2
 41
0.857928878861
  7
Arial
 72
     5
 11
2153.571909217409
 21
-422.177256592
 31
0.0
100
AcDbText
  0
ENDBLK
  5
117
330
115
100
AcDbEntity
  8
0
100
AcDbBlockEnd
  0
BLOCK
  5
12D
330
12C
100
AcDbEntity
  8
0
100
AcDbBlockBegin
  2
*D17
 70
     1
 10
0.0
 20
0.0
 30
0.0
  3
*D17
  1

  0
HATCH
  5
12F
330
12C
100
AcDbEntity
  8
SLD-0
  6
AUSGEZOGEN
 62
     7
370
    18
100
AcDbHatch
 10
0.0
 20
0.0
 30
0.0
210
0.0
220
0.0
230
1.0
  2
SOLID
 70
     1
 71
     0
 91
        1
 92
        2
 72
     0
 73
     1
 93
        3
 10
3205.0
 20
816.035481532
 10
3185.0
 20
820.035481532
 10
3185.0
 20
812.035481532
 97
        0
 75
     0
 76
     1
 98
        0
  0
HATCH
  5
130
330
12C
100
AcDbEntity
  8
SLD-0
  6
AUSGEZOGEN
 62
     7
370
    18
100
AcDbHatch
 10
0.0
 20
0.0
 30
0.0
210
0.0
220
0.0
230
1.0
  2
SOLID
 70
     1
 71
     0
 91
        1
 92
        2
 72
     0
 73
     1
 93
        3
 10
2755.0
 20
816.035481532
 10
2775.0
 20
812.035481532
 10
2775.0
 20
820.035481532
 97
        0
 75
     0
 76
     1
 98
        0
  0
LINE
  5
131
330
12C
100
AcDbEntity
  8
SLD-0
  6
AUSGEZOGEN
 62
     7
370
    18
100
AcDbLine
 10
2775.0
 20
816.035481532
 30
0.0
 11
3185.0
 21
816.035481532
 31
0.0
  0
LINE
  5
132
330
12C
100
AcDbEntity
  8
SLD-0
  6
AUSGEZOGEN
 62
     7
370
    18
100
AcDbLine
 10
2755.0
 20
588.0
 30
0.0
 11
2755.0
 21
834.178338674857
 31
0.0
  0
LINE
  5
133
330
12C
100
AcDbEntity
  8
SLD-0
  6
AUSGEZOGEN
 62
     7
370
    18
100
AcDbLine
 10
3205.0
 20
588.0
 30
0.0
 11
3205.0
 21
834.178338674857
 31
0.0
  0
TEXT
  5
134
330
12C
100
AcDbEntity
  8
SLD-0
  6
AUSGEZOGEN
 62
     7
370
    18
100
AcDbText
 10
2951.225387512412
 20
824.860167653556
 30
0.0
 40
31.75
  1
450
 41
0.820056232427
  7
Arial
 72
     5
 11
3011.839023876048
 21
824.860167653556
 31
0.0
100
AcDbText
  0
ENDBLK
  5
12E
330
12C
100
AcDbEntity
  8
0
100
AcDbBlockEnd
  0
BLOCK
  5
137
330
136
100
AcDbEntity
  8
0
100
AcDbBlockBegin
  2
*D18
 70
     1
 10
0.0
 20
0.0
 30
0.0
  3
*D18
  1

  0
HATCH
  5
139
330
136
100
AcDbEntity
  8
SLD-0
  6
AUSGEZOGEN
 62
     7
370
    18
100
AcDbHatch
 10
0.0
 20
0.0
 30
0.0
210
0.0
220
0.0
230
1.0
  2
SOLID
 70
     1
 71
     0
 91
        1
 92
        2
 72
     0
 73
     1
 93
        3
 10
2508.261267909
 20
200.0
 10
2512.261267909
 20
220.0
 10
2504.261267909
 20
220.0
 97
        0
 75
     0
 76
     1
 98
        0
  0
HATCH
  5
13A
330
136
100
AcDbEntity
  8
SLD-0
  6
AUSGEZOGEN
 62
     7
370
    18
100
AcDbHatch
 10
0.0
 20
0.0
 30
0.0
210
0.0
220
0.0
230
1.0
  2
SOLID
 70
     1
 71
     0
 91
        1
 92
        2
 72
     0
 73
     1
 93
        3
 10
2508.261267909
 20
600.0
 10
2504.261267909
 20
580.0
 10
2512.261267909
 20
580.0
 97
        0
 75
     0
 76
     1
 98
        0
  0
LINE
  5
13B
330
136
100
AcDbEntity
  8
SLD-0
  6
AUSGEZOGEN
 62
     7
370
    18
100
AcDbLine
 10
2508.261267909
 20
580.0
 30
0.0
 11
2508.261267909
 21
220.0
 31
0.0
  0
LINE
  5
13C
330
136
100
AcDbEntity
  8
SLD-0
  6
AUSGEZOGEN
 62
     7
370
    18
100
AcDbLine
 10
2767.0
 20
600.0
 30
0.0
 11
2490.118410766142
 21
600.0
 31
0.0
  0
LINE
  5
13D
330
136
100
AcDbEntity
  8
SLD-0
  6
AUSGEZOGEN
 62
     7
370
    18
100
AcDbLine
 10
2767.0
 20
200.0
 30
0.0
 11
2490.118410766142
 21
200.0
 31
0.0
  0
TEXT
  5
13E
330
136
100
AcDbEntity
  8
SLD-0
  6
AUSGEZOGEN
 62
     7
370
    18
100
AcDbText
 10
2501.848822257866
 20
371.166815178272
 30
0.0
 40
31.75
  1
400
 50
90.0
 41
0.820056232427
  7
Arial
 72
     5
 11
2501.848822257866
 21
431.780451541908
 31
0.0
100
AcDbText
  0
ENDBLK
  5
138
330
136
100
AcDbEntity
  8
0
100
AcDbBlockEnd
  0
BLOCK
  5
141
330
140
100
AcDbEntity
  8
0
100
AcDbBlockBegin
  2
_D_20_nNn018
 70
     0
 10
0.0
 20
0.0
 30
0.0
  3
_D_20_nNn018
  1

  0
HATCH
  5
143
330
140
100
AcDbEntity
  8
SLD-0
  6
AUSGEZOGEN
 62
     7
370
    18
100
AcDbHatch
 10
0.0
 20
0.0
 30
0.0
210
0.0
220
0.0
230
1.0
  2
SOLID
 70
     1
 71
     0
 91
        1
 92
        2
 72
     0
 73
     1
 93
        3
 10
2759.99960431
 20
597.7465101540001
 10
2769.636407512
 20
580.0439107960001
 10
2773.69745341
 20
582.9607423330001
 97
        0
 75
     0
 76
     1
 98
        0
  0
LINE
  5
144
330
140
100
AcDbEntity
  8
SLD-0
  6
AUSGEZOGEN
 62
     7
370
    18
100
AcDbLine
 10
2759.99960431
 20
597.746510154
 30
0.0
 11
2826.645476038
 21
504.956803089
 31
0.0
  0
LINE
  5
145
330
140
100
AcDbEntity
  8
SLD-0
  6
AUSGEZOGEN
 62
     7
370
    18
100
AcDbLine
 10
2826.645476038
 20
504.956803089
 30
0.0
 11
2915.133904385
 21
504.956803089
 31
0.0
  0
TEXT
  5
146
330
140
100
AcDbEntity
  8
SLD-0
  6
AUSGEZOGEN
 62
     7
370
    18
100
AcDbText
 10
2842.520476038
 20
514.13469917
 30
0.0
 40
31.75
  1
R12
 41
0.68359375
  7
Arial
 72
     5
 11
2898.082976038
 21
514.13469917
 31
0.0
100
AcDbText
  0
ENDBLK
  5
142
330
140
100
AcDbEntity
  8
0
100
AcDbBlockEnd
  0
BLOCK
  5
149
330
148
100
AcDbEntity
  8
0
100
AcDbBlockBegin
  2
*D20
 70
     1
 10
0.0
 20
0.0
 30
0.0
  3
*D20
  1

  0
HATCH
  5
14B
330
148
100
AcDbEntity
  8
SLD-0
  6
AUSGEZOGEN
 62
     7
370
    18
100
AcDbHatch
 10
0.0
 20
0.0
 30
0.0
210
0.0
220
0.0
230
1.0
  2
SOLID
 70
     1
 71
     0
 91
        1
 92
        2
 72
     0
 73
     1
 93
        3
 10
3115.0
 20
734.01792181
 10
3095.0
 20
738.01792181
 10
3095.0
 20
730.01792181
 97
        0
 75
     0
 76
     1
 98
        0
  0
HATCH
  5
14C
330
148
100
AcDbEntity
  8
SLD-0
  6
AUSGEZOGEN
 62
     7
370
    18
100
AcDbHatch
 10
0.0
 20
0.0
 30
0.0
210
0.0
220
0.0
230
1.0
  2
SOLID
 70
     1
 71
     0
 91
        1
 92
        2
 72
     0
 73
     1
 93
        3
 10
2845.0
 20
734.01792181
 10
2865.0
 20
730.01792181
 10
2865.0
 20
738.01792181
 97
        0
 75
     0
 76
     1
 98
        0
  0
LINE
  5
14D
330
148
100
AcDbEntity
  8
SLD-0
  6
AUSGEZOGEN
 62
     7
370
    18
100
AcDbLine
 10
2865.0
 20
734.01792181
 30
0.0
 11
3095.0
 21
734.01792181
 31
0.0
  0
LINE
  5
14E
330
148
100
AcDbEntity
  8
SLD-0
  6
AUSGEZOGEN
 62
     7
370
    18
100
AcDbLine
 10
2845.0
 20
625.0
 30
0.0
 11
2845.0
 21
752.160778952857
 31
0.0
  0
LINE
  5
14F
330
148
100
AcDbEntity
  8
SLD-0
  6
AUSGEZOGEN
 62
     7
370
    18
100
AcDbLine
 10
3115.0
 20
625.0
 30
0.0
 11
3115.0
 21
752.160778952857
 31
0.0
  0
TEXT
  5
150
330
148
100
AcDbEntity
  8
SLD-0
  6
AUSGEZOGEN
 62
     7
370
    18
100
AcDbText
 10
2949.289612577113
 20
743.587108445074
 30
0.0
 40
31.75
  1
270
 41
0.820056232427
  7
Arial
 72
     5
 11
3009.90324894075
 21
743.587108445074
 31
0.0
100
AcDbText
  0
ENDBLK
  5
14A
330
148
100
AcDbEntity
  8
0
100
AcDbBlockEnd
  0
BLOCK
  5
153
330
152
100
AcDbEntity
  8
0
100
AcDbBlockBegin
  2
*D21
 70
     1
 10
0.0
 20
0.0
 30
0.0
  3
*D21
  1

  0
HATCH
  5
155
330
152
100
AcDbEntity
  8
SLD-0
  6
AUSGEZOGEN
 62
     7
370
    18
100
AcDbHatch
 10
0.0
 20
0.0
 30
0.0
210
0.0
220
0.0
230
1.0
  2
SOLID
 70
     1
 71
     0
 91
        1
 92
        2
 72
     0
 73
     1
 93
        3
 10
2845.0
 20
734.01792181
 10
2825.0
 20
738.01792181
 10
2825.0
 20
730.01792181
 97
        0
 75
     0
 76
     1
 98
        0
  0
HATCH
  5
156
330
152
100
AcDbEntity
  8
SLD-0
  6
AUSGEZOGEN
 62
     7
370
    18
100
AcDbHatch
 10
0.0
 20
0.0
 30
0.0
210
0.0
220
0.0
230
1.0
  2
SOLID
 70
     1
 71
     0
 91
        1
 92
        2
 72
     0
 73
     1
 93
        3
 10
2755.0
 20
734.01792181
 10
2775.0
 20
730.01792181
 10
2775.0
 20
738.01792181
 97
        0
 75
     0
 76
     1
 98
        0
  0
LINE
  5
157
330
152
100
AcDbEntity
  8
SLD-0
  6
AUSGEZOGEN
 62
     7
370
    18
100
AcDbLine
 10
2775.0
 20
734.01792181
 30
0.0
 11
2825.0
 21
734.01792181
 31
0.0
  0
LINE
  5
158
330
152
100
AcDbEntity
  8
SLD-0
  6
AUSGEZOGEN
 62
     7
370
    18
100
AcDbLine
 10
2755.0
 20
588.0
 30
0.0
 11
2755.0
 21
752.160778952857
 31
0.0
  0
LINE
  5
159
330
152
100
AcDbEntity
  8
SLD-0
  6
AUSGEZOGEN
 62
     7
370
    18
100
AcDbLine
 10
2845.0
 20
625.0
 30
0.0
 11
2845.0
 21
752.160778952857
 31
0.0
  0
TEXT
  5
15A
330
152
100
AcDbEntity
  8
SLD-0
  6
AUSGEZOGEN
 62
     7
370
    18
100
AcDbText
 10
2783.236366192241
 20
745.522181283371
 30
0.0
 40
31.75
  1
90
 41
0.820056232427
  7
Arial
 72
     5
 11
2823.645457101332
 21
745.522181283371
 31
0.0
100
AcDbText
  0
ENDBLK
  5
154
330
152
100
AcDbEntity
  8
0
100
AcDbBlockEnd
  0
BLOCK
  5
15D
330
15C
100
AcDbEntity
  8
0
100
AcDbBlockBegin
  2
*D22
 70
     1
 10
0.0
 20
0.0
 30
0.0
  3
*D22
  1

  0
HATCH
  5
15F
330
15C
100
AcDbEntity
  8
SLD-0
  6
AUSGEZOGEN
 62
     7
370
    18
100
AcDbHatch
 10
0.0
 20
0.0
 30
0.0
210
0.0
220
0.0
230
1.0
  2
SOLID
 70
     1
 71
     0
 91
        1
 92
        2
 72
     0
 73
     1
 93
        3
 10
3205.0
 20
734.01792181
 10
3185.0
 20
738.01792181
 10
3185.0
 20
730.01792181
 97
        0
 75
     0
 76
     1
 98
        0
  0
HATCH
  5
160
330
15C
100
AcDbEntity
  8
SLD-0
  6
AUSGEZOGEN
 62
     7
370
    18
100
AcDbHatch
 10
0.0
 20
0.0
 30
0.0
210
0.0
220
0.0
230
1.0
  2
SOLID
 70
     1
 71
     0
 91
        1
 92
        2
 72
     0
 73
     1
 93
        3
 10
3115.0
 20
734.01792181
 10
3135.0
 20
730.01792181
 10
3135.0
 20
738.01792181
 97
        0
 75
     0
 76
     1
 98
        0
  0
LINE
  5
161
330
15C
100
AcDbEntity
  8
SLD-0
  6
AUSGEZOGEN
 62
     7
370
    18
100
AcDbLine
 10
3135.0
 20
734.01792181
 30
0.0
 11
3185.0
 21
734.01792181
 31
0.0
  0
LINE
  5
162
330
15C
100
AcDbEntity
  8
SLD-0
  6
AUSGEZOGEN
 62
     7
370
    18
100
AcDbLine
 10
3115.0
 20
625.0
 30
0.0
 11
3115.0
 21
752.160778952857
 31
0.0
  0
LINE
  5
163
330
15C
100
AcDbEntity
  8
SLD-0
  6
AUSGEZOGEN
 62
     7
370
    18
100
AcDbLine
 10
3205.0
 20
588.0
 30
0.0
 11
3205.0
 21
752.160778952857
 31
0.0
  0
TEXT
  5
164
330
15C
100
AcDbEntity
  8
SLD-0
  6
AUSGEZOGEN
 62
     7
370
    18
100
AcDbText
 10
3137.483179351829
 20
741.652035606776
 30
0.0
 40
31.75
  1
90
 41
0.820056232427
  7
Arial
 72
     5
 11
3177.89227026092
 21
741.652035606776
 31
0.0
100
AcDbText
  0
ENDBLK
  5
15E
330
15C
100
AcDbEntity
  8
0
100
AcDbBlockEnd
  0
BLOCK
  5
167
330
166
100
AcDbEntity
  8
0
100
AcDbBlockBegin
  2
*D23
 70
     1
 10
0.0
 20
0.0
 30
0.0
  3
*D23
  1

  0
HATCH
  5
169
330
166
100
AcDbEntity
  8
SLD-0
  6
AUSGEZOGEN
 62
     7
370
    18
100
AcDbHatch
 10
0.0
 20
0.0
 30
0.0
210
0.0
220
0.0
230
1.0
  2
SOLID
 70
     1
 71
     0
 91
        1
 92
        2
 72
     0
 73
     1
 93
        3
 10
2602.839431104
 20
600.0
 10
2598.839431104
 20
580.0
 10
2606.839431104
 20
580.0
 97
        0
 75
     0
 76
     1
 98
        0
  0
HATCH
  5
16A
330
166
100
AcDbEntity
  8
SLD-0
  6
AUSGEZOGEN
 62
     7
370
    18
100
AcDbHatch
 10
0.0
 20
0.0
 30
0.0
210
0.0
220
0.0
230
1.0
  2
SOLID
 70
     1
 71
     0
 91
        1
 92
        2
 72
     0
 73
     1
 93
        3
 10
2602.839431104
 20
400.0
 10
2606.839431104
 20
420.0
 10
2598.839431104
 20
420.0
 97
        0
 75
     0
 76
     1
 98
        0
  0
LINE
  5
16B
330
166
100
AcDbEntity
  8
SLD-0
  6
AUSGEZOGEN
 62
     7
370
    18
100
AcDbLine
 10
2602.839431104
 20
420.0
 30
0.0
 11
2602.839431104
 21
580.0
 31
0.0
  0
LINE
  5
16C
330
166
100
AcDbEntity
  8
SLD-0
  6
AUSGEZOGEN
 62
     7
370
    18
100
AcDbLine
 10
2730.0
 20
400.0
 30
0.0
 11
2584.696573961143
 21
400.0
 31
0.0
  0
LINE
  5
16D
330
166
100
AcDbEntity
  8
SLD-0
  6
AUSGEZOGEN
 62
     7
370
    18
100
AcDbLine
 10
2767.0
 20
600.0
 30
0.0
 11
2584.696573961143
 21
600.0
 31
0.0
  0
TEXT
  5
16E
330
166
100
AcDbEntity
  8
SLD-0
  6
AUSGEZOGEN
 62
     7
370
    18
100
AcDbText
 10
2600.573343958079
 20
469.855529931429
 30
0.0
 40
31.75
  1
200
 50
90.0
 41
0.820056232427
  7
Arial
 72
     5
 11
2600.573343958079
 21
530.469166295066
 31
0.0
100
AcDbText
  0
ENDBLK
  5
168
330
166
100
AcDbEntity
  8
0
100
AcDbBlockEnd
  0
BLOCK
  5
171
330
170
100
AcDbEntity
  8
0
100
AcDbBlockBegin
  2
*D24
 70
     1
 10
0.0
 20
0.0
 30
0.0
  3
*D24
  1

  0
HATCH
  5
173
330
170
100
AcDbEntity
  8
SLD-0
  6
AUSGEZOGEN
 62
     7
370
    18
100
AcDbHatch
 10
0.0
 20
0.0
 30
0.0
210
0.0
220
0.0
230
1.0
  2
SOLID
 70
     1
 71
     0
 91
        1
 92
        2
 72
     0
 73
     1
 93
        3
 10
2602.839431104
 20
200.0
 10
2606.839431104
 20
220.0
 10
2598.839431104
 20
220.0
 97
        0
 75
     0
 76
     1
 98
        0
  0
HATCH
  5
174
330
170
100
AcDbEntity
  8
SLD-0
  6
AUSGEZOGEN
 62
     7
370
    18
100
AcDbHatch
 10
0.0
 20
0.0
 30
0.0
210
0.0
220
0.0
230
1.0
  2
SOLID
 70
     1
 71
     0
 91
        1
 92
        2
 72
     0
 73
     1
 93
        3
 10
2602.839431104
 20
400.0
 10
2598.839431104
 20
380.0
 10
2606.839431104
 20
380.0
 97
        0
 75
     0
 76
     1
 98
        0
  0
LINE
  5
175
330
170
100
AcDbEntity
  8
SLD-0
  6
AUSGEZOGEN
 62
     7
370
    18
100
AcDbLine
 10
2602.839431104
 20
380.0
 30
0.0
 11
2602.839431104
 21
220.0
 31
0.0
  0
LINE
  5
176
330
170
100
AcDbEntity
  8
SLD-0
  6
AUSGEZOGEN
 62
     7
370
    18
100
AcDbLine
 10
2730.0
 20
400.0
 30
0.0
 11
2584.696573961143
 21
400.0
 31
0.0
  0
LINE
  5
177
330
170
100
AcDbEntity
  8
SLD-0
  6
AUSGEZOGEN
 62
     7
370
    18
100
AcDbLine
 10
2767.0
 20
200.0
 30
0.0
 11
2584.696573961143
 21
200.0
 31
0.0
  0
TEXT
  5
178
330
170
100
AcDbEntity
  8
SLD-0
  6
AUSGEZOGEN
 62
     7
370
    18
100
AcDbText
 10
2600.573343958079
 20
272.478100425114
 30
0.0
 40
31.75
  1
200
 50
90.0
 41
0.820056232427
  7
Arial
 72
     5
 11
2600.573343958079
 21
333.091736788751
 31
0.0
100
AcDbText
  0
ENDBLK
  5
172
330
170
100
AcDbEntity
  8
0
100
AcDbBlockEnd
  0
BLOCK
  5
17B
330
17A
100
AcDbEntity
  8
0
100
AcDbBlockBegin
  2
*D25
 70
     1
 10
0.0
 20
0.0
 30
0.0
  3
*D25
  1

  0
HATCH
  5
17D
330
17A
100
AcDbEntity
  8
SLD-0
  6
AUSGEZOGEN
 62
     7
370
    18
100
AcDbHatch
 10
0.0
 20
0.0
 30
0.0
210
0.0
220
0.0
230
1.0
  2
SOLID
 70
     1
 71
     0
 91
        1
 92
        2
 72
     0
 73
     1
 93
        3
 10
3081.222876161
 20
200.0
 10
3077.222876161
 20
180.0
 10
3085.222876161
 20
180.0
 97
        0
 75
     0
 76
     1
 98
        0
  0
HATCH
  5
17E
330
17A
100
AcDbEntity
  8
SLD-0
  6
AUSGEZOGEN
 62
     7
370
    18
100
AcDbHatch
 10
0.0
 20
0.0
 30
0.0
210
0.0
220
0.0
230
1.0
  2
SOLID
 70
     1
 71
     0
 91
        1
 92
        2
 72
     0
 73
     1
 93
        3
 10
3081.222876161
 20
175.0
 10
3085.222876161
 20
195.0
 10
3077.222876161
 20
195.0
 97
        0
 75
     0
 76
     1
 98
        0
  0
LINE
  5
17F
330
17A
100
AcDbEntity
  8
SLD-0
  6
AUSGEZOGEN
 62
     7
370
    18
100
AcDbLine
 10
3081.222876161
 20
195.0
 30
0.0
 11
3081.222876161
 21
180.0
 31
0.0
  0
LINE
  5
180
330
17A
100
AcDbEntity
  8
SLD-0
  6
AUSGEZOGEN
 62
     7
370
    18
100
AcDbLine
 10
3115.0
 20
175.0
 30
0.0
 11
3063.080019018143
 21
175.0
 31
0.0
  0
LINE
  5
181
330
17A
100
AcDbEntity
  8
SLD-0
  6
AUSGEZOGEN
 62
     7
370
    18
100
AcDbLine
 10
3193.0
 20
200.0
 30
0.0
 11
3063.080019018143
 21
200.0
 31
0.0
  0
TEXT
  5
182
330
17A
100
AcDbEntity
  8
SLD-0
  6
AUSGEZOGEN
 62
     7
370
    18
100
AcDbText
 10
3087.572876161
 20
233.133770473455
 30
0.0
 40
31.75
  1
25
 50
90.0
 41
0.820056232427
  7
Arial
 72
     5
 11
3087.572876161
 21
273.542861382546
 31
0.0
100
AcDbText
  0
ENDBLK
  5
17C
330
17A
100
AcDbEntity
  8
0
100
AcDbBlockEnd
  0
BLOCK
  5
185
330
184
100
AcDbEntity
  8
0
100
AcDbBlockBegin
  2
*D26
 70
     1
 10
0.0
 20
0.0
 30
0.0
  3
*D26
  1

  0
HATCH
  5
187
330
184
100
AcDbEntity
  8
SLD-0
  6
AUSGEZOGEN
 62
     7
370
    18
100
AcDbHatch
 10
0.0
 20
0.0
 30
0.0
210
0.0
220
0.0
230
1.0
  2
SOLID
 70
     1
 71
     0
 91
        1
 92
        2
 72
     0
 73
     1
 93
        3
 10
3205.0
 20
435.8185366789999
 10
3225.0
 20
431.8185366789999
 10
3225.0
 20
439.8185366789999
 97
        0
 75
     0
 76
     1
 98
        0
  0
HATCH
  5
188
330
184
100
AcDbEntity
  8
SLD-0
  6
AUSGEZOGEN
 62
     7
370
    18
100
AcDbHatch
 10
0.0
 20
0.0
 30
0.0
210
0.0
220
0.0
230
1.0
  2
SOLID
 70
     1
 71
     0
 91
        1
 92
        2
 72
     0
 73
     1
 93
        3
 10
3230.0
 20
435.8185366789999
 10
3210.0
 20
439.8185366789999
 10
3210.0
 20
431.8185366789999
 97
        0
 75
     0
 76
     1
 98
        0
  0
LINE
  5
189
330
184
100
AcDbEntity
  8
SLD-0
  6
AUSGEZOGEN
 62
     7
370
    18
100
AcDbLine
 10
3210.0
 20
435.818536679
 30
0.0
 11
3225.0
 21
435.818536679
 31
0.0
  0
LINE
  5
18A
330
184
100
AcDbEntity
  8
SLD-0
  6
AUSGEZOGEN
 62
     7
370
    18
100
AcDbLine
 10
3230.0
 20
400.0
 30
0.0
 11
3230.0
 21
453.961393821857
 31
0.0
  0
LINE
  5
18B
330
184
100
AcDbEntity
  8
SLD-0
  6
AUSGEZOGEN
 62
     7
370
    18
100
AcDbLine
 10
3205.0
 20
588.0
 30
0.0
 11
3205.0
 21
417.675679536143
 31
0.0
  0
TEXT
  5
18C
330
184
100
AcDbEntity
  8
SLD-0
  6
AUSGEZOGEN
 62
     7
370
    18
100
AcDbText
 10
3131.117439897454
 20
429.468536679
 30
0.0
 40
31.75
  1
25
 41
0.820056232427
  7
Arial
 72
     5
 11
3171.526530806545
 21
429.468536679
 31
0.0
100
AcDbText
  0
ENDBLK
  5
186
330
184
100
AcDbEntity
  8
0
100
AcDbBlockEnd
  0
BLOCK
  5
18F
330
18E
100
AcDbEntity
  8
0
100
AcDbBlockBegin
  2
A3-NABER_nNn026
 70
     0
 10
0.0
 20
0.0
 30
0.0
  3
A3-NABER_nNn026
  1

  0
INSERT
  5
1AC
330
18E
100
AcDbEntity
  8
0
100
AcDbBlockReference
  2
A3-NABER_nNn027
 10
0.0
 20
0.0
 30
0.0
  0
TEXT
  5
1AD
330
18E
100
AcDbEntity
  8
Layer100
  6
AUSGEZOGEN
 62
    18
420
        0
370
    50
100
AcDbText
 10
3146.064078045988
 20
-818.685743686287
 30
0.0
 40
12.685384684898
  1
Weitergabe und Vervielfältigung,
 50
0.000002504478
 41
1.085122205146
  7
Arial
 72
     5
 11
3423.721778029043
 21
-818.685731549484
 31
0.0
100
AcDbText
  0
TEXT
  5
1AE
330
18E
100
AcDbEntity
  8
Layer100
  6
AUSGEZOGEN
 62
    18
420
        0
370
    50
100
AcDbText
 10
3146.149705279804
 20
-838.982359178382
 30
0.0
 40
12.685384684898
  1
sowie Verwertung und Mitteilung
 50
0.000002504478
 41
1.084506693109
  7
Arial
 72
     5
 11
3423.636152569613
 21
-838.982347049064
 31
0.0
100
AcDbText
  0
TEXT
  5
1AF
330
18E
100
AcDbEntity
  8
Layer100
  6
AUSGEZOGEN
 62
    18
420
        0
370
    50
100
AcDbText
 10
3133.515063020839
 20
-859.278975226497
 30
0.0
 40
12.685384684898
  1
dieser Zeichnung ist nicht gestattet,
 50
0.000002504478
 41
1.087014938969
  7
Arial
 72
     5
 11
3436.270796602965
 21
-859.278961992624
 31
0.0
100
AcDbText
  0
TEXT
  5
1B0
330
18E
100
AcDbEntity
  8
Layer100
  6
AUSGEZOGEN
 62
    18
420
        0
370
    50
100
AcDbText
 10
3143.7902255028
 20
-879.575590273193
 30
0.0
 40
12.685384684898
  1
soweit nicht ausdrücklich erlaubt.
 50
0.000002504478
 41
1.086254882813
  7
Arial
 72
     5
 11
3425.995635895391
 21
-879.575577937603
 31
0.0
100
AcDbText
  0
TEXT
  5
1B1
330
18E
100
AcDbEntity
  8
Layer100
  6
AUSGEZOGEN
 62
    18
420
        0
370
    50
100
AcDbText
 10
3180.267050051418
 20
-899.872204174578
 30
0.0
 40
12.685384684898
  1
Alle Rechte vorbehalten!
 50
0.000002504478
 41
1.084802051822
  7
Arial
 72
     5
 11
3389.518813121159
 21
-899.872195027893
 31
0.0
100
AcDbText
  0
LINE
  5
1B2
330
18E
100
AcDbEntity
  8
Layer100
  6
AUSGEZOGEN
 62
    18
420
        0
370
    50
100
AcDbLine
 10
4235.404674901389
 20
-782.734000486509
 30
0.0
 11
2589.484674901389
 21
-782.734000486509
 31
0.0
  0
INSERT
  5
1E3
330
18E
100
AcDbEntity
  8
0
100
AcDbBlockReference
  2
Schriftfeld_nNn032
 10
0.0
 20
0.0
 30
0.0
  0
INSERT
  5
1EF
330
18E
100
AcDbEntity
  8
0
100
AcDbBlockReference
  2
Beschriftung_nNn033
 10
0.0
 20
0.0
 30
0.0
  0
TEXT
  5
1F0
330
18E
100
AcDbEntity
  8
Layer100
  6
AUSGEZOGEN
 62
    18
420
        0
370
    18
100
AcDbText
 10
2605.413105133474
 20
-964.017487448191
 30
0.0
 40
19.028076027142
  1
-
 41
0.967741971819
  7
Arial
 72
     5
 11
2613.975739667183
 21
-964.017487448191
 31
0.0
100
AcDbText
  0
TEXT
  5
1F1
330
18E
100
AcDbEntity
  8
Layer100
  6
AUSGEZOGEN
 62
    18
420
        0
370
    18
100
AcDbText
 10
2676.442741396176
 20
-963.694505095731
 30
0.0
 40
19.028076027142
  1
-
 41
0.967741971819
  7
Arial
 72
     5
 11
2685.005375929885
 21
-963.694505095731
 31
0.0
100
AcDbText
  0
TEXT
  5
1F2
330
18E
100
AcDbEntity
  8
Layer100
  6
AUSGEZOGEN
 62
    18
420
        0
370
    18
100
AcDbText
 10
2903.261341110557
 20
-963.67875225261
 30
0.0
 40
19.028076027142
  1
-
 41
0.967741971819
  7
Arial
 72
     5
 11
2911.823975644265
 21
-963.67875225261
 31
0.0
100
AcDbText
  0
TEXT
  5
1F3
330
18E
100
AcDbEntity
  8
Layer100
  6
AUSGEZOGEN
 62
    18
420
        0
370
    18
100
AcDbText
 10
3027.935737627607
 20
-963.67875225261
 30
0.0
 40
19.028076027142
  1
-
 41
0.967741971819
  7
Arial
 72
     5
 11
3036.498372161316
 21
-963.67875225261
 31
0.0
100
AcDbText
  0
TEXT
  5
1F4
330
18E
100
AcDbEntity
  8
Layer100
  6
AUSGEZOGEN
 62
    18
420
        0
370
    18
100
AcDbText
 10
3090.018065343368
 20
-1121.275869381675
 30
0.0
 40
11.606769233771
  1
Naber GmbH
 41
0.96475869975
  7
Arial
 72
     5
 11
3182.085814511438
 21
-1121.275869381675
 31
0.0
100
AcDbText
  0
TEXT
  5
1F5
330
18E
100
AcDbEntity
  8
Layer100
  6
AUSGEZOGEN
 62
    18
420
        0
370
    18
100
AcDbText
 10
3090.018065343368
 20
-1136.364668832124
 30
0.0
 40
11.606769233771
  1
Enschedestr. 24
 41
0.976824042946
  7
Arial
 72
     5
 11
3204.370826155444
 21
-1136.364668832124
 31
0.0
100
AcDbText
  0
TEXT
  5
1F6
330
18E
100
AcDbEntity
  8
Layer100
  6
AUSGEZOGEN
 62
    18
420
        0
370
    18
100
AcDbText
 10
3090.018065343368
 20
-1151.453468282573
 30
0.0
 40
11.606769233771
  1
48529 Nordhorn
 41
0.972993785506
  7
Arial
 72
     5
 11
3203.922433718703
 21
-1151.453468282573
 31
0.0
100
AcDbText
  0
TEXT
  5
1F7
330
18E
100
AcDbEntity
  8
Layer100
  6
AUSGEZOGEN
 62
    18
420
        0
370
    18
100
AcDbText
 10
3090.018065343368
 20
-1181.63106718347
 30
0.0
 40
11.606769233771
  1
0049-(0)5921-704-0
 41
0.975798499711
  7
Arial
 72
     5
 11
3230.606064886957
 21
-1181.63106718347
 31
0.0
100
AcDbText
  0
IMAGE
  5
1FA
330
18E
100
AcDbEntity
  8
0
  6
AUSGEZOGEN
 62
    18
420
        0
370
    18
160
               140
310
8C00000001000000840000000600000005000000241C0AE5C973A940ADD0BE83ED7192C00000000000000000BB59435AB025AB40ADD0BE83ED7192C00000000000000000BB59435AB025AB400E9CF91F032C91C00000000000000000241C0AE5C973A9400E9CF91F032C91C00000000000000000241C0AE5C973A940ADD0BE
310
83ED7192C00000000000000000
100
AcDbRasterImage
 90
        0
 10
3257.894325557647
 20
-1180.481947881209
 30
0.0
 11
0.05737903017589593
 21
0.0
 31
0.0
 12
0.0
 22
0.08640391963798622
 32
0.0
 13
3781.0
 23
943.0
340
1F9
 70
     7
280
     0
281
    50
282
    50
283
     0
360
1FB
 71
     1
 91
        2
 14
-0.5
 24
-0.5
 14
3780.5
 24
942.5
290
     0
  0
TEXT
  5
1FC
330
18E
100
AcDbEntity
  8
Layer100
  6
AUSGEZOGEN
 62
    18
420
        0
370
    18
100
AcDbText
 10
3490.354912036614
 20
-923.1730458907
 30
0.0
 40
31.713461712246
  1
Einbaumaße
 41
0.90372298842
  7
Arial
 72
     5
 11
3717.142951128315
 21
-923.1730458907
 31
0.0
100
AcDbText
  0
ENDBLK
  5
190
330
18E
100
AcDbEntity
  8
0
100
AcDbBlockEnd
  0
BLOCK
  5
192
330
191
100
AcDbEntity
  8
0
100
AcDbBlockBegin
  2
A3-NABER_nNn027
 70
     0
 10
0.0
 20
0.0
 30
0.0
  3
A3-NABER_nNn027
  1

  0
INSERT
  5
1AB
330
191
100
AcDbEntity
  8
0
100
AcDbBlockReference
  2
A3-NABER_nNn028
 10
0.0
 20
0.0
 30
0.0
  0
ENDBLK
  5
193
330
191
100
AcDbEntity
  8
0
100
AcDbBlockEnd
  0
BLOCK
  5
195
330
194
100
AcDbEntity
  8
0
100
AcDbBlockBegin
  2
A3-NABER_nNn028
 70
     0
 10
0.0
 20
0.0
 30
0.0
  3
A3-NABER_nNn028
  1

  0
INSERT
  5
1AA
330
194
100
AcDbEntity
  8
0
100
AcDbBlockReference
  2
A3-NABER_nNn029
 10
0.0
 20
0.0
 30
0.0
  0
ENDBLK
  5
196
330
194
100
AcDbEntity
  8
0
100
AcDbBlockEnd
  0
BLOCK
  5
198
330
197
100
AcDbEntity
  8
0
100
AcDbBlockBegin
  2
A3-NABER_nNn029
 70
     0
 10
0.0
 20
0.0
 30
0.0
  3
A3-NABER_nNn029
  1

  0
INSERT
  5
1A5
330
197
100
AcDbEntity
  8
0
100
AcDbBlockReference
  2
A3-Textliste_nNn030
 10
0.0
 20
0.0
 30
0.0
  0
LINE
  5
1A6
330
197
100
AcDbEntity
  8
SLD-0
  6
AUSGEZOGEN
 62
    18
420
        0
370
    18
100
AcDbLine
 10
4280.404674901389
 20
-1324.411759113731
 30
0.0
 11
4280.404674901389
 21
1338.688240886269
 31
0.0
  0
LINE
  5
1A7
330
197
100
AcDbEntity
  8
SLD-0
  6
AUSGEZOGEN
 62
    18
420
        0
370
    18
100
AcDbLine
 10
635.404674901389
 20
-1324.411759113731
 30
0.0
 11
4280.404674901389
 21
-1324.411759113731
 31
0.0
  0
LINE
  5
1A8
330
197
100
AcDbEntity
  8
SLD-0
  6
AUSGEZOGEN
 62
    18
420
        0
370
    18
100
AcDbLine
 10
635.404674901389
 20
1338.688240886269
 30
0.0
 11
4280.404674901389
 21
1338.688240886269
 31
0.0
  0
LINE
  5
1A9
330
197
100
AcDbEntity
  8
SLD-0
  6
AUSGEZOGEN
 62
    18
420
        0
370
    18
100
AcDbLine
 10
635.404674901389
 20
-1324.411759113731
 30
0.0
 11
635.404674901389
 21
1338.688240886269
 31
0.0
  0
ENDBLK
  5
199
330
197
100
AcDbEntity
  8
0
100
AcDbBlockEnd
  0
BLOCK
  5
19B
330
19A
100
AcDbEntity
  8
0
100
AcDbBlockBegin
  2
A3-Textliste_nNn030
 70
     0
 10
0.0
 20
0.0
 30
0.0
  3
A3-Textliste_nNn030
  1

  0
INSERT
  5
1A4
330
19A
100
AcDbEntity
  8
0
100
AcDbBlockReference
  2
Zeichnungsrahmen_nNn031
 10
0.0
 20
0.0
 30
0.0
  0
ENDBLK
  5
19C
330
19A
100
AcDbEntity
  8
0
100
AcDbBlockEnd
  0
BLOCK
  5
19E
330
19D
100
AcDbEntity
  8
0
100
AcDbBlockBegin
  2
Zeichnungsrahmen_nNn031
 70
     0
 10
0.0
 20
0.0
 30
0.0
  3
Zeichnungsrahmen_nNn031
  1

  0
LINE
  5
1A0
330
19D
100
AcDbEntity
  8
Layer100
  6
AUSGEZOGEN
 62
    18
420
        0
370
    50
100
AcDbLine
 10
4235.404674901389
 20
-1279.411759113731
 30
0.0
 11
4235.404674901389
 21
1293.688240886269
 31
0.0
  0
LINE
  5
1A1
330
19D
100
AcDbEntity
  8
Layer100
  6
AUSGEZOGEN
 62
    18
420
        0
370
    50
100
AcDbLine
 10
680.404674901389
 20
-1279.411759113731
 30
0.0
 11
4235.404674901389
 21
-1279.411759113731
 31
0.0
  0
LINE
  5
1A2
330
19D
100
AcDbEntity
  8
Layer100
  6
AUSGEZOGEN
 62
    18
420
        0
370
    50
100
AcDbLine
 10
680.404674901389
 20
-1279.411759113731
 30
0.0
 11
680.404674901389
 21
1293.688240886269
 31
0.0
  0
LINE
  5
1A3
330
19D
100
AcDbEntity
  8
Layer100
  6
AUSGEZOGEN
 62
    18
420
        0
370
    50
100
AcDbLine
 10
680.404674901389
 20
1293.688240886269
 30
0.0
 11
4235.404674901389
 21
1293.688240886269
 31
0.0
  0
ENDBLK
  5
19F
330
19D
100
AcDbEntity
  8
0
100
AcDbBlockEnd
  0
BLOCK
  5
1B4
330
1B3
100
AcDbEntity
  8
0
100
AcDbBlockBegin
  2
Schriftfeld_nNn032
 70
     0
 10
0.0
 20
0.0
 30
0.0
  3
Schriftfeld_nNn032
  1

  0
LINE
  5
1B6
330
1B3
100
AcDbEntity
  8
Layer100
  6
AUSGEZOGEN
 62
    18
420
        0
370
    50
100
AcDbLine
 10
3082.213310617226
 20
-782.734114559344
 30
0.0
 11
3082.213310617226
 21
-1279.411873186565
 31
0.0
  0
LINE
  5
1B7
330
1B3
100
AcDbEntity
  8
Layer100
  6
AUSGEZOGEN
 62
    18
420
        0
370
    50
100
AcDbLine
 10
3479.555517519004
 20
-782.734061763702
 30
0.0
 11
3479.555517519004
 21
-1279.411820390923
 31
0.0
  0
LINE
  5
1B8
330
1B3
100
AcDbEntity
  8
Layer100
  6
AUSGEZOGEN
 62
    18
420
        0
370
    18
100
AcDbLine
 10
2661.498032721227
 20
-935.558053317944
 30
0.0
 11
2661.498032721227
 21
-1279.411886213712
 31
0.0
  0
LINE
  5
1B9
330
1B3
100
AcDbEntity
  8
Layer100
  6
AUSGEZOGEN
 62
    18
420
        0
370
    18
100
AcDbLine
 10
3012.094097634561
 20
-935.558317382533
 30
0.0
 11
3012.094097634561
 21
-1279.412150278301
 31
0.0
  0
LINE
  5
1BA
330
1B3
100
AcDbEntity
  8
Layer100
  6
AUSGEZOGEN
 62
    18
420
        0
370
    18
100
AcDbLine
 10
2895.228742663449
 20
-1279.412150278301
 30
0.0
 11
2895.228742663449
 21
-782.73439165108
 31
0.0
  0
TEXT
  5
1BB
330
1B3
100
AcDbEntity
  8
Layer100
  6
AUSGEZOGEN
 62
    18
420
        0
370
    18
100
AcDbText
 10
3487.466403086279
 20
-863.532909023576
 30
0.0
 40
14.832910438641
  1
Rohstoff/Raw material
 41
1.084377276038
  7
Arial
 72
     5
 11
3708.306190151985
 21
-863.532909023576
 31
0.0
100
AcDbText
  0
TEXT
  5
1BC
330
1B3
100
AcDbEntity
  8
Layer100
  6
AUSGEZOGEN
 62
    18
420
        0
370
    18
100
AcDbText
 10
3487.466403086279
 20
-959.047862605735
 30
0.0
 40
14.832910438641
  1
Benennung/Designation
 41
1.081895683695
  7
Arial
 72
     5
 11
3726.528420625856
 21
-959.047862605735
 31
0.0
100
AcDbText
  0
TEXT
  5
1BD
330
1B3
100
AcDbEntity
  8
Layer100
  6
AUSGEZOGEN
 62
    18
420
        0
370
    18
100
AcDbText
 10
3486.297749536568
 20
-1148.167470698407
 30
0.0
 40
14.832910438641
  1
Sachnummer/Part-No.
 41
1.080626575441
  7
Arial
 72
     5
 11
3708.858154213156
 21
-1148.167470698407
 31
0.0
100
AcDbText
  0
LINE
  5
1BE
330
1B3
100
AcDbEntity
  8
Layer100
  6
AUSGEZOGEN
 62
    18
420
        0
370
    18
100
AcDbLine
 10
3175.705594594116
 20
-935.557926217962
 30
0.0
 11
3175.705594594116
 21
-1050.175870516551
 31
0.0
  0
TEXT
  5
1BF
330
1B3
100
AcDbEntity
  8
Layer100
  6
AUSGEZOGEN
 62
    18
420
        0
370
    18
100
AcDbText
 10
3088.952454574307
 20
-1030.679943012032
 30
0.0
 40
14.832910438641
  1
Gepr.
 41
1.076768834145
  7
Arial
 72
     5
 11
3144.709364913159
 21
-1030.679943012032
 31
0.0
100
AcDbText
  0
TEXT
  5
1C0
330
1B3
100
AcDbEntity
  8
Layer100
  6
AUSGEZOGEN
 62
    18
420
        0
370
    18
100
AcDbText
 10
3088.952454574307
 20
-1049.962726582265
 30
0.0
 40
14.832910438641
  1
Check.
 41
1.077923572744
  7
Arial
 72
     5
 11
3158.407557703244
 21
-1049.962726582265
 31
0.0
100
AcDbText
  0
TEXT
  5
1C1
330
1B3
100
AcDbEntity
  8
Layer100
  6
AUSGEZOGEN
 62
    18
420
        0
370
    18
100
AcDbText
 10
3182.444648501893
 20
-954.260319781886
 30
0.0
 40
14.832910438641
  1
Datum
 41
1.075650693262
  7
Arial
 72
     5
 11
3248.035778461563
 21
-954.260319781886
 31
0.0
100
AcDbText
  0
TEXT
  5
1C2
330
1B3
100
AcDbEntity
  8
Layer100
  6
AUSGEZOGEN
 62
    18
420
        0
370
    18
100
AcDbText
 10
3182.444648501893
 20
-973.543103352119
 30
0.0
 40
14.832910438641
  1
Date
 41
1.076492537313
  7
Arial
 72
     5
 11
3229.51688977892
 21
-973.543103352119
 31
0.0
100
AcDbText
  0
TEXT
  5
1C3
330
1B3
100
AcDbEntity
  8
Layer100
  6
AUSGEZOGEN
 62
    18
420
        0
370
    18
100
AcDbText
 10
3322.686252577013
 20
-954.265372540292
 30
0.0
 40
14.832910438641
  1
Name
 41
1.072387859253
  7
Arial
 72
     5
 11
3381.906647503287
 21
-954.265372540292
 31
0.0
100
AcDbText
  0
TEXT
  5
1C4
330
1B3
100
AcDbEntity
  8
Layer100
  6
AUSGEZOGEN
 62
    18
420
        0
370
    18
100
AcDbText
 10
3322.686252577013
 20
-973.548156110525
 30
0.0
 40
14.832910438641
  1
Name
 41
1.072387859253
  7
Arial
 72
     5
 11
3381.906647503287
 21
-973.548156110525
 31
0.0
100
AcDbText
  0
TEXT
  5
1C5
330
1B3
100
AcDbEntity
  8
Layer100
  6
AUSGEZOGEN
 62
    18
420
        0
370
    18
100
AcDbText
 10
3088.932860161714
 20
-992.460831187475
 30
0.0
 40
14.832910438641
  1
Bearb.
 41
1.078672178988
  7
Arial
 72
     5
 11
3154.724234412306
 21
-992.460831187475
 31
0.0
100
AcDbText
  0
TEXT
  5
1C6
330
1B3
100
AcDbEntity
  8
Layer100
  6
AUSGEZOGEN
 62
    18
420
        0
370
    18
100
AcDbText
 10
3088.932860161714
 20
-1011.743614757708
 30
0.0
 40
14.832910438641
  1
Drawn
 41
1.075502107612
  7
Arial
 72
     5
 11
3153.270609189319
 21
-1011.743614757708
 31
0.0
100
AcDbText
  0
TEXT
  5
1C7
330
1B3
100
AcDbEntity
  8
Layer100
  6
AUSGEZOGEN
 62
    18
420
        0
370
    18
100
AcDbText
 10
2599.289705305836
 20
-1259.913224003197
 30
0.0
 40
14.832910438641
  1
Ausg.
 41
1.076912300364
  7
Arial
 72
     5
 11
2656.299996576753
 21
-1259.913224003197
 31
0.0
100
AcDbText
  0
TEXT
  5
1C8
330
1B3
100
AcDbEntity
  8
Layer100
  6
AUSGEZOGEN
 62
    18
420
        0
370
    18
100
AcDbText
 10
2599.289705305836
 20
-1279.19600757343
 30
0.0
 40
14.832910438641
  1
Issue
 41
1.078087529976
  7
Arial
 72
     5
 11
2652.636267698408
 21
-1279.19600757343
 31
0.0
100
AcDbText
  0
TEXT
  5
1C9
330
1B3
100
AcDbEntity
  8
Layer100
  6
AUSGEZOGEN
 62
    18
420
        0
370
    18
100
AcDbText
 10
2669.408918288503
 20
-1259.913224003197
 30
0.0
 40
14.832910438641
  1
Änderung
 41
1.077825512227
  7
Arial
 72
     5
 11
2766.163993079758
 21
-1259.913224003197
 31
0.0
100
AcDbText
  0
TEXT
  5
1CA
330
1B3
100
AcDbEntity
  8
Layer100
  6
AUSGEZOGEN
 62
    18
420
        0
370
    18
100
AcDbText
 10
2669.408918288503
 20
-1279.19600757343
 30
0.0
 40
14.832910438641
  1
Modification
 41
1.083926413321
  7
Arial
 72
     5
 11
2789.140171349213
 21
-1279.19600757343
 31
0.0
100
AcDbText
  0
TEXT
  5
1CB
330
1B3
100
AcDbEntity
  8
Layer100
  6
AUSGEZOGEN
 62
    18
420
        0
370
    18
100
AcDbText
 10
2901.970974681013
 20
-1259.913224003197
 30
0.0
 40
14.832910438641
  1
Datum
 41
1.075650693262
  7
Arial
 72
     5
 11
2967.562104640684
 21
-1259.913224003197
 31
0.0
100
AcDbText
  0
TEXT
  5
1CC
330
1B3
100
AcDbEntity
  8
Layer100
  6
AUSGEZOGEN
 62
    18
420
        0
370
    18
100
AcDbText
 10
2901.970974681013
 20
-1279.19600757343
 30
0.0
 40
14.832910438641
  1
Date
 41
1.076492537313
  7
Arial
 72
     5
 11
2949.04321595804
 21
-1279.19600757343
 31
0.0
100
AcDbText
  0
TEXT
  5
1CD
330
1B3
100
AcDbEntity
  8
Layer100
  6
AUSGEZOGEN
 62
    18
420
        0
370
    18
100
AcDbText
 10
3018.836329652124
 20
-1259.913224003197
 30
0.0
 40
14.832910438641
  1
Name
 41
1.072387859253
  7
Arial
 72
     5
 11
3078.056724578399
 21
-1259.913224003197
 31
0.0
100
AcDbText
  0
TEXT
  5
1CE
330
1B3
100
AcDbEntity
  8
Layer100
  6
AUSGEZOGEN
 62
    18
420
        0
370
    18
100
AcDbText
 10
3018.836329652124
 20
-1279.19600757343
 30
0.0
 40
14.832910438641
  1
Name
 41
1.072387859253
  7
Arial
 72
     5
 11
3078.056724578399
 21
-1279.19600757343
 31
0.0
100
AcDbText
  0
LINE
  5
1CF
330
1B3
100
AcDbEntity
  8
Layer100
  6
AUSGEZOGEN
 62
    18
420
        0
370
    18
100
AcDbLine
 10
3315.944020559449
 20
-935.557926217962
 30
0.0
 11
3315.944020559449
 21
-1050.175870516551
 31
0.0
  0
TEXT
  5
1D0
330
1B3
100
AcDbEntity
  8
Layer100
  6
AUSGEZOGEN
 62
    18
420
        0
370
    18
100
AcDbText
 10
3953.759169421012
 20
-805.477796492425
 30
0.0
 40
14.832910438641
  1
Menge
 41
1.074408249356
  7
Arial
 72
     5
 11
4021.760647326962
 21
-805.477796492425
 31
0.0
100
AcDbText
  0
TEXT
  5
1D1
330
1B3
100
AcDbEntity
  8
Layer100
  6
AUSGEZOGEN
 62
    18
420
        0
370
    18
100
AcDbText
 10
3953.759169421012
 20
-824.760580062659
 30
0.0
 40
14.832910438641
  1
Quantity
 41
1.081088880339
  7
Arial
 72
     5
 11
4037.112709630955
 21
-824.760580062659
 31
0.0
100
AcDbText
  0
TEXT
  5
1D2
330
1B3
100
AcDbEntity
  8
Layer100
  6
AUSGEZOGEN
 62
    18
420
        0
370
    18
100
AcDbText
 10
3488.63505663599
 20
-805.262044952125
 30
0.0
 40
14.832910438641
  1
Maßstab
 41
1.076703499079
  7
Arial
 72
     5
 11
3575.355667515504
 21
-805.262044952125
 31
0.0
100
AcDbText
  0
TEXT
  5
1D3
330
1B3
100
AcDbEntity
  8
Layer100
  6
AUSGEZOGEN
 62
    18
420
        0
370
    18
100
AcDbText
 10
3488.63505663599
 20
-824.544828522358
 30
0.0
 40
14.832910438641
  1
Scale
 41
1.076768834145
  7
Arial
 72
     5
 11
3544.391966974841
 21
-824.544828522358
 31
0.0
100
AcDbText
  0
TEXT
  5
1D4
330
1B3
100
AcDbEntity
  8
Layer100
  6
AUSGEZOGEN
 62
    18
420
        0
370
    18
100
AcDbText
 10
2907.814242429569
 20
-803.90460902166
 30
0.0
 40
14.832910438641
  1
 Maße in mm
 41
1.079690569745
  7
Arial
 72
     5
 11
3038.240023916539
 21
-803.90460902166
 31
0.0
100
AcDbText
  0
TEXT
  5
1D5
330
1B3
100
AcDbEntity
  8
Layer100
  6
AUSGEZOGEN
 62
    18
420
        0
370
    18
100
AcDbText
 10
2907.814242429569
 20
-823.187392591894
 30
0.0
 40
14.832910438641
  1
Dimensions in
 41
1.081916714204
  7
Arial
 72
     5
 11
3048.474732119202
 21
-823.187392591894
 31
0.0
100
AcDbText
  0
TEXT
  5
1D6
330
1B3
100
AcDbEntity
  8
Layer100
  6
AUSGEZOGEN
 62
    18
420
        0
370
    18
100
AcDbText
 10
2907.814242429569
 20
-842.470176162127
 30
0.0
 40
14.832910438641
  1
 millimeters
 41
1.084880260734
  7
Arial
 72
     5
 11
3021.375004747805
 21
-842.470176162127
 31
0.0
100
AcDbText
  0
CIRCLE
  5
1D7
330
1B3
100
AcDbEntity
  8
Layer100
  6
AUSGEZOGEN
 62
    18
420
        0
370
    18
100
AcDbCircle
 10
3017.809756916744
 20
-897.178931650778
 30
0.0
 40
25.223751122338
  0
CIRCLE
  5
1D8
330
1B3
100
AcDbEntity
  8
Layer100
  6
AUSGEZOGEN
 62
    18
420
        0
370
    18
100
AcDbCircle
 10
3017.809756916744
 20
-897.178931650778
 30
0.0
 40
16.92060664712532
  0
LINE
  5
1D9
330
1B3
100
AcDbEntity
  8
Layer100
  6
AUSGEZOGEN
 62
    18
420
        0
370
    18
100
AcDbLine
 10
2921.926319249701
 20
-914.099538297903
 30
0.0
 11
2921.926319249701
 21
-880.258325003653
 31
0.0
  0
LINE
  5
1DA
330
1B3
100
AcDbEntity
  8
Layer100
  6
AUSGEZOGEN
 62
    18
420
        0
370
    18
100
AcDbLine
 10
2975.508240298931
 20
-922.402682773115
 30
0.0
 11
2975.508240298931
 21
-871.955180528441
 31
0.0
  0
LINE
  5
1DB
330
1B3
100
AcDbEntity
  8
Layer100
  6
AUSGEZOGEN
 62
    18
420
        0
370
    18
100
AcDbLine
 10
2921.926319249701
 20
-880.258325003653
 30
0.0
 11
2975.508240298931
 21
-871.955180528441
 31
0.0
  0
LINE
  5
1DC
330
1B3
100
AcDbEntity
  8
Layer100
  6
AUSGEZOGEN
 62
    18
420
        0
370
    18
100
AcDbLine
 10
2975.508240298931
 20
-922.402682773115
 30
0.0
 11
2921.926319249701
 21
-914.099538297903
 31
0.0
  0
LINE
  5
1DD
330
1B3
100
AcDbEntity
  8
Layer100
  6
DASHDOT
 62
    18
420
        0
370
    18
100
AcDbLine
 10
3017.809756916744
 20
-928.200043797347
 30
0.0
 11
3017.809756916744
 21
-869.349016705408
 31
0.0
  0
LINE
  5
1DE
330
1B3
100
AcDbEntity
  8
Layer100
  6
DASHDOT
 62
    18
420
        0
370
    18
100
AcDbLine
 10
2989.726434201375
 20
-897.178931650778
 30
0.0
 11
3046.024339918016
 21
-897.178931650778
 31
0.0
  0
LINE
  5
1DF
330
1B3
100
AcDbEntity
  8
Layer100
  6
DASHDOT
 62
    18
420
        0
370
    18
100
AcDbLine
 10
2919.348028496221
 20
-897.178931650778
 30
0.0
 11
2977.919530612683
 21
-897.178931650778
 31
0.0
  0
LINE
  5
1E0
330
1B3
100
AcDbEntity
  8
Layer100
  6
AUSGEZOGEN
 62
    18
420
        0
370
    50
100
AcDbLine
 10
3479.555517519004
 20
-1126.587833382278
 30
0.0
 11
4235.404674901389
 21
-1126.587833382278
 31
0.0
  0
LINE
  5
1E1
330
1B3
100
AcDbEntity
  8
Layer100
  6
AUSGEZOGEN
 62
    18
420
        0
370
    50
100
AcDbLine
 10
3947.016937403448
 20
-782.734061763702
 30
0.0
 11
3947.016937403448
 21
-840.042125463028
 31
0.0
  0
LINE
  5
1E2
330
1B3
100
AcDbEntity
  8
Layer100
  6
AUSGEZOGEN
 62
    18
420
        0
370
    50
100
AcDbLine
 10
4235.404506549517
 20
-840.042972635556
 30
0.0
 11
3479.555517519004
 21
-840.040752239922
 31
0.0
  0
ENDBLK
  5
1B5
330
1B3
100
AcDbEntity
  8
0
100
AcDbBlockEnd
  0
BLOCK
  5
1E5
330
1E4
100
AcDbEntity
  8
0
100
AcDbBlockBegin
  2
Beschriftung_nNn033
 70
     0
 10
0.0
 20
0.0
 30
0.0
  3
Beschriftung_nNn033
  1

  0
TEXT
  5
1E7
330
1E4
100
AcDbEntity
  8
Layer100
  6
AUSGEZOGEN
 62
    18
420
        0
370
    18
100
AcDbText
 10
2632.342412736023
 20
-873.046947037147
 30
0.0
 40
19.028076027142
  1
Kundenzeichnung
 41
1.032581817144
  7
Arial
 72
     5
 11
2851.870023105951
 21
-873.046947037147
 31
0.0
100
AcDbText
  0
TEXT
  5
1E8
330
1E4
100
AcDbEntity
  8
Layer100
  6
AUSGEZOGEN
 62
    18
420
        0
370
    18
100
AcDbText
 10
3598.488490308835
 20
-820.939981919372
 30
0.0
 40
19.028076027142
  1
1:1
 41
1.022756754879
  7
Arial
 72
     5
 11
3636.243011289708
 21
-820.939981919372
 31
0.0
100
AcDbText
  0
TEXT
  5
1E9
330
1E4
100
AcDbEntity
  8
Layer100
  6
AUSGEZOGEN
 62
    18
420
        0
370
    18
100
AcDbText
 10
4079.973752789812
 20
-819.029682847729
 30
0.0
 40
19.028076027142
  1
1
 41
0.974226840702
  7
Arial
 72
     5
 11
4094.358978806442
 21
-819.029682847729
 31
0.0
100
AcDbText
  0
TEXT
  5
1EA
330
1E4
100
AcDbEntity
  8
Layer100
  6
AUSGEZOGEN
 62
    18
420
        0
370
    18
100
AcDbText
 10
3489.264331624296
 20
-1029.649519707523
 30
0.0
 40
31.713461712246
  1
Einbau-/Unterbauspüle
 41
0.915995798163
  7
Arial
 72
     5
 11
3903.944483415242
 21
-1029.649519707523
 31
0.0
100
AcDbText
  0
TEXT
  5
1EB
330
1E4
100
AcDbEntity
  8
Layer100
  6
AUSGEZOGEN
 62
    18
420
        0
370
    18
100
AcDbText
 10
3489.264331624296
 20
-1092.577018538121
 30
0.0
 40
31.713461712246
  1
Corno Basso 5
 41
0.911343155414
  7
Arial
 72
     5
 11
3756.086176351379
 21
-1092.577018538121
 31
0.0
100
AcDbText
  0
TEXT
  5
1EC
330
1E4
100
AcDbEntity
  8
Layer100
  6
AUSGEZOGEN
 62
    18
420
        0
370
    18
100
AcDbText
 10
3489.264331624296
 20
-1218.432016199318
 30
0.0
 40
31.713461712246
  1
1013142
 41
0.902739323416
  7
Arial
 72
     5
 11
3644.776999705407
 21
-1218.432016199318
 31
0.0
100
AcDbText
  0
TEXT
  5
1ED
330
1E4
100
AcDbEntity
  8
Layer100
  6
AUSGEZOGEN
 62
    18
420
        0
370
    18
100
AcDbText
 10
3181.279173061969
 20
-1004.328692797116
 30
0.0
 40
19.028076027142
  1
22.02.21
 41
1.034889233423
  7
Arial
 72
     5
 11
3288.245850965921
 21
-1004.328692797116
 31
0.0
100
AcDbText
  0
TEXT
  5
1EE
330
1E4
100
AcDbEntity
  8
Layer100
  6
AUSGEZOGEN
 62
    18
420
        0
370
    18
100
AcDbText
 10
3323.854906126724
 20
-1004.328692797116
 30
0.0
 40
19.028076027142
  1
CM
 41
0.997270426658
  7
Arial
 72
     5
 11
3365.052100635027
 21
-1004.328692797116
 31
0.0
100
AcDbText
  0
ENDBLK
  5
1E6
330
1E4
100
AcDbEntity
  8
0
100
AcDbBlockEnd
  0
BLOCK
  5
209
330
208
100
AcDbEntity
  8
0
100
AcDbBlockBegin
  2
SW_NOTE_0_5_nNn034
 70
     0
 10
0.0
 20
0.0
 30
0.0
  3
SW_NOTE_0_5_nNn034
  1

  0
TEXT
  5
20B
330
208
100
AcDbEntity
  8
SLD-0
  6
AUSGEZOGEN
 62
     7
370
    18
100
AcDbText
 10
3358.903413845241
 20
812.716166374482
 30
0.0
 40
37.17735042735
  1
Unterbauspüle
 41
1.136817913279
  7
Arial
 72
     5
 11
3742.532633852613
 21
812.716166374482
 31
0.0
100
AcDbText
  0
TEXT
  5
20C
330
208
100
AcDbEntity
  8
SLD-0
  6
AUSGEZOGEN
 62
     7
370
    18
100
AcDbText
 10
3358.903413845241
 20
742.748002834997
 30
0.0
 40
21.709401709402
  1
Befestigungsbohrungen an der Unterseite
 41
1.13664931626
  7
Arial
 72
     5
 11
3996.43194552582
 21
742.748002834997
 31
0.0
100
AcDbText
  0
TEXT
  5
20D
330
208
100
AcDbEntity
  8
SLD-0
  6
AUSGEZOGEN
 62
     7
370
    18
100
AcDbText
 10
3358.748357181491
 20
690.436434709016
 30
0.0
 40
21.709401709402
  1
6 Bohrungslöcher %%c 10 mm, Tiefe 15 mm
 41
1.126330637792
  7
Arial
 72
     5
 11
3984.718642581601
 21
690.436434709016
 31
0.0
100
AcDbText
  0
ENDBLK
  5
20A
330
208
100
AcDbEntity
  8
0
100
AcDbBlockEnd
  0
ENDSEC
  0
SECTION
  2
ENTITIES
  0
INSERT
  5
68
330
1F
100
AcDbEntity
  8
0
100
AcDbBlockReference
  2
SW_NOTE_0_003_nNn00
 10
0.0
 20
0.0
 30
0.0
  0
INSERT
  5
6D
330
1F
100
AcDbEntity
  8
0
100
AcDbBlockReference
  2
SW_NOTE_0_005_nNn01
 10
0.0
 20
0.0
 30
0.0
  0
INSERT
  5
71
330
1F
100
AcDbEntity
  8
0
100
AcDbBlockReference
  2
SW_NOTE_0_006_nNn02
 10
0.0
 20
0.0
 30
0.0
  0
LINE
  5
72
330
1F
100
AcDbEntity
  8
0
  6
AUSGEZOGEN
 62
     7
370
    35
100
AcDbLine
 10
1077.615097394545
 20
-135.141529566
 30
0.0
 11
1669.615097394545
 21
-135.141529566
 31
0.0
  0
LINE
  5
73
330
1F
100
AcDbEntity
  8
0
  6
AUSGEZOGEN
 62
     7
370
    35
100
AcDbLine
 10
1669.615097394545
 20
-135.141529566
 30
0.0
 11
1669.615097394545
 21
-677.141529566
 31
0.0
  0
LINE
  5
74
330
1F
100
AcDbEntity
  8
0
  6
AUSGEZOGEN
 62
     7
370
    35
100
AcDbLine
 10
1669.615097394545
 20
-677.141529566
 30
0.0
 11
1077.615097394545
 21
-677.141529566
 31
0.0
  0
LINE
  5
75
330
1F
100
AcDbEntity
  8
0
  6
AUSGEZOGEN
 62
     7
370
    35
100
AcDbLine
 10
1077.615097394545
 20
-677.141529566
 30
0.0
 11
1077.615097394545
 21
-135.141529566
 31
0.0
  0
LINE
  5
76
330
1F
100
AcDbEntity
  8
0
  6
AUSGEZOGEN
 62
     7
370
    35
100
AcDbLine
 10
1127.615097394545
 20
-616.141529566
 30
0.0
 11
1127.615097394545
 21
-196.141529566
 31
0.0
  0
ARC
  5
77
330
1F
100
AcDbEntity
  8
0
  6
AUSGEZOGEN
 62
     7
370
    35
100
AcDbCircle
 10
1138.615097394545
 20
-616.141529566
 30
0.0
 40
11.00000000000009
100
AcDbArc
 50
180.0
 51
270.0
  0
LINE
  5
78
330
1F
100
AcDbEntity
  8
0
  6
AUSGEZOGEN
 62
     7
370
    35
100
AcDbLine
 10
1608.615097394545
 20
-627.141529566
 30
0.0
 11
1138.615097394545
 21
-627.141529566
 31
0.0
  0
ARC
  5
79
330
1F
100
AcDbEntity
  8
0
  6
AUSGEZOGEN
 62
     7
370
    35
100
AcDbCircle
 10
1608.615097394545
 20
-616.141529566
 30
0.0
 40
11.00000000000023
100
AcDbArc
 50
270.0
 51
0.0
  0
LINE
  5
7A
330
1F
100
AcDbEntity
  8
0
  6
AUSGEZOGEN
 62
     7
370
    35
100
AcDbLine
 10
1619.615097394545
 20
-196.141529566
 30
0.0
 11
1619.615097394545
 21
-616.141529566
 31
0.0
  0
ARC
  5
7B
330
1F
100
AcDbEntity
  8
0
  6
AUSGEZOGEN
 62
     7
370
    35
100
AcDbCircle
 10
1608.615097394545
 20
-196.141529566
 30
0.0
 40
11.00000000000009
100
AcDbArc
 50
0.0
 51
90.0
  0
LINE
  5
7C
330
1F
100
AcDbEntity
  8
0
  6
AUSGEZOGEN
 62
     7
370
    35
100
AcDbLine
 10
1138.615097394545
 20
-185.141529566
 30
0.0
 11
1608.615097394545
 21
-185.141529566
 31
0.0
  0
ARC
  5
7D
330
1F
100
AcDbEntity
  8
0
  6
AUSGEZOGEN
 62
     7
370
    35
100
AcDbCircle
 10
1138.615097394545
 20
-196.141529566
 30
0.0
 40
11.00000000000009
100
AcDbArc
 50
90.0
 51
180.0
  0
ARC
  5
7E
330
1F
100
AcDbEntity
  8
0
  6
AUSGEZOGEN
 62
     7
370
    35
100
AcDbCircle
 10
1143.615097394545
 20
-611.141529566
 30
0.0
 40
10.0
100
AcDbArc
 50
180.0
 51
270.0
  0
LINE
  5
7F
330
1F
100
AcDbEntity
  8
0
  6
AUSGEZOGEN
 62
     7
370
    35
100
AcDbLine
 10
1143.615097394545
 20
-621.141529566
 30
0.0
 11
1603.615097394545
 21
-621.141529566
 31
0.0
  0
ARC
  5
80
330
1F
100
AcDbEntity
  8
0
  6
AUSGEZOGEN
 62
     7
370
    35
100
AcDbCircle
 10
1603.615097394545
 20
-611.141529566
 30
0.0
 40
10.00000000000014
100
AcDbArc
 50
270.0
 51
0.0
  0
LINE
  5
81
330
1F
100
AcDbEntity
  8
0
  6
AUSGEZOGEN
 62
     7
370
    35
100
AcDbLine
 10
1613.615097394545
 20
-611.141529566
 30
0.0
 11
1613.615097394545
 21
-201.141529566
 31
0.0
  0
ARC
  5
82
330
1F
100
AcDbEntity
  8
0
  6
AUSGEZOGEN
 62
     7
370
    35
100
AcDbCircle
 10
1603.615097394545
 20
-201.141529566
 30
0.0
 40
10.0
100
AcDbArc
 50
0.0
 51
90.0
  0
LINE
  5
83
330
1F
100
AcDbEntity
  8
0
  6
AUSGEZOGEN
 62
     7
370
    35
100
AcDbLine
 10
1603.615097394545
 20
-191.141529566
 30
0.0
 11
1143.615097394545
 21
-191.141529566
 31
0.0
  0
ARC
  5
84
330
1F
100
AcDbEntity
  8
0
  6
AUSGEZOGEN
 62
     7
370
    35
100
AcDbCircle
 10
1143.615097394545
 20
-201.141529566
 30
0.0
 40
10.0
100
AcDbArc
 50
90.0
 51
180.0
  0
LINE
  5
85
330
1F
100
AcDbEntity
  8
0
  6
AUSGEZOGEN
 62
     7
370
    35
100
AcDbLine
 10
1133.615097394545
 20
-201.141529566
 30
0.0
 11
1133.615097394545
 21
-611.141529566
 31
0.0
  0
DIMENSION
  5
8F
330
1F
100
AcDbEntity
  8
SLD-0
  6
AUSGEZOGEN
 62
     7
370
    18
100
AcDbDimension
280
     0
  2
*D4
 10
1613.615097394545
 20
-67.150322975
 30
0.0
 11
1373.478401418902
 21
-47.191241809675
 31
0.0
 70
   160
 71
     5
 42
-1.0
 73
     0
 74
     0
 75
     0
  3
ISO-25
100
AcDbAlignedDimension
 13
1133.615097394545
 23
-201.141529566
 33
0.0
 14
1613.615097394545
 24
-201.141529566
 34
0.0
100
AcDbRotatedDimension
1001
ACAD
1000
DSTYLE
1002
{
1070
     3
1000
<>
1070
   340
1005
5F
1070
    44
1040
14.285714285714
1070
   280
1070
     3
1070
    77
1070
     1
1070
   179
1070
     0
1070
   271
1070
     0
1070
   173
1070
     1
1070
    41
1040
20.0
1070
   147
1040
4.535714285714
1070
   140
1040
31.75
1070
   178
1070
     7
1070
   177
1070
     7
1070
   176
1070
     7
1002
}
  0
DIMENSION
  5
99
330
1F
100
AcDbEntity
  8
SLD-0
  6
AUSGEZOGEN
 62
     7
370
    18
100
AcDbDimension
280
     0
  2
*D5
 10
1127.615097394545
 20
7.471781865
 30
0.0
 11
1373.999761890362
 21
25.251579499456
 31
0.0
 70
   160
 71
     5
 42
-1.0
 73
     0
 74
     0
 75
     0
  3
ISO-25
100
AcDbAlignedDimension
 13
1619.615097394545
 23
-196.141529566
 33
0.0
 14
1127.615097394545
 24
-196.141529566
 34
0.0
 50
180.0
100
AcDbRotatedDimension
1001
ACAD
1000
DSTYLE
1002
{
1070
     3
1000
<>
1070
   340
1005
5F
1070
    44
1040
14.285714285714
1070
   280
1070
     3
1070
    77
1070
     1
1070
   179
1070
     0
1070
   271
1070
     0
1070
   173
1070
     1
1070
    41
1040
20.0
1070
   147
1040
4.535714285714
1070
   140
1040
31.75
1070
   178
1070
     7
1070
   177
1070
     7
1070
   176
1070
     7
1002
}
  0
DIMENSION
  5
A3
330
1F
100
AcDbEntity
  8
SLD-0
  6
AUSGEZOGEN
 62
     7
370
    18
100
AcDbDimension
280
     0
  2
*D6
 10
1008.696887524545
 20
-621.141529566
 30
0.0
 11
990.271463451816
 21
-406.483077907713
 31
0.0
 70
   160
 71
     5
 42
-1.0
 73
     0
 74
     0
 75
     0
 53
90.0
  3
ISO-25
100
AcDbAlignedDimension
 13
1143.615097394545
 23
-191.141529566
 33
0.0
 14
1143.615097394545
 24
-621.141529566
 34
0.0
 50
-90.0
100
AcDbRotatedDimension
1001
ACAD
1000
DSTYLE
1002
{
1070
     3
1000
<>
1070
   340
1005
5F
1070
    44
1040
14.285714285714
1070
   280
1070
     3
1070
    77
1070
     1
1070
   179
1070
     0
1070
   271
1070
     0
1070
   173
1070
     1
1070
    41
1040
20.0
1070
   147
1040
4.535714285714
1070
   140
1040
31.75
1070
   178
1070
     7
1070
   177
1070
     7
1070
   176
1070
     7
1002
}
  0
DIMENSION
  5
AD
330
1F
100
AcDbEntity
  8
SLD-0
  6
AUSGEZOGEN
 62
     7
370
    18
100
AcDbDimension
280
     0
  2
*D7
 10
917.615097394545
 20
-627.141529566
 30
0.0
 11
897.990660003381
 21
-405.961906531388
 31
0.0
 70
   160
 71
     5
 42
-1.0
 73
     0
 74
     0
 75
     0
 53
90.0
  3
ISO-25
100
AcDbAlignedDimension
 13
1138.615097394545
 23
-185.141529566
 33
0.0
 14
1138.615097394545
 24
-627.141529566
 34
0.0
 50
-90.0
100
AcDbRotatedDimension
1001
ACAD
1000
DSTYLE
1002
{
1070
     3
1000
<>
1070
   340
1005
5F
1070
    44
1040
14.285714285714
1070
   280
1070
     3
1070
    77
1070
     1
1070
   179
1070
     0
1070
   271
1070
     0
1070
   173
1070
     1
1070
    41
1040
20.0
1070
   147
1040
4.535714285714
1070
   140
1040
31.75
1070
   178
1070
     7
1070
   177
1070
     7
1070
   176
1070
     7
1002
}
  0
INSERT
  5
B6
330
1F
100
AcDbEntity
  8
0
100
AcDbBlockReference
  2
_D_10_nNn07
 10
0.0
 20
0.0
 30
0.0
  0
INSERT
  5
BE
330
1F
100
AcDbEntity
  8
0
100
AcDbBlockReference
  2
_D_11_nNn08
 10
0.0
 20
0.0
 30
0.0
  0
ARC
  5
BF
330
1F
100
AcDbEntity
  8
0
  6
AUSGEZOGEN
 62
     7
370
    35
100
AcDbCircle
 10
1149.615097394545
 20
698.703646901
 30
0.0
 40
10.0
100
AcDbArc
 50
90.0
 51
180.0
  0
LINE
  5
C0
330
1F
100
AcDbEntity
  8
0
  6
AUSGEZOGEN
 62
     7
370
    35
100
AcDbLine
 10
1139.615097394545
 20
698.703646901
 30
0.0
 11
1139.615097394545
 21
288.703646901
 31
0.0
  0
ARC
  5
C1
330
1F
100
AcDbEntity
  8
0
  6
AUSGEZOGEN
 62
     7
370
    35
100
AcDbCircle
 10
1149.615097394545
 20
288.703646901
 30
0.0
 40
10.0
100
AcDbArc
 50
180.0
 51
270.0
  0
LINE
  5
C2
330
1F
100
AcDbEntity
  8
0
  6
AUSGEZOGEN
 62
     7
370
    35
100
AcDbLine
 10
1149.615097394545
 20
278.703646901
 30
0.0
 11
1609.615097394545
 21
278.703646901
 31
0.0
  0
ARC
  5
C3
330
1F
100
AcDbEntity
  8
0
  6
AUSGEZOGEN
 62
     7
370
    35
100
AcDbCircle
 10
1609.615097394545
 20
288.703646901
 30
0.0
 40
10.0
100
AcDbArc
 50
270.0
 51
0.0
  0
LINE
  5
C4
330
1F
100
AcDbEntity
  8
0
  6
AUSGEZOGEN
 62
     7
370
    35
100
AcDbLine
 10
1619.615097394545
 20
288.703646901
 30
0.0
 11
1619.615097394545
 21
698.703646901
 31
0.0
  0
ARC
  5
C5
330
1F
100
AcDbEntity
  8
0
  6
AUSGEZOGEN
 62
     7
370
    35
100
AcDbCircle
 10
1609.615097394545
 20
698.703646901
 30
0.0
 40
10.0
100
AcDbArc
 50
0.0
 51
90.0
  0
LINE
  5
C6
330
1F
100
AcDbEntity
  8
0
  6
AUSGEZOGEN
 62
     7
370
    35
100
AcDbLine
 10
1609.615097394545
 20
708.703646901
 30
0.0
 11
1149.615097394545
 21
708.703646901
 31
0.0
  0
LINE
  5
C7
330
1F
100
AcDbEntity
  8
0
  6
AUSGEZOGEN
 62
     7
370
    35
100
AcDbLine
 10
1669.615097394545
 20
758.703646901
 30
0.0
 11
1089.615097394545
 21
758.703646901
 31
0.0
  0
LINE
  5
C8
330
1F
100
AcDbEntity
  8
0
  6
AUSGEZOGEN
 62
     7
370
    35
100
AcDbLine
 10
1669.615097394545
 20
228.703646901
 30
0.0
 11
1669.615097394545
 21
758.703646901
 31
0.0
  0
LINE
  5
C9
330
1F
100
AcDbEntity
  8
0
  6
AUSGEZOGEN
 62
     7
370
    35
100
AcDbLine
 10
1089.615097394545
 20
228.703646901
 30
0.0
 11
1669.615097394545
 21
228.703646901
 31
0.0
  0
LINE
  5
CA
330
1F
100
AcDbEntity
  8
0
  6
AUSGEZOGEN
 62
     7
370
    35
100
AcDbLine
 10
1089.615097394545
 20
758.703646901
 30
0.0
 11
1089.615097394545
 21
228.703646901
 31
0.0
  0
DIMENSION
  5
D4
330
1F
100
AcDbEntity
  8
SLD-0
  6
AUSGEZOGEN
 62
     7
370
    18
100
AcDbDimension
280
     0
  2
*D10
 10
1619.615097394545
 20
828.531822935
 30
0.0
 11
1381.477868209319
 21
851.391787729079
 31
0.0
 70
   160
 71
     5
 42
-1.0
 73
     0
 74
     0
 75
     0
  3
ISO-25
100
AcDbAlignedDimension
 13
1139.615097394545
 23
698.703646901
 33
0.0
 14
1619.615097394545
 24
698.703646901
 34
0.0
100
AcDbRotatedDimension
1001
ACAD
1000
DSTYLE
1002
{
1070
     3
1000
<>
1070
   340
1005
5F
1070
    44
1040
14.285714285714
1070
   280
1070
     3
1070
    77
1070
     1
1070
   179
1070
     0
1070
   271
1070
     0
1070
   173
1070
     1
1070
    41
1040
20.0
1070
   147
1040
4.535714285714
1070
   140
1040
31.75
1070
   178
1070
     7
1070
   177
1070
     7
1070
   176
1070
     7
1002
}
  0
DIMENSION
  5
DE
330
1F
100
AcDbEntity
  8
SLD-0
  6
AUSGEZOGEN
 62
     7
370
    18
100
AcDbDimension
280
     0
  2
*D11
 10
1024.189212418545
 20
708.703646901
 30
0.0
 11
1000.279111719808
 21
494.147571428055
 31
0.0
 70
   160
 71
     5
 42
-1.0
 73
     0
 74
     0
 75
     0
 53
90.0
  3
ISO-25
100
AcDbAlignedDimension
 13
1149.615097394545
 23
278.703646901
 33
0.0
 14
1149.615097394545
 24
708.703646901
 34
0.0
 50
90.0
100
AcDbRotatedDimension
1001
ACAD
1000
DSTYLE
1002
{
1070
     3
1000
<>
1070
   340
1005
5F
1070
    44
1040
14.285714285714
1070
   280
1070
     3
1070
    77
1070
     1
1070
   179
1070
     0
1070
   271
1070
     0
1070
   173
1070
     1
1070
    41
1040
20.0
1070
   147
1040
4.535714285714
1070
   140
1040
31.75
1070
   178
1070
     7
1070
   177
1070
     7
1070
   176
1070
     7
1002
}
  0
INSERT
  5
E6
330
1F
100
AcDbEntity
  8
0
100
AcDbBlockReference
  2
_D_14_nNn011
 10
0.0
 20
0.0
 30
0.0
  0
ARC
  5
E7
330
1F
100
AcDbEntity
  8
0
  6
AUSGEZOGEN
 62
     7
370
    18
100
AcDbCircle
 10
2073.104618151545
 20
-174.67302048
 30
0.0
 40
172.1134798122109
100
AcDbArc
 50
359.9998737652
 51
9.6132115915
  0
ARC
  5
E8
330
1F
100
AcDbEntity
  8
0
  6
AUSGEZOGEN
 62
     7
370
    18
100
AcDbCircle
 10
2073.102334086545
 20
-174.67336106
 30
0.0
 40
172.1160196277633
100
AcDbArc
 50
170.3868166208
 51
224.7899334597
  0
ARC
  5
E9
330
1F
100
AcDbEntity
  8
0
  6
AUSGEZOGEN
 62
     7
370
    18
100
AcDbCircle
 10
2073.102052538545
 20
-174.673372101
 30
0.0
 40
172.1160454248682
100
AcDbArc
 50
315.2100802441
 51
359.9999908183
  0
LINE
  5
EA
330
1F
100
AcDbEntity
  8
0
  6
AUSGEZOGEN
 62
     7
370
    35
100
AcDbLine
 10
2118.482604422545
 20
-153.43073735
 30
0.0
 11
2118.482604422545
 21
-145.930740777
 31
0.0
  0
LINE
  5
EB
330
1F
100
AcDbEntity
  8
0
  6
AUSGEZOGEN
 62
     7
370
    35
100
AcDbLine
 10
2088.482618131545
 20
-153.43073735
 30
0.0
 11
2088.482618131545
 21
-295.930737424
 31
0.0
  0
LINE
  5
EC
330
1F
100
AcDbEntity
  8
0
  6
AUSGEZOGEN
 62
     7
370
    35
100
AcDbLine
 10
2118.482604422545
 20
-153.43073735
 30
0.0
 11
2088.482618131545
 21
-153.43073735
 31
0.0
  0
LINE
  5
ED
330
1F
100
AcDbEntity
  8
0
  6
AUSGEZOGEN
 62
     7
370
    35
100
AcDbLine
 10
2118.482604422545
 20
-145.930740777
 30
0.0
 11
2242.801204123545
 21
-145.930740777
 31
0.0
  0
LINE
  5
EE
330
1F
100
AcDbEntity
  8
0
  6
AUSGEZOGEN
 62
     7
370
    35
100
AcDbLine
 10
2088.482618131545
 20
-295.930737424
 30
0.0
 11
2195.251896777545
 21
-295.930737424
 31
0.0
  0
LINE
  5
EF
330
1F
100
AcDbEntity
  8
0
  6
AUSGEZOGEN
 62
     7
370
    35
100
AcDbLine
 10
2038.482591309545
 20
-153.43073735
 30
0.0
 11
2038.482591309545
 21
-295.930737424
 31
0.0
  0
LINE
  5
F0
330
1F
100
AcDbEntity
  8
0
  6
AUSGEZOGEN
 62
     7
370
    35
100
AcDbLine
 10
2088.482618131545
 20
-153.43073735
 30
0.0
 11
2038.482591309545
 21
-153.43073735
 31
0.0
  0
LINE
  5
F1
330
1F
100
AcDbEntity
  8
0
  6
AUSGEZOGEN
 62
     7
370
    35
100
AcDbLine
 10
2088.482618131545
 20
-295.930737424
 30
0.0
 11
2038.482591309545
 21
-295.930737424
 31
0.0
  0
LINE
  5
F2
330
1F
100
AcDbEntity
  8
0
  6
AUSGEZOGEN
 62
     7
370
    35
100
AcDbLine
 10
2063.482567467545
 20
-145.930740777
 30
0.0
 11
2063.482567467545
 21
-153.43073735
 31
0.0
  0
LINE
  5
F3
330
1F
100
AcDbEntity
  8
0
  6
AUSGEZOGEN
 62
     7
370
    35
100
AcDbLine
 10
2063.482567467545
 20
-145.930740777
 30
0.0
 11
2118.482604422545
 21
-145.930740777
 31
0.0
  0
LINE
  5
F4
330
1F
100
AcDbEntity
  8
0
  6
AUSGEZOGEN
 62
     7
370
    35
100
AcDbLine
 10
2038.482591309545
 20
-153.43073735
 30
0.0
 11
1902.302257516545
 21
-153.43073735
 31
0.0
  0
LINE
  5
F5
330
1F
100
AcDbEntity
  8
0
  6
AUSGEZOGEN
 62
     7
370
    35
100
AcDbLine
 10
2038.482591309545
 20
-295.930737424
 30
0.0
 11
1950.952537157545
 21
-295.930737424
 31
0.0
  0
LINE
  5
F6
330
1F
100
AcDbEntity
  8
0
  6
AUSGEZOGEN
 62
     7
370
    35
100
AcDbLine
 10
1903.403229811545
 20
-145.930740777
 30
0.0
 11
2063.482567467545
 21
-145.930740777
 31
0.0
  0
INSERT
  5
FF
330
1F
100
AcDbEntity
  8
0
100
AcDbBlockReference
  2
SW_HATCH_001_nNn012
 10
0.0
 20
0.0
 30
0.0
  0
DIMENSION
  5
10A
330
1F
100
AcDbEntity
  8
SLD-0
  6
AUSGEZOGEN
 62
     7
370
    18
100
AcDbDimension
280
     0
  2
*D14
 10
2118.482600250545
 20
-68.724772801
 30
0.0
 11
2104.925493905186
 21
-41.580767318289
 31
0.0
 70
   160
 71
     5
 42
-1.0
 73
     0
 74
     0
 75
     0
  3
ISO-25
100
AcDbAlignedDimension
 13
2088.482600250545
 23
-153.430739659
 33
0.0
 14
2118.482600250545
 24
-145.930739659
 34
0.0
100
AcDbRotatedDimension
1001
ACAD
1000
DSTYLE
1002
{
1070
     3
1000
<>
1070
   144
1040
0.2
1070
   340
1005
5F
1070
    44
1040
14.285714285714
1070
   280
1070
     3
1070
    77
1070
     1
1070
   179
1070
     0
1070
   271
1070
     0
1070
   173
1070
     1
1070
    41
1040
20.0
1070
   147
1040
4.535714285714
1070
   140
1040
31.75
1070
   178
1070
     7
1070
   177
1070
     7
1070
   176
1070
     7
1002
}
  0
DIMENSION
  5
114
330
1F
100
AcDbEntity
  8
SLD-0
  6
AUSGEZOGEN
 62
     7
370
    18
100
AcDbDimension
280
     0
  2
*D15
 10
2287.471658104545
 20
-145.930739659
 30
0.0
 11
2277.946658104545
 21
-97.544233892
 31
0.0
 70
    32
 71
     5
 42
-1.0
 73
     0
 74
     0
 75
     0
 53
90.0
  3
ISO-25
100
AcDbAlignedDimension
 13
2118.482604422545
 23
-153.430739659
 33
0.0
 14
2242.801204123545
 24
-145.930739659
 34
0.0
 50
90.0
100
AcDbRotatedDimension
1001
ACAD
1000
DSTYLE
1002
{
1070
     3
1000
<>
1070
   144
1040
0.2
1070
   340
1005
5F
1070
    44
1040
14.285714285714
1070
   280
1070
     0
1070
    77
1070
     1
1070
   179
1070
     1
1070
   271
1070
     1
1070
   173
1070
     1
1070
    41
1040
20.0
1070
   147
1040
4.535714285714
1070
   140
1040
31.75
1070
   178
1070
     7
1070
   177
1070
     7
1070
   176
1070
     7
1002
}
  0
INSERT
  5
119
330
1F
100
AcDbEntity
  8
0
100
AcDbBlockReference
  2
SW_NOTE_0_007_nNn015
 10
0.0
 20
0.0
 30
0.0
  0
ARC
  5
11A
330
1F
100
AcDbEntity
  8
0
  6
AUSGEZOGEN
 62
     7
370
    35
100
AcDbCircle
 10
3193.0
 20
588.0
 30
0.0
 40
11.99999999999989
100
AcDbArc
 50
0.0
 51
90.0
  0
LINE
  5
11B
330
1F
100
AcDbEntity
  8
0
  6
AUSGEZOGEN
 62
     7
370
    35
100
AcDbLine
 10
2767.0
 20
600.0
 30
0.0
 11
3193.0
 21
600.0
 31
0.0
  0
ARC
  5
11C
330
1F
100
AcDbEntity
  8
0
  6
AUSGEZOGEN
 62
     7
370
    35
100
AcDbCircle
 10
2767.0
 20
588.0
 30
0.0
 40
11.99999999999989
100
AcDbArc
 50
90.0
 51
180.0
  0
LINE
  5
11D
330
1F
100
AcDbEntity
  8
0
  6
AUSGEZOGEN
 62
     7
370
    35
100
AcDbLine
 10
2755.0
 20
212.0
 30
0.0
 11
2755.0
 21
588.0
 31
0.0
  0
ARC
  5
11E
330
1F
100
AcDbEntity
  8
0
  6
AUSGEZOGEN
 62
     7
370
    35
100
AcDbCircle
 10
2767.0
 20
212.0
 30
0.0
 40
12.00000000000017
100
AcDbArc
 50
180.0
 51
270.0
  0
LINE
  5
11F
330
1F
100
AcDbEntity
  8
0
  6
AUSGEZOGEN
 62
     7
370
    35
100
AcDbLine
 10
3193.0
 20
200.0
 30
0.0
 11
2767.0
 21
200.0
 31
0.0
  0
ARC
  5
120
330
1F
100
AcDbEntity
  8
0
  6
AUSGEZOGEN
 62
     7
370
    35
100
AcDbCircle
 10
3193.0
 20
212.0
 30
0.0
 40
12.00000000000017
100
AcDbArc
 50
270.0
 51
0.0
  0
LINE
  5
121
330
1F
100
AcDbEntity
  8
0
  6
AUSGEZOGEN
 62
     7
370
    35
100
AcDbLine
 10
3205.0
 20
588.0
 30
0.0
 11
3205.0
 21
212.0
 31
0.0
  0
LINE
  5
122
330
1F
100
AcDbEntity
  8
0
  6
AUSGEZOGEN
 62
     7
370
    35
100
AcDbLine
 10
2685.0
 20
130.0
 30
0.0
 11
2685.0
 21
670.0
 31
0.0
  0
LINE
  5
123
330
1F
100
AcDbEntity
  8
0
  6
AUSGEZOGEN
 62
     7
370
    35
100
AcDbLine
 10
2685.0
 20
670.0
 30
0.0
 11
3275.0
 21
670.0
 31
0.0
  0
LINE
  5
124
330
1F
100
AcDbEntity
  8
0
  6
AUSGEZOGEN
 62
     7
370
    35
100
AcDbLine
 10
3275.0
 20
670.0
 30
0.0
 11
3275.0
 21
130.0
 31
0.0
  0
LINE
  5
125
330
1F
100
AcDbEntity
  8
0
  6
AUSGEZOGEN
 62
     7
370
    35
100
AcDbLine
 10
3275.0
 20
130.0
 30
0.0
 11
2685.0
 21
130.0
 31
0.0
  0
CIRCLE
  5
126
330
1F
100
AcDbEntity
  8
0
  6
AUSGEZOGEN
 62
     7
370
    35
100
AcDbCircle
 10
2845.0
 20
625.0
 30
0.0
 40
5.0
  0
CIRCLE
  5
127
330
1F
100
AcDbEntity
  8
0
  6
AUSGEZOGEN
 62
     7
370
    35
100
AcDbCircle
 10
3115.0
 20
625.0
 30
0.0
 40
5.0
  0
CIRCLE
  5
128
330
1F
100
AcDbEntity
  8
0
  6
AUSGEZOGEN
 62
     7
370
    35
100
AcDbCircle
 10
3115.0
 20
175.0
 30
0.0
 40
5.0
  0
CIRCLE
  5
129
330
1F
100
AcDbEntity
  8
0
  6
AUSGEZOGEN
 62
     7
370
    35
100
AcDbCircle
 10
2730.0
 20
400.0
 30
0.0
 40
5.0
  0
CIRCLE
  5
12A
330
1F
100
AcDbEntity
  8
0
  6
AUSGEZOGEN
 62
     7
370
    35
100
AcDbCircle
 10
3230.0
 20
400.0
 30
0.0
 40
5.0
  0
CIRCLE
  5
12B
330
1F
100
AcDbEntity
  8
0
  6
AUSGEZOGEN
 62
     7
370
    35
100
AcDbCircle
 10
2845.0
 20
175.0
 30
0.0
 40
5.0
  0
DIMENSION
  5
135
330
1F
100
AcDbEntity
  8
SLD-0
  6
AUSGEZOGEN
 62
     7
370
    18
100
AcDbDimension
280
     0
  2
*D17
 10
3205.0
 20
816.035481532
 30
0.0
 11
2981.53220569423
 21
840.735167653556
 31
0.0
 70
   160
 71
     5
 42
-1.0
 73
     0
 74
     0
 75
     0
  3
ISO-25
100
AcDbAlignedDimension
 13
2755.0
 23
588.0
 33
0.0
 14
3205.0
 24
588.0
 34
0.0
100
AcDbRotatedDimension
1001
ACAD
1000
DSTYLE
1002
{
1070
     3
1000
<>
1070
   340
1005
5F
1070
    44
1040
14.285714285714
1070
   280
1070
     3
1070
    77
1070
     1
1070
   179
1070
     0
1070
   271
1070
     0
1070
   173
1070
     1
1070
    41
1040
20.0
1070
   147
1040
4.535714285714
1070
   140
1040
31.75
1070
   178
1070
     7
1070
   177
1070
     7
1070
   176
1070
     7
1002
}
  0
DIMENSION
  5
13F
330
1F
100
AcDbEntity
  8
SLD-0
  6
AUSGEZOGEN
 62
     7
370
    18
100
AcDbDimension
280
     0
  2
*D18
 10
2508.261267909
 20
200.0
 30
0.0
 11
2485.973822257866
 21
401.47363336009
 31
0.0
 70
   160
 71
     5
 42
-1.0
 73
     0
 74
     0
 75
     0
 53
90.0
  3
ISO-25
100
AcDbAlignedDimension
 13
2767.0
 23
600.0
 33
0.0
 14
2767.0
 24
200.0
 34
0.0
 50
-90.0
100
AcDbRotatedDimension
1001
ACAD
1000
DSTYLE
1002
{
1070
     3
1000
<>
1070
   340
1005
5F
1070
    44
1040
14.285714285714
1070
   280
1070
     3
1070
    77
1070
     1
1070
   179
1070
     0
1070
   271
1070
     0
1070
   173
1070
     1
1070
    41
1040
20.0
1070
   147
1040
4.535714285714
1070
   140
1040
31.75
1070
   178
1070
     7
1070
   177
1070
     7
1070
   176
1070
     7
1002
}
  0
INSERT
  5
147
330
1F
100
AcDbEntity
  8
0
100
AcDbBlockReference
  2
_D_20_nNn018
 10
0.0
 20
0.0
 30
0.0
  0
DIMENSION
  5
151
330
1F
100
AcDbEntity
  8
SLD-0
  6
AUSGEZOGEN
 62
     7
370
    18
100
AcDbDimension
280
     0
  2
*D20
 10
3115.0
 20
734.01792181
 30
0.0
 11
2979.596430758931
 21
759.462108445074
 31
0.0
 70
   160
 71
     5
 42
-1.0
 73
     0
 74
     0
 75
     0
  3
ISO-25
100
AcDbAlignedDimension
 13
2845.0
 23
625.0
 33
0.0
 14
3115.0
 24
625.0
 34
0.0
100
AcDbRotatedDimension
1001
ACAD
1000
DSTYLE
1002
{
1070
     3
1000
<>
1070
   340
1005
5F
1070
    44
1040
14.285714285714
1070
   280
1070
     3
1070
    77
1070
     1
1070
   179
1070
     0
1070
   271
1070
     0
1070
   173
1070
     1
1070
    41
1040
20.0
1070
   147
1040
4.535714285714
1070
   140
1040
31.75
1070
   178
1070
     7
1070
   177
1070
     7
1070
   176
1070
     7
1002
}
  0
DIMENSION
  5
15B
330
1F
100
AcDbEntity
  8
SLD-0
  6
AUSGEZOGEN
 62
     7
370
    18
100
AcDbDimension
280
     0
  2
*D21
 10
2845.0
 20
734.01792181
 30
0.0
 11
2803.440911646786
 21
761.397181283371
 31
0.0
 70
   160
 71
     5
 42
-1.0
 73
     0
 74
     0
 75
     0
  3
ISO-25
100
AcDbAlignedDimension
 13
2755.0
 23
588.0
 33
0.0
 14
2845.0
 24
625.0
 34
0.0
100
AcDbRotatedDimension
1001
ACAD
1000
DSTYLE
1002
{
1070
     3
1000
<>
1070
   340
1005
5F
1070
    44
1040
14.285714285714
1070
   280
1070
     3
1070
    77
1070
     1
1070
   179
1070
     0
1070
   271
1070
     0
1070
   173
1070
     1
1070
    41
1040
20.0
1070
   147
1040
4.535714285714
1070
   140
1040
31.75
1070
   178
1070
     7
1070
   177
1070
     7
1070
   176
1070
     7
1002
}
  0
DIMENSION
  5
165
330
1F
100
AcDbEntity
  8
SLD-0
  6
AUSGEZOGEN
 62
     7
370
    18
100
AcDbDimension
280
     0
  2
*D22
 10
3205.0
 20
734.01792181
 30
0.0
 11
3157.687724806374
 21
757.527035606776
 31
0.0
 70
   160
 71
     5
 42
-1.0
 73
     0
 74
     0
 75
     0
  3
ISO-25
100
AcDbAlignedDimension
 13
3115.0
 23
625.0
 33
0.0
 14
3205.0
 24
588.0
 34
0.0
100
AcDbRotatedDimension
1001
ACAD
1000
DSTYLE
1002
{
1070
     3
1000
<>
1070
   340
1005
5F
1070
    44
1040
14.285714285714
1070
   280
1070
     3
1070
    77
1070
     1
1070
   179
1070
     0
1070
   271
1070
     0
1070
   173
1070
     1
1070
    41
1040
20.0
1070
   147
1040
4.535714285714
1070
   140
1040
31.75
1070
   178
1070
     7
1070
   177
1070
     7
1070
   176
1070
     7
1002
}
  0
DIMENSION
  5
16F
330
1F
100
AcDbEntity
  8
SLD-0
  6
AUSGEZOGEN
 62
     7
370
    18
100
AcDbDimension
280
     0
  2
*D23
 10
2602.839431104
 20
600.0
 30
0.0
 11
2584.698343958079
 21
500.162348113248
 31
0.0
 70
   160
 71
     5
 42
-1.0
 73
     0
 74
     0
 75
     0
 53
90.0
  3
ISO-25
100
AcDbAlignedDimension
 13
2730.0
 23
400.0
 33
0.0
 14
2767.0
 24
600.0
 34
0.0
 50
90.0
100
AcDbRotatedDimension
1001
ACAD
1000
DSTYLE
1002
{
1070
     3
1000
<>
1070
   340
1005
5F
1070
    44
1040
14.285714285714
1070
   280
1070
     3
1070
    77
1070
     1
1070
   179
1070
     0
1070
   271
1070
     0
1070
   173
1070
     1
1070
    41
1040
20.0
1070
   147
1040
4.535714285714
1070
   140
1040
31.75
1070
   178
1070
     7
1070
   177
1070
     7
1070
   176
1070
     7
1002
}
  0
DIMENSION
  5
179
330
1F
100
AcDbEntity
  8
SLD-0
  6
AUSGEZOGEN
 62
     7
370
    18
100
AcDbDimension
280
     0
  2
*D24
 10
2602.839431104
 20
200.0
 30
0.0
 11
2584.698343958079
 21
302.784918606932
 31
0.0
 70
   160
 71
     5
 42
-1.0
 73
     0
 74
     0
 75
     0
 53
90.0
  3
ISO-25
100
AcDbAlignedDimension
 13
2730.0
 23
400.0
 33
0.0
 14
2767.0
 24
200.0
 34
0.0
 50
-90.0
100
AcDbRotatedDimension
1001
ACAD
1000
DSTYLE
1002
{
1070
     3
1000
<>
1070
   340
1005
5F
1070
    44
1040
14.285714285714
1070
   280
1070
     3
1070
    77
1070
     1
1070
   179
1070
     0
1070
   271
1070
     0
1070
   173
1070
     1
1070
    41
1040
20.0
1070
   147
1040
4.535714285714
1070
   140
1040
31.75
1070
   178
1070
     7
1070
   177
1070
     7
1070
   176
1070
     7
1002
}
  0
DIMENSION
  5
183
330
1F
100
AcDbEntity
  8
SLD-0
  6
AUSGEZOGEN
 62
     7
370
    18
100
AcDbDimension
280
     0
  2
*D25
 10
3081.222876161
 20
200.0
 30
0.0
 11
3071.697876161
 21
253.338315928
 31
0.0
 70
    32
 71
     5
 42
-1.0
 73
     0
 74
     0
 75
     0
 53
90.0
  3
ISO-25
100
AcDbAlignedDimension
 13
3115.0
 23
175.0
 33
0.0
 14
3193.0
 24
200.0
 34
0.0
 50
90.0
100
AcDbRotatedDimension
1001
ACAD
1000
DSTYLE
1002
{
1070
     3
1000
<>
1070
   340
1005
5F
1070
    44
1040
14.285714285714
1070
   280
1070
     0
1070
    77
1070
     1
1070
   179
1070
     0
1070
   271
1070
     0
1070
   173
1070
     1
1070
    41
1040
20.0
1070
   147
1040
4.535714285714
1070
   140
1040
31.75
1070
   178
1070
     7
1070
   177
1070
     7
1070
   176
1070
     7
1002
}
  0
DIMENSION
  5
18D
330
1F
100
AcDbEntity
  8
SLD-0
  6
AUSGEZOGEN
 62
     7
370
    18
100
AcDbDimension
280
     0
  2
*D26
 10
3205.0
 20
435.818536679
 30
0.0
 11
3151.321985352
 21
445.343536679
 31
0.0
 70
    32
 71
     5
 42
-1.0
 73
     0
 74
     0
 75
     0
  3
ISO-25
100
AcDbAlignedDimension
 13
3230.0
 23
400.0
 33
0.0
 14
3205.0
 24
588.0
 34
0.0
 50
180.0
100
AcDbRotatedDimension
1001
ACAD
1000
DSTYLE
1002
{
1070
     3
1000
<>
1070
   340
1005
5F
1070
    44
1040
14.285714285714
1070
   280
1070
     0
1070
    77
1070
     1
1070
   179
1070
     0
1070
   271
1070
     0
1070
   173
1070
     1
1070
    41
1040
20.0
1070
   147
1040
4.535714285714
1070
   140
1040
31.75
1070
   178
1070
     7
1070
   177
1070
     7
1070
   176
1070
     7
1002
}
  0
INSERT
  5
1FD
330
1F
100
AcDbEntity
  8
0
100
AcDbBlockReference
  2
A3-NABER_nNn026
 10
0.0
 20
0.0
 30
0.0
  0
LINE
  5
1FE
330
1F
100
AcDbEntity
  8
Layer100
  6
AUSGEZOGEN
 62
    18
420
        0
370
    50
100
AcDbLine
 10
2589.484674901389
 20
-1279.416588760783
 30
0.0
 11
2589.484674901389
 21
-782.734000486509
 31
0.0
  0
LINE
  5
1FF
330
1F
100
AcDbEntity
  8
Layer100
  6
AUSGEZOGEN
 62
    18
420
        0
370
    50
100
AcDbLine
 10
2589.484674901389
 20
-1241.205777680867
 30
0.0
 11
4235.404674901389
 21
-1241.205777680867
 31
0.0
  0
LINE
  5
200
330
1F
100
AcDbEntity
  8
Layer100
  6
AUSGEZOGEN
 62
    18
420
        0
370
    18
100
AcDbLine
 10
2589.484674901389
 20
-1202.999796248004
 30
0.0
 11
3082.213310617226
 21
-1202.999796248004
 31
0.0
  0
LINE
  5
201
330
1F
100
AcDbEntity
  8
Layer100
  6
AUSGEZOGEN
 62
    18
420
        0
370
    18
100
AcDbLine
 10
2589.484674901389
 20
-1164.793814815141
 30
0.0
 11
3082.213310617226
 21
-1164.793814815141
 31
0.0
  0
LINE
  5
202
330
1F
100
AcDbEntity
  8
Layer100
  6
AUSGEZOGEN
 62
    18
420
        0
370
    18
100
AcDbLine
 10
2589.484674901389
 20
-1126.587833382278
 30
0.0
 11
3082.213310617226
 21
-1126.587833382278
 31
0.0
  0
LINE
  5
203
330
1F
100
AcDbEntity
  8
Layer100
  6
AUSGEZOGEN
 62
    18
420
        0
370
    18
100
AcDbLine
 10
2589.484674901389
 20
-1088.381851949415
 30
0.0
 11
3082.213310617226
 21
-1088.381851949415
 31
0.0
  0
LINE
  5
204
330
1F
100
AcDbEntity
  8
Layer100
  6
AUSGEZOGEN
 62
    18
420
        0
370
    18
100
AcDbLine
 10
2589.484674901389
 20
-1050.175870516551
 30
0.0
 11
3479.555517519004
 21
-1050.175870516551
 31
0.0
  0
LINE
  5
205
330
1F
100
AcDbEntity
  8
Layer100
  6
AUSGEZOGEN
 62
    18
420
        0
370
    18
100
AcDbLine
 10
2589.484674901389
 20
-1011.969889083688
 30
0.0
 11
3479.555517519004
 21
-1011.969889083688
 31
0.0
  0
LINE
  5
206
330
1F
100
AcDbEntity
  8
Layer100
  6
AUSGEZOGEN
 62
    18
420
        0
370
    18
100
AcDbLine
 10
2589.484674901389
 20
-973.763907650825
 30
0.0
 11
3479.555517519004
 21
-973.763907650825
 31
0.0
  0
LINE
  5
207
330
1F
100
AcDbEntity
  8
Layer100
  6
AUSGEZOGEN
 62
    18
420
        0
370
    50
100
AcDbLine
 10
2589.484674901389
 20
-935.557926217962
 30
0.0
 11
4235.404674901389
 21
-935.557926217962
 31
0.0
  0
INSERT
  5
20E
330
1F
100
AcDbEntity
  8
0
100
AcDbBlockReference
  2
SW_NOTE_0_5_nNn034
 10
0.0
 20
0.0
 30
0.0
  0
ENDSEC
  0
SECTION
  2
OBJECTS
  0
DICTIONARY
  5
C
330
0
100
AcDbDictionary
281
     1
  3
ACAD_DETAILVIEWSTYLE
350
247
  3
ACAD_GROUP
350
D
  3
ACAD_IMAGE_DICT
350
1F8
  3
ACAD_LAYOUT
350
1A
  3
ACAD_MATERIAL
350
43
  3
ACAD_MLEADERSTYLE
350
5B
  3
ACAD_MLINESTYLE
350
17
  3
ACAD_PLOTSETTINGS
350
19
  3
ACAD_PLOTSTYLENAME
350
E
  3
ACAD_SCALELIST
350
47
  3
ACAD_SECTIONVIEWSTYLE
350
248
  3
ACAD_TABLESTYLE
350
59
  3
ACAD_VISUALSTYLE
350
2A
  3
ACAD_WIPEOUT_VARS
350
244
  3
ACDB_RECOMPOSE_DATA
350
243
  3
AcDbVariableDictionary
350
20F
  0
SUN
  5
5D
330
29
100
AcDbSun
 90
        1
290
     0
 63
     7
421
 16777215
 40
1.0
291
     1
 91
  2455826
 92
 54000000
292
     0
 70
     2
 71
   256
280
     1
  0
IMAGEDEF_REACTOR
  5
1FB
330
1FA
100
AcDbRasterImageDefReactor
 90
        2
330
1FA
  0
DICTIONARY
  5
247
102
{ACAD_REACTORS
330
C
102
}
330
C
100
AcDbDictionary
281
     1
  0
DICTIONARY
  5
D
102
{ACAD_REACTORS
330
C
102
}
330
C
100
AcDbDictionary
281
     1
  0
DICTIONARY
  5
1F8
102
{ACAD_REACTORS
330
C
102
}
330
C
100
AcDbDictionary
281
     1
  3
NABER.JPG
350
1F9
  0
DICTIONARY
  5
1A
102
{ACAD_REACTORS
330
C
102
}
330
C
100
AcDbDictionary
281
     1
  3
Layout1
350
1E
  3
Layout2
350
26
  3
Model
350
22
  0
DICTIONARY
  5
43
102
{ACAD_REACTORS
330
C
102
}
330
C
100
AcDbDictionary
281
     1
  3
ByBlock
350
45
  3
ByLayer
350
44
  3
Global
350
46
  0
DICTIONARY
  5
5B
102
{ACAD_REACTORS
330
C
102
}
330
C
100
AcDbDictionary
281
     1
  3
Standard
350
5C
  0
DICTIONARY
  5
17
102
{ACAD_REACTORS
330
C
102
}
330
C
100
AcDbDictionary
281
     1
  3
Standard
350
18
  0
DICTIONARY
  5
19
102
{ACAD_REACTORS
330
C
102
}
330
C
100
AcDbDictionary
281
     1
  0
ACDBDICTIONARYWDFLT
  5
E
102
{ACAD_REACTORS
330
C
102
}
330
C
100
AcDbDictionary
281
     1
  3
Normal
350
F
100
AcDbDictionaryWithDefault
340
F
  0
DICTIONARY
  5
47
102
{ACAD_REACTORS
330
C
102
}
330
C
100
AcDbDictionary
281
     1
  3
A0
350
48
  3
A1
350
49
  3
A2
350
4A
  3
A3
350
4B
  3
A4
350
4C
  3
A5
350
4D
  3
A6
350
4E
  3
A7
350
4F
  3
A8
350
50
  3
A9
350
51
  3
B0
350
52
  3
B1
350
53
  3
B2
350
54
  3
B3
350
55
  3
B4
350
56
  3
B5
350
57
  3
B6
350
58
  0
DICTIONARY
  5
248
102
{ACAD_REACTORS
330
C
102
}
330
C
100
AcDbDictionary
281
     1
  0
DICTIONARY
  5
59
102
{ACAD_REACTORS
330
C
102
}
330
C
100
AcDbDictionary
281
     1
  3
Standard
350
5A
  0
DICTIONARY
  5
2A
102
{ACAD_REACTORS
330
C
102
}
330
C
100
AcDbDictionary
281
     1
  3
2dWireframe
350
2F
  3
Basic
350
32
  3
Brighten
350
36
  3
ColorChange
350
3A
  3
Conceptual
350
34
  3
Dim
350
35
  3
EdgeColorOff
350
3D
  3
Facepattern
350
39
  3
Flat
350
2B
  3
FlatWithEdges
350
2C
  3
Gouraud
350
2D
  3
GouraudWithEdges
350
2E
  3
Hidden
350
31
  3
JitterOff
350
3B
  3
Linepattern
350
38
  3
OverhangOff
350
3C
  3
Realistic
350
33
  3
Shaded
350
42
  3
Shaded with edges
350
41
  3
Shades of Gray
350
3E
  3
Sketchy
350
3F
  3
Thicken
350
37
  3
Wireframe
350
30
  3
X-Ray
350
40
  0
WIPEOUTVARIABLES
  5
244
102
{ACAD_REACTORS
330
C
102
}
330
C
100
AcDbWipeoutVariables
 70
     0
  0
XRECORD
  5
243
102
{ACAD_REACTORS
330
C
102
}
330
C
100
AcDbXrecord
280
     1
 90
        1
330
5A
  0
DICTIONARY
  5
20F
102
{ACAD_REACTORS
330
C
102
}
330
C
100
AcDbDictionary
281
     1
  3
CANNOSCALE
350
210
  3
CENTEREXE
350
24A
  3
CENTERLTYPEFILE
350
24B
  3
CMLEADERSTYLE
350
246
  3
CTABLESTYLE
350
245
  3
WIPEOUTFRAME
350
249
  0
IMAGEDEF
  5
1F9
102
{ACAD_REACTORS
330
1F8
330
1FB
102
}
330
1F8
100
AcDbRasterImageDef
 90
        0
  1
NABER.JPG
 10
3781.0
 20
943.0
 11
0.0002644802962179318
 21
0.0002644802962179318
280
     1
281
     0
  0
LAYOUT
  5
1E
102
{ACAD_REACTORS
330
1A
102
}
330
1A
100
AcDbPlotSettings
  1

  2
none_device
  4

  6

 40
0.0
 41
0.0
 42
0.0
 43
0.0
 44
0.0
 45
0.0
 46
0.0
 47
0.0
 48
0.0
 49
0.0
140
0.0
141
0.0
142
1.0
143
1.0
 70
   688
 72
     1
 73
     0
 74
     5
  7

 75
    16
 76
     0
 77
     2
 78
   300
147
1.0
148
0.0
149
0.0
100
AcDbLayout
  1
Layout1
 70
     1
 71
     1
 10
0.0
 20
0.0
 11
420.0
 21
297.0
 12
0.0
 22
0.0
 32
0.0
 14
1.000000000000E+20
 24
1.000000000000E+20
 34
1.000000000000E+20
 15
-1.000000000000E+20
 25
-1.000000000000E+20
 35
-1.000000000000E+20
146
0.0
 13
0.0
 23
0.0
 33
0.0
 16
1.0
 26
0.0
 36
0.0
 17
0.0
 27
1.0
 37
0.0
 76
     0
330
1B
  0
LAYOUT
  5
26
102
{ACAD_REACTORS
330
1A
102
}
330
1A
100
AcDbPlotSettings
  1

  2
none_device
  4

  6

 40
0.0
 41
0.0
 42
0.0
 43
0.0
 44
0.0
 45
0.0
 46
0.0
 47
0.0
 48
0.0
 49
0.0
140
0.0
141
0.0
142
1.0
143
1.0
 70
   688
 72
     1
 73
     0
 74
     5
  7

 75
    16
 76
     0
 77
     2
 78
   300
147
1.0
148
0.0
149
0.0
100
AcDbLayout
  1
Layout2
 70
     1
 71
     2
 10
0.0
 20
0.0
 11
0.0
 21
0.0
 12
0.0
 22
0.0
 32
0.0
 14
0.0
 24
0.0
 34
0.0
 15
0.0
 25
0.0
 35
0.0
146
0.0
 13
0.0
 23
0.0
 33
0.0
 16
1.0
 26
0.0
 36
0.0
 17
0.0
 27
1.0
 37
0.0
 76
     0
330
23
  0
LAYOUT
  5
22
102
{ACAD_REACTORS
330
1A
102
}
330
1A
100
AcDbPlotSettings
  1

  2
none_device
  4
Letter_(8.50_x_11.00_Inches)
  6

 40
6.35
 41
6.35
 42
6.35000508
 43
6.35000508
 44
215.9
 45
279.4
 46
0.0
 47
0.0
 48
0.0
 49
0.0
140
0.0
141
0.0
142
1.0
143
1.0
 70
  1712
 72
     1
 73
     0
 74
     0
  7

 75
     0
 76
     0
 77
     2
 78
   300
147
1.0
148
0.0
149
0.0
100
AcDbLayout
  1
Model
 70
     1
 71
     0
 10
0.0
 20
0.0
 11
420.0
 21
297.0
 12
0.0
 22
0.0
 32
0.0
 14
-1263.296510144732
 24
-1457.566759113731
 34
0.0
 15
6179.10585994751
 25
1471.843240886269
 35
0.0
146
0.0
 13
0.0
 23
0.0
 33
0.0
 16
1.0
 26
0.0
 36
0.0
 17
0.0
 27
1.0
 37
0.0
 76
     0
330
1F
331
29
  0
MATERIAL
  5
45
102
{ACAD_REACTORS
330
43
102
}
330
43
100
AcDbMaterial
  1
ByBlock
 72
     1
 94
      127
  0
MATERIAL
  5
44
102
{ACAD_REACTORS
330
43
102
}
330
43
100
AcDbMaterial
  1
ByLayer
 72
     1
 94
      127
  0
MATERIAL
  5
46
102
{ACAD_REACTORS
330
43
102
}
330
43
100
AcDbMaterial
  1
Global
 72
     1
 94
      127
  0
MLEADERSTYLE
  5
5C
102
{ACAD_REACTORS
330
5B
102
}
330
5B
100
AcDbMLeaderStyle
179
     2
170
     2
171
     1
172
     0
 90
        2
 40
0.0
 41
0.0
173
     1
 91
-1056964608
340
14
 92
       -2
290
     1
 42
2.0
291
     1
 43
8.0
  3
Standard
341
0
 44
4.0
300

342
11
174
     1
178
     6
175
     1
176
     0
 93
-1056964608
 45
4.0
292
     0
297
     0
 46
4.0
343
0
 94
-1056964608
 47
1.0
 49
1.0
140
1.0
293
     1
141
0.0
294
     1
177
     0
142
1.0
295
     0
296
     0
143
3.75
271
     0
272
     9
273
     9
  0
MLINESTYLE
  5
18
102
{ACAD_REACTORS
330
17
102
}
330
17
100
AcDbMlineStyle
  2
Standard
 70
     0
  3

 62
   256
 51
90.0
 52
90.0
 71
     2
 49
0.5
 62
   256
  6
BYLAYER
 49
-0.5
 62
   256
  6
BYLAYER
  0
ACDBPLACEHOLDER
  5
F
102
{ACAD_REACTORS
330
E
102
}
330
E
  0
SCALE
  5
48
102
{ACAD_REACTORS
330
47
102
}
330
47
100
AcDbScale
 70
     0
300
1:1
140
1.0
141
1.0
290
     1
  0
SCALE
  5
49
102
{ACAD_REACTORS
330
47
102
}
330
47
100
AcDbScale
 70
     0
300
1:2
140
1.0
141
2.0
290
     0
  0
SCALE
  5
4A
102
{ACAD_REACTORS
330
47
102
}
330
47
100
AcDbScale
 70
     0
300
1:4
140
1.0
141
4.0
290
     0
  0
SCALE
  5
4B
102
{ACAD_REACTORS
330
47
102
}
330
47
100
AcDbScale
 70
     0
300
1:5
140
1.0
141
5.0
290
     0
  0
SCALE
  5
4C
102
{ACAD_REACTORS
330
47
102
}
330
47
100
AcDbScale
 70
     0
300
1:8
140
1.0
141
8.0
290
     0
  0
SCALE
  5
4D
102
{ACAD_REACTORS
330
47
102
}
330
47
100
AcDbScale
 70
     0
300
1:10
140
1.0
141
10.0
290
     0
  0
SCALE
  5
4E
102
{ACAD_REACTORS
330
47
102
}
330
47
100
AcDbScale
 70
     0
300
1:16
140
1.0
141
16.0
290
     0
  0
SCALE
  5
4F
102
{ACAD_REACTORS
330
47
102
}
330
47
100
AcDbScale
 70
     0
300
1:20
140
1.0
141
20.0
290
     0
  0
SCALE
  5
50
102
{ACAD_REACTORS
330
47
102
}
330
47
100
AcDbScale
 70
     0
300
1:30
140
1.0
141
30.0
290
     0
  0
SCALE
  5
51
102
{ACAD_REACTORS
330
47
102
}
330
47
100
AcDbScale
 70
     0
300
1:40
140
1.0
141
40.0
290
     0
  0
SCALE
  5
52
102
{ACAD_REACTORS
330
47
102
}
330
47
100
AcDbScale
 70
     0
300
1:50
140
1.0
141
50.0
290
     0
  0
SCALE
  5
53
102
{ACAD_REACTORS
330
47
102
}
330
47
100
AcDbScale
 70
     0
300
1:100
140
1.0
141
100.0
290
     0
  0
SCALE
  5
54
102
{ACAD_REACTORS
330
47
102
}
330
47
100
AcDbScale
 70
     0
300
2:1
140
2.0
141
1.0
290
     0
  0
SCALE
  5
55
102
{ACAD_REACTORS
330
47
102
}
330
47
100
AcDbScale
 70
     0
300
4:1
140
4.0
141
1.0
290
     0
  0
SCALE
  5
56
102
{ACAD_REACTORS
330
47
102
}
330
47
100
AcDbScale
 70
     0
300
8:1
140
8.0
141
1.0
290
     0
  0
SCALE
  5
57
102
{ACAD_REACTORS
330
47
102
}
330
47
100
AcDbScale
 70
     0
300
10:1
140
10.0
141
1.0
290
     0
  0
SCALE
  5
58
102
{ACAD_REACTORS
330
47
102
}
330
47
100
AcDbScale
 70
     0
300
100:1
140
100.0
141
1.0
290
     0
  0
TABLESTYLE
  5
5A
102
{ACAD_REACTORS
330
59
102
}
102
{ACAD_XDICTIONARY
360
241
102
}
330
59
100
AcDbTableStyle
  3
Standard
 70
     0
 71
     0
 40
0.06
 41
0.06
280
     0
281
     0
  7
Standard
140
4.5
170
     2
 62
     0
 63
   257
283
     0
 90
        4
 91
        0
  1

274
    -2
284
     1
 64
     0
275
    -2
285
     1
 65
     0
276
    -2
286
     1
 66
     0
277
    -2
287
     1
 67
     0
278
    -2
288
     1
 68
     0
279
    -2
289
     1
 69
     0
  7
Standard
140
6.0
170
     5
 62
     0
 63
   257
283
     0
 90
        4
 91
        0
  1

274
    -2
284
     1
 64
     0
275
    -2
285
     1
 65
     0
276
    -2
286
     1
 66
     0
277
    -2
287
     1
 67
     0
278
    -2
288
     1
 68
     0
279
    -2
289
     1
 69
     0
  7
Standard
140
4.5
170
     5
 62
     0
 63
   257
283
     0
 90
        4
 91
        0
  1

274
    -2
284
     1
 64
     0
275
    -2
285
     1
 65
     0
276
    -2
286
     1
 66
     0
277
    -2
287
     1
 67
     0
278
    -2
288
     1
 68
     0
279
    -2
289
     1
 69
     0
  0
VISUALSTYLE
  5
2F
102
{ACAD_REACTORS
330
2A
102
}
102
{ACAD_XDICTIONARY
360
219
102
}
330
2A
100
AcDbVisualStyle
  2
2dWireframe
 70
     4
177
     2
291
     0
 71
     0
176
     1
 72
     2
176
     1
 73
     0
176
     1
 90
        0
176
     1
 40
0.6
176
     1
 41
30.0
176
     1
 62
     5
 63
     7
421
 16777215
176
     1
 74
     1
176
     1
 91
        4
176
     1
 64
     7
176
     1
 65
   257
176
     1
 75
     1
176
     1
175
     1
176
     1
 42
1.0
176
     1
 92
        0
176
     1
 66
   257
176
     1
 43
1.0
176
     1
 76
     1
176
     1
 77
     6
176
     1
 78
     2
176
     1
 67
     7
176
     1
 79
     5
176
     1
170
     0
176
     1
171
     0
176
     1
290
     0
176
     1
 93
        1
176
     1
 44
0.0
176
     1
173
     0
176
     1
  0
VISUALSTYLE
  5
32
102
{ACAD_REACTORS
330
2A
102
}
102
{ACAD_XDICTIONARY
360
21F
102
}
330
2A
100
AcDbVisualStyle
  2
Basic
 70
     7
177
     2
291
     1
 71
     1
176
     1
 72
     0
176
     1
 73
     1
176
     1
 90
        0
176
     1
 40
0.6
176
     1
 41
30.0
176
     1
 62
     5
 63
     7
421
 16777215
176
     1
 74
     0
176
     1
 91
        4
176
     1
 64
     7
176
     1
 65
   257
176
     1
 75
     1
176
     1
175
     1
176
     1
 42
1.0
176
     1
 92
        8
176
     1
 66
     7
176
     1
 43
1.0
176
     1
 76
     1
176
     1
 77
     6
176
     1
 78
     2
176
     1
 67
     7
176
     1
 79
     5
176
     1
170
     0
176
     1
171
     0
176
     1
290
     0
176
     1
 93
        1
176
     1
 44
0.0
176
     1
173
     0
176
     1
  0
VISUALSTYLE
  5
36
102
{ACAD_REACTORS
330
2A
102
}
102
{ACAD_XDICTIONARY
360
227
102
}
330
2A
100
AcDbVisualStyle
  2
Brighten
 70
    12
177
     2
291
     1
 71
     2
176
     1
 72
     2
176
     1
 73
     0
176
     1
 90
        0
176
     1
 40
0.6
176
     1
 41
30.0
176
     1
 62
     5
 63
     7
421
 16777215
176
     1
 74
     1
176
     1
 91
        4
176
     1
 64
     7
176
     1
 65
   257
176
     1
 75
     1
176
     1
175
     1
176
     1
 42
1.0
176
     1
 92
        8
176
     1
 66
     7
176
     1
 43
1.0
176
     1
 76
     1
176
     1
 77
     6
176
     1
 78
     2
176
     1
 67
     7
176
     1
 79
     5
176
     1
170
     0
176
     1
171
     0
176
     1
290
     0
176
     1
 93
        1
176
     1
 44
50.0
176
     1
173
     0
176
     1
  0
VISUALSTYLE
  5
3A
102
{ACAD_REACTORS
330
2A
102
}
102
{ACAD_XDICTIONARY
360
22F
102
}
330
2A
100
AcDbVisualStyle
  2
ColorChange
 70
    16
177
     2
291
     1
 71
     2
176
     1
 72
     2
176
     1
 73
     3
176
     1
 90
        0
176
     1
 40
0.6
176
     1
 41
30.0
176
     1
 62
     5
 63
     8
421
  8421504
176
     1
 74
     1
176
     1
 91
        4
176
     1
 64
     7
176
     1
 65
   257
176
     1
 75
     1
176
     1
175
     1
176
     1
 42
1.0
176
     1
 92
        8
176
     1
 66
     8
424
  8421504
176
     1
 43
1.0
176
     1
 76
     1
176
     1
 77
     6
176
     1
 78
     2
176
     1
 67
     7
176
     1
 79
     5
176
     1
170
     0
176
     1
171
     0
176
     1
290
     0
176
     1
 93
        1
176
     1
 44
0.0
176
     1
173
     0
176
     1
  0
VISUALSTYLE
  5
34
102
{ACAD_REACTORS
330
2A
102
}
102
{ACAD_XDICTIONARY
360
223
102
}
330
2A
100
AcDbVisualStyle
  2
Conceptual
 70
     9
177
     2
291
     0
 71
     3
176
     1
 72
     2
176
     1
 73
     0
176
     1
 90
        0
176
     1
 40
0.6
176
     1
 41
30.0
176
     1
 62
     5
 63
     7
421
 16777215
176
     1
 74
     2
176
     1
 91
        2
176
     1
 64
     7
176
     1
 65
   257
176
     1
 75
     1
176
     1
175
     1
176
     1
 42
179.0
176
     1
 92
        8
176
     1
 66
     7
176
     1
 43
1.0
176
     1
 76
     1
176
     1
 77
     6
176
     1
 78
     2
176
     1
 67
     7
176
     1
 79
     3
176
     1
170
     0
176
     1
171
     0
176
     1
290
     0
176
     1
 93
        1
176
     1
 44
0.0
176
     1
173
     0
176
     1
  0
VISUALSTYLE
  5
35
102
{ACAD_REACTORS
330
2A
102
}
102
{ACAD_XDICTIONARY
360
225
102
}
330
2A
100
AcDbVisualStyle
  2
Dim
 70
    11
177
     2
291
     1
 71
     2
176
     1
 72
     2
176
     1
 73
     0
176
     1
 90
        0
176
     1
 40
0.6
176
     1
 41
30.0
176
     1
 62
     5
 63
     7
421
 16777215
176
     1
 74
     1
176
     1
 91
        4
176
     1
 64
     7
176
     1
 65
   257
176
     1
 75
     1
176
     1
175
     1
176
     1
 42
1.0
176
     1
 92
        8
176
     1
 66
     7
176
     1
 43
1.0
176
     1
 76
     1
176
     1
 77
     6
176
     1
 78
     2
176
     1
 67
     7
176
     1
 79
     5
176
     1
170
     0
176
     1
171
     0
176
     1
290
     0
176
     1
 93
        1
176
     1
 44
-50.0
176
     1
173
     0
176
     1
  0
VISUALSTYLE
  5
3D
102
{ACAD_REACTORS
330
2A
102
}
102
{ACAD_XDICTIONARY
360
235
102
}
330
2A
100
AcDbVisualStyle
  2
EdgeColorOff
 70
    22
177
     2
291
     1
 71
     2
176
     0
 72
     2
176
     0
 73
     0
176
     0
 90
        0
176
     0
 40
0.6
176
     0
 41
30.0
176
     0
 62
     5
 63
     7
421
 16777215
176
     0
 74
     1
176
     0
 91
        4
176
     0
 64
     7
176
     0
 65
   257
176
     0
 75
     1
176
     0
175
     1
176
     0
 42
1.0
176
     0
 92
        8
176
     2
 66
     7
176
     0
 43
1.0
176
     0
 76
     1
176
     0
 77
     6
176
     0
 78
     2
176
     0
 67
     7
176
     0
 79
     5
176
     0
170
     0
176
     0
171
     0
176
     0
290
     0
176
     0
 93
        1
176
     0
 44
0.0
176
     0
173
     0
176
     0
  0
VISUALSTYLE
  5
39
102
{ACAD_REACTORS
330
2A
102
}
102
{ACAD_XDICTIONARY
360
22D
102
}
330
2A
100
AcDbVisualStyle
  2
Facepattern
 70
    15
177
     2
291
     1
 71
     2
176
     1
 72
     2
176
     1
 73
     0
176
     1
 90
        0
176
     1
 40
0.6
176
     1
 41
30.0
176
     1
 62
     5
 63
     7
421
 16777215
176
     1
 74
     1
176
     1
 91
        4
176
     1
 64
     7
176
     1
 65
   257
176
     1
 75
     1
176
     1
175
     1
176
     1
 42
1.0
176
     1
 92
        8
176
     1
 66
     7
176
     1
 43
1.0
176
     1
 76
     1
176
     1
 77
     6
176
     1
 78
     2
176
     1
 67
     7
176
     1
 79
     5
176
     1
170
     0
176
     1
171
     0
176
     1
290
     0
176
     1
 93
        1
176
     1
 44
0.0
176
     1
173
     0
176
     1
  0
VISUALSTYLE
  5
2B
102
{ACAD_REACTORS
330
2A
102
}
102
{ACAD_XDICTIONARY
360
211
102
}
330
2A
100
AcDbVisualStyle
  2
Flat
 70
     0
177
     2
291
     1
 71
     2
176
     1
 72
     1
176
     1
 73
     1
176
     1
 90
        2
176
     1
 40
0.6
176
     1
 41
30.0
176
     1
 62
     5
 63
     7
421
 16777215
176
     1
 74
     0
176
     1
 91
        0
176
     1
 64
     7
176
     1
 65
   257
176
     1
 75
     1
176
     1
175
     1
176
     1
 42
1.0
176
     1
 92
        8
176
     1
 66
     7
176
     1
 43
1.0
176
     1
 76
     1
176
     1
 77
     6
176
     1
 78
     2
176
     1
 67
     7
176
     1
 79
     5
176
     1
170
     0
176
     1
171
     0
176
     1
290
     0
176
     1
 93
       13
176
     1
 44
0.0
176
     1
173
     0
176
     1
  0
VISUALSTYLE
  5
2C
102
{ACAD_REACTORS
330
2A
102
}
102
{ACAD_XDICTIONARY
360
213
102
}
330
2A
100
AcDbVisualStyle
  2
FlatWithEdges
 70
     1
177
     2
291
     1
 71
     2
176
     1
 72
     1
176
     1
 73
     1
176
     1
 90
        2
176
     1
 40
0.6
176
     1
 41
30.0
176
     1
 62
     5
 63
     7
421
 16777215
176
     1
 74
     1
176
     1
 91
        0
176
     1
 64
     7
176
     1
 65
   257
176
     1
 75
     1
176
     1
175
     1
176
     1
 42
1.0
176
     1
 92
        0
176
     1
 66
   257
176
     1
 43
1.0
176
     1
 76
     1
176
     1
 77
     6
176
     1
 78
     2
176
     1
 67
     7
176
     1
 79
     5
176
     1
170
     0
176
     1
171
     0
176
     1
290
     0
176
     1
 93
       13
176
     1
 44
0.0
176
     1
173
     0
176
     1
  0
VISUALSTYLE
  5
2D
102
{ACAD_REACTORS
330
2A
102
}
102
{ACAD_XDICTIONARY
360
215
102
}
330
2A
100
AcDbVisualStyle
  2
Gouraud
 70
     2
177
     2
291
     1
 71
     2
176
     1
 72
     2
176
     1
 73
     1
176
     1
 90
        2
176
     1
 40
0.6
176
     1
 41
30.0
176
     1
 62
     5
 63
     7
421
 16777215
176
     1
 74
     0
176
     1
 91
        0
176
     1
 64
     7
176
     1
 65
   257
176
     1
 75
     1
176
     1
175
     1
176
     1
 42
1.0
176
     1
 92
        0
176
     1
 66
     7
176
     1
 43
1.0
176
     1
 76
     1
176
     1
 77
     6
176
     1
 78
     2
176
     1
 67
     7
176
     1
 79
     5
176
     1
170
     0
176
     1
171
     0
176
     1
290
     0
176
     1
 93
       13
176
     1
 44
0.0
176
     1
173
     0
176
     1
  0
VISUALSTYLE
  5
2E
102
{ACAD_REACTORS
330
2A
102
}
102
{ACAD_XDICTIONARY
360
217
102
}
330
2A
100
AcDbVisualStyle
  2
GouraudWithEdges
 70
     3
177
     2
291
     1
 71
     2
176
     1
 72
     2
176
     1
 73
     1
176
     1
 90
        2
176
     1
 40
0.6
176
     1
 41
30.0
176
     1
 62
     5
 63
     7
421
 16777215
176
     1
 74
     1
176
     1
 91
        0
176
     1
 64
     7
176
     1
 65
   257
176
     1
 75
     1
176
     1
175
     1
176
     1
 42
1.0
176
     1
 92
        0
176
     1
 66
   257
176
     1
 43
1.0
176
     1
 76
     1
176
     1
 77
     6
176
     1
 78
     2
176
     1
 67
     7
176
     1
 79
     5
176
     1
170
     0
176
     1
171
     0
176
     1
290
     0
176
     1
 93
       13
176
     1
 44
0.0
176
     1
173
     0
176
     1
  0
VISUALSTYLE
  5
31
102
{ACAD_REACTORS
330
2A
102
}
102
{ACAD_XDICTIONARY
360
21D
102
}
330
2A
100
AcDbVisualStyle
  2
Hidden
 70
     6
177
     2
291
     0
 71
     1
176
     1
 72
     2
176
     1
 73
     2
176
     1
 90
        0
176
     1
 40
0.6
176
     1
 41
30.0
176
     1
 62
     5
 63
     7
421
 16777215
176
     1
 74
     2
176
     1
 91
        2
176
     1
 64
     7
176
     1
 65
   257
176
     1
 75
     2
176
     1
175
     1
176
     1
 42
40.0
176
     1
 92
        0
176
     1
 66
   257
176
     1
 43
1.0
176
     1
 76
     1
176
     1
 77
     6
176
     1
 78
     2
176
     1
 67
     7
176
     1
 79
     3
176
     1
170
     0
176
     1
171
     0
176
     1
290
     0
176
     1
 93
        1
176
     1
 44
0.0
176
     1
173
     0
176
     1
  0
VISUALSTYLE
  5
3B
102
{ACAD_REACTORS
330
2A
102
}
102
{ACAD_XDICTIONARY
360
231
102
}
330
2A
100
AcDbVisualStyle
  2
JitterOff
 70
    20
177
     2
291
     1
 71
     2
176
     0
 72
     2
176
     0
 73
     0
176
     0
 90
        0
176
     0
 40
0.6
176
     0
 41
30.0
176
     0
 62
     5
 63
     7
421
 16777215
176
     0
 74
     1
176
     0
 91
        4
176
     0
 64
     7
176
     0
 65
   257
176
     0
 75
     1
176
     0
175
     1
176
     0
 42
1.0
176
     0
 92
       10
176
     2
 66
     7
176
     0
 43
1.0
176
     0
 76
     1
176
     0
 77
     6
176
     0
 78
     2
176
     0
 67
     7
176
     0
 79
     5
176
     0
170
     0
176
     0
171
     0
176
     0
290
     0
176
     0
 93
        1
176
     0
 44
0.0
176
     0
173
     0
176
     0
  0
VISUALSTYLE
  5
38
102
{ACAD_REACTORS
330
2A
102
}
102
{ACAD_XDICTIONARY
360
22B
102
}
330
2A
100
AcDbVisualStyle
  2
Linepattern
 70
    14
177
     2
291
     1
 71
     2
176
     1
 72
     2
176
     1
 73
     0
176
     1
 90
        0
176
     1
 40
0.6
176
     1
 41
30.0
176
     1
 62
     5
 63
     7
421
 16777215
176
     1
 74
     1
176
     1
 91
        4
176
     1
 64
     7
176
     1
 65
   257
176
     1
 75
     7
176
     1
175
     7
176
     1
 42
1.0
176
     1
 92
        8
176
     1
 66
     7
176
     1
 43
1.0
176
     1
 76
     1
176
     1
 77
     6
176
     1
 78
     2
176
     1
 67
     7
176
     1
 79
     5
176
     1
170
     0
176
     1
171
     0
176
     1
290
     0
176
     1
 93
        1
176
     1
 44
0.0
176
     1
173
     0
176
     1
  0
VISUALSTYLE
  5
3C
102
{ACAD_REACTORS
330
2A
102
}
102
{ACAD_XDICTIONARY
360
233
102
}
330
2A
100
AcDbVisualStyle
  2
OverhangOff
 70
    21
177
     2
291
     1
 71
     2
176
     0
 72
     2
176
     0
 73
     0
176
     0
 90
        0
176
     0
 40
0.6
176
     0
 41
30.0
176
     0
 62
     5
 63
     7
421
 16777215
176
     0
 74
     1
176
     0
 91
        4
176
     0
 64
     7
176
     0
 65
   257
176
     0
 75
     1
176
     0
175
     1
176
     0
 42
1.0
176
     0
 92
        9
176
     2
 66
     7
176
     0
 43
1.0
176
     0
 76
     1
176
     0
 77
     6
176
     0
 78
     2
176
     0
 67
     7
176
     0
 79
     5
176
     0
170
     0
176
     0
171
     0
176
     0
290
     0
176
     0
 93
        1
176
     0
 44
0.0
176
     0
173
     0
176
     0
  0
VISUALSTYLE
  5
33
102
{ACAD_REACTORS
330
2A
102
}
102
{ACAD_XDICTIONARY
360
221
102
}
330
2A
100
AcDbVisualStyle
  2
Realistic
 70
     8
177
     2
291
     0
 71
     2
176
     1
 72
     3
176
     1
 73
     0
176
     1
 90
        2
176
     1
 40
0.6
176
     1
 41
30.0
176
     1
 62
     5
 63
     7
421
 16777215
176
     1
 74
     0
176
     1
 91
        0
176
     1
 64
     7
176
     1
 65
   257
176
     1
 75
     1
176
     1
175
     1
176
     1
 42
1.0
176
     1
 92
        8
176
     1
 66
   257
176
     1
 43
1.0
176
     1
 76
     1
176
     1
 77
     6
176
     1
 78
     2
176
     1
 67
     7
176
     1
 79
     3
176
     1
170
     0
176
     1
171
     0
176
     1
290
     0
176
     1
 93
       13
176
     1
 44
0.0
176
     1
173
     0
176
     1
  0
VISUALSTYLE
  5
42
102
{ACAD_REACTORS
330
2A
102
}
102
{ACAD_XDICTIONARY
360
23F
102
}
330
2A
100
AcDbVisualStyle
  2
Shaded
 70
    27
177
     2
291
     0
 71
     2
176
     1
 72
     2
176
     1
 73
     1
176
     1
 90
        2
176
     1
 40
0.6
176
     1
 41
30.0
176
     1
 62
     5
 63
     7
421
 16777215
176
     1
 74
     0
176
     1
 91
        4
176
     1
 64
     7
176
     1
 65
   257
176
     1
 75
     1
176
     1
175
     1
176
     1
 42
1.0
176
     1
 92
        8
176
     1
 66
   257
176
     1
 43
1.0
176
     1
 76
     1
176
     1
 77
     6
176
     1
 78
     2
176
     1
 67
     8
425
  7895160
176
     1
 79
     3
176
     1
170
     0
176
     1
171
     0
176
     1
290
     0
176
     1
 93
        5
176
     1
 44
0.0
176
     1
173
     0
176
     1
  0
VISUALSTYLE
  5
41
102
{ACAD_REACTORS
330
2A
102
}
102
{ACAD_XDICTIONARY
360
23D
102
}
330
2A
100
AcDbVisualStyle
  2
Shaded with edges
 70
    26
177
     2
291
     0
 71
     2
176
     1
 72
     2
176
     1
 73
     1
176
     1
 90
        2
176
     1
 40
0.6
176
     1
 41
30.0
176
     1
 62
     5
 63
     7
421
 16777215
176
     1
 74
     1
176
     1
 91
       10
176
     1
 64
     7
176
     1
 65
   257
176
     1
 75
     2
176
     1
175
     1
176
     1
 42
1.0
176
     1
 92
        8
176
     1
 66
   257
176
     1
 43
1.0
176
     1
 76
     1
176
     1
 77
     6
176
     1
 78
     2
176
     1
 67
     7
176
     1
 79
     3
176
     1
170
     0
176
     1
171
     0
176
     1
290
     0
176
     1
 93
        5
176
     1
 44
0.0
176
     1
173
     0
176
     1
  0
VISUALSTYLE
  5
3E
102
{ACAD_REACTORS
330
2A
102
}
102
{ACAD_XDICTIONARY
360
237
102
}
330
2A
100
AcDbVisualStyle
  2
Shades of Gray
 70
    23
177
     2
291
     0
 71
     2
176
     1
 72
     2
176
     1
 73
     3
176
     1
 90
        0
176
     1
 40
0.6
176
     1
 41
30.0
176
     1
 62
     5
 63
     7
421
 16777215
176
     1
 74
     2
176
     1
 91
        2
176
     1
 64
     7
176
     1
 65
     7
176
     1
 75
     1
176
     1
175
     1
176
     1
 42
40.0
176
     1
 92
        8
176
     1
 66
     7
176
     1
 43
1.0
176
     1
 76
     1
176
     1
 77
     6
176
     1
 78
     2
176
     1
 67
     7
176
     1
 79
     3
176
     1
170
     0
176
     1
171
     0
176
     1
290
     0
176
     1
 93
        1
176
     1
 44
0.0
176
     1
173
     0
176
     1
  0
VISUALSTYLE
  5
3F
102
{ACAD_REACTORS
330
2A
102
}
102
{ACAD_XDICTIONARY
360
239
102
}
330
2A
100
AcDbVisualStyle
  2
Sketchy
 70
    24
177
     2
291
     0
 71
     1
176
     1
 72
     2
176
     1
 73
     2
176
     1
 90
        0
176
     1
 40
0.6
176
     1
 41
30.0
176
     1
 62
     5
 63
     7
421
 16777215
176
     1
 74
     2
176
     1
 91
        2
176
     1
 64
     7
176
     1
 65
     7
176
     1
 75
     1
176
     1
175
     1
176
     1
 42
40.0
176
     1
 92
       11
176
     1
 66
     7
176
     1
 43
1.0
176
     1
 76
     1
176
     1
 77
     6
176
     1
 78
     2
176
     1
 67
     7
176
     1
 79
     6
176
     1
170
     0
176
     1
171
     0
176
     1
290
     0
176
     1
 93
        1
176
     1
 44
0.0
176
     1
173
     0
176
     1
  0
VISUALSTYLE
  5
37
102
{ACAD_REACTORS
330
2A
102
}
102
{ACAD_XDICTIONARY
360
229
102
}
330
2A
100
AcDbVisualStyle
  2
Thicken
 70
    13
177
     2
291
     1
 71
     2
176
     1
 72
     2
176
     1
 73
     0
176
     1
 90
        0
176
     1
 40
0.6
176
     1
 41
30.0
176
     1
 62
     5
 63
     7
421
 16777215
176
     1
 74
     1
176
     1
 91
        4
176
     1
 64
     7
176
     1
 65
   257
176
     1
 75
     1
176
     1
175
     1
176
     1
 42
1.0
176
     1
 92
       12
176
     1
 66
     7
176
     1
 43
1.0
176
     1
 76
     1
176
     1
 77
     6
176
     1
 78
     2
176
     1
 67
     7
176
     1
 79
     5
176
     1
170
     0
176
     1
171
     0
176
     1
290
     0
176
     1
 93
        1
176
     1
 44
0.0
176
     1
173
     0
176
     1
  0
VISUALSTYLE
  5
30
102
{ACAD_REACTORS
330
2A
102
}
102
{ACAD_XDICTIONARY
360
21B
102
}
330
2A
100
AcDbVisualStyle
  2
Wireframe
 70
     5
177
     2
291
     0
 71
     0
176
     1
 72
     2
176
     1
 73
     0
176
     1
 90
        0
176
     1
 40
0.6
176
     1
 41
30.0
176
     1
 62
     5
 63
     7
421
 16777215
176
     1
 74
     1
176
     1
 91
        4
176
     1
 64
     7
176
     1
 65
   257
176
     1
 75
     1
176
     1
175
     1
176
     1
 42
1.0
176
     1
 92
        0
176
     1
 66
   257
176
     1
 43
1.0
176
     1
 76
     1
176
     1
 77
     6
176
     1
 78
     2
176
     1
 67
     7
176
     1
 79
     3
176
     1
170
     0
176
     1
171
     0
176
     1
290
     0
176
     1
 93
        1
176
     1
 44
0.0
176
     1
173
     0
176
     1
  0
VISUALSTYLE
  5
40
102
{ACAD_REACTORS
330
2A
102
}
102
{ACAD_XDICTIONARY
360
23B
102
}
330
2A
100
AcDbVisualStyle
  2
X-Ray
 70
    25
177
     2
291
     0
 71
     2
176
     1
 72
     2
176
     1
 73
     1
176
     1
 90
        1
176
     1
 40
0.5
176
     1
 41
30.0
176
     1
 62
     5
 63
     7
421
 16777215
176
     1
 74
     1
176
     1
 91
        0
176
     1
 64
     7
176
     1
 65
   257
176
     1
 75
     1
176
     1
175
     1
176
     1
 42
1.0
176
     1
 92
        8
176
     1
 66
     7
176
     1
 43
1.0
176
     1
 76
     1
176
     1
 77
     6
176
     1
 78
     2
176
     1
 67
     7
176
     1
 79
     3
176
     1
170
     0
176
     1
171
     0
176
     1
290
     0
176
     1
 93
       13
176
     1
 44
0.0
176
     1
173
     0
176
     1
  0
DICTIONARYVAR
  5
210
102
{ACAD_REACTORS
330
20F
102
}
330
20F
100
DictionaryVariables
280
     0
  1
1:1
  0
DICTIONARYVAR
  5
24A
102
{ACAD_REACTORS
330
20F
102
}
330
20F
100
DictionaryVariables
280
     0
  1
3.500000
  0
DICTIONARYVAR
  5
24B
102
{ACAD_REACTORS
330
20F
102
}
330
20F
100
DictionaryVariables
280
     0
  1
acadiso.lin
  0
DICTIONARYVAR
  5
246
102
{ACAD_REACTORS
330
20F
102
}
330
20F
100
DictionaryVariables
280
     0
  1
Standard
  0
DICTIONARYVAR
  5
245
102
{ACAD_REACTORS
330
20F
102
}
330
20F
100
DictionaryVariables
280
     0
  1
Standard
  0
DICTIONARYVAR
  5
249
102
{ACAD_REACTORS
330
20F
102
}
330
20F
100
DictionaryVariables
280
     0
  1
0
  0
DICTIONARY
  5
241
330
5A
100
AcDbDictionary
280
     1
281
     1
  3
ACAD_ROUNDTRIP_2008_TABLESTYLE_CELLSTYLEMAP
360
242
  0
DICTIONARY
  5
219
330
2F
100
AcDbDictionary
280
     1
281
     1
  3
ACAD_XREC_ROUNDTRIP
360
21A
  0
DICTIONARY
  5
21F
330
32
100
AcDbDictionary
280
     1
281
     1
  3
ACAD_XREC_ROUNDTRIP
360
220
  0
DICTIONARY
  5
227
330
36
100
AcDbDictionary
280
     1
281
     1
  3
ACAD_XREC_ROUNDTRIP
360
228
  0
DICTIONARY
  5
22F
330
3A
100
AcDbDictionary
280
     1
281
     1
  3
ACAD_XREC_ROUNDTRIP
360
230
  0
DICTIONARY
  5
223
330
34
100
AcDbDictionary
280
     1
281
     1
  3
ACAD_XREC_ROUNDTRIP
360
224
  0
DICTIONARY
  5
225
330
35
100
AcDbDictionary
280
     1
281
     1
  3
ACAD_XREC_ROUNDTRIP
360
226
  0
DICTIONARY
  5
235
330
3D
100
AcDbDictionary
280
     1
281
     1
  3
ACAD_XREC_ROUNDTRIP
360
236
  0
DICTIONARY
  5
22D
330
39
100
AcDbDictionary
280
     1
281
     1
  3
ACAD_XREC_ROUNDTRIP
360
22E
  0
DICTIONARY
  5
211
330
2B
100
AcDbDictionary
280
     1
281
     1
  3
ACAD_XREC_ROUNDTRIP
360
212
  0
DICTIONARY
  5
213
330
2C
100
AcDbDictionary
280
     1
281
     1
  3
ACAD_XREC_ROUNDTRIP
360
214
  0
DICTIONARY
  5
215
330
2D
100
AcDbDictionary
280
     1
281
     1
  3
ACAD_XREC_ROUNDTRIP
360
216
  0
DICTIONARY
  5
217
330
2E
100
AcDbDictionary
280
     1
281
     1
  3
ACAD_XREC_ROUNDTRIP
360
218
  0
DICTIONARY
  5
21D
330
31
100
AcDbDictionary
280
     1
281
     1
  3
ACAD_XREC_ROUNDTRIP
360
21E
  0
DICTIONARY
  5
231
330
3B
100
AcDbDictionary
280
     1
281
     1
  3
ACAD_XREC_ROUNDTRIP
360
232
  0
DICTIONARY
  5
22B
330
38
100
AcDbDictionary
280
     1
281
     1
  3
ACAD_XREC_ROUNDTRIP
360
22C
  0
DICTIONARY
  5
233
330
3C
100
AcDbDictionary
280
     1
281
     1
  3
ACAD_XREC_ROUNDTRIP
360
234
  0
DICTIONARY
  5
221
330
33
100
AcDbDictionary
280
     1
281
     1
  3
ACAD_XREC_ROUNDTRIP
360
222
  0
DICTIONARY
  5
23F
330
42
100
AcDbDictionary
280
     1
281
     1
  3
ACAD_XREC_ROUNDTRIP
360
240
  0
DICTIONARY
  5
23D
330
41
100
AcDbDictionary
280
     1
281
     1
  3
ACAD_XREC_ROUNDTRIP
360
23E
  0
DICTIONARY
  5
237
330
3E
100
AcDbDictionary
280
     1
281
     1
  3
ACAD_XREC_ROUNDTRIP
360
238
  0
DICTIONARY
  5
239
330
3F
100
AcDbDictionary
280
     1
281
     1
  3
ACAD_XREC_ROUNDTRIP
360
23A
  0
DICTIONARY
  5
229
330
37
100
AcDbDictionary
280
     1
281
     1
  3
ACAD_XREC_ROUNDTRIP
360
22A
  0
DICTIONARY
  5
21B
330
30
100
AcDbDictionary
280
     1
281
     1
  3
ACAD_XREC_ROUNDTRIP
360
21C
  0
DICTIONARY
  5
23B
330
40
100
AcDbDictionary
280
     1
281
     1
  3
ACAD_XREC_ROUNDTRIP
360
23C
  0
CELLSTYLEMAP
  5
242
102
{ACAD_REACTORS
330
241
102
}
330
241
100
AcDbCellStyleMap
 90
        3
300
CELLSTYLE
  1
TABLEFORMAT_BEGIN
 90
        5
170
     1
 91
        0
 92
    32768
 62
   257
 93
        1
300
CONTENTFORMAT
  1
CONTENTFORMAT_BEGIN
 90
        0
 91
        0
 92
        4
 93
        0
300

 40
0.0
140
1.0
 94
        5
 62
     0
340
11
144
6.0
309
CONTENTFORMAT_END
171
     1
301
MARGIN
  1
CELLMARGIN_BEGIN
 40
1.5
 40
1.5
 40
1.5
 40
1.5
 40
1.5
 40
1.5
309
CELLMARGIN_END
 94
        6
 95
        1
302
GRIDFORMAT
  1
GRIDFORMAT_BEGIN
 90
        0
 91
        1
 62
     0
 92
       -2
340
14
 93
        0
 40
0.045
309
GRIDFORMAT_END
 95
        2
302
GRIDFORMAT
  1
GRIDFORMAT_BEGIN
 90
        0
 91
        1
 62
     0
 92
       -2
340
14
 93
        0
 40
0.045
309
GRIDFORMAT_END
 95
        4
302
GRIDFORMAT
  1
GRIDFORMAT_BEGIN
 90
        0
 91
        1
 62
     0
 92
       -2
340
14
 93
        0
 40
0.045
309
GRIDFORMAT_END
 95
        8
302
GRIDFORMAT
  1
GRIDFORMAT_BEGIN
 90
        0
 91
        1
 62
     0
 92
       -2
340
14
 93
        0
 40
0.045
309
GRIDFORMAT_END
 95
       16
302
GRIDFORMAT
  1
GRIDFORMAT_BEGIN
 90
        0
 91
        1
 62
     0
 92
       -2
340
14
 93
        0
 40
0.045
309
GRIDFORMAT_END
 95
       32
302
GRIDFORMAT
  1
GRIDFORMAT_BEGIN
 90
        0
 91
        1
 62
     0
 92
       -2
340
14
 93
        0
 40
0.045
309
GRIDFORMAT_END
309
TABLEFORMAT_END
  1
CELLSTYLE_BEGIN
 90
        1
 91
        1
300
_TITLE
309
CELLSTYLE_END
300
CELLSTYLE
  1
TABLEFORMAT_BEGIN
 90
        5
170
     1
 91
        0
 92
        0
 62
   257
 93
        1
300
CONTENTFORMAT
  1
CONTENTFORMAT_BEGIN
 90
        0
 91
        0
 92
        4
 93
        0
300

 40
0.0
140
1.0
 94
        5
 62
     0
340
11
144
4.5
309
CONTENTFORMAT_END
171
     1
301
MARGIN
  1
CELLMARGIN_BEGIN
 40
1.5
 40
1.5
 40
1.5
 40
1.5
 40
1.5
 40
1.5
309
CELLMARGIN_END
 94
        6
 95
        1
302
GRIDFORMAT
  1
GRIDFORMAT_BEGIN
 90
        0
 91
        1
 62
     0
 92
       -2
340
14
 93
        0
 40
0.045
309
GRIDFORMAT_END
 95
        2
302
GRIDFORMAT
  1
GRIDFORMAT_BEGIN
 90
        0
 91
        1
 62
     0
 92
       -2
340
14
 93
        0
 40
0.045
309
GRIDFORMAT_END
 95
        4
302
GRIDFORMAT
  1
GRIDFORMAT_BEGIN
 90
        0
 91
        1
 62
     0
 92
       -2
340
14
 93
        0
 40
0.045
309
GRIDFORMAT_END
 95
        8
302
GRIDFORMAT
  1
GRIDFORMAT_BEGIN
 90
        0
 91
        1
 62
     0
 92
       -2
340
14
 93
        0
 40
0.045
309
GRIDFORMAT_END
 95
       16
302
GRIDFORMAT
  1
GRIDFORMAT_BEGIN
 90
        0
 91
        1
 62
     0
 92
       -2
340
14
 93
        0
 40
0.045
309
GRIDFORMAT_END
 95
       32
302
GRIDFORMAT
  1
GRIDFORMAT_BEGIN
 90
        0
 91
        1
 62
     0
 92
       -2
340
14
 93
        0
 40
0.045
309
GRIDFORMAT_END
309
TABLEFORMAT_END
  1
CELLSTYLE_BEGIN
 90
        2
 91
        1
300
_HEADER
309
CELLSTYLE_END
300
CELLSTYLE
  1
TABLEFORMAT_BEGIN
 90
        5
170
     1
 91
        0
 92
        0
 62
   257
 93
        1
300
CONTENTFORMAT
  1
CONTENTFORMAT_BEGIN
 90
        0
 91
        0
 92
        4
 93
        0
300

 40
0.0
140
1.0
 94
        2
 62
     0
340
11
144
4.5
309
CONTENTFORMAT_END
171
     1
301
MARGIN
  1
CELLMARGIN_BEGIN
 40
1.5
 40
1.5
 40
1.5
 40
1.5
 40
1.5
 40
1.5
309
CELLMARGIN_END
 94
        6
 95
        1
302
GRIDFORMAT
  1
GRIDFORMAT_BEGIN
 90
        0
 91
        1
 62
     0
 92
       -2
340
14
 93
        0
 40
0.045
309
GRIDFORMAT_END
 95
        2
302
GRIDFORMAT
  1
GRIDFORMAT_BEGIN
 90
        0
 91
        1
 62
     0
 92
       -2
340
14
 93
        0
 40
0.045
309
GRIDFORMAT_END
 95
        4
302
GRIDFORMAT
  1
GRIDFORMAT_BEGIN
 90
        0
 91
        1
 62
     0
 92
       -2
340
14
 93
        0
 40
0.045
309
GRIDFORMAT_END
 95
        8
302
GRIDFORMAT
  1
GRIDFORMAT_BEGIN
 90
        0
 91
        1
 62
     0
 92
       -2
340
14
 93
        0
 40
0.045
309
GRIDFORMAT_END
 95
       16
302
GRIDFORMAT
  1
GRIDFORMAT_BEGIN
 90
        0
 91
        1
 62
     0
 92
       -2
340
14
 93
        0
 40
0.045
309
GRIDFORMAT_END
 95
       32
302
GRIDFORMAT
  1
GRIDFORMAT_BEGIN
 90
        0
 91
        1
 62
     0
 92
       -2
340
14
 93
        0
 40
0.045
309
GRIDFORMAT_END
309
TABLEFORMAT_END
  1
CELLSTYLE_BEGIN
 90
        3
 91
        2
300
_DATA
309
CELLSTYLE_END
  0
XRECORD
  5
21A
102
{ACAD_REACTORS
330
219
102
}
330
219
100
AcDbXrecord
280
     1
102
RTVSPost2010Prop28
280
     1
102
RTVSPost2010PropOp28
 70
     1
102
RTVSPost2010Prop29
280
     1
102
RTVSPost2010PropOp29
 70
     1
102
RTVSPost2010Prop30
280
     0
102
RTVSPost2010PropOp30
 70
     1
102
RTVSPost2010Prop31
280
     0
102
RTVSPost2010PropOp31
 70
     1
102
RTVSPost2010Prop32
280
     0
102
RTVSPost2010PropOp32
 70
     1
102
RTVSPost2010Prop33
280
     0
102
RTVSPost2010PropOp33
 70
     1
102
RTVSPost2010Prop34
280
     0
102
RTVSPost2010PropOp34
 70
     1
102
RTVSPost2010Prop35
280
     0
102
RTVSPost2010PropOp35
 70
     1
102
RTVSPost2010Prop36
280
     0
102
RTVSPost2010PropOp36
 70
     1
102
RTVSPost2010Prop37
 90
       50
102
RTVSPost2010PropOp37
 70
     1
102
RTVSPost2010Prop38
140
0.0
102
RTVSPost2010PropOp38
 70
     1
102
RTVSPost2010Prop39
140
1.0
102
RTVSPost2010PropOp39
 70
     1
102
RTVSPost2010Prop40
 90
        0
102
RTVSPost2010PropOp40
 70
     1
102
RTVSPost2010Prop41ColorIndex
 90
       18
102
RTVSPost2010Prop41ColorRGB
 90
        0
102
RTVSPost2010PropOp41
 70
     1
102
RTVSPost2010Prop42
 90
       50
102
RTVSPost2010PropOp42
 70
     1
102
RTVSPost2010Prop43
 90
        3
102
RTVSPost2010PropOp43
 70
     1
102
RTVSPost2010Prop44ColorIndex
 90
        5
102
RTVSPost2010Prop44ColorRGB
 90
      255
102
RTVSPost2010PropOp44
 70
     1
102
RTVSPost2010Prop45
280
     0
102
RTVSPost2010PropOp45
 70
     1
102
RTVSPost2010Prop46
 90
       50
102
RTVSPost2010PropOp46
 70
     1
102
RTVSPost2010Prop47
 90
       50
102
RTVSPost2010PropOp47
 70
     1
102
RTVSPost2010Prop48
 90
       50
102
RTVSPost2010PropOp48
 70
     1
102
RTVSPost2010Prop49
280
     0
102
RTVSPost2010PropOp49
 70
     1
102
RTVSPost2010Prop50
 90
       50
102
RTVSPost2010PropOp50
 70
     1
102
RTVSPost2010Prop51ColorIndex
 90
      256
102
RTVSPost2010Prop51ColorRGB
 90
-16777216
102
RTVSPost2010PropOp51
 70
     0
102
RTVSPost2010Prop52
140
1.0
102
RTVSPost2010PropOp52
 70
     0
102
RTVSPost2010Prop53
 90
        2
102
RTVSPost2010PropOp53
 70
     1
102
RTVSPost2010Prop54
  1
strokes_ogs.tif
102
RTVSPost2010PropOp54
 70
     1
102
RTVSPost2010Prop55
280
     0
102
RTVSPost2010PropOp55
 70
     1
102
RTVSPost2010Prop56
140
1.0
102
RTVSPost2010PropOp56
 70
     1
102
RTVSPost2010Prop57
140
1.0
102
RTVSPost2010PropOp57
 70
     1
  0
XRECORD
  5
220
102
{ACAD_REACTORS
330
21F
102
}
330
21F
100
AcDbXrecord
280
     1
102
RTVSPost2010Prop28
280
     0
102
RTVSPost2010PropOp28
 70
     1
102
RTVSPost2010Prop29
280
     1
102
RTVSPost2010PropOp29
 70
     1
102
RTVSPost2010Prop30
280
     1
102
RTVSPost2010PropOp30
 70
     1
102
RTVSPost2010Prop31
280
     0
102
RTVSPost2010PropOp31
 70
     1
102
RTVSPost2010Prop32
280
     0
102
RTVSPost2010PropOp32
 70
     1
102
RTVSPost2010Prop33
280
     0
102
RTVSPost2010PropOp33
 70
     1
102
RTVSPost2010Prop34
280
     0
102
RTVSPost2010PropOp34
 70
     1
102
RTVSPost2010Prop35
280
     0
102
RTVSPost2010PropOp35
 70
     1
102
RTVSPost2010Prop36
280
     0
102
RTVSPost2010PropOp36
 70
     1
102
RTVSPost2010Prop37
 90
       50
102
RTVSPost2010PropOp37
 70
     1
102
RTVSPost2010Prop38
140
0.0
102
RTVSPost2010PropOp38
 70
     1
102
RTVSPost2010Prop39
140
1.0
102
RTVSPost2010PropOp39
 70
     1
102
RTVSPost2010Prop40
 90
        0
102
RTVSPost2010PropOp40
 70
     1
102
RTVSPost2010Prop41ColorIndex
 90
       18
102
RTVSPost2010Prop41ColorRGB
 90
        0
102
RTVSPost2010PropOp41
 70
     1
102
RTVSPost2010Prop42
 90
       50
102
RTVSPost2010PropOp42
 70
     1
102
RTVSPost2010Prop43
 90
        3
102
RTVSPost2010PropOp43
 70
     1
102
RTVSPost2010Prop44ColorIndex
 90
        5
102
RTVSPost2010Prop44ColorRGB
 90
      255
102
RTVSPost2010PropOp44
 70
     1
102
RTVSPost2010Prop45
280
     0
102
RTVSPost2010PropOp45
 70
     1
102
RTVSPost2010Prop46
 90
       50
102
RTVSPost2010PropOp46
 70
     1
102
RTVSPost2010Prop47
 90
       50
102
RTVSPost2010PropOp47
 70
     1
102
RTVSPost2010Prop48
 90
       50
102
RTVSPost2010PropOp48
 70
     1
102
RTVSPost2010Prop49
280
     0
102
RTVSPost2010PropOp49
 70
     1
102
RTVSPost2010Prop50
 90
       50
102
RTVSPost2010PropOp50
 70
     1
102
RTVSPost2010Prop51ColorIndex
 90
      256
102
RTVSPost2010Prop51ColorRGB
 90
-16777216
102
RTVSPost2010PropOp51
 70
     0
102
RTVSPost2010Prop52
140
1.0
102
RTVSPost2010PropOp52
 70
     0
102
RTVSPost2010Prop53
 90
        2
102
RTVSPost2010PropOp53
 70
     1
102
RTVSPost2010Prop54
  1
strokes_ogs.tif
102
RTVSPost2010PropOp54
 70
     1
102
RTVSPost2010Prop55
280
     0
102
RTVSPost2010PropOp55
 70
     1
102
RTVSPost2010Prop56
140
1.0
102
RTVSPost2010PropOp56
 70
     1
102
RTVSPost2010Prop57
140
1.0
102
RTVSPost2010PropOp57
 70
     1
  0
XRECORD
  5
228
102
{ACAD_REACTORS
330
227
102
}
330
227
100
AcDbXrecord
280
     1
102
RTVSPost2010Prop28
280
     0
102
RTVSPost2010PropOp28
 70
     1
102
RTVSPost2010Prop29
280
     1
102
RTVSPost2010PropOp29
 70
     1
102
RTVSPost2010Prop30
280
     1
102
RTVSPost2010PropOp30
 70
     1
102
RTVSPost2010Prop31
280
     0
102
RTVSPost2010PropOp31
 70
     1
102
RTVSPost2010Prop32
280
     0
102
RTVSPost2010PropOp32
 70
     1
102
RTVSPost2010Prop33
280
     0
102
RTVSPost2010PropOp33
 70
     1
102
RTVSPost2010Prop34
280
     0
102
RTVSPost2010PropOp34
 70
     1
102
RTVSPost2010Prop35
280
     0
102
RTVSPost2010PropOp35
 70
     1
102
RTVSPost2010Prop36
280
     0
102
RTVSPost2010PropOp36
 70
     1
102
RTVSPost2010Prop37
 90
       50
102
RTVSPost2010PropOp37
 70
     1
102
RTVSPost2010Prop38
140
0.0
102
RTVSPost2010PropOp38
 70
     1
102
RTVSPost2010Prop39
140
1.0
102
RTVSPost2010PropOp39
 70
     1
102
RTVSPost2010Prop40
 90
        0
102
RTVSPost2010PropOp40
 70
     1
102
RTVSPost2010Prop41ColorIndex
 90
       18
102
RTVSPost2010Prop41ColorRGB
 90
        0
102
RTVSPost2010PropOp41
 70
     1
102
RTVSPost2010Prop42
 90
       50
102
RTVSPost2010PropOp42
 70
     1
102
RTVSPost2010Prop43
 90
        3
102
RTVSPost2010PropOp43
 70
     1
102
RTVSPost2010Prop44ColorIndex
 90
        5
102
RTVSPost2010Prop44ColorRGB
 90
      255
102
RTVSPost2010PropOp44
 70
     1
102
RTVSPost2010Prop45
280
     0
102
RTVSPost2010PropOp45
 70
     1
102
RTVSPost2010Prop46
 90
       50
102
RTVSPost2010PropOp46
 70
     1
102
RTVSPost2010Prop47
 90
       50
102
RTVSPost2010PropOp47
 70
     1
102
RTVSPost2010Prop48
 90
       50
102
RTVSPost2010PropOp48
 70
     1
102
RTVSPost2010Prop49
280
     0
102
RTVSPost2010PropOp49
 70
     1
102
RTVSPost2010Prop50
 90
       50
102
RTVSPost2010PropOp50
 70
     1
102
RTVSPost2010Prop51ColorIndex
 90
      256
102
RTVSPost2010Prop51ColorRGB
 90
-16777216
102
RTVSPost2010PropOp51
 70
     0
102
RTVSPost2010Prop52
140
1.0
102
RTVSPost2010PropOp52
 70
     0
102
RTVSPost2010Prop53
 90
        2
102
RTVSPost2010PropOp53
 70
     1
102
RTVSPost2010Prop54
  1
strokes_ogs.tif
102
RTVSPost2010PropOp54
 70
     1
102
RTVSPost2010Prop55
280
     0
102
RTVSPost2010PropOp55
 70
     1
102
RTVSPost2010Prop56
140
1.0
102
RTVSPost2010PropOp56
 70
     1
102
RTVSPost2010Prop57
140
1.0
102
RTVSPost2010PropOp57
 70
     1
  0
XRECORD
  5
230
102
{ACAD_REACTORS
330
22F
102
}
330
22F
100
AcDbXrecord
280
     1
102
RTVSPost2010Prop28
280
     0
102
RTVSPost2010PropOp28
 70
     1
102
RTVSPost2010Prop29
280
     1
102
RTVSPost2010PropOp29
 70
     1
102
RTVSPost2010Prop30
280
     1
102
RTVSPost2010PropOp30
 70
     1
102
RTVSPost2010Prop31
280
     0
102
RTVSPost2010PropOp31
 70
     1
102
RTVSPost2010Prop32
280
     0
102
RTVSPost2010PropOp32
 70
     1
102
RTVSPost2010Prop33
280
     0
102
RTVSPost2010PropOp33
 70
     1
102
RTVSPost2010Prop34
280
     0
102
RTVSPost2010PropOp34
 70
     1
102
RTVSPost2010Prop35
280
     0
102
RTVSPost2010PropOp35
 70
     1
102
RTVSPost2010Prop36
280
     0
102
RTVSPost2010PropOp36
 70
     1
102
RTVSPost2010Prop37
 90
       50
102
RTVSPost2010PropOp37
 70
     1
102
RTVSPost2010Prop38
140
0.0
102
RTVSPost2010PropOp38
 70
     1
102
RTVSPost2010Prop39
140
1.0
102
RTVSPost2010PropOp39
 70
     1
102
RTVSPost2010Prop40
 90
        0
102
RTVSPost2010PropOp40
 70
     1
102
RTVSPost2010Prop41ColorIndex
 90
       18
102
RTVSPost2010Prop41ColorRGB
 90
        0
102
RTVSPost2010PropOp41
 70
     1
102
RTVSPost2010Prop42
 90
       50
102
RTVSPost2010PropOp42
 70
     1
102
RTVSPost2010Prop43
 90
        3
102
RTVSPost2010PropOp43
 70
     1
102
RTVSPost2010Prop44ColorIndex
 90
        5
102
RTVSPost2010Prop44ColorRGB
 90
      255
102
RTVSPost2010PropOp44
 70
     1
102
RTVSPost2010Prop45
280
     0
102
RTVSPost2010PropOp45
 70
     1
102
RTVSPost2010Prop46
 90
       50
102
RTVSPost2010PropOp46
 70
     1
102
RTVSPost2010Prop47
 90
       50
102
RTVSPost2010PropOp47
 70
     1
102
RTVSPost2010Prop48
 90
       50
102
RTVSPost2010PropOp48
 70
     1
102
RTVSPost2010Prop49
280
     0
102
RTVSPost2010PropOp49
 70
     1
102
RTVSPost2010Prop50
 90
       50
102
RTVSPost2010PropOp50
 70
     1
102
RTVSPost2010Prop51ColorIndex
 90
      256
102
RTVSPost2010Prop51ColorRGB
 90
-16777216
102
RTVSPost2010PropOp51
 70
     0
102
RTVSPost2010Prop52
140
1.0
102
RTVSPost2010PropOp52
 70
     0
102
RTVSPost2010Prop53
 90
        2
102
RTVSPost2010PropOp53
 70
     1
102
RTVSPost2010Prop54
  1
strokes_ogs.tif
102
RTVSPost2010PropOp54
 70
     1
102
RTVSPost2010Prop55
280
     0
102
RTVSPost2010PropOp55
 70
     1
102
RTVSPost2010Prop56
140
1.0
102
RTVSPost2010PropOp56
 70
     1
102
RTVSPost2010Prop57
140
1.0
102
RTVSPost2010PropOp57
 70
     1
  0
XRECORD
  5
224
102
{ACAD_REACTORS
330
223
102
}
330
223
100
AcDbXrecord
280
     1
102
RTVSPost2010Prop28
280
     0
102
RTVSPost2010PropOp28
 70
     1
102
RTVSPost2010Prop29
280
     1
102
RTVSPost2010PropOp29
 70
     1
102
RTVSPost2010Prop30
280
     1
102
RTVSPost2010PropOp30
 70
     1
102
RTVSPost2010Prop31
280
     0
102
RTVSPost2010PropOp31
 70
     1
102
RTVSPost2010Prop32
280
     0
102
RTVSPost2010PropOp32
 70
     1
102
RTVSPost2010Prop33
280
     0
102
RTVSPost2010PropOp33
 70
     1
102
RTVSPost2010Prop34
280
     0
102
RTVSPost2010PropOp34
 70
     1
102
RTVSPost2010Prop35
280
     0
102
RTVSPost2010PropOp35
 70
     1
102
RTVSPost2010Prop36
280
     0
102
RTVSPost2010PropOp36
 70
     1
102
RTVSPost2010Prop37
 90
       50
102
RTVSPost2010PropOp37
 70
     1
102
RTVSPost2010Prop38
140
0.0
102
RTVSPost2010PropOp38
 70
     1
102
RTVSPost2010Prop39
140
1.0
102
RTVSPost2010PropOp39
 70
     1
102
RTVSPost2010Prop40
 90
        0
102
RTVSPost2010PropOp40
 70
     1
102
RTVSPost2010Prop41ColorIndex
 90
       18
102
RTVSPost2010Prop41ColorRGB
 90
        0
102
RTVSPost2010PropOp41
 70
     1
102
RTVSPost2010Prop42
 90
       50
102
RTVSPost2010PropOp42
 70
     1
102
RTVSPost2010Prop43
 90
        3
102
RTVSPost2010PropOp43
 70
     1
102
RTVSPost2010Prop44ColorIndex
 90
        5
102
RTVSPost2010Prop44ColorRGB
 90
      255
102
RTVSPost2010PropOp44
 70
     1
102
RTVSPost2010Prop45
280
     0
102
RTVSPost2010PropOp45
 70
     1
102
RTVSPost2010Prop46
 90
       50
102
RTVSPost2010PropOp46
 70
     1
102
RTVSPost2010Prop47
 90
       50
102
RTVSPost2010PropOp47
 70
     1
102
RTVSPost2010Prop48
 90
       50
102
RTVSPost2010PropOp48
 70
     1
102
RTVSPost2010Prop49
280
     0
102
RTVSPost2010PropOp49
 70
     1
102
RTVSPost2010Prop50
 90
       50
102
RTVSPost2010PropOp50
 70
     1
102
RTVSPost2010Prop51ColorIndex
 90
      256
102
RTVSPost2010Prop51ColorRGB
 90
-16777216
102
RTVSPost2010PropOp51
 70
     0
102
RTVSPost2010Prop52
140
1.0
102
RTVSPost2010PropOp52
 70
     0
102
RTVSPost2010Prop53
 90
        2
102
RTVSPost2010PropOp53
 70
     1
102
RTVSPost2010Prop54
  1
strokes_ogs.tif
102
RTVSPost2010PropOp54
 70
     1
102
RTVSPost2010Prop55
280
     0
102
RTVSPost2010PropOp55
 70
     1
102
RTVSPost2010Prop56
140
1.0
102
RTVSPost2010PropOp56
 70
     1
102
RTVSPost2010Prop57
140
1.0
102
RTVSPost2010PropOp57
 70
     1
  0
XRECORD
  5
226
102
{ACAD_REACTORS
330
225
102
}
330
225
100
AcDbXrecord
280
     1
102
RTVSPost2010Prop28
280
     0
102
RTVSPost2010PropOp28
 70
     1
102
RTVSPost2010Prop29
280
     1
102
RTVSPost2010PropOp29
 70
     1
102
RTVSPost2010Prop30
280
     1
102
RTVSPost2010PropOp30
 70
     1
102
RTVSPost2010Prop31
280
     0
102
RTVSPost2010PropOp31
 70
     1
102
RTVSPost2010Prop32
280
     0
102
RTVSPost2010PropOp32
 70
     1
102
RTVSPost2010Prop33
280
     0
102
RTVSPost2010PropOp33
 70
     1
102
RTVSPost2010Prop34
280
     0
102
RTVSPost2010PropOp34
 70
     1
102
RTVSPost2010Prop35
280
     0
102
RTVSPost2010PropOp35
 70
     1
102
RTVSPost2010Prop36
280
     0
102
RTVSPost2010PropOp36
 70
     1
102
RTVSPost2010Prop37
 90
       50
102
RTVSPost2010PropOp37
 70
     1
102
RTVSPost2010Prop38
140
0.0
102
RTVSPost2010PropOp38
 70
     1
102
RTVSPost2010Prop39
140
1.0
102
RTVSPost2010PropOp39
 70
     1
102
RTVSPost2010Prop40
 90
        0
102
RTVSPost2010PropOp40
 70
     1
102
RTVSPost2010Prop41ColorIndex
 90
       18
102
RTVSPost2010Prop41ColorRGB
 90
        0
102
RTVSPost2010PropOp41
 70
     1
102
RTVSPost2010Prop42
 90
       50
102
RTVSPost2010PropOp42
 70
     1
102
RTVSPost2010Prop43
 90
        3
102
RTVSPost2010PropOp43
 70
     1
102
RTVSPost2010Prop44ColorIndex
 90
        5
102
RTVSPost2010Prop44ColorRGB
 90
      255
102
RTVSPost2010PropOp44
 70
     1
102
RTVSPost2010Prop45
280
     0
102
RTVSPost2010PropOp45
 70
     1
102
RTVSPost2010Prop46
 90
       50
102
RTVSPost2010PropOp46
 70
     1
102
RTVSPost2010Prop47
 90
       50
102
RTVSPost2010PropOp47
 70
     1
102
RTVSPost2010Prop48
 90
       50
102
RTVSPost2010PropOp48
 70
     1
102
RTVSPost2010Prop49
280
     0
102
RTVSPost2010PropOp49
 70
     1
102
RTVSPost2010Prop50
 90
       50
102
RTVSPost2010PropOp50
 70
     1
102
RTVSPost2010Prop51ColorIndex
 90
      256
102
RTVSPost2010Prop51ColorRGB
 90
-16777216
102
RTVSPost2010PropOp51
 70
     0
102
RTVSPost2010Prop52
140
1.0
102
RTVSPost2010PropOp52
 70
     0
102
RTVSPost2010Prop53
 90
        2
102
RTVSPost2010PropOp53
 70
     1
102
RTVSPost2010Prop54
  1
strokes_ogs.tif
102
RTVSPost2010PropOp54
 70
     1
102
RTVSPost2010Prop55
280
     0
102
RTVSPost2010PropOp55
 70
     1
102
RTVSPost2010Prop56
140
1.0
102
RTVSPost2010PropOp56
 70
     1
102
RTVSPost2010Prop57
140
1.0
102
RTVSPost2010PropOp57
 70
     1
  0
XRECORD
  5
236
102
{ACAD_REACTORS
330
235
102
}
330
235
100
AcDbXrecord
280
     1
102
RTVSPost2010Prop28
280
     0
102
RTVSPost2010PropOp28
 70
     0
102
RTVSPost2010Prop29
280
     1
102
RTVSPost2010PropOp29
 70
     0
102
RTVSPost2010Prop30
280
     1
102
RTVSPost2010PropOp30
 70
     0
102
RTVSPost2010Prop31
280
     0
102
RTVSPost2010PropOp31
 70
     0
102
RTVSPost2010Prop32
280
     0
102
RTVSPost2010PropOp32
 70
     0
102
RTVSPost2010Prop33
280
     0
102
RTVSPost2010PropOp33
 70
     0
102
RTVSPost2010Prop34
280
     0
102
RTVSPost2010PropOp34
 70
     0
102
RTVSPost2010Prop35
280
     0
102
RTVSPost2010PropOp35
 70
     0
102
RTVSPost2010Prop36
280
     0
102
RTVSPost2010PropOp36
 70
     0
102
RTVSPost2010Prop37
 90
       50
102
RTVSPost2010PropOp37
 70
     0
102
RTVSPost2010Prop38
140
0.0
102
RTVSPost2010PropOp38
 70
     0
102
RTVSPost2010Prop39
140
1.0
102
RTVSPost2010PropOp39
 70
     0
102
RTVSPost2010Prop40
 90
        0
102
RTVSPost2010PropOp40
 70
     0
102
RTVSPost2010Prop41ColorIndex
 90
       18
102
RTVSPost2010Prop41ColorRGB
 90
        0
102
RTVSPost2010PropOp41
 70
     0
102
RTVSPost2010Prop42
 90
       50
102
RTVSPost2010PropOp42
 70
     0
102
RTVSPost2010Prop43
 90
        3
102
RTVSPost2010PropOp43
 70
     0
102
RTVSPost2010Prop44ColorIndex
 90
        5
102
RTVSPost2010Prop44ColorRGB
 90
      255
102
RTVSPost2010PropOp44
 70
     0
102
RTVSPost2010Prop45
280
     0
102
RTVSPost2010PropOp45
 70
     0
102
RTVSPost2010Prop46
 90
       50
102
RTVSPost2010PropOp46
 70
     0
102
RTVSPost2010Prop47
 90
       50
102
RTVSPost2010PropOp47
 70
     0
102
RTVSPost2010Prop48
 90
       50
102
RTVSPost2010PropOp48
 70
     0
102
RTVSPost2010Prop49
280
     0
102
RTVSPost2010PropOp49
 70
     0
102
RTVSPost2010Prop50
 90
       50
102
RTVSPost2010PropOp50
 70
     0
102
RTVSPost2010Prop51ColorIndex
 90
      256
102
RTVSPost2010Prop51ColorRGB
 90
-16777216
102
RTVSPost2010PropOp51
 70
     0
102
RTVSPost2010Prop52
140
1.0
102
RTVSPost2010PropOp52
 70
     0
102
RTVSPost2010Prop53
 90
        2
102
RTVSPost2010PropOp53
 70
     0
102
RTVSPost2010Prop54
  1
strokes_ogs.tif
102
RTVSPost2010PropOp54
 70
     0
102
RTVSPost2010Prop55
280
     0
102
RTVSPost2010PropOp55
 70
     0
102
RTVSPost2010Prop56
140
1.0
102
RTVSPost2010PropOp56
 70
     0
102
RTVSPost2010Prop57
140
1.0
102
RTVSPost2010PropOp57
 70
     0
  0
XRECORD
  5
22E
102
{ACAD_REACTORS
330
22D
102
}
330
22D
100
AcDbXrecord
280
     1
102
RTVSPost2010Prop28
280
     0
102
RTVSPost2010PropOp28
 70
     1
102
RTVSPost2010Prop29
280
     1
102
RTVSPost2010PropOp29
 70
     1
102
RTVSPost2010Prop30
280
     1
102
RTVSPost2010PropOp30
 70
     1
102
RTVSPost2010Prop31
280
     0
102
RTVSPost2010PropOp31
 70
     1
102
RTVSPost2010Prop32
280
     0
102
RTVSPost2010PropOp32
 70
     1
102
RTVSPost2010Prop33
280
     0
102
RTVSPost2010PropOp33
 70
     1
102
RTVSPost2010Prop34
280
     0
102
RTVSPost2010PropOp34
 70
     1
102
RTVSPost2010Prop35
280
     0
102
RTVSPost2010PropOp35
 70
     1
102
RTVSPost2010Prop36
280
     0
102
RTVSPost2010PropOp36
 70
     1
102
RTVSPost2010Prop37
 90
       50
102
RTVSPost2010PropOp37
 70
     1
102
RTVSPost2010Prop38
140
0.0
102
RTVSPost2010PropOp38
 70
     1
102
RTVSPost2010Prop39
140
1.0
102
RTVSPost2010PropOp39
 70
     1
102
RTVSPost2010Prop40
 90
        0
102
RTVSPost2010PropOp40
 70
     1
102
RTVSPost2010Prop41ColorIndex
 90
       18
102
RTVSPost2010Prop41ColorRGB
 90
        0
102
RTVSPost2010PropOp41
 70
     1
102
RTVSPost2010Prop42
 90
       50
102
RTVSPost2010PropOp42
 70
     1
102
RTVSPost2010Prop43
 90
        3
102
RTVSPost2010PropOp43
 70
     1
102
RTVSPost2010Prop44ColorIndex
 90
        5
102
RTVSPost2010Prop44ColorRGB
 90
      255
102
RTVSPost2010PropOp44
 70
     1
102
RTVSPost2010Prop45
280
     0
102
RTVSPost2010PropOp45
 70
     1
102
RTVSPost2010Prop46
 90
       50
102
RTVSPost2010PropOp46
 70
     1
102
RTVSPost2010Prop47
 90
       50
102
RTVSPost2010PropOp47
 70
     1
102
RTVSPost2010Prop48
 90
       50
102
RTVSPost2010PropOp48
 70
     1
102
RTVSPost2010Prop49
280
     0
102
RTVSPost2010PropOp49
 70
     1
102
RTVSPost2010Prop50
 90
       50
102
RTVSPost2010PropOp50
 70
     1
102
RTVSPost2010Prop51ColorIndex
 90
      256
102
RTVSPost2010Prop51ColorRGB
 90
-16777216
102
RTVSPost2010PropOp51
 70
     0
102
RTVSPost2010Prop52
140
1.0
102
RTVSPost2010PropOp52
 70
     0
102
RTVSPost2010Prop53
 90
        2
102
RTVSPost2010PropOp53
 70
     1
102
RTVSPost2010Prop54
  1
strokes_ogs.tif
102
RTVSPost2010PropOp54
 70
     1
102
RTVSPost2010Prop55
280
     0
102
RTVSPost2010PropOp55
 70
     1
102
RTVSPost2010Prop56
140
1.0
102
RTVSPost2010PropOp56
 70
     1
102
RTVSPost2010Prop57
140
1.0
102
RTVSPost2010PropOp57
 70
     1
  0
XRECORD
  5
212
102
{ACAD_REACTORS
330
211
102
}
330
211
100
AcDbXrecord
280
     1
102
RTVSPost2010Prop28
280
     0
102
RTVSPost2010PropOp28
 70
     1
102
RTVSPost2010Prop29
280
     1
102
RTVSPost2010PropOp29
 70
     1
102
RTVSPost2010Prop30
280
     1
102
RTVSPost2010PropOp30
 70
     1
102
RTVSPost2010Prop31
280
     0
102
RTVSPost2010PropOp31
 70
     1
102
RTVSPost2010Prop32
280
     0
102
RTVSPost2010PropOp32
 70
     1
102
RTVSPost2010Prop33
280
     0
102
RTVSPost2010PropOp33
 70
     1
102
RTVSPost2010Prop34
280
     0
102
RTVSPost2010PropOp34
 70
     1
102
RTVSPost2010Prop35
280
     0
102
RTVSPost2010PropOp35
 70
     1
102
RTVSPost2010Prop36
280
     0
102
RTVSPost2010PropOp36
 70
     1
102
RTVSPost2010Prop37
 90
       50
102
RTVSPost2010PropOp37
 70
     1
102
RTVSPost2010Prop38
140
0.0
102
RTVSPost2010PropOp38
 70
     1
102
RTVSPost2010Prop39
140
1.0
102
RTVSPost2010PropOp39
 70
     1
102
RTVSPost2010Prop40
 90
        0
102
RTVSPost2010PropOp40
 70
     1
102
RTVSPost2010Prop41ColorIndex
 90
       18
102
RTVSPost2010Prop41ColorRGB
 90
        0
102
RTVSPost2010PropOp41
 70
     1
102
RTVSPost2010Prop42
 90
       50
102
RTVSPost2010PropOp42
 70
     1
102
RTVSPost2010Prop43
 90
        3
102
RTVSPost2010PropOp43
 70
     1
102
RTVSPost2010Prop44ColorIndex
 90
        5
102
RTVSPost2010Prop44ColorRGB
 90
      255
102
RTVSPost2010PropOp44
 70
     1
102
RTVSPost2010Prop45
280
     0
102
RTVSPost2010PropOp45
 70
     1
102
RTVSPost2010Prop46
 90
       50
102
RTVSPost2010PropOp46
 70
     1
102
RTVSPost2010Prop47
 90
       50
102
RTVSPost2010PropOp47
 70
     1
102
RTVSPost2010Prop48
 90
       50
102
RTVSPost2010PropOp48
 70
     1
102
RTVSPost2010Prop49
280
     0
102
RTVSPost2010PropOp49
 70
     1
102
RTVSPost2010Prop50
 90
       50
102
RTVSPost2010PropOp50
 70
     1
102
RTVSPost2010Prop51ColorIndex
 90
      256
102
RTVSPost2010Prop51ColorRGB
 90
-16777216
102
RTVSPost2010PropOp51
 70
     0
102
RTVSPost2010Prop52
140
1.0
102
RTVSPost2010PropOp52
 70
     0
102
RTVSPost2010Prop53
 90
        2
102
RTVSPost2010PropOp53
 70
     1
102
RTVSPost2010Prop54
  1
strokes_ogs.tif
102
RTVSPost2010PropOp54
 70
     1
102
RTVSPost2010Prop55
280
     0
102
RTVSPost2010PropOp55
 70
     1
102
RTVSPost2010Prop56
140
1.0
102
RTVSPost2010PropOp56
 70
     1
102
RTVSPost2010Prop57
140
1.0
102
RTVSPost2010PropOp57
 70
     1
  0
XRECORD
  5
214
102
{ACAD_REACTORS
330
213
102
}
330
213
100
AcDbXrecord
280
     1
102
RTVSPost2010Prop28
280
     0
102
RTVSPost2010PropOp28
 70
     1
102
RTVSPost2010Prop29
280
     1
102
RTVSPost2010PropOp29
 70
     1
102
RTVSPost2010Prop30
280
     1
102
RTVSPost2010PropOp30
 70
     1
102
RTVSPost2010Prop31
280
     0
102
RTVSPost2010PropOp31
 70
     1
102
RTVSPost2010Prop32
280
     0
102
RTVSPost2010PropOp32
 70
     1
102
RTVSPost2010Prop33
280
     0
102
RTVSPost2010PropOp33
 70
     1
102
RTVSPost2010Prop34
280
     0
102
RTVSPost2010PropOp34
 70
     1
102
RTVSPost2010Prop35
280
     0
102
RTVSPost2010PropOp35
 70
     1
102
RTVSPost2010Prop36
280
     0
102
RTVSPost2010PropOp36
 70
     1
102
RTVSPost2010Prop37
 90
       50
102
RTVSPost2010PropOp37
 70
     1
102
RTVSPost2010Prop38
140
0.0
102
RTVSPost2010PropOp38
 70
     1
102
RTVSPost2010Prop39
140
1.0
102
RTVSPost2010PropOp39
 70
     1
102
RTVSPost2010Prop40
 90
        0
102
RTVSPost2010PropOp40
 70
     1
102
RTVSPost2010Prop41ColorIndex
 90
       18
102
RTVSPost2010Prop41ColorRGB
 90
        0
102
RTVSPost2010PropOp41
 70
     1
102
RTVSPost2010Prop42
 90
       50
102
RTVSPost2010PropOp42
 70
     1
102
RTVSPost2010Prop43
 90
        3
102
RTVSPost2010PropOp43
 70
     1
102
RTVSPost2010Prop44ColorIndex
 90
        5
102
RTVSPost2010Prop44ColorRGB
 90
      255
102
RTVSPost2010PropOp44
 70
     1
102
RTVSPost2010Prop45
280
     0
102
RTVSPost2010PropOp45
 70
     1
102
RTVSPost2010Prop46
 90
       50
102
RTVSPost2010PropOp46
 70
     1
102
RTVSPost2010Prop47
 90
       50
102
RTVSPost2010PropOp47
 70
     1
102
RTVSPost2010Prop48
 90
       50
102
RTVSPost2010PropOp48
 70
     1
102
RTVSPost2010Prop49
280
     0
102
RTVSPost2010PropOp49
 70
     1
102
RTVSPost2010Prop50
 90
       50
102
RTVSPost2010PropOp50
 70
     1
102
RTVSPost2010Prop51ColorIndex
 90
      256
102
RTVSPost2010Prop51ColorRGB
 90
-16777216
102
RTVSPost2010PropOp51
 70
     0
102
RTVSPost2010Prop52
140
1.0
102
RTVSPost2010PropOp52
 70
     0
102
RTVSPost2010Prop53
 90
        2
102
RTVSPost2010PropOp53
 70
     1
102
RTVSPost2010Prop54
  1
strokes_ogs.tif
102
RTVSPost2010PropOp54
 70
     1
102
RTVSPost2010Prop55
280
     0
102
RTVSPost2010PropOp55
 70
     1
102
RTVSPost2010Prop56
140
1.0
102
RTVSPost2010PropOp56
 70
     1
102
RTVSPost2010Prop57
140
1.0
102
RTVSPost2010PropOp57
 70
     1
  0
XRECORD
  5
216
102
{ACAD_REACTORS
330
215
102
}
330
215
100
AcDbXrecord
280
     1
102
RTVSPost2010Prop28
280
     0
102
RTVSPost2010PropOp28
 70
     1
102
RTVSPost2010Prop29
280
     1
102
RTVSPost2010PropOp29
 70
     1
102
RTVSPost2010Prop30
280
     1
102
RTVSPost2010PropOp30
 70
     1
102
RTVSPost2010Prop31
280
     0
102
RTVSPost2010PropOp31
 70
     1
102
RTVSPost2010Prop32
280
     0
102
RTVSPost2010PropOp32
 70
     1
102
RTVSPost2010Prop33
280
     0
102
RTVSPost2010PropOp33
 70
     1
102
RTVSPost2010Prop34
280
     0
102
RTVSPost2010PropOp34
 70
     1
102
RTVSPost2010Prop35
280
     0
102
RTVSPost2010PropOp35
 70
     1
102
RTVSPost2010Prop36
280
     0
102
RTVSPost2010PropOp36
 70
     1
102
RTVSPost2010Prop37
 90
       50
102
RTVSPost2010PropOp37
 70
     1
102
RTVSPost2010Prop38
140
0.0
102
RTVSPost2010PropOp38
 70
     1
102
RTVSPost2010Prop39
140
1.0
102
RTVSPost2010PropOp39
 70
     1
102
RTVSPost2010Prop40
 90
        0
102
RTVSPost2010PropOp40
 70
     1
102
RTVSPost2010Prop41ColorIndex
 90
       18
102
RTVSPost2010Prop41ColorRGB
 90
        0
102
RTVSPost2010PropOp41
 70
     1
102
RTVSPost2010Prop42
 90
       50
102
RTVSPost2010PropOp42
 70
     1
102
RTVSPost2010Prop43
 90
        3
102
RTVSPost2010PropOp43
 70
     1
102
RTVSPost2010Prop44ColorIndex
 90
        5
102
RTVSPost2010Prop44ColorRGB
 90
      255
102
RTVSPost2010PropOp44
 70
     1
102
RTVSPost2010Prop45
280
     0
102
RTVSPost2010PropOp45
 70
     1
102
RTVSPost2010Prop46
 90
       50
102
RTVSPost2010PropOp46
 70
     1
102
RTVSPost2010Prop47
 90
       50
102
RTVSPost2010PropOp47
 70
     1
102
RTVSPost2010Prop48
 90
       50
102
RTVSPost2010PropOp48
 70
     1
102
RTVSPost2010Prop49
280
     0
102
RTVSPost2010PropOp49
 70
     1
102
RTVSPost2010Prop50
 90
       50
102
RTVSPost2010PropOp50
 70
     1
102
RTVSPost2010Prop51ColorIndex
 90
      256
102
RTVSPost2010Prop51ColorRGB
 90
-16777216
102
RTVSPost2010PropOp51
 70
     0
102
RTVSPost2010Prop52
140
1.0
102
RTVSPost2010PropOp52
 70
     0
102
RTVSPost2010Prop53
 90
        2
102
RTVSPost2010PropOp53
 70
     1
102
RTVSPost2010Prop54
  1
strokes_ogs.tif
102
RTVSPost2010PropOp54
 70
     1
102
RTVSPost2010Prop55
280
     0
102
RTVSPost2010PropOp55
 70
     1
102
RTVSPost2010Prop56
140
1.0
102
RTVSPost2010PropOp56
 70
     1
102
RTVSPost2010Prop57
140
1.0
102
RTVSPost2010PropOp57
 70
     1
  0
XRECORD
  5
218
102
{ACAD_REACTORS
330
217
102
}
330
217
100
AcDbXrecord
280
     1
102
RTVSPost2010Prop28
280
     0
102
RTVSPost2010PropOp28
 70
     1
102
RTVSPost2010Prop29
280
     1
102
RTVSPost2010PropOp29
 70
     1
102
RTVSPost2010Prop30
280
     1
102
RTVSPost2010PropOp30
 70
     1
102
RTVSPost2010Prop31
280
     0
102
RTVSPost2010PropOp31
 70
     1
102
RTVSPost2010Prop32
280
     0
102
RTVSPost2010PropOp32
 70
     1
102
RTVSPost2010Prop33
280
     0
102
RTVSPost2010PropOp33
 70
     1
102
RTVSPost2010Prop34
280
     0
102
RTVSPost2010PropOp34
 70
     1
102
RTVSPost2010Prop35
280
     0
102
RTVSPost2010PropOp35
 70
     1
102
RTVSPost2010Prop36
280
     0
102
RTVSPost2010PropOp36
 70
     1
102
RTVSPost2010Prop37
 90
       50
102
RTVSPost2010PropOp37
 70
     1
102
RTVSPost2010Prop38
140
0.0
102
RTVSPost2010PropOp38
 70
     1
102
RTVSPost2010Prop39
140
1.0
102
RTVSPost2010PropOp39
 70
     1
102
RTVSPost2010Prop40
 90
        0
102
RTVSPost2010PropOp40
 70
     1
102
RTVSPost2010Prop41ColorIndex
 90
       18
102
RTVSPost2010Prop41ColorRGB
 90
        0
102
RTVSPost2010PropOp41
 70
     1
102
RTVSPost2010Prop42
 90
       50
102
RTVSPost2010PropOp42
 70
     1
102
RTVSPost2010Prop43
 90
        3
102
RTVSPost2010PropOp43
 70
     1
102
RTVSPost2010Prop44ColorIndex
 90
        5
102
RTVSPost2010Prop44ColorRGB
 90
      255
102
RTVSPost2010PropOp44
 70
     1
102
RTVSPost2010Prop45
280
     0
102
RTVSPost2010PropOp45
 70
     1
102
RTVSPost2010Prop46
 90
       50
102
RTVSPost2010PropOp46
 70
     1
102
RTVSPost2010Prop47
 90
       50
102
RTVSPost2010PropOp47
 70
     1
102
RTVSPost2010Prop48
 90
       50
102
RTVSPost2010PropOp48
 70
     1
102
RTVSPost2010Prop49
280
     0
102
RTVSPost2010PropOp49
 70
     1
102
RTVSPost2010Prop50
 90
       50
102
RTVSPost2010PropOp50
 70
     1
102
RTVSPost2010Prop51ColorIndex
 90
      256
102
RTVSPost2010Prop51ColorRGB
 90
-16777216
102
RTVSPost2010PropOp51
 70
     0
102
RTVSPost2010Prop52
140
1.0
102
RTVSPost2010PropOp52
 70
     0
102
RTVSPost2010Prop53
 90
        2
102
RTVSPost2010PropOp53
 70
     1
102
RTVSPost2010Prop54
  1
strokes_ogs.tif
102
RTVSPost2010PropOp54
 70
     1
102
RTVSPost2010Prop55
280
     0
102
RTVSPost2010PropOp55
 70
     1
102
RTVSPost2010Prop56
140
1.0
102
RTVSPost2010PropOp56
 70
     1
102
RTVSPost2010Prop57
140
1.0
102
RTVSPost2010PropOp57
 70
     1
  0
XRECORD
  5
21E
102
{ACAD_REACTORS
330
21D
102
}
330
21D
100
AcDbXrecord
280
     1
102
RTVSPost2010Prop28
280
     0
102
RTVSPost2010PropOp28
 70
     1
102
RTVSPost2010Prop29
280
     1
102
RTVSPost2010PropOp29
 70
     1
102
RTVSPost2010Prop30
280
     1
102
RTVSPost2010PropOp30
 70
     1
102
RTVSPost2010Prop31
280
     0
102
RTVSPost2010PropOp31
 70
     1
102
RTVSPost2010Prop32
280
     0
102
RTVSPost2010PropOp32
 70
     1
102
RTVSPost2010Prop33
280
     0
102
RTVSPost2010PropOp33
 70
     1
102
RTVSPost2010Prop34
280
     0
102
RTVSPost2010PropOp34
 70
     1
102
RTVSPost2010Prop35
280
     0
102
RTVSPost2010PropOp35
 70
     1
102
RTVSPost2010Prop36
280
     0
102
RTVSPost2010PropOp36
 70
     1
102
RTVSPost2010Prop37
 90
       50
102
RTVSPost2010PropOp37
 70
     1
102
RTVSPost2010Prop38
140
0.0
102
RTVSPost2010PropOp38
 70
     1
102
RTVSPost2010Prop39
140
1.0
102
RTVSPost2010PropOp39
 70
     1
102
RTVSPost2010Prop40
 90
        0
102
RTVSPost2010PropOp40
 70
     1
102
RTVSPost2010Prop41ColorIndex
 90
       18
102
RTVSPost2010Prop41ColorRGB
 90
        0
102
RTVSPost2010PropOp41
 70
     1
102
RTVSPost2010Prop42
 90
       50
102
RTVSPost2010PropOp42
 70
     1
102
RTVSPost2010Prop43
 90
        3
102
RTVSPost2010PropOp43
 70
     1
102
RTVSPost2010Prop44ColorIndex
 90
        5
102
RTVSPost2010Prop44ColorRGB
 90
      255
102
RTVSPost2010PropOp44
 70
     1
102
RTVSPost2010Prop45
280
     0
102
RTVSPost2010PropOp45
 70
     1
102
RTVSPost2010Prop46
 90
       50
102
RTVSPost2010PropOp46
 70
     1
102
RTVSPost2010Prop47
 90
       50
102
RTVSPost2010PropOp47
 70
     1
102
RTVSPost2010Prop48
 90
       50
102
RTVSPost2010PropOp48
 70
     1
102
RTVSPost2010Prop49
280
     0
102
RTVSPost2010PropOp49
 70
     1
102
RTVSPost2010Prop50
 90
       50
102
RTVSPost2010PropOp50
 70
     1
102
RTVSPost2010Prop51ColorIndex
 90
      256
102
RTVSPost2010Prop51ColorRGB
 90
-16777216
102
RTVSPost2010PropOp51
 70
     0
102
RTVSPost2010Prop52
140
1.0
102
RTVSPost2010PropOp52
 70
     0
102
RTVSPost2010Prop53
 90
        2
102
RTVSPost2010PropOp53
 70
     1
102
RTVSPost2010Prop54
  1
strokes_ogs.tif
102
RTVSPost2010PropOp54
 70
     1
102
RTVSPost2010Prop55
280
     0
102
RTVSPost2010PropOp55
 70
     1
102
RTVSPost2010Prop56
140
1.0
102
RTVSPost2010PropOp56
 70
     1
102
RTVSPost2010Prop57
140
1.0
102
RTVSPost2010PropOp57
 70
     1
  0
XRECORD
  5
232
102
{ACAD_REACTORS
330
231
102
}
330
231
100
AcDbXrecord
280
     1
102
RTVSPost2010Prop28
280
     0
102
RTVSPost2010PropOp28
 70
     0
102
RTVSPost2010Prop29
280
     1
102
RTVSPost2010PropOp29
 70
     0
102
RTVSPost2010Prop30
280
     1
102
RTVSPost2010PropOp30
 70
     0
102
RTVSPost2010Prop31
280
     0
102
RTVSPost2010PropOp31
 70
     0
102
RTVSPost2010Prop32
280
     0
102
RTVSPost2010PropOp32
 70
     0
102
RTVSPost2010Prop33
280
     0
102
RTVSPost2010PropOp33
 70
     0
102
RTVSPost2010Prop34
280
     0
102
RTVSPost2010PropOp34
 70
     0
102
RTVSPost2010Prop35
280
     0
102
RTVSPost2010PropOp35
 70
     0
102
RTVSPost2010Prop36
280
     0
102
RTVSPost2010PropOp36
 70
     0
102
RTVSPost2010Prop37
 90
       50
102
RTVSPost2010PropOp37
 70
     0
102
RTVSPost2010Prop38
140
0.0
102
RTVSPost2010PropOp38
 70
     0
102
RTVSPost2010Prop39
140
1.0
102
RTVSPost2010PropOp39
 70
     0
102
RTVSPost2010Prop40
 90
        0
102
RTVSPost2010PropOp40
 70
     0
102
RTVSPost2010Prop41ColorIndex
 90
       18
102
RTVSPost2010Prop41ColorRGB
 90
        0
102
RTVSPost2010PropOp41
 70
     0
102
RTVSPost2010Prop42
 90
       50
102
RTVSPost2010PropOp42
 70
     0
102
RTVSPost2010Prop43
 90
        3
102
RTVSPost2010PropOp43
 70
     0
102
RTVSPost2010Prop44ColorIndex
 90
        5
102
RTVSPost2010Prop44ColorRGB
 90
      255
102
RTVSPost2010PropOp44
 70
     0
102
RTVSPost2010Prop45
280
     0
102
RTVSPost2010PropOp45
 70
     0
102
RTVSPost2010Prop46
 90
       50
102
RTVSPost2010PropOp46
 70
     0
102
RTVSPost2010Prop47
 90
       50
102
RTVSPost2010PropOp47
 70
     0
102
RTVSPost2010Prop48
 90
       50
102
RTVSPost2010PropOp48
 70
     0
102
RTVSPost2010Prop49
280
     0
102
RTVSPost2010PropOp49
 70
     0
102
RTVSPost2010Prop50
 90
       50
102
RTVSPost2010PropOp50
 70
     0
102
RTVSPost2010Prop51ColorIndex
 90
      256
102
RTVSPost2010Prop51ColorRGB
 90
-16777216
102
RTVSPost2010PropOp51
 70
     0
102
RTVSPost2010Prop52
140
1.0
102
RTVSPost2010PropOp52
 70
     0
102
RTVSPost2010Prop53
 90
        2
102
RTVSPost2010PropOp53
 70
     0
102
RTVSPost2010Prop54
  1
strokes_ogs.tif
102
RTVSPost2010PropOp54
 70
     0
102
RTVSPost2010Prop55
280
     0
102
RTVSPost2010PropOp55
 70
     0
102
RTVSPost2010Prop56
140
1.0
102
RTVSPost2010PropOp56
 70
     0
102
RTVSPost2010Prop57
140
1.0
102
RTVSPost2010PropOp57
 70
     0
  0
XRECORD
  5
22C
102
{ACAD_REACTORS
330
22B
102
}
330
22B
100
AcDbXrecord
280
     1
102
RTVSPost2010Prop28
280
     0
102
RTVSPost2010PropOp28
 70
     1
102
RTVSPost2010Prop29
280
     1
102
RTVSPost2010PropOp29
 70
     1
102
RTVSPost2010Prop30
280
     1
102
RTVSPost2010PropOp30
 70
     1
102
RTVSPost2010Prop31
280
     0
102
RTVSPost2010PropOp31
 70
     1
102
RTVSPost2010Prop32
280
     0
102
RTVSPost2010PropOp32
 70
     1
102
RTVSPost2010Prop33
280
     0
102
RTVSPost2010PropOp33
 70
     1
102
RTVSPost2010Prop34
280
     0
102
RTVSPost2010PropOp34
 70
     1
102
RTVSPost2010Prop35
280
     0
102
RTVSPost2010PropOp35
 70
     1
102
RTVSPost2010Prop36
280
     0
102
RTVSPost2010PropOp36
 70
     1
102
RTVSPost2010Prop37
 90
       50
102
RTVSPost2010PropOp37
 70
     1
102
RTVSPost2010Prop38
140
0.0
102
RTVSPost2010PropOp38
 70
     1
102
RTVSPost2010Prop39
140
1.0
102
RTVSPost2010PropOp39
 70
     1
102
RTVSPost2010Prop40
 90
        0
102
RTVSPost2010PropOp40
 70
     1
102
RTVSPost2010Prop41ColorIndex
 90
       18
102
RTVSPost2010Prop41ColorRGB
 90
        0
102
RTVSPost2010PropOp41
 70
     1
102
RTVSPost2010Prop42
 90
       50
102
RTVSPost2010PropOp42
 70
     1
102
RTVSPost2010Prop43
 90
        3
102
RTVSPost2010PropOp43
 70
     1
102
RTVSPost2010Prop44ColorIndex
 90
        5
102
RTVSPost2010Prop44ColorRGB
 90
      255
102
RTVSPost2010PropOp44
 70
     1
102
RTVSPost2010Prop45
280
     0
102
RTVSPost2010PropOp45
 70
     1
102
RTVSPost2010Prop46
 90
       50
102
RTVSPost2010PropOp46
 70
     1
102
RTVSPost2010Prop47
 90
       50
102
RTVSPost2010PropOp47
 70
     1
102
RTVSPost2010Prop48
 90
       50
102
RTVSPost2010PropOp48
 70
     1
102
RTVSPost2010Prop49
280
     0
102
RTVSPost2010PropOp49
 70
     1
102
RTVSPost2010Prop50
 90
       50
102
RTVSPost2010PropOp50
 70
     1
102
RTVSPost2010Prop51ColorIndex
 90
      256
102
RTVSPost2010Prop51ColorRGB
 90
-16777216
102
RTVSPost2010PropOp51
 70
     0
102
RTVSPost2010Prop52
140
1.0
102
RTVSPost2010PropOp52
 70
     0
102
RTVSPost2010Prop53
 90
        2
102
RTVSPost2010PropOp53
 70
     1
102
RTVSPost2010Prop54
  1
strokes_ogs.tif
102
RTVSPost2010PropOp54
 70
     1
102
RTVSPost2010Prop55
280
     0
102
RTVSPost2010PropOp55
 70
     1
102
RTVSPost2010Prop56
140
1.0
102
RTVSPost2010PropOp56
 70
     1
102
RTVSPost2010Prop57
140
1.0
102
RTVSPost2010PropOp57
 70
     1
  0
XRECORD
  5
234
102
{ACAD_REACTORS
330
233
102
}
330
233
100
AcDbXrecord
280
     1
102
RTVSPost2010Prop28
280
     0
102
RTVSPost2010PropOp28
 70
     0
102
RTVSPost2010Prop29
280
     1
102
RTVSPost2010PropOp29
 70
     0
102
RTVSPost2010Prop30
280
     1
102
RTVSPost2010PropOp30
 70
     0
102
RTVSPost2010Prop31
280
     0
102
RTVSPost2010PropOp31
 70
     0
102
RTVSPost2010Prop32
280
     0
102
RTVSPost2010PropOp32
 70
     0
102
RTVSPost2010Prop33
280
     0
102
RTVSPost2010PropOp33
 70
     0
102
RTVSPost2010Prop34
280
     0
102
RTVSPost2010PropOp34
 70
     0
102
RTVSPost2010Prop35
280
     0
102
RTVSPost2010PropOp35
 70
     0
102
RTVSPost2010Prop36
280
     0
102
RTVSPost2010PropOp36
 70
     0
102
RTVSPost2010Prop37
 90
       50
102
RTVSPost2010PropOp37
 70
     0
102
RTVSPost2010Prop38
140
0.0
102
RTVSPost2010PropOp38
 70
     0
102
RTVSPost2010Prop39
140
1.0
102
RTVSPost2010PropOp39
 70
     0
102
RTVSPost2010Prop40
 90
        0
102
RTVSPost2010PropOp40
 70
     0
102
RTVSPost2010Prop41ColorIndex
 90
       18
102
RTVSPost2010Prop41ColorRGB
 90
        0
102
RTVSPost2010PropOp41
 70
     0
102
RTVSPost2010Prop42
 90
       50
102
RTVSPost2010PropOp42
 70
     0
102
RTVSPost2010Prop43
 90
        3
102
RTVSPost2010PropOp43
 70
     0
102
RTVSPost2010Prop44ColorIndex
 90
        5
102
RTVSPost2010Prop44ColorRGB
 90
      255
102
RTVSPost2010PropOp44
 70
     0
102
RTVSPost2010Prop45
280
     0
102
RTVSPost2010PropOp45
 70
     0
102
RTVSPost2010Prop46
 90
       50
102
RTVSPost2010PropOp46
 70
     0
102
RTVSPost2010Prop47
 90
       50
102
RTVSPost2010PropOp47
 70
     0
102
RTVSPost2010Prop48
 90
       50
102
RTVSPost2010PropOp48
 70
     0
102
RTVSPost2010Prop49
280
     0
102
RTVSPost2010PropOp49
 70
     0
102
RTVSPost2010Prop50
 90
       50
102
RTVSPost2010PropOp50
 70
     0
102
RTVSPost2010Prop51ColorIndex
 90
      256
102
RTVSPost2010Prop51ColorRGB
 90
-16777216
102
RTVSPost2010PropOp51
 70
     0
102
RTVSPost2010Prop52
140
1.0
102
RTVSPost2010PropOp52
 70
     0
102
RTVSPost2010Prop53
 90
        2
102
RTVSPost2010PropOp53
 70
     0
102
RTVSPost2010Prop54
  1
strokes_ogs.tif
102
RTVSPost2010PropOp54
 70
     0
102
RTVSPost2010Prop55
280
     0
102
RTVSPost2010PropOp55
 70
     0
102
RTVSPost2010Prop56
140
1.0
102
RTVSPost2010PropOp56
 70
     0
102
RTVSPost2010Prop57
140
1.0
102
RTVSPost2010PropOp57
 70
     0
  0
XRECORD
  5
222
102
{ACAD_REACTORS
330
221
102
}
330
221
100
AcDbXrecord
280
     1
102
RTVSPost2010Prop28
280
     0
102
RTVSPost2010PropOp28
 70
     1
102
RTVSPost2010Prop29
280
     1
102
RTVSPost2010PropOp29
 70
     1
102
RTVSPost2010Prop30
280
     1
102
RTVSPost2010PropOp30
 70
     1
102
RTVSPost2010Prop31
280
     0
102
RTVSPost2010PropOp31
 70
     1
102
RTVSPost2010Prop32
280
     0
102
RTVSPost2010PropOp32
 70
     1
102
RTVSPost2010Prop33
280
     0
102
RTVSPost2010PropOp33
 70
     1
102
RTVSPost2010Prop34
280
     0
102
RTVSPost2010PropOp34
 70
     1
102
RTVSPost2010Prop35
280
     0
102
RTVSPost2010PropOp35
 70
     1
102
RTVSPost2010Prop36
280
     0
102
RTVSPost2010PropOp36
 70
     1
102
RTVSPost2010Prop37
 90
       50
102
RTVSPost2010PropOp37
 70
     1
102
RTVSPost2010Prop38
140
0.0
102
RTVSPost2010PropOp38
 70
     1
102
RTVSPost2010Prop39
140
1.0
102
RTVSPost2010PropOp39
 70
     1
102
RTVSPost2010Prop40
 90
        0
102
RTVSPost2010PropOp40
 70
     1
102
RTVSPost2010Prop41ColorIndex
 90
       18
102
RTVSPost2010Prop41ColorRGB
 90
        0
102
RTVSPost2010PropOp41
 70
     1
102
RTVSPost2010Prop42
 90
       50
102
RTVSPost2010PropOp42
 70
     1
102
RTVSPost2010Prop43
 90
        3
102
RTVSPost2010PropOp43
 70
     1
102
RTVSPost2010Prop44ColorIndex
 90
        5
102
RTVSPost2010Prop44ColorRGB
 90
      255
102
RTVSPost2010PropOp44
 70
     1
102
RTVSPost2010Prop45
280
     0
102
RTVSPost2010PropOp45
 70
     1
102
RTVSPost2010Prop46
 90
       50
102
RTVSPost2010PropOp46
 70
     1
102
RTVSPost2010Prop47
 90
       50
102
RTVSPost2010PropOp47
 70
     1
102
RTVSPost2010Prop48
 90
       50
102
RTVSPost2010PropOp48
 70
     1
102
RTVSPost2010Prop49
280
     0
102
RTVSPost2010PropOp49
 70
     1
102
RTVSPost2010Prop50
 90
       50
102
RTVSPost2010PropOp50
 70
     1
102
RTVSPost2010Prop51ColorIndex
 90
      256
102
RTVSPost2010Prop51ColorRGB
 90
-16777216
102
RTVSPost2010PropOp51
 70
     0
102
RTVSPost2010Prop52
140
1.0
102
RTVSPost2010PropOp52
 70
     0
102
RTVSPost2010Prop53
 90
        2
102
RTVSPost2010PropOp53
 70
     1
102
RTVSPost2010Prop54
  1
strokes_ogs.tif
102
RTVSPost2010PropOp54
 70
     1
102
RTVSPost2010Prop55
280
     0
102
RTVSPost2010PropOp55
 70
     1
102
RTVSPost2010Prop56
140
1.0
102
RTVSPost2010PropOp56
 70
     1
102
RTVSPost2010Prop57
140
1.0
102
RTVSPost2010PropOp57
 70
     1
  0
XRECORD
  5
240
102
{ACAD_REACTORS
330
23F
102
}
330
23F
100
AcDbXrecord
280
     1
102
RTVSPost2010Prop28
280
     0
102
RTVSPost2010PropOp28
 70
     1
102
RTVSPost2010Prop29
280
     1
102
RTVSPost2010PropOp29
 70
     1
102
RTVSPost2010Prop30
280
     1
102
RTVSPost2010PropOp30
 70
     1
102
RTVSPost2010Prop31
280
     0
102
RTVSPost2010PropOp31
 70
     1
102
RTVSPost2010Prop32
280
     0
102
RTVSPost2010PropOp32
 70
     1
102
RTVSPost2010Prop33
280
     0
102
RTVSPost2010PropOp33
 70
     1
102
RTVSPost2010Prop34
280
     0
102
RTVSPost2010PropOp34
 70
     1
102
RTVSPost2010Prop35
280
     0
102
RTVSPost2010PropOp35
 70
     1
102
RTVSPost2010Prop36
280
     0
102
RTVSPost2010PropOp36
 70
     1
102
RTVSPost2010Prop37
 90
       50
102
RTVSPost2010PropOp37
 70
     1
102
RTVSPost2010Prop38
140
0.0
102
RTVSPost2010PropOp38
 70
     1
102
RTVSPost2010Prop39
140
1.0
102
RTVSPost2010PropOp39
 70
     1
102
RTVSPost2010Prop40
 90
        0
102
RTVSPost2010PropOp40
 70
     1
102
RTVSPost2010Prop41ColorIndex
 90
       18
102
RTVSPost2010Prop41ColorRGB
 90
        0
102
RTVSPost2010PropOp41
 70
     1
102
RTVSPost2010Prop42
 90
       50
102
RTVSPost2010PropOp42
 70
     1
102
RTVSPost2010Prop43
 90
        3
102
RTVSPost2010PropOp43
 70
     1
102
RTVSPost2010Prop44ColorIndex
 90
        5
102
RTVSPost2010Prop44ColorRGB
 90
      255
102
RTVSPost2010PropOp44
 70
     1
102
RTVSPost2010Prop45
280
     0
102
RTVSPost2010PropOp45
 70
     1
102
RTVSPost2010Prop46
 90
       50
102
RTVSPost2010PropOp46
 70
     1
102
RTVSPost2010Prop47
 90
       50
102
RTVSPost2010PropOp47
 70
     1
102
RTVSPost2010Prop48
 90
       50
102
RTVSPost2010PropOp48
 70
     1
102
RTVSPost2010Prop49
280
     0
102
RTVSPost2010PropOp49
 70
     1
102
RTVSPost2010Prop50
 90
       50
102
RTVSPost2010PropOp50
 70
     1
102
RTVSPost2010Prop51ColorIndex
 90
      256
102
RTVSPost2010Prop51ColorRGB
 90
-16777216
102
RTVSPost2010PropOp51
 70
     0
102
RTVSPost2010Prop52
140
1.0
102
RTVSPost2010PropOp52
 70
     0
102
RTVSPost2010Prop53
 90
        2
102
RTVSPost2010PropOp53
 70
     1
102
RTVSPost2010Prop54
  1
strokes_ogs.tif
102
RTVSPost2010PropOp54
 70
     1
102
RTVSPost2010Prop55
280
     0
102
RTVSPost2010PropOp55
 70
     1
102
RTVSPost2010Prop56
140
1.0
102
RTVSPost2010PropOp56
 70
     1
102
RTVSPost2010Prop57
140
1.0
102
RTVSPost2010PropOp57
 70
     1
  0
XRECORD
  5
23E
102
{ACAD_REACTORS
330
23D
102
}
330
23D
100
AcDbXrecord
280
     1
102
RTVSPost2010Prop28
280
     0
102
RTVSPost2010PropOp28
 70
     1
102
RTVSPost2010Prop29
280
     1
102
RTVSPost2010PropOp29
 70
     1
102
RTVSPost2010Prop30
280
     1
102
RTVSPost2010PropOp30
 70
     1
102
RTVSPost2010Prop31
280
     0
102
RTVSPost2010PropOp31
 70
     1
102
RTVSPost2010Prop32
280
     0
102
RTVSPost2010PropOp32
 70
     1
102
RTVSPost2010Prop33
280
     0
102
RTVSPost2010PropOp33
 70
     1
102
RTVSPost2010Prop34
280
     0
102
RTVSPost2010PropOp34
 70
     1
102
RTVSPost2010Prop35
280
     0
102
RTVSPost2010PropOp35
 70
     1
102
RTVSPost2010Prop36
280
     0
102
RTVSPost2010PropOp36
 70
     1
102
RTVSPost2010Prop37
 90
       50
102
RTVSPost2010PropOp37
 70
     1
102
RTVSPost2010Prop38
140
0.0
102
RTVSPost2010PropOp38
 70
     1
102
RTVSPost2010Prop39
140
1.0
102
RTVSPost2010PropOp39
 70
     1
102
RTVSPost2010Prop40
 90
        0
102
RTVSPost2010PropOp40
 70
     1
102
RTVSPost2010Prop41ColorIndex
 90
       18
102
RTVSPost2010Prop41ColorRGB
 90
        0
102
RTVSPost2010PropOp41
 70
     1
102
RTVSPost2010Prop42
 90
       50
102
RTVSPost2010PropOp42
 70
     1
102
RTVSPost2010Prop43
 90
        3
102
RTVSPost2010PropOp43
 70
     1
102
RTVSPost2010Prop44ColorIndex
 90
        5
102
RTVSPost2010Prop44ColorRGB
 90
      255
102
RTVSPost2010PropOp44
 70
     1
102
RTVSPost2010Prop45
280
     0
102
RTVSPost2010PropOp45
 70
     1
102
RTVSPost2010Prop46
 90
       50
102
RTVSPost2010PropOp46
 70
     1
102
RTVSPost2010Prop47
 90
       50
102
RTVSPost2010PropOp47
 70
     1
102
RTVSPost2010Prop48
 90
       50
102
RTVSPost2010PropOp48
 70
     1
102
RTVSPost2010Prop49
280
     0
102
RTVSPost2010PropOp49
 70
     1
102
RTVSPost2010Prop50
 90
       50
102
RTVSPost2010PropOp50
 70
     1
102
RTVSPost2010Prop51ColorIndex
 90
      256
102
RTVSPost2010Prop51ColorRGB
 90
-16777216
102
RTVSPost2010PropOp51
 70
     0
102
RTVSPost2010Prop52
140
1.0
102
RTVSPost2010PropOp52
 70
     0
102
RTVSPost2010Prop53
 90
        2
102
RTVSPost2010PropOp53
 70
     1
102
RTVSPost2010Prop54
  1
strokes_ogs.tif
102
RTVSPost2010PropOp54
 70
     1
102
RTVSPost2010Prop55
280
     0
102
RTVSPost2010PropOp55
 70
     1
102
RTVSPost2010Prop56
140
1.0
102
RTVSPost2010PropOp56
 70
     1
102
RTVSPost2010Prop57
140
1.0
102
RTVSPost2010PropOp57
 70
     1
  0
XRECORD
  5
238
102
{ACAD_REACTORS
330
237
102
}
330
237
100
AcDbXrecord
280
     1
102
RTVSPost2010Prop28
280
     0
102
RTVSPost2010PropOp28
 70
     1
102
RTVSPost2010Prop29
280
     1
102
RTVSPost2010PropOp29
 70
     1
102
RTVSPost2010Prop30
280
     1
102
RTVSPost2010PropOp30
 70
     1
102
RTVSPost2010Prop31
280
     0
102
RTVSPost2010PropOp31
 70
     1
102
RTVSPost2010Prop32
280
     0
102
RTVSPost2010PropOp32
 70
     1
102
RTVSPost2010Prop33
280
     0
102
RTVSPost2010PropOp33
 70
     1
102
RTVSPost2010Prop34
280
     0
102
RTVSPost2010PropOp34
 70
     1
102
RTVSPost2010Prop35
280
     0
102
RTVSPost2010PropOp35
 70
     1
102
RTVSPost2010Prop36
280
     0
102
RTVSPost2010PropOp36
 70
     1
102
RTVSPost2010Prop37
 90
       50
102
RTVSPost2010PropOp37
 70
     1
102
RTVSPost2010Prop38
140
0.0
102
RTVSPost2010PropOp38
 70
     1
102
RTVSPost2010Prop39
140
1.0
102
RTVSPost2010PropOp39
 70
     1
102
RTVSPost2010Prop40
 90
        0
102
RTVSPost2010PropOp40
 70
     1
102
RTVSPost2010Prop41ColorIndex
 90
       18
102
RTVSPost2010Prop41ColorRGB
 90
        0
102
RTVSPost2010PropOp41
 70
     1
102
RTVSPost2010Prop42
 90
       50
102
RTVSPost2010PropOp42
 70
     1
102
RTVSPost2010Prop43
 90
        3
102
RTVSPost2010PropOp43
 70
     1
102
RTVSPost2010Prop44ColorIndex
 90
        5
102
RTVSPost2010Prop44ColorRGB
 90
      255
102
RTVSPost2010PropOp44
 70
     1
102
RTVSPost2010Prop45
280
     0
102
RTVSPost2010PropOp45
 70
     1
102
RTVSPost2010Prop46
 90
       50
102
RTVSPost2010PropOp46
 70
     1
102
RTVSPost2010Prop47
 90
       50
102
RTVSPost2010PropOp47
 70
     1
102
RTVSPost2010Prop48
 90
       50
102
RTVSPost2010PropOp48
 70
     1
102
RTVSPost2010Prop49
280
     0
102
RTVSPost2010PropOp49
 70
     1
102
RTVSPost2010Prop50
 90
       50
102
RTVSPost2010PropOp50
 70
     1
102
RTVSPost2010Prop51ColorIndex
 90
      256
102
RTVSPost2010Prop51ColorRGB
 90
-16777216
102
RTVSPost2010PropOp51
 70
     0
102
RTVSPost2010Prop52
140
1.0
102
RTVSPost2010PropOp52
 70
     0
102
RTVSPost2010Prop53
 90
        2
102
RTVSPost2010PropOp53
 70
     1
102
RTVSPost2010Prop54
  1
strokes_ogs.tif
102
RTVSPost2010PropOp54
 70
     1
102
RTVSPost2010Prop55
280
     0
102
RTVSPost2010PropOp55
 70
     1
102
RTVSPost2010Prop56
140
1.0
102
RTVSPost2010PropOp56
 70
     1
102
RTVSPost2010Prop57
140
1.0
102
RTVSPost2010PropOp57
 70
     1
  0
XRECORD
  5
23A
102
{ACAD_REACTORS
330
239
102
}
330
239
100
AcDbXrecord
280
     1
102
RTVSPost2010Prop28
280
     0
102
RTVSPost2010PropOp28
 70
     1
102
RTVSPost2010Prop29
280
     1
102
RTVSPost2010PropOp29
 70
     1
102
RTVSPost2010Prop30
280
     1
102
RTVSPost2010PropOp30
 70
     1
102
RTVSPost2010Prop31
280
     0
102
RTVSPost2010PropOp31
 70
     1
102
RTVSPost2010Prop32
280
     0
102
RTVSPost2010PropOp32
 70
     1
102
RTVSPost2010Prop33
280
     0
102
RTVSPost2010PropOp33
 70
     1
102
RTVSPost2010Prop34
280
     0
102
RTVSPost2010PropOp34
 70
     1
102
RTVSPost2010Prop35
280
     0
102
RTVSPost2010PropOp35
 70
     1
102
RTVSPost2010Prop36
280
     0
102
RTVSPost2010PropOp36
 70
     1
102
RTVSPost2010Prop37
 90
       50
102
RTVSPost2010PropOp37
 70
     1
102
RTVSPost2010Prop38
140
0.0
102
RTVSPost2010PropOp38
 70
     1
102
RTVSPost2010Prop39
140
1.0
102
RTVSPost2010PropOp39
 70
     1
102
RTVSPost2010Prop40
 90
        0
102
RTVSPost2010PropOp40
 70
     1
102
RTVSPost2010Prop41ColorIndex
 90
       18
102
RTVSPost2010Prop41ColorRGB
 90
        0
102
RTVSPost2010PropOp41
 70
     1
102
RTVSPost2010Prop42
 90
       50
102
RTVSPost2010PropOp42
 70
     1
102
RTVSPost2010Prop43
 90
        3
102
RTVSPost2010PropOp43
 70
     1
102
RTVSPost2010Prop44ColorIndex
 90
        5
102
RTVSPost2010Prop44ColorRGB
 90
      255
102
RTVSPost2010PropOp44
 70
     1
102
RTVSPost2010Prop45
280
     0
102
RTVSPost2010PropOp45
 70
     1
102
RTVSPost2010Prop46
 90
       50
102
RTVSPost2010PropOp46
 70
     1
102
RTVSPost2010Prop47
 90
       50
102
RTVSPost2010PropOp47
 70
     1
102
RTVSPost2010Prop48
 90
       50
102
RTVSPost2010PropOp48
 70
     1
102
RTVSPost2010Prop49
280
     0
102
RTVSPost2010PropOp49
 70
     1
102
RTVSPost2010Prop50
 90
       50
102
RTVSPost2010PropOp50
 70
     1
102
RTVSPost2010Prop51ColorIndex
 90
      256
102
RTVSPost2010Prop51ColorRGB
 90
-16777216
102
RTVSPost2010PropOp51
 70
     0
102
RTVSPost2010Prop52
140
1.0
102
RTVSPost2010PropOp52
 70
     0
102
RTVSPost2010Prop53
 90
        2
102
RTVSPost2010PropOp53
 70
     1
102
RTVSPost2010Prop54
  1
strokes_ogs.tif
102
RTVSPost2010PropOp54
 70
     1
102
RTVSPost2010Prop55
280
     0
102
RTVSPost2010PropOp55
 70
     1
102
RTVSPost2010Prop56
140
1.0
102
RTVSPost2010PropOp56
 70
     1
102
RTVSPost2010Prop57
140
1.0
102
RTVSPost2010PropOp57
 70
     1
  0
XRECORD
  5
22A
102
{ACAD_REACTORS
330
229
102
}
330
229
100
AcDbXrecord
280
     1
102
RTVSPost2010Prop28
280
     0
102
RTVSPost2010PropOp28
 70
     1
102
RTVSPost2010Prop29
280
     1
102
RTVSPost2010PropOp29
 70
     1
102
RTVSPost2010Prop30
280
     1
102
RTVSPost2010PropOp30
 70
     1
102
RTVSPost2010Prop31
280
     0
102
RTVSPost2010PropOp31
 70
     1
102
RTVSPost2010Prop32
280
     0
102
RTVSPost2010PropOp32
 70
     1
102
RTVSPost2010Prop33
280
     0
102
RTVSPost2010PropOp33
 70
     1
102
RTVSPost2010Prop34
280
     0
102
RTVSPost2010PropOp34
 70
     1
102
RTVSPost2010Prop35
280
     0
102
RTVSPost2010PropOp35
 70
     1
102
RTVSPost2010Prop36
280
     0
102
RTVSPost2010PropOp36
 70
     1
102
RTVSPost2010Prop37
 90
       50
102
RTVSPost2010PropOp37
 70
     1
102
RTVSPost2010Prop38
140
0.0
102
RTVSPost2010PropOp38
 70
     1
102
RTVSPost2010Prop39
140
1.0
102
RTVSPost2010PropOp39
 70
     1
102
RTVSPost2010Prop40
 90
        0
102
RTVSPost2010PropOp40
 70
     1
102
RTVSPost2010Prop41ColorIndex
 90
       18
102
RTVSPost2010Prop41ColorRGB
 90
        0
102
RTVSPost2010PropOp41
 70
     1
102
RTVSPost2010Prop42
 90
       50
102
RTVSPost2010PropOp42
 70
     1
102
RTVSPost2010Prop43
 90
        3
102
RTVSPost2010PropOp43
 70
     1
102
RTVSPost2010Prop44ColorIndex
 90
        5
102
RTVSPost2010Prop44ColorRGB
 90
      255
102
RTVSPost2010PropOp44
 70
     1
102
RTVSPost2010Prop45
280
     0
102
RTVSPost2010PropOp45
 70
     1
102
RTVSPost2010Prop46
 90
       50
102
RTVSPost2010PropOp46
 70
     1
102
RTVSPost2010Prop47
 90
       50
102
RTVSPost2010PropOp47
 70
     1
102
RTVSPost2010Prop48
 90
       50
102
RTVSPost2010PropOp48
 70
     1
102
RTVSPost2010Prop49
280
     0
102
RTVSPost2010PropOp49
 70
     1
102
RTVSPost2010Prop50
 90
       50
102
RTVSPost2010PropOp50
 70
     1
102
RTVSPost2010Prop51ColorIndex
 90
      256
102
RTVSPost2010Prop51ColorRGB
 90
-16777216
102
RTVSPost2010PropOp51
 70
     0
102
RTVSPost2010Prop52
140
1.0
102
RTVSPost2010PropOp52
 70
     0
102
RTVSPost2010Prop53
 90
        2
102
RTVSPost2010PropOp53
 70
     1
102
RTVSPost2010Prop54
  1
strokes_ogs.tif
102
RTVSPost2010PropOp54
 70
     1
102
RTVSPost2010Prop55
280
     0
102
RTVSPost2010PropOp55
 70
     1
102
RTVSPost2010Prop56
140
1.0
102
RTVSPost2010PropOp56
 70
     1
102
RTVSPost2010Prop57
140
1.0
102
RTVSPost2010PropOp57
 70
     1
  0
XRECORD
  5
21C
102
{ACAD_REACTORS
330
21B
102
}
330
21B
100
AcDbXrecord
280
     1
102
RTVSPost2010Prop28
280
     0
102
RTVSPost2010PropOp28
 70
     1
102
RTVSPost2010Prop29
280
     1
102
RTVSPost2010PropOp29
 70
     1
102
RTVSPost2010Prop30
280
     1
102
RTVSPost2010PropOp30
 70
     1
102
RTVSPost2010Prop31
280
     0
102
RTVSPost2010PropOp31
 70
     1
102
RTVSPost2010Prop32
280
     0
102
RTVSPost2010PropOp32
 70
     1
102
RTVSPost2010Prop33
280
     0
102
RTVSPost2010PropOp33
 70
     1
102
RTVSPost2010Prop34
280
     0
102
RTVSPost2010PropOp34
 70
     1
102
RTVSPost2010Prop35
280
     0
102
RTVSPost2010PropOp35
 70
     1
102
RTVSPost2010Prop36
280
     0
102
RTVSPost2010PropOp36
 70
     1
102
RTVSPost2010Prop37
 90
       50
102
RTVSPost2010PropOp37
 70
     1
102
RTVSPost2010Prop38
140
0.0
102
RTVSPost2010PropOp38
 70
     1
102
RTVSPost2010Prop39
140
1.0
102
RTVSPost2010PropOp39
 70
     1
102
RTVSPost2010Prop40
 90
        0
102
RTVSPost2010PropOp40
 70
     1
102
RTVSPost2010Prop41ColorIndex
 90
       18
102
RTVSPost2010Prop41ColorRGB
 90
        0
102
RTVSPost2010PropOp41
 70
     1
102
RTVSPost2010Prop42
 90
       50
102
RTVSPost2010PropOp42
 70
     1
102
RTVSPost2010Prop43
 90
        3
102
RTVSPost2010PropOp43
 70
     1
102
RTVSPost2010Prop44ColorIndex
 90
        5
102
RTVSPost2010Prop44ColorRGB
 90
      255
102
RTVSPost2010PropOp44
 70
     1
102
RTVSPost2010Prop45
280
     0
102
RTVSPost2010PropOp45
 70
     1
102
RTVSPost2010Prop46
 90
       50
102
RTVSPost2010PropOp46
 70
     1
102
RTVSPost2010Prop47
 90
       50
102
RTVSPost2010PropOp47
 70
     1
102
RTVSPost2010Prop48
 90
       50
102
RTVSPost2010PropOp48
 70
     1
102
RTVSPost2010Prop49
280
     0
102
RTVSPost2010PropOp49
 70
     1
102
RTVSPost2010Prop50
 90
       50
102
RTVSPost2010PropOp50
 70
     1
102
RTVSPost2010Prop51ColorIndex
 90
      256
102
RTVSPost2010Prop51ColorRGB
 90
-16777216
102
RTVSPost2010PropOp51
 70
     0
102
RTVSPost2010Prop52
140
1.0
102
RTVSPost2010PropOp52
 70
     0
102
RTVSPost2010Prop53
 90
        2
102
RTVSPost2010PropOp53
 70
     1
102
RTVSPost2010Prop54
  1
strokes_ogs.tif
102
RTVSPost2010PropOp54
 70
     1
102
RTVSPost2010Prop55
280
     0
102
RTVSPost2010PropOp55
 70
     1
102
RTVSPost2010Prop56
140
1.0
102
RTVSPost2010PropOp56
 70
     1
102
RTVSPost2010Prop57
140
1.0
102
RTVSPost2010PropOp57
 70
     1
  0
XRECORD
  5
23C
102
{ACAD_REACTORS
330
23B
102
}
330
23B
100
AcDbXrecord
280
     1
102
RTVSPost2010Prop28
280
     0
102
RTVSPost2010PropOp28
 70
     1
102
RTVSPost2010Prop29
280
     1
102
RTVSPost2010PropOp29
 70
     1
102
RTVSPost2010Prop30
280
     1
102
RTVSPost2010PropOp30
 70
     1
102
RTVSPost2010Prop31
280
     0
102
RTVSPost2010PropOp31
 70
     1
102
RTVSPost2010Prop32
280
     0
102
RTVSPost2010PropOp32
 70
     1
102
RTVSPost2010Prop33
280
     0
102
RTVSPost2010PropOp33
 70
     1
102
RTVSPost2010Prop34
280
     0
102
RTVSPost2010PropOp34
 70
     1
102
RTVSPost2010Prop35
280
     0
102
RTVSPost2010PropOp35
 70
     1
102
RTVSPost2010Prop36
280
     0
102
RTVSPost2010PropOp36
 70
     1
102
RTVSPost2010Prop37
 90
       50
102
RTVSPost2010PropOp37
 70
     1
102
RTVSPost2010Prop38
140
0.0
102
RTVSPost2010PropOp38
 70
     1
102
RTVSPost2010Prop39
140
1.0
102
RTVSPost2010PropOp39
 70
     1
102
RTVSPost2010Prop40
 90
        0
102
RTVSPost2010PropOp40
 70
     1
102
RTVSPost2010Prop41ColorIndex
 90
       18
102
RTVSPost2010Prop41ColorRGB
 90
        0
102
RTVSPost2010PropOp41
 70
     1
102
RTVSPost2010Prop42
 90
       50
102
RTVSPost2010PropOp42
 70
     1
102
RTVSPost2010Prop43
 90
        3
102
RTVSPost2010PropOp43
 70
     1
102
RTVSPost2010Prop44ColorIndex
 90
        5
102
RTVSPost2010Prop44ColorRGB
 90
      255
102
RTVSPost2010PropOp44
 70
     1
102
RTVSPost2010Prop45
280
     0
102
RTVSPost2010PropOp45
 70
     1
102
RTVSPost2010Prop46
 90
       50
102
RTVSPost2010PropOp46
 70
     1
102
RTVSPost2010Prop47
 90
       50
102
RTVSPost2010PropOp47
 70
     1
102
RTVSPost2010Prop48
 90
       50
102
RTVSPost2010PropOp48
 70
     1
102
RTVSPost2010Prop49
280
     0
102
RTVSPost2010PropOp49
 70
     1
102
RTVSPost2010Prop50
 90
       50
102
RTVSPost2010PropOp50
 70
     1
102
RTVSPost2010Prop51ColorIndex
 90
      256
102
RTVSPost2010Prop51ColorRGB
 90
-16777216
102
RTVSPost2010PropOp51
 70
     0
102
RTVSPost2010Prop52
140
1.0
102
RTVSPost2010PropOp52
 70
     0
102
RTVSPost2010Prop53
 90
        2
102
RTVSPost2010PropOp53
 70
     1
102
RTVSPost2010Prop54
  1
strokes_ogs.tif
102
RTVSPost2010PropOp54
 70
     1
102
RTVSPost2010Prop55
280
     0
102
RTVSPost2010PropOp55
 70
     1
102
RTVSPost2010Prop56
140
1.0
102
RTVSPost2010PropOp56
 70
     1
102
RTVSPost2010Prop57
140
1.0
102
RTVSPost2010PropOp57
 70
     1
  0
ENDSEC
  0
EOF
